osu file format v14

[General]
AudioFilename: audio.mp3
AudioLeadIn: 0
PreviewTime: 53546
Countdown: 0
SampleSet: Soft
StackLeniency: 0.7
Mode: 0
LetterboxInBreaks: 0
WidescreenStoryboard: 1

[Editor]
DistanceSpacing: 0.7
BeatDivisor: 4
GridSize: 32
TimelineZoom: 1.5

[Metadata]
Title:Kira Kira Days
TitleUnicode:キラキラ Days
Artist:HO-KAGO TEA TIME
ArtistUnicode:放課後ティータイム
Creator:N1czt3r
Version:Ureshii
Source:けいおん!!
Tags:k-on anime japanese alfarai azrael
BeatmapID:1732171
BeatmapSetID:826541

[Difficulty]
HPDrainRate:6
CircleSize:4
OverallDifficulty:9
ApproachRate:9.5
SliderMultiplier:2
SliderTickRate:1

[Events]
//Background and Video events
0,0,"thumb-1920-217675.jpg",0,0
//Break Periods
//Storyboard Layer 0 (Background)
//Storyboard Layer 1 (Fail)
//Storyboard Layer 2 (Pass)
//Storyboard Layer 3 (Foreground)
//Storyboard Sound Samples

[TimingPoints]
-454,300,4,2,2,75,1,0
9296,-133.333333333333,4,2,2,35,0,0
10046,-100,4,2,2,75,0,0
10271,-100,4,2,2,5,0,0
10346,-100,4,2,2,75,0,0
39146,-133.333333333333,4,2,2,55,0,0
42746,-100,4,2,2,75,0,0
43946,-133.333333333333,4,2,2,55,0,0
46346,-100,4,2,2,75,0,0
52421,-100,4,2,2,5,0,0
52496,-100,4,2,2,75,0,0
53246,-133.333333333333,4,2,2,35,0,0
53546,-83.3333333333333,4,2,2,85,0,1
62996,-83.3333333333333,4,2,2,85,0,0
63146,-83.3333333333333,4,2,2,85,0,1
79946,-100,4,2,2,75,0,0
82271,-100,4,2,2,5,0,0
82346,-100,4,2,2,75,0,0
88496,-100,4,2,2,45,0,0
91946,-100,4,2,2,5,0,0

[Colours]
Combo1 : 60,255,108
Combo2 : 255,194,166
Combo3 : 64,159,255
Combo4 : 255,70,70

[HitObjects]
164,353,446,5,8,0:0:0:0:
164,353,746,6,0,L|165:248,1,100,4|0,0:0|0:0,0:0:0:0:
343,188,1046,1,8,0:0:0:0:
245,305,1196,1,0,0:0:0:0:
140,148,1346,2,0,P|92:132|26:157,1,100
87,262,1646,1,8,0:0:0:0:
183,74,1796,6,0,P|250:27|344:91,1,200
328,271,2246,1,8,0:0:0:0:
262,123,2396,1,0,0:0:0:0:
434,156,2546,1,0,0:0:0:0:
242,235,2696,1,8,0:0:0:0:
488,156,2846,2,0,B|509:234|509:234|486:311,1,150,8|0,0:0|0:0,0:0:0:0:
398,357,3146,6,0,P|346:368|284:354,1,100,4|0,0:0|0:0,0:0:0:0:
249,166,3446,1,8,0:0:0:0:
347,287,3596,1,0,0:0:0:0:
488,156,3746,2,0,P|495:99|462:51,1,100
372,214,4046,1,8,0:0:0:0:
167,33,4196,6,0,B|115:99|115:99|158:220,1,200
372,214,4646,1,8,0:0:0:0:
220,115,4796,1,0,0:0:0:0:
411,220,4946,1,0,0:0:0:0:
181,278,5096,1,8,0:0:0:0:
329,102,5246,1,8,0:0:0:0:
370,319,5396,1,0,0:0:0:0:
105,322,5546,6,0,P|94:264|109:214,1,100,4|0,0:0|0:0,0:0:0:0:
311,179,5846,1,8,0:0:0:0:
181,278,5996,1,0,0:0:0:0:
144,74,6146,2,0,P|206:60|248:84,1,100
191,186,6446,1,8,0:0:0:0:
350,314,6596,6,0,P|397:272|361:147,1,200
192,150,7046,1,8,0:0:0:0:
317,229,7196,1,0,0:0:0:0:
358,65,7346,1,0,0:0:0:0:
191,186,7496,1,8,0:0:0:0:
357,22,7646,2,0,P|408:12|461:29,1,100,8|0,0:0|0:0,0:0:0:0:
449,328,7946,5,4,0:0:0:0:
402,118,8096,1,0,0:0:0:0:
402,118,8246,1,8,0:0:0:0:
206,311,8396,5,4,0:0:0:0:
297,97,8546,1,0,0:0:0:0:
297,97,8696,1,0,0:0:0:0:
342,288,8846,5,12,0:0:0:0:
118,156,8996,1,0,0:0:0:0:
350,43,9146,1,12,0:0:0:0:
192,155,9296,6,0,L|110:156,2,75.0000028610231
331,210,9746,2,0,L|413:211,1,75.0000028610231
226,60,10046,2,0,L|40:56,1,150,8|0,0:0|0:0,0:0:0:0:
20,112,10346,5,0,0:0:0:0:
66,270,10496,1,0,0:0:0:0:
66,270,10646,2,0,P|121:284|170:270,1,100,8|0,0:0|0:0,0:0:0:0:
255,105,10946,2,0,P|171:106|124:220,1,200,0|8,0:0|0:0,0:0:0:0:
247,241,11396,1,0,0:0:0:0:
375,166,11546,6,0,P|392:106|375:70,1,100
220,239,11846,2,0,P|205:285|222:331,1,100,8|0,0:0|0:0,0:0:0:0:
438,339,12146,1,0,0:0:0:0:
307,281,12296,1,0,0:0:0:0:
434,206,12446,1,8,0:0:0:0:
280,282,12596,1,0,0:0:0:0:
268,104,12746,6,0,P|323:91|367:109,1,100
219,238,13046,2,0,P|172:253|124:239,1,100,8|0,0:0|0:0,0:0:0:0:
71,43,13346,1,0,0:0:0:0:
174,164,13496,1,0,0:0:0:0:
0,207,13646,1,8,0:0:0:0:
171,80,13796,6,0,L|286:76,1,100
319,242,14096,2,0,L|204:238,1,100,0|8,0:0|0:0,0:0:0:0:
93,139,14396,1,0,0:0:0:0:
161,326,14546,2,0,L|276:322,1,100
325,153,14846,1,8,0:0:0:0:
219,238,14996,1,0,0:0:0:0:
359,305,15146,5,4,0:0:0:0:
225,156,15296,1,0,0:0:0:0:
225,156,15446,2,0,L|118:152,1,100,8|0,0:0|0:0,0:0:0:0:
38,233,15746,2,0,P|2:197|58:60,1,200,0|8,0:0|0:0,0:0:0:0:
125,152,16196,1,0,0:0:0:0:
196,9,16346,5,0,0:0:0:0:
69,151,16496,1,0,0:0:0:0:
204,259,16646,2,0,P|214:320|186:371,1,100,8|0,0:0|0:0,0:0:0:0:
86,297,16946,1,0,0:0:0:0:
250,185,17096,2,0,L|356:187,1,100
165,114,17396,1,0,0:0:0:0:
295,271,17546,6,0,L|401:273,1,100
484,79,17846,2,0,L|378:81,1,100,8|0,0:0|0:0,0:0:0:0:
250,185,18146,1,0,0:0:0:0:
422,168,18296,1,0,0:0:0:0:
326,7,18446,1,8,0:0:0:0:
454,170,18596,6,0,P|462:233|442:276,1,100
232,330,18896,2,0,P|217:282|227:234,1,100,0|8,0:0|0:0,0:0:0:0:
365,139,19196,1,0,0:0:0:0:
196,16,19346,2,0,L|80:14,1,100
22,216,19646,1,8,0:0:0:0:
146,113,19796,1,0,0:0:0:0:
240,259,19946,6,0,P|302:270|347:247,1,100,4|0,0:0|0:0,0:0:0:0:
413,79,20246,1,8,0:0:0:0:
287,188,20396,1,0,0:0:0:0:
192,52,20546,2,0,P|144:37|97:49,1,100
18,252,20846,1,8,0:0:0:0:
146,113,20996,1,0,0:0:0:0:
257,271,21146,6,0,P|185:343|94:312,1,200,4|8,0:0|0:0,0:0:0:0:
61,137,21596,1,0,0:0:0:0:
169,259,21746,1,0,0:0:0:0:
169,259,21896,1,0,0:0:0:0:
238,93,22046,1,8,0:0:0:0:
93,205,22196,1,0,0:0:0:0:
257,269,22346,6,0,P|322:273|369:244,1,100,4|0,0:0|0:0,0:0:0:0:
395,51,22646,1,8,0:0:0:0:
296,184,22796,1,0,0:0:0:0:
158,64,22946,2,0,P|111:46|62:54,1,100
0,306,23246,1,8,0:0:0:0:
100,147,23396,1,0,0:0:0:0:
213,360,23546,5,4,0:0:0:0:
39,219,23696,1,0,0:0:0:0:
39,219,23846,1,8,0:0:0:0:
350,174,23996,5,4,0:0:0:0:
137,296,24146,1,0,0:0:0:0:
137,296,24296,1,0,0:0:0:0:
150,66,24446,5,12,0:0:0:0:
247,329,24596,1,0,0:0:0:0:
439,148,24746,5,4,0:0:0:0:
326,291,24896,1,0,0:0:0:0:
326,291,25046,2,0,P|311:244|326:184,1,100,8|0,0:0|0:0,0:0:0:0:
433,70,25346,2,0,B|343:33|343:33|238:54,1,200,0|8,0:0|0:0,0:0:0:0:
193,212,25796,1,0,0:0:0:0:
28,127,25946,6,0,P|14:68|36:29,1,100
193,212,26246,2,0,P|210:257|195:304,1,100,8|0,0:0|0:0,0:0:0:0:
16,335,26546,1,0,0:0:0:0:
117,262,26696,1,0,0:0:0:0:
232,384,26846,1,8,0:0:0:0:
108,347,26996,1,0,0:0:0:0:
239,235,27146,6,0,L|348:236,1,100
140,110,27446,2,0,L|31:111,1,100,8|0,0:0|0:0,0:0:0:0:
2,327,27746,1,0,0:0:0:0:
140,233,27896,1,0,0:0:0:0:
90,31,28046,1,8,0:0:0:0:
261,175,28196,6,0,P|320:188|369:149,1,100
180,303,28496,2,0,P|121:316|72:277,1,100,0|8,0:0|0:0,0:0:0:0:
12,81,28796,1,0,0:0:0:0:
140,192,28946,1,0,0:0:0:0:
190,30,29096,1,0,0:0:0:0:
56,157,29246,1,8,0:0:0:0:
230,214,29396,1,0,0:0:0:0:
92,52,29546,5,4,0:0:0:0:
298,170,29696,2,0,P|311:223|293:267,1,100,0|8,0:0|0:0,0:0:0:0:
128,344,29996,1,0,0:0:0:0:
234,218,30146,1,0,0:0:0:0:
234,218,30296,1,0,0:0:0:0:
301,366,30446,1,8,0:0:0:0:
135,250,30596,1,0,0:0:0:0:
301,366,30746,6,0,L|413:358,1,100
298,170,31046,1,8,0:0:0:0:
200,295,31196,2,0,L|88:287,1,100
35,84,31496,1,0,0:0:0:0:
171,185,31646,1,8,0:0:0:0:
13,249,31796,1,0,0:0:0:0:
120,74,31946,6,0,P|172:59|228:83,1,100
226,298,32246,2,0,P|187:260|179:199,1,100,8|0,0:0|0:0,0:0:0:0:
362,78,32546,1,0,0:0:0:0:
270,219,32696,1,0,0:0:0:0:
437,244,32846,1,8,0:0:0:0:
226,136,32996,6,0,P|189:169|177:216,1,100
353,338,33296,1,0,0:0:0:0:
270,219,33446,1,8,0:0:0:0:
215,381,33596,1,0,0:0:0:0:
380,251,33746,1,0,0:0:0:0:
380,251,33896,1,0,0:0:0:0:
177,216,34046,1,8,0:0:0:0:
293,383,34196,1,0,0:0:0:0:
227,146,34346,6,0,P|176:133|124:149,1,100,4|0,0:0|0:0,0:0:0:0:
61,339,34646,1,8,0:0:0:0:
177,216,34796,1,0,0:0:0:0:
29,97,34946,2,0,P|12:151|28:199,1,100
198,296,35246,1,8,0:0:0:0:
99,148,35396,1,0,0:0:0:0:
198,329,35546,6,0,B|306:355|306:355|384:303,1,200,4|8,0:0|0:0,0:0:0:0:
348,99,35996,1,0,0:0:0:0:
285,266,36146,1,0,0:0:0:0:
285,266,36296,1,0,0:0:0:0:
462,242,36446,1,8,0:0:0:0:
254,157,36596,1,0,0:0:0:0:
418,42,36746,6,0,P|442:96|425:144,1,100,4|0,0:0|0:0,0:0:0:0:
216,227,37046,1,8,0:0:0:0:
348,99,37196,1,0,0:0:0:0:
187,17,37346,2,0,P|110:12|43:21,1,100
0,229,37646,1,8,0:0:0:0:
127,96,37796,1,0,0:0:0:0:
144,357,37946,5,4,0:0:0:0:
49,141,38096,1,0,0:0:0:0:
49,141,38246,1,8,0:0:0:0:
260,318,38396,5,4,0:0:0:0:
312,109,38546,1,0,0:0:0:0:
99,212,38696,5,0,0:0:0:0:
366,228,38846,1,12,0:0:0:0:
239,5,38996,1,0,0:0:0:0:
308,287,39146,6,0,P|368:312|441:262,1,150.000005722046,4|0,0:0|0:0,0:0:0:0:
360,154,39596,1,2,0:0:0:0:
246,227,39746,1,0,0:0:0:0:
246,227,39896,2,0,P|189:230|155:210,1,75.0000028610231,0|8,0:0|0:0,0:0:0:0:
118,51,40196,1,0,0:0:0:0:
118,51,40346,6,0,P|187:55|212:149,1,150.000005722046,4|0,0:0|0:0,0:0:0:0:
127,149,40796,1,2,0:0:0:0:
184,251,40946,2,0,P|191:287|171:333,1,75.0000028610231
43,183,41246,2,0,P|31:147|38:111,1,75.0000028610231,8|0,0:0|0:0,0:0:0:0:
172,150,41546,6,0,L|260:149,1,75.0000028610231,4|0,0:0|0:0,0:0:0:0:
339,249,41846,2,0,L|251:248,1,75.0000028610231,0|2,0:0|0:0,0:0:0:0:
285,78,42146,1,0,0:0:0:0:
366,176,42296,1,0,0:0:0:0:
437,44,42446,2,0,P|407:34|347:46,1,75.0000028610231,8|0,0:0|0:0,0:0:0:0:
264,248,42746,5,4,0:0:0:0:
158,101,42896,2,0,P|203:46|263:41,1,100,0|8,0:0|0:0,0:0:0:0:
191,217,43196,2,0,B|99:257|108:169|-4:208,1,200,4|0,0:0|0:0,0:0:0:0:
38,304,43646,1,8,0:0:0:0:
160,147,43796,1,0,0:0:0:0:
160,147,43871,1,0,0:0:0:0:
160,147,43946,6,0,B|207:126|207:126|315:145,1,150.000005722046,4|0,0:0|0:0,0:0:0:0:
333,262,44396,1,2,0:0:0:0:
437,188,44546,1,0,0:0:0:0:
332,288,44696,1,0,0:0:0:0:
398,125,44846,2,0,P|437:114|489:138,1,75.0000028610231,8|0,0:0|0:0,0:0:0:0:
321,42,45146,6,0,P|262:10|169:31,1,150.000005722046
141,211,45596,1,2,0:0:0:0:
240,100,45746,1,0,0:0:0:0:
101,67,45896,1,0,0:0:0:0:
249,198,46046,1,8,0:0:0:0:
65,297,46196,1,0,0:0:0:0:
65,297,46271,1,0,0:0:0:0:
65,297,46346,6,0,P|50:250|75:187,1,100,4|0,0:0|0:0,0:0:0:0:
240,100,46646,1,8,0:0:0:0:
141,249,46796,1,0,0:0:0:0:
101,67,46946,2,0,P|41:56|-2:65,1,100
193,198,47246,2,0,P|242:205|290:194,1,100,8|0,0:0|0:0,0:0:0:0:
388,10,47546,5,0,0:0:0:0:
240,125,47696,1,0,0:0:0:0:
459,155,47846,1,8,0:0:0:0:
298,41,47996,1,0,0:0:0:0:
248,244,48146,2,0,P|168:247|152:240,1,100
212,73,48446,1,8,0:0:0:0:
328,296,48596,1,0,0:0:0:0:
328,296,48671,1,0,0:0:0:0:
328,296,48746,6,0,P|408:299|424:292,1,100,4|0,0:0|0:0,0:0:0:0:
308,77,49046,2,0,P|260:63|211:72,1,100,8|0,0:0|0:0,0:0:0:0:
114,262,49346,1,0,0:0:0:0:
256,158,49496,1,0,0:0:0:0:
106,68,49646,1,8,0:0:0:0:
345,4,49796,1,0,0:0:0:0:
391,261,49946,6,0,P|322:265|291:243,1,100
174,111,50246,1,8,0:0:0:0:
353,183,50396,1,0,0:0:0:0:
222,39,50546,2,0,P|167:27|116:46,1,100
42,181,50846,1,8,0:0:0:0:
176,304,50996,1,0,0:0:0:0:
176,304,51071,1,0,0:0:0:0:
176,304,51146,6,0,L|176:198,1,100,4|0,0:0|0:0,0:0:0:0:
21,70,51446,1,8,0:0:0:0:
100,237,51596,1,0,0:0:0:0:
222,39,51746,1,8,0:0:0:0:
315,254,51896,1,0,0:0:0:0:
144,127,52046,1,8,0:0:0:0:
329,12,52196,6,0,L|316:207,1,150
407,100,52496,5,0,0:0:0:0:
146,257,52646,1,12,0:0:0:0:
423,354,52796,1,0,0:0:0:0:
195,62,52946,2,0,L|86:56,1,100,12|0,0:0|0:0,0:0:0:0:
146,257,53246,2,0,P|191:274|165:225,1,112.500004291535
86,192,53546,6,0,P|64:254|81:318,1,119.999996337891,4|0,0:0|0:0,0:0:0:0:
324,223,53846,2,0,P|333:164|312:109,1,119.999996337891,8|0,0:0|0:0,0:0:0:0:
149,25,54146,1,0,0:0:0:0:
255,174,54296,1,0,0:0:0:0:
389,22,54446,2,0,L|518:22,1,119.999996337891,8|0,0:0|0:0,0:0:0:0:
507,288,54746,5,0,0:0:0:0:
415,105,54896,1,0,0:0:0:0:
279,256,55046,1,8,0:0:0:0:
510,167,55196,1,0,0:0:0:0:
277,298,55346,2,0,P|215:312|152:283,1,119.999996337891
37,56,55646,2,0,P|92:36|150:50,1,119.999996337891,8|0,0:0|0:0,0:0:0:0:
81,310,55946,6,0,B|61:262|61:262|98:188,1,119.999996337891,4|0,0:0|0:0,0:0:0:0:
289,17,56246,2,0,B|319:77|319:77|299:125,1,119.999996337891,8|0,0:0|0:0,0:0:0:0:
150,268,56546,1,0,0:0:0:0:
222,78,56696,1,0,0:0:0:0:
347,250,56846,2,0,P|435:264|460:241,1,119.999996337891,8|0,0:0|0:0,0:0:0:0:
388,21,57146,5,0,0:0:0:0:
163,121,57296,1,0,0:0:0:0:
401,167,57446,1,8,0:0:0:0:
177,17,57596,1,0,0:0:0:0:
430,168,57746,2,0,P|447:231|422:286,1,119.999996337891
105,176,58046,2,0,P|88:113|113:58,1,119.999996337891,8|0,0:0|0:0,0:0:0:0:
269,270,58346,6,0,B|158:223|169:348|32:269,1,239.999992675781,4|8,0:0|0:0,0:0:0:0:
105,176,58796,1,0,0:0:0:0:
226,359,58946,2,0,P|298:366|349:332,1,119.999996337891
341,123,59246,1,8,0:0:0:0:
269,270,59396,1,0,0:0:0:0:
508,149,59546,5,4,0:0:0:0:
260,27,59696,2,0,P|192:14|134:34,1,119.999996337891,0|8,0:0|0:0,0:0:0:0:
157,317,59996,2,0,B|217:220|217:220|202:95,1,239.999992675781,4|0,0:0|0:0,0:0:0:0:
51,207,60446,1,8,0:0:0:0:
241,349,60596,1,0,0:0:0:0:
241,349,60671,1,0,0:0:0:0:
241,349,60746,6,0,B|338:344|338:344|380:367|380:367|475:359,1,239.999992675781,4|8,0:0|0:0,0:0:0:0:
477,137,61196,1,0,0:0:0:0:
374,277,61346,1,0,0:0:0:0:
366,92,61496,1,0,0:0:0:0:
478,240,61646,1,8,0:0:0:0:
368,47,61796,2,0,L|128:38,1,239.999992675781
84,353,62246,6,0,L|234:348,1,119.999996337891
479,113,62546,2,0,L|329:108,1,119.999996337891
177,270,62846,5,12,0:0:0:0:
381,208,62996,1,0,0:0:0:0:
192,36,63146,6,0,P|168:102|190:169,1,119.999996337891,4|0,0:0|0:0,0:0:0:0:
396,322,63446,2,0,P|405:263|381:208,1,119.999996337891,8|0,0:0|0:0,0:0:0:0:
126,212,63746,1,0,0:0:0:0:
308,278,63896,1,0,0:0:0:0:
434,79,64046,2,0,P|378:60|322:77,1,119.999996337891,8|0,0:0|0:0,0:0:0:0:
202,266,64346,5,0,0:0:0:0:
162,32,64496,1,0,0:0:0:0:
377,137,64646,1,8,0:0:0:0:
126,212,64796,1,0,0:0:0:0:
416,138,64946,2,0,P|430:209|402:269,1,119.999996337891
59,270,65246,2,0,P|45:199|73:139,1,119.999996337891,8|0,0:0|0:0,0:0:0:0:
314,313,65546,6,0,L|195:304,1,119.999996337891,4|0,0:0|0:0,0:0:0:0:
345,61,65846,2,0,L|464:52,1,119.999996337891,8|0,0:0|0:0,0:0:0:0:
389,278,66146,1,0,0:0:0:0:
229,91,66296,1,0,0:0:0:0:
122,303,66446,2,0,P|40:303|-7:254,1,119.999996337891,8|0,0:0|0:0,0:0:0:0:
123,72,66746,5,0,0:0:0:0:
207,301,66896,1,0,0:0:0:0:
322,91,67046,1,8,0:0:0:0:
87,211,67196,1,0,0:0:0:0:
322,56,67346,2,0,P|407:44|452:66,1,119.999996337891
321,301,67646,2,0,P|263:316|206:300,1,119.999996337891,8|0,0:0|0:0,0:0:0:0:
78,91,67946,6,0,L|88:231,1,119.999996337891,4|0,0:0|0:0,0:0:0:0:
276,23,68246,2,0,L|266:163,1,119.999996337891,8|0,0:0|0:0,0:0:0:0:
476,107,68546,1,0,0:0:0:0:
352,300,68696,1,0,0:0:0:0:
368,62,68846,1,8,0:0:0:0:
471,263,68996,1,0,0:0:0:0:
491,6,69146,5,4,0:0:0:0:
314,218,69296,2,0,P|252:229|197:203,1,119.999996337891,0|8,0:0|0:0,0:0:0:0:
84,21,69596,2,0,B|144:140|30:130|82:264,1,239.999992675781,4|0,0:0|0:0,0:0:0:0:
257,329,70046,1,8,0:0:0:0:
268,126,70196,1,0,0:0:0:0:
268,126,70271,1,0,0:0:0:0:
268,126,70346,5,4,0:0:0:0:
426,229,70496,2,0,P|364:240|309:214,1,119.999996337891,0|8,0:0|0:0,0:0:0:0:
124,43,70796,2,0,P|178:20|236:31,1,119.999996337891
266,302,71096,1,0,0:0:0:0:
189,112,71246,1,8,0:0:0:0:
381,136,71396,1,0,0:0:0:0:
167,246,71546,6,0,L|28:234,1,119.999996337891
236,31,71846,2,0,L|375:19,1,119.999996337891,8|0,0:0|0:0,0:0:0:0:
298,290,72146,2,0,L|166:279,1,119.999996337891
367,75,72446,2,0,L|503:65,1,119.999996337891,8|0,0:0|0:0,0:0:0:0:
382,294,72746,5,4,0:0:0:0:
232,142,72896,2,0,P|170:125|109:143,1,119.999996337891,0|8,0:0|0:0,0:0:0:0:
235,366,73196,2,0,P|292:379|349:362,1,119.999996337891
406,115,73496,1,0,0:0:0:0:
291,287,73646,1,8,0:0:0:0:
501,292,73796,1,0,0:0:0:0:
297,113,73946,6,0,P|227:96|153:120,1,119.999996337891
36,323,74246,2,0,P|94:331|151:315,1,119.999996337891,8|0,0:0|0:0,0:0:0:0:
82,58,74546,2,0,L|90:188,1,119.999996337891
304,357,74846,2,0,L|312:227,1,119.999996337891,8|0,0:0|0:0,0:0:0:0:
163,33,75146,5,4,0:0:0:0:
208,291,75296,1,0,0:0:0:0:
424,96,75446,5,12,0:0:0:0:
379,354,75596,1,0,0:0:0:0:
116,164,75746,5,4,0:0:0:0:
304,357,75896,1,0,0:0:0:0:
344,81,76046,1,12,0:0:0:0:
70,65,76196,6,0,P|8:130|73:260,1,239.999992675781
245,265,76646,1,8,0:0:0:0:
116,164,76796,1,0,0:0:0:0:
183,337,76946,2,0,P|256:355|308:336,1,119.999996337891
340,122,77246,1,8,0:0:0:0:
245,265,77396,1,0,0:0:0:0:
116,85,77546,6,0,B|210:37|210:37|348:83,1,239.999992675781,4|8,0:0|0:0,0:0:0:0:
224,358,77996,2,0,B|163:238|281:242|211:113,1,239.999992675781
130,182,78446,1,8,0:0:0:0:
287,295,78596,1,0,0:0:0:0:
341,110,78746,1,0,0:0:0:0:
140,357,78896,5,0,0:0:0:0:
101,42,79046,1,12,0:0:0:0:
400,362,79196,5,0,0:0:0:0:
452,41,79346,2,0,P|395:21|337:31,1,119.999996337891,12|0,0:0|0:0,0:0:0:0:
332,275,79646,2,0,B|365:268|392:284|392:284|419:268|452:276,1,119.999996337891,12|0,0:0|0:0,0:0:0:0:
225,221,79946,6,0,L|228:342,1,100,4|0,0:0|0:0,0:0:0:0:
391,199,80246,1,8,0:0:0:0:
244,114,80396,1,0,0:0:0:0:
149,270,80546,2,0,P|88:277|43:245,1,100
115,137,80846,1,8,0:0:0:0:
227,320,80996,6,0,P|291:362|404:285,1,200
350,96,81446,1,8,0:0:0:0:
310,268,81596,1,0,0:0:0:0:
458,20,81746,1,0,0:0:0:0:
512,265,81896,1,8,0:0:0:0:
347,47,82046,2,0,P|283:21|197:44,1,150,8|0,0:0|0:0,0:0:0:0:
152,103,82346,6,0,L|160:227,1,100,4|0,0:0|0:0,0:0:0:0:
357,278,82646,1,8,0:0:0:0:
249,161,82796,1,0,0:0:0:0:
108,288,82946,2,0,P|170:306|213:291,1,100
299,163,83246,1,8,0:0:0:0:
456,292,83396,6,0,P|424:362|295:353,1,200
165,222,83846,1,8,0:0:0:0:
357,278,83996,1,0,0:0:0:0:
170,383,84146,1,0,0:0:0:0:
292,156,84296,1,8,0:0:0:0:
49,156,84446,2,0,P|30:214|74:318,1,150,8|0,0:0|0:0,0:0:0:0:
122,223,84746,6,0,L|233:220,1,100,4|0,0:0|0:0,0:0:0:0:
307,29,85046,1,8,0:0:0:0:
185,131,85196,1,0,0:0:0:0:
322,267,85346,2,0,P|336:329|310:374,1,100
191,312,85646,1,8,0:0:0:0:
390,197,85796,6,0,B|437:116|437:116|374:14,1,200
150,32,86246,1,8,0:0:0:0:
331,123,86396,1,0,0:0:0:0:
119,196,86546,1,0,0:0:0:0:
253,1,86696,1,8,0:0:0:0:
390,197,86846,2,0,L|363:319,1,100,8|0,0:0|0:0,0:0:0:0:
149,70,87146,5,4,0:0:0:0:
208,354,87296,1,0,0:0:0:0:
208,354,87446,1,8,0:0:0:0:
433,12,87596,5,4,0:0:0:0:
374,296,87746,1,0,0:0:0:0:
374,296,87896,1,0,0:0:0:0:
119,139,88046,5,12,0:0:0:0:
381,88,88196,1,0,0:0:0:0:
302,358,88346,1,12,0:0:0:0:
252,101,88496,5,0,0:0:0:0:
351,227,88646,1,0,0:0:0:0:
191,252,88796,1,8,0:0:0:0:
346,125,88946,5,0,0:0:0:0:
276,295,89096,1,0,0:0:0:0:
153,144,89246,2,0,P|98:133|47:146,1,100,8|0,0:0|0:0,0:0:0:0:
378,314,89546,5,4,0:0:0:0:
256,192,89621,12,4,91946,0:0:0:0:
