osu file format v14

[General]
AudioFilename: audio.mp3
AudioLeadIn: 0
PreviewTime: 53546
Countdown: 0
SampleSet: Soft
StackLeniency: 0.7
Mode: 0
LetterboxInBreaks: 0
WidescreenStoryboard: 1

[Editor]
Bookmarks: 10346
DistanceSpacing: 0.8
BeatDivisor: 4
GridSize: 32
TimelineZoom: 1

[Metadata]
Title:Kira Kira Days
TitleUnicode:キラキラ Days
Artist:HO-KAGO TEA TIME
ArtistUnicode:放課後ティータイム
Creator:N1czt3r
Version:Normal
Source:けいおん!!
Tags:k-on anime japanese alfarai azrael
BeatmapID:1740338
BeatmapSetID:826541

[Difficulty]
HPDrainRate:2
CircleSize:3.2
OverallDifficulty:2
ApproachRate:3
SliderMultiplier:1
SliderTickRate:1

[Events]
//Background and Video events
0,0,"thumb-1920-217675.jpg",0,0
//Break Periods
//Storyboard Layer 0 (Background)
//Storyboard Layer 1 (Fail)
//Storyboard Layer 2 (Pass)
//Storyboard Layer 3 (Foreground)
//Storyboard Sound Samples

[TimingPoints]
-454,300,4,2,2,75,1,0
39146,-112.359550561798,4,2,2,55,0,0
42746,-100,4,2,2,75,0,0
43946,-112.359550561798,4,2,2,55,0,0
46346,-100,4,2,2,75,0,0
53546,-95.2380952380952,4,2,2,85,0,1
62996,-95.2380952380952,4,2,2,85,0,0
63146,-95.2380952380952,4,2,2,85,0,1
79946,-100,4,2,2,75,0,0
91946,-100,4,2,2,5,0,0

[Colours]
Combo1 : 60,255,108
Combo2 : 255,194,166
Combo3 : 64,159,255
Combo4 : 255,70,70

[HitObjects]
103,166,446,5,8,0:0:0:0:
105,86,746,6,0,B|198:47|198:47|302:72,1,200,4|0,0:0|0:0,0:0:0:0:
365,108,1646,1,8,0:0:0:0:
321,175,1946,2,0,P|301:247|322:287,1,100,0|8,0:0|0:0,0:0:0:0:
381,233,2546,2,0,P|400:160|379:120,1,100,0|8,0:0|0:0,0:0:0:0:
328,91,3146,6,0,L|110:88,1,200,4|0,0:0|0:0,0:0:0:0:
65,138,4046,1,8,0:0:0:0:
105,206,4346,2,0,L|220:198,1,100,0|8,0:0|0:0,0:0:0:0:
284,189,4946,2,0,L|395:195,1,100,0|8,0:0|0:0,0:0:0:0:
397,273,5546,6,0,P|461:215|409:120,1,200,4|0,0:0|0:0,0:0:0:0:
350,82,6446,1,8,0:0:0:0:
271,96,6746,2,0,L|160:93,1,100,0|8,0:0|0:0,0:0:0:0:
165,173,7346,2,0,L|284:176,1,100,0|8,0:0|0:0,0:0:0:0:
336,212,7946,6,0,P|364:275|282:368,1,200,4|12,0:0|0:0,0:0:0:0:
221,323,8846,1,8,0:0:0:0:
146,351,9146,1,12,0:0:0:0:
19,166,10346,1,4,0:0:0:0:
136,112,10946,6,0,L|133:227,1,100,0|8,0:0|0:0,0:0:0:0:
213,204,11546,2,0,L|216:89,1,100,0|8,0:0|0:0,0:0:0:0:
294,118,12146,2,0,L|291:233,1,100,0|8,0:0|0:0,0:0:0:0:
335,284,12746,2,0,B|232:328|263:225|131:266,1,200
94,323,13646,1,8,0:0:0:0:
31,272,13946,6,0,L|33:161,1,100,0|8,0:0|0:0,0:0:0:0:
112,159,14546,2,0,L|110:270,1,100,0|8,0:0|0:0,0:0:0:0:
174,307,15146,6,0,P|260:317|309:224,1,200,4|0,0:0|0:0,0:0:0:0:
228,243,16046,1,8,0:0:0:0:
205,166,16346,2,0,P|250:126|297:118,1,100,0|8,0:0|0:0,0:0:0:0:
367,126,16946,2,0,L|370:237,1,100,0|8,0:0|0:0,0:0:0:0:
314,283,17546,6,0,P|353:253|381:353,1,200
306,371,18446,1,8,0:0:0:0:
237,329,18746,2,0,L|124:330,1,100,0|8,0:0|0:0,0:0:0:0:
95,252,19346,2,0,L|211:251,1,100,0|8,0:0|0:0,0:0:0:0:
168,165,19946,6,0,P|269:217|260:306,1,200,4|0,0:0|0:0,0:0:0:0:
202,330,20846,1,8,0:0:0:0:
266,376,21146,2,0,L|384:376,1,100,0|8,0:0|0:0,0:0:0:0:
444,361,21746,2,0,P|466:296|454:255,1,100,0|8,0:0|0:0,0:0:0:0:
390,226,22346,6,0,B|251:219|251:219|299:173,1,200,4|0,0:0|0:0,0:0:0:0:
332,106,23246,1,8,0:0:0:0:
280,44,23546,2,0,L|164:39,1,100,0|8,0:0|0:0,0:0:0:0:
100,45,24146,2,0,P|76:81|81:152,1,100,0|8,0:0|0:0,0:0:0:0:
130,193,24746,6,0,B|248:164|248:164|329:198,1,200,4|0,0:0|0:0,0:0:0:0:
375,252,25646,1,8,0:0:0:0:
453,236,25946,2,0,P|476:174|457:128,1,100,0|8,0:0|0:0,0:0:0:0:
403,86,26546,2,0,P|385:141|408:196,1,100,0|8,0:0|0:0,0:0:0:0:
341,238,27146,6,0,B|245:209|257:301|134:252,1,200
196,188,28046,1,8,0:0:0:0:
143,127,28346,2,0,P|60:115|32:126,1,100,0|8,0:0|0:0,0:0:0:0:
8,189,28946,2,0,L|15:299,1,100,0|8,0:0|0:0,0:0:0:0:
65,350,29546,6,0,P|158:354|188:258,1,200,4|0,0:0|0:0,0:0:0:0:
157,192,30446,1,8,0:0:0:0:
217,139,30746,2,0,P|284:124|327:139,1,100,0|8,0:0|0:0,0:0:0:0:
382,172,31346,2,0,L|376:281,1,100,0|8,0:0|0:0,0:0:0:0:
332,338,31946,6,0,P|219:358|123:332,1,200,4|0,0:0|0:0,0:0:0:0:
80,282,32846,1,8,0:0:0:0:
110,208,33146,2,0,L|229:202,1,100,0|8,0:0|0:0,0:0:0:0:
268,148,33746,2,0,L|384:153,1,100,0|8,0:0|0:0,0:0:0:0:
431,200,34346,6,0,B|416:271|453:327|453:327|422:311|384:334,1,200,4|0,0:0|0:0,0:0:0:0:
319,370,35246,1,8,0:0:0:0:
251,327,35546,2,0,L|247:223,1,100,0|8,0:0|0:0,0:0:0:0:
258,148,36146,2,0,P|323:131|367:151,1,100,0|8,0:0|0:0,0:0:0:0:
311,214,36746,6,0,B|216:244|216:244|111:205,1,200,4|0,0:0|0:0,0:0:0:0:
69,149,37646,1,8,0:0:0:0:
90,72,37946,2,0,L|205:67,1,100,0|8,0:0|0:0,0:0:0:0:
254,15,38546,2,0,P|269:77|253:125,1,100,0|8,0:0|0:0,0:0:0:0:
223,170,39146,6,0,L|411:167,1,178.000000135803,4|2,0:0|0:0,0:0:0:0:
452,216,40046,1,8,0:0:0:0:
422,280,40346,2,0,L|238:278,1,178.000000135803,4|2,0:0|0:0,0:0:0:0:
194,329,41246,1,8,0:0:0:0:
131,295,41546,6,0,P|115:252|130:197,1,89.0000000679016,4|0,0:0|0:0,0:0:0:0:
182,172,42146,2,0,P|198:129|184:73,1,89.0000000679016,2|8,0:0|0:0,0:0:0:0:
133,32,42746,2,0,L|304:28,2,150,4|0|0,0:0|0:0|0:0,0:0:0:0:
82,81,43946,6,0,L|80:278,1,178.000000135803,4|2,0:0|0:0,0:0:0:0:
147,285,44846,1,8,0:0:0:0:
161,354,45146,2,0,B|254:322|241:403|338:371,1,178.000000135803,4|2,0:0|0:0,0:0:0:0:
379,321,46046,1,8,0:0:0:0:
327,258,46346,6,0,P|315:221|331:155,1,100,4|8,0:0|0:0,0:0:0:0:
396,113,46946,2,0,P|408:150|391:217,1,100,0|8,0:0|0:0,0:0:0:0:
327,258,47546,2,0,L|210:250,1,100,0|8,0:0|0:0,0:0:0:0:
182,184,48146,2,0,L|302:178,1,100,0|8,0:0|0:0,0:0:0:0:
347,149,48746,6,0,P|387:207|332:318,1,200,4|0,0:0|0:0,0:0:0:0:
264,348,49646,1,8,0:0:0:0:
189,318,49946,2,0,P|171:267|199:207,1,100,0|8,0:0|0:0,0:0:0:0:
247,176,50546,2,0,P|265:227|240:284,1,100,0|8,0:0|0:0,0:0:0:0:
189,318,51146,6,0,L|310:310,1,100
347,366,51746,2,0,L|457:363,1,100
499,303,52346,2,0,P|511:265|493:196,1,100,0|12,0:0|0:0,0:0:0:0:
440,153,52946,1,12,0:0:0:0:
367,185,53246,1,12,0:0:0:0:
309,124,53546,6,0,P|271:109|192:122,1,104.999996795654,4|8,0:0|0:0,0:0:0:0:
150,175,54146,2,0,P|209:193|256:186,1,104.999996795654,0|8,0:0|0:0,0:0:0:0:
333,204,54746,2,0,P|390:229|364:368,1,209.999993591309
329,291,55646,1,8,0:0:0:0:
261,340,55946,6,0,P|244:300|274:231,1,104.999996795654,4|8,0:0|0:0,0:0:0:0:
333,204,56546,2,0,P|350:164|329:95,1,104.999996795654,0|8,0:0|0:0,0:0:0:0:
288,37,57146,6,0,B|389:77|389:77|493:48,1,209.999993591309
499,133,58046,1,8,0:0:0:0:
421,164,58346,6,0,P|372:216|447:326,1,209.999993591309,4|0,0:0|0:0,0:0:0:0:
454,242,59246,1,8,0:0:0:0:
449,158,59546,2,0,B|372:186|377:114|286:144,2,157.499995193482,4|0|8,0:0|0:0|0:0,0:0:0:0:
471,148,60746,6,0,P|492:103|471:35,1,104.999996795654,4|8,0:0|0:0,0:0:0:0:
399,31,61346,2,0,L|272:22,1,104.999996795654,0|8,0:0|0:0,0:0:0:0:
267,103,61946,2,0,L|395:112,1,104.999996795654,0|8,0:0|0:0,0:0:0:0:
391,192,62546,1,4,0:0:0:0:
334,254,62846,1,12,0:0:0:0:
260,213,63146,6,0,P|210:192|147:206,1,104.999996795654,4|8,0:0|0:0,0:0:0:0:
103,259,63746,2,0,P|153:280|216:261,1,104.999996795654,0|8,0:0|0:0,0:0:0:0:
268,320,64346,6,0,B|320:227|320:227|286:128,1,209.999993591309
244,56,65246,1,8,0:0:0:0:
171,97,65546,2,0,P|122:108|54:82,1,104.999996795654,4|8,0:0|0:0,0:0:0:0:
12,154,66146,2,0,L|17:272,1,104.999996795654,0|8,0:0|0:0,0:0:0:0:
68,325,66746,2,0,B|185:382|171:280|281:327,1,209.999993591309
341,364,67646,1,8,0:0:0:0:
420,335,67946,6,0,P|437:288|321:205,1,209.999993591309,4|0,0:0|0:0,0:0:0:0:
355,282,68846,1,8,0:0:0:0:
272,265,69146,2,0,B|208:300|208:300|105:266,2,157.499995193482,4|0|8,0:0|0:0|0:0,0:0:0:0:
330,201,70346,6,0,P|346:152|321:86,1,104.999996795654,0|8,0:0|0:0,0:0:0:0:
263,54,70946,2,0,P|246:102|272:168,1,104.999996795654,0|8,0:0|0:0,0:0:0:0:
330,201,71546,2,0,L|455:198,1,104.999996795654,0|8,0:0|0:0,0:0:0:0:
448,281,72146,2,0,L|324:283,1,104.999996795654,0|8,0:0|0:0,0:0:0:0:
258,282,72746,6,0,P|204:245|223:96,1,209.999993591309,4|0,0:0|0:0,0:0:0:0:
269,56,73646,1,8,0:0:0:0:
187,35,73946,2,0,P|124:21|70:35,1,104.999996795654,0|8,0:0|0:0,0:0:0:0:
27,96,74546,2,0,P|90:110|144:96,1,104.999996795654,0|8,0:0|0:0,0:0:0:0:
194,155,75146,5,4,0:0:0:0:
263,108,75446,1,12,0:0:0:0:
340,139,75746,2,0,P|362:181|350:255,1,104.999996795654,4|8,0:0|0:0,0:0:0:0:
342,276,76196,2,0,B|264:259|276:328|181:290,1,157.499995193482,4|8,0:0|0:0,0:0:0:0:
114,261,76946,1,0,0:0:0:0:
165,188,77246,1,8,0:0:0:0:
100,133,77546,6,0,P|150:100|236:144,2,157.499995193482,4|0|0,0:0|0:0|0:0,0:0:0:0:
165,188,78746,1,0,0:0:0:0:
114,261,79046,1,12,0:0:0:0:
183,308,79346,1,4,0:0:0:0:
234,235,79646,1,12,0:0:0:0:
294,280,79946,6,0,B|387:317|387:317|484:280,1,200,4|0,0:0|0:0,0:0:0:0:
466,202,80846,1,8,0:0:0:0:
484,124,81146,2,0,P|437:101|375:116,1,100,0|8,0:0|0:0,0:0:0:0:
324,153,81746,2,0,P|269:176|223:161,1,100,0|8,0:0|0:0,0:0:0:0:
242,86,82346,6,0,P|157:126|185:231,1,200,4|0,0:0|0:0,0:0:0:0:
222,278,83246,1,8,0:0:0:0:
154,320,83546,2,0,L|34:321,1,100,0|8,0:0|0:0,0:0:0:0:
44,241,84146,2,0,L|156:240,1,100,0|8,0:0|0:0,0:0:0:0:
218,209,84746,6,0,P|253:159|165:63,1,200,4|0,0:0|0:0,0:0:0:0:
175,142,85646,1,8,0:0:0:0:
218,209,85946,2,0,L|334:205,1,100,0|8,0:0|0:0,0:0:0:0:
313,285,86546,2,0,L|194:288,1,100,0|8,0:0|0:0,0:0:0:0:
133,274,87146,6,0,P|103:221|189:115,1,200,4|0,0:0|0:0,0:0:0:0:
249,140,88046,1,8,0:0:0:0:
309,87,88346,2,0,P|378:65|413:81,1,100,0|8,0:0|0:0,0:0:0:0:
457,129,88946,2,0,P|388:151|353:135,1,100,0|8,0:0|0:0,0:0:0:0:
309,200,89546,5,12,0:0:0:0:
256,192,89846,12,4,91946,0:0:0:0:
