osu file format v14

[General]
AudioFilename: audio.mp3
AudioLeadIn: 0
PreviewTime: 53546
Countdown: 0
SampleSet: Soft
StackLeniency: 0.7
Mode: 0
LetterboxInBreaks: 0
WidescreenStoryboard: 1

[Editor]
Bookmarks: 746,10346,24746,39146,53546,63146,79946
DistanceSpacing: 0.4
BeatDivisor: 4
GridSize: 4
TimelineZoom: 1.9

[Metadata]
Title:Kira Kira Days
TitleUnicode:キラキラ Days
Artist:HO-KAGO TEA TIME
ArtistUnicode:放課後ティータイム
Creator:N1czt3r
Version:Collab Insane
Source:けいおん!!
Tags:k-on anime japanese alfarai azrael
BeatmapID:1740337
BeatmapSetID:826541

[Difficulty]
HPDrainRate:6
CircleSize:3.5
OverallDifficulty:8
ApproachRate:9
SliderMultiplier:1.6
SliderTickRate:1

[Events]
//Background and Video events
0,0,"thumb-1920-217675.jpg",0,0
//Break Periods
//Storyboard Layer 0 (Background)
//Storyboard Layer 1 (Fail)
//Storyboard Layer 2 (Pass)
//Storyboard Layer 3 (Foreground)
//Storyboard Sound Samples

[TimingPoints]
-454,300,4,2,2,75,1,0
9296,-133.333333333333,4,2,2,35,0,0
10046,-100,4,2,2,75,0,0
39146,-133.333333333333,4,2,2,55,0,0
42746,-100,4,2,2,75,0,0
43946,-133.333333333333,4,2,2,55,0,0
46346,-100,4,2,2,75,0,0
53246,-100,4,2,2,35,0,0
53546,-83.3333333333333,4,2,2,85,0,1
62996,-83.3333333333333,4,2,2,85,0,0
63146,-83.3333333333333,4,2,2,85,0,1
79946,-100,4,2,2,75,0,0
88496,-100,4,2,2,45,0,0
91946,-100,4,2,2,5,0,0

[Colours]
Combo1 : 60,255,108
Combo2 : 255,194,166
Combo3 : 64,159,255
Combo4 : 255,70,70

[HitObjects]
257,316,446,5,8,0:0:0:0:
257,316,746,6,0,P|318:326|359:299,1,80,4|0,0:0|0:0,0:0:0:0:
386,167,1046,1,8,0:0:0:0:
300,249,1196,1,0,0:0:0:0:
242,130,1346,2,0,P|194:117|151:133,1,80
197,214,1646,1,8,0:0:0:0:
295,68,1796,6,0,B|374:48|374:48|474:77,1,160
480,210,2246,1,8,0:0:0:0:
376,136,2396,1,0,0:0:0:0:
326,249,2546,2,0,P|318:303|327:333,1,80,0|8,0:0|0:0,0:0:0:0:
477,288,2846,2,0,P|484:230|468:184,1,80,8|0,0:0|0:0,0:0:0:0:
326,249,3146,6,0,L|230:241,1,80,4|0,0:0|0:0,0:0:0:0:
159,137,3446,1,8,0:0:0:0:
272,167,3596,1,0,0:0:0:0:
162,278,3746,2,0,P|152:331|179:382,1,80
237,320,4046,1,8,0:0:0:0:
114,209,4196,6,0,P|84:168|136:56,1,160
241,59,4646,1,8,0:0:0:0:
160,140,4796,1,0,0:0:0:0:
246,224,4946,2,0,L|358:218,1,80,0|8,0:0|0:0,0:0:0:0:
442,52,5246,2,0,L|330:46,1,80,8|0,0:0|0:0,0:0:0:0:
409,266,5546,6,0,P|426:214|403:166,1,80,4|0,0:0|0:0,0:0:0:0:
265,137,5846,1,8,0:0:0:0:
345,218,5996,1,0,0:0:0:0:
247,303,6146,2,0,P|194:311|150:283,1,80
212,215,6446,1,8,0:0:0:0:
302,352,6596,6,0,B|386:373|386:373|476:343,1,160
463,203,7046,1,8,0:0:0:0:
383,283,7196,1,0,0:0:0:0:
306,194,7346,2,0,P|291:139|311:88,1,80,0|8,0:0|0:0,0:0:0:0:
474,51,7646,2,0,P|486:98|471:145,1,80,8|0,0:0|0:0,0:0:0:0:
383,283,7946,5,4,0:0:0:0:
398,100,8096,1,0,0:0:0:0:
398,100,8246,1,8,0:0:0:0:
278,207,8396,5,4,0:0:0:0:
302,34,8546,1,0,0:0:0:0:
302,34,8696,1,0,0:0:0:0:
392,184,8846,5,12,0:0:0:0:
247,100,8996,1,0,0:0:0:0:
234,268,9146,1,12,0:0:0:0:
332,179,9296,6,0,L|407:185,2,60.0000022888184
233,268,9746,2,0,L|157:270,1,60.0000022888184
151,127,10046,2,0,P|181:104|170:154,1,120
78,183,10346,1,4,0:0:0:0:
173,269,10496,5,0,0:0:0:0:
261,205,10646,2,0,L|273:301,1,80,8|0,0:0|0:0,0:0:0:0:
243,37,10946,2,0,P|204:44|174:70,1,80
185,188,11246,1,8,0:0:0:0:
244,124,11396,1,0,0:0:0:0:
347,237,11546,5,0,0:0:0:0:
347,237,11696,1,0,0:0:0:0:
266,245,11846,2,0,L|187:254,1,80,8|0,0:0|0:0,0:0:0:0:
328,153,12146,1,0,0:0:0:0:
328,153,12296,1,0,0:0:0:0:
403,174,12446,2,0,L|482:182,1,80,8|0,0:0|0:0,0:0:0:0:
296,67,12746,6,0,P|252:96|239:133,1,80
266,245,13046,2,0,P|237:201|200:188,1,80,8|0,0:0|0:0,0:0:0:0:
64,271,13346,2,0,L|194:263,1,120
183,263,13646,1,8,0:0:0:0:
118,99,13796,6,0,P|117:141|123:195,1,80
258,7,14096,2,0,P|251:49|235:100,1,80,0|8,0:0|0:0,0:0:0:0:
216,162,14396,1,0,0:0:0:0:
304,303,14546,2,0,P|297:260|281:209,1,80
166,228,14846,1,8,0:0:0:0:
222,288,14996,1,0,0:0:0:0:
296,147,15146,5,0,0:0:0:0:
222,288,15296,1,0,0:0:0:0:
166,228,15446,2,0,P|125:228|86:235,1,80,8|0,0:0|0:0,0:0:0:0:
300,376,15746,2,0,L|313:287,1,80
388,163,16046,1,8,0:0:0:0:
327,223,16196,1,0,0:0:0:0:
209,74,16346,5,0,0:0:0:0:
209,74,16496,1,0,0:0:0:0:
136,118,16646,2,0,P|167:151|206:158,1,80,8|0,0:0|0:0,0:0:0:0:
353,171,16946,1,0,0:0:0:0:
316,101,17096,2,0,P|283:132|276:171,1,80,0|8,0:0|0:0,0:0:0:0:
346,305,17396,1,0,0:0:0:0:
512,164,17546,6,0,L|430:168,1,80
346,305,17846,2,0,L|428:309,1,80,8|0,0:0|0:0,0:0:0:0:
281,156,18146,2,0,P|267:201|263:292,1,120
261,273,18446,1,8,0:0:0:0:
199,125,18596,6,0,L|186:44,1,80
353,202,18896,2,0,L|366:121,1,80,0|8,0:0|0:0,0:0:0:0:
384,47,19196,1,0,0:0:0:0:
199,125,19346,2,0,L|211:203,1,80
235,316,19646,2,0,L|241:251,3,40,8|0|0|0,0:0|0:0|0:0|0:0,0:0:0:0:
235,316,19946,6,0,P|271:340|292:377,1,80,4|0,0:0|0:0,0:0:0:0:
434,249,20246,2,0,P|408:284|401:326,1,80,8|0,0:0|0:0,0:0:0:0:
287,114,20546,2,0,P|298:156|291:197,1,80
167,241,20846,1,8,0:0:0:0:
219,157,20996,1,0,0:0:0:0:
80,210,21146,6,0,L|92:297,1,80,4|0,0:0|0:0,0:0:0:0:
260,355,21446,2,0,L|270:275,1,80,8|0,0:0|0:0,0:0:0:0:
135,85,21746,2,0,L|145:164,1,80
167,241,22046,1,8,0:0:0:0:
66,135,22196,1,0,0:0:0:0:
293,191,22346,6,0,P|330:179|358:150,1,80,4|0,0:0|0:0,0:0:0:0:
284,111,22646,1,8,0:0:0:0:
147,242,22796,2,0,P|158:279|187:307,1,80
227,233,23096,1,0,0:0:0:0:
123,27,23246,2,0,P|63:45|21:90,1,120,8|0,0:0|0:0,0:0:0:0:
25,127,23546,5,4,0:0:0:0:
191,69,23696,1,0,0:0:0:0:
131,176,23846,1,8,0:0:0:0:
269,56,23996,5,4,0:0:0:0:
315,188,24146,1,0,0:0:0:0:
229,140,24296,5,0,0:0:0:0:
405,171,24446,1,12,0:0:0:0:
239,229,24596,1,0,0:0:0:0:
405,171,24746,5,4,0:0:0:0:
258,142,24896,1,0,0:0:0:0:
258,142,25046,2,0,P|204:132|167:143,1,80,8|0,0:0|0:0,0:0:0:0:
95,289,25346,2,0,P|144:301|213:219,1,160,0|8,0:0|0:0,0:0:0:0:
134,215,25796,1,0,0:0:0:0:
240,346,25946,6,0,L|325:349,1,80
386,212,26246,2,0,L|291:209,1,80,8|0,0:0|0:0,0:0:0:0:
436,276,26546,2,0,P|467:227|459:181,1,80
377,55,26846,2,0,P|348:92|347:141,1,80,8|0,0:0|0:0,0:0:0:0:
243,245,27146,6,0,P|186:245|158:225,1,80
343,123,27446,2,0,P|391:107|438:123,1,80,8|0,0:0|0:0,0:0:0:0:
485,253,27746,5,0,0:0:0:0:
391,189,27896,1,0,0:0:0:0:
360,306,28046,1,8,0:0:0:0:
257,196,28196,6,0,L|162:187,1,80
103,336,28496,2,0,L|198:328,1,80,0|8,0:0|0:0,0:0:0:0:
257,196,28796,1,0,0:0:0:0:
140,257,28946,1,0,0:0:0:0:
257,325,29096,1,0,0:0:0:0:
139,231,29246,2,0,P|78:220|33:234,1,100,8|0,0:0|0:0,0:0:0:0:
89,328,29546,5,0,0:0:0:0:
173,159,29696,2,0,P|229:109|326:153,1,160
349,287,30146,1,0,0:0:0:0:
252,189,30296,1,0,0:0:0:0:
206,320,30446,1,8,0:0:0:0:
312,227,30596,1,0,0:0:0:0:
201,340,30746,6,0,P|148:350|111:334,1,80
52,253,31046,1,8,0:0:0:0:
169,185,31196,2,0,L|162:284,1,80
88,149,31496,1,0,0:0:0:0:
254,133,31646,2,0,L|259:232,1,80,8|0,0:0|0:0,0:0:0:0:
409,189,31946,6,0,P|341:168|309:182,1,80
200,272,32246,2,0,P|270:292|302:278,1,80,8|0,0:0|0:0,0:0:0:0:
148,198,32546,2,0,B|110:264|110:264|142:369,1,160,0|8,0:0|0:0,0:0:0:0:
274,290,32996,6,0,P|322:284|367:303,1,80
227,384,33296,2,0,P|182:392|138:369,1,80,0|8,0:0|0:0,0:0:0:0:
148,198,33596,1,0,0:0:0:0:
193,315,33746,1,0,0:0:0:0:
70,303,33896,1,0,0:0:0:0:
236,217,34046,1,8,0:0:0:0:
61,186,34196,1,0,0:0:0:0:
189,77,34346,6,0,P|222:65|286:87,1,80,4|0,0:0|0:0,0:0:0:0:
336,220,34646,1,8,0:0:0:0:
231,142,34796,1,0,0:0:0:0:
339,25,34946,2,0,P|350:76|336:122,1,80
223,214,35246,1,8,0:0:0:0:
265,72,35396,1,0,0:0:0:0:
221,250,35546,6,0,B|144:286|153:208|62:248,1,160,4|8,0:0|0:0,0:0:0:0:
107,318,35996,1,0,0:0:0:0:
191,179,36146,1,0,0:0:0:0:
191,179,36296,1,0,0:0:0:0:
182,340,36446,1,8,0:0:0:0:
68,245,36596,1,0,0:0:0:0:
183,366,36746,6,0,P|235:382|283:365,1,80,4|0,0:0|0:0,0:0:0:0:
318,216,37046,1,8,0:0:0:0:
232,302,37196,1,0,0:0:0:0:
172,177,37346,2,0,P|137:164|81:180,1,80
39,353,37646,1,8,0:0:0:0:
126,244,37796,1,0,0:0:0:0:
183,367,37946,5,4,0:0:0:0:
176,181,38096,1,0,0:0:0:0:
176,181,38246,1,8,0:0:0:0:
69,289,38396,5,4,0:0:0:0:
221,288,38546,1,0,0:0:0:0:
95,170,38696,5,0,0:0:0:0:
221,329,38846,1,12,0:0:0:0:
274,134,38996,1,0,0:0:0:0:
126,244,39146,6,0,L|311:227,1,180.000006866455
383,221,39746,1,2,0:0:0:0:
437,165,39896,1,0,0:0:0:0:
447,87,40046,2,0,P|396:97|367:128,1,90.0000034332277,8|0,0:0|0:0,0:0:0:0:
282,97,40346,6,0,P|334:113|382:225,1,180.000006866455,4|0,0:0|0:0,0:0:0:0:
284,252,40946,2,0,L|295:187,1,60.0000022888184,2|0,0:0|0:0,0:0:0:0:
357,354,41246,2,0,L|346:294,1,60.0000022888184,8|0,0:0|0:0,0:0:0:0:
206,238,41546,5,4,0:0:0:0:
232,313,41846,1,0,0:0:0:0:
220,157,42146,1,2,0:0:0:0:
110,185,42446,2,0,P|140:156|208:153,1,90.0000034332277,8|0,0:0|0:0,0:0:0:0:
220,157,42746,5,4,0:0:0:0:
194,320,42896,2,0,L|182:221,1,80,0|8,0:0|0:0,0:0:0:0:
317,105,43196,2,0,L|297:263,1,160,4|0,0:0|0:0,0:0:0:0:
390,73,43646,2,0,P|357:37|319:27,1,80,8|0,0:0|0:0,0:0:0:0:
145,76,43946,5,2,0:0:0:0:
252,266,44246,5,0,0:0:0:0:
272,252,44396,1,2,0:0:0:0:
285,232,44546,1,0,0:0:0:0:
291,209,44696,1,0,0:0:0:0:
209,198,44846,1,8,0:0:0:0:
339,325,45146,5,4,0:0:0:0:
402,125,45446,5,0,0:0:0:0:
382,139,45596,1,2,0:0:0:0:
369,159,45746,1,0,0:0:0:0:
363,182,45896,1,0,0:0:0:0:
336,47,46046,1,8,0:0:0:0:
181,231,46346,6,0,L|266:221,1,80,4|0,0:0|0:0,0:0:0:0:
127,133,46646,2,0,L|206:142,1,80,8|0,0:0|0:0,0:0:0:0:
20,225,46946,2,0,L|99:215,1,80
199,314,47246,2,0,L|119:304,1,80,8|0,0:0|0:0,0:0:0:0:
343,227,47546,6,0,P|331:269|302:291,1,80
238,150,47846,2,0,P|238:193|261:222,1,80,8|0,0:0|0:0,0:0:0:0:
403,81,48146,2,0,P|391:123|361:145,1,80
183,99,48446,2,0,P|205:136|239:150,1,80,8|0,0:0|0:0,0:0:0:0:
473,174,48746,5,4,0:0:0:0:
473,174,48896,1,0,0:0:0:0:
343,227,49046,1,8,0:0:0:0:
343,227,49196,1,0,0:0:0:0:
213,172,49346,1,0,0:0:0:0:
213,172,49496,1,0,0:0:0:0:
289,372,49646,2,0,L|283:284,1,80,8|0,0:0|0:0,0:0:0:0:
339,109,49946,5,0,0:0:0:0:
352,145,50096,1,0,0:0:0:0:
252,40,50246,1,8,0:0:0:0:
239,76,50396,1,0,0:0:0:0:
267,211,50546,1,0,0:0:0:0:
254,175,50696,1,0,0:0:0:0:
109,231,50846,2,0,P|162:218|194:225,1,80,8|0,0:0|0:0,0:0:0:0:
369,315,51146,5,12,0:0:0:0:
205,347,51296,1,0,0:0:0:0:
384,224,51446,5,8,0:0:0:0:
290,362,51596,1,0,0:0:0:0:
275,177,51746,5,8,0:0:0:0:
369,315,51896,1,0,0:0:0:0:
431,163,52046,1,8,0:0:0:0:
250,275,52196,2,0,L|170:267,1,80,0|12,0:0|0:0,0:0:0:0:
367,73,52496,6,0,L|370:115,1,40
252,33,52646,2,0,L|249:72,1,40,12|0,0:0|0:0,0:0:0:0:
408,65,52796,2,0,L|396:105,1,40
207,16,52946,2,0,L|238:136,1,120,12|0,0:0|0:0,0:0:0:0:
238,133,53246,2,0,P|302:151|343:209,1,120,2|0,0:0|0:0,0:0:0:0:
376,331,53546,6,0,P|320:345|266:320,1,95.9999970703126,4|0,0:0|0:0,0:0:0:0:
175,222,53846,2,0,P|230:208|284:233,1,95.9999970703126,8|0,0:0|0:0,0:0:0:0:
91,297,54146,2,0,L|88:178,1,95.9999970703126
269,123,54446,2,0,L|265:240,1,95.9999970703126,8|0,0:0|0:0,0:0:0:0:
175,54,54746,5,0,0:0:0:0:
359,86,54896,2,0,L|367:215,1,95.9999970703126,0|8,0:0|0:0,0:0:0:0:
259,291,55196,1,0,0:0:0:0:
177,133,55346,2,0,P|230:115|302:149,1,95.9999970703126
423,255,55646,2,0,P|371:271|299:237,1,95.9999970703126,8|0,0:0|0:0,0:0:0:0:
177,133,55946,6,0,L|181:245,1,95.9999970703126,4|0,0:0|0:0,0:0:0:0:
344,169,56246,2,0,L|352:49,1,95.9999970703126,8|0,0:0|0:0,0:0:0:0:
171,39,56546,1,0,0:0:0:0:
268,122,56696,1,0,0:0:0:0:
180,228,56846,2,0,P|120:233|72:196,1,95.9999970703126,8|0,0:0|0:0,0:0:0:0:
155,119,57146,5,0,0:0:0:0:
218,300,57296,2,0,P|276:309|324:272,1,95.9999970703126,0|8,0:0|0:0,0:0:0:0:
383,175,57596,1,0,0:0:0:0:
256,119,57746,2,0,B|241:172|241:172|265:254,1,95.9999970703126
396,337,58046,2,0,B|412:290|412:290|392:229,1,95.9999970703126,8|0,0:0|0:0,0:0:0:0:
142,292,58346,6,0,B|256:346|223:247|338:298,1,191.999994140625,4|8,0:0|0:0,0:0:0:0:
332,384,58796,1,0,0:0:0:0:
252,211,58946,2,0,P|239:154|265:97,1,95.9999970703126
419,62,59246,1,8,0:0:0:0:
320,163,59396,1,0,0:0:0:0:
476,217,59546,5,4,0:0:0:0:
293,59,59696,2,0,L|163:51,1,95.9999970703126,0|8,0:0|0:0,0:0:0:0:
92,251,59996,2,0,L|326:246,1,191.999994140625,4|0,0:0|0:0,0:0:0:0:
421,193,60446,1,8,0:0:0:0:
421,193,60596,1,0,0:0:0:0:
403,341,60746,6,0,P|343:348|299:216,1,191.999994140625,4|8,0:0|0:0,0:0:0:0:
403,101,61196,1,0,0:0:0:0:
364,266,61346,1,0,0:0:0:0:
264,145,61496,1,0,0:0:0:0:
447,194,61646,1,8,0:0:0:0:
273,58,61796,6,0,P|203:79|215:218,1,191.999994140625
352,232,62246,2,0,P|319:172|265:157,1,95.9999970703126,12|0,0:0|0:0,0:0:0:0:
259,329,62546,2,0,B|350:366|350:366|463:317,1,191.999994140625,4|12,0:0|0:0,0:0:0:0:
352,232,62996,1,0,0:0:0:0:
117,120,63146,6,0,L|126:232,1,95.9999970703126,4|0,0:0|0:0,0:0:0:0:
259,329,63446,2,0,L|266:233,1,95.9999970703126,8|0,0:0|0:0,0:0:0:0:
196,32,63746,2,0,P|211:81|259:106,1,95.9999970703126
424,120,64046,2,0,P|375:135|350:183,1,95.9999970703126,8|0,0:0|0:0,0:0:0:0:
399,362,64346,5,0,0:0:0:0:
432,204,64496,1,0,0:0:0:0:
465,293,64646,1,8,0:0:0:0:
259,329,64796,2,0,P|196:296|188:179,1,191.999994140625
266,233,65246,2,0,L|364:220,1,95.9999970703126,8|0,0:0|0:0,0:0:0:0:
148,102,65546,6,0,P|105:136|95:182,1,95.9999970703126,4|0,0:0|0:0,0:0:0:0:
323,143,65846,2,0,P|289:100|243:90,1,95.9999970703126,8|0,0:0|0:0,0:0:0:0:
59,288,66146,2,0,L|154:281,1,95.9999970703126
382,365,66446,2,0,L|286:358,1,95.9999970703126,8|0,0:0|0:0,0:0:0:0:
103,203,66746,5,0,0:0:0:0:
194,352,66896,1,0,0:0:0:0:
227,226,67046,1,8,0:0:0:0:
0,342,67196,2,0,P|55:292|188:284,1,191.999994140625
319,371,67646,2,0,P|286:353|259:292,1,95.9999970703126,8|0,0:0|3:0,3:0:0:0:
364,192,67946,6,0,L|353:293,1,95.9999970703126,4|0,0:0|0:0,0:0:0:0:
227,226,68246,2,0,L|216:130,1,95.9999970703126,8|0,0:0|0:0,0:0:0:0:
344,26,68546,1,0,0:0:0:0:
319,109,68696,1,0,0:0:0:0:
436,173,68846,1,8,0:0:0:0:
411,90,68996,1,0,0:0:0:0:
227,226,69146,5,4,0:0:0:0:
143,75,69296,2,0,P|112:87|85:146,1,95.9999970703126,0|8,0:0|0:0,0:0:0:0:
182,331,69596,2,0,B|292:366|258:302|369:330,1,191.999994140625,4|0,0:0|0:0,0:0:0:0:
435,172,70046,2,0,L|446:268,1,95.9999970703126,8|0,0:0|0:0,0:0:0:0:
168,156,70346,5,4,0:0:0:0:
266,61,70496,2,0,L|255:156,1,95.9999970703126,0|8,0:0|0:0,0:0:0:0:
178,251,70796,2,0,L|167:155,1,95.9999970703126
28,51,71096,2,0,P|49:95|101:115,1,95.9999970703126,0|8,0:0|0:0,0:0:0:0:
109,32,71396,1,0,0:0:0:0:
261,142,71546,6,0,P|208:154|164:155,1,95.9999970703126
15,212,71846,2,0,P|60:241|101:257,1,95.9999970703126,8|0,0:0|0:0,0:0:0:0:
220,278,72146,2,0,P|187:321|154:350,1,95.9999970703126
90,114,72446,2,0,L|107:14,1,95.9999970703126,8|0,0:0|0:0,0:0:0:0:
276,220,72746,5,4,0:0:0:0:
430,74,72896,2,0,P|373:57|319:71,1,95.9999970703126,0|8,0:0|0:0,0:0:0:0:
199,173,73196,2,0,P|246:137|302:132,1,95.9999970703126
471,294,73496,2,0,L|360:294,1,95.9999970703126,0|8,0:0|0:0,0:0:0:0:
276,220,73796,1,0,0:0:0:0:
96,384,73946,6,0,P|106:324|105:284,1,95.9999970703126
276,220,74246,2,0,P|246:167|233:129,1,95.9999970703126,8|0,0:0|0:0,0:0:0:0:
66,199,74546,2,0,L|165:208,1,95.9999970703126
365,48,74846,2,0,L|266:57,1,95.9999970703126,8|0,0:0|0:0,0:0:0:0:
329,292,75146,5,4,0:0:0:0:
396,164,75296,1,0,0:0:0:0:
389,344,75446,1,12,0:0:0:0:
324,208,75596,1,0,0:0:0:0:
257,372,75746,5,4,0:0:0:0:
242,221,75896,1,0,0:0:0:0:
187,304,76046,1,12,0:0:0:0:
144,81,76196,6,0,P|202:105|240:224,1,191.999994140625
51,188,76646,2,0,L|162:179,1,95.9999970703126,8|0,0:0|0:0,0:0:0:0:
220,298,76946,2,0,L|124:290,1,95.9999970703126
230,177,77246,1,8,0:0:0:0:
230,177,77396,1,0,0:0:0:0:
467,234,77546,6,0,B|412:228|412:228|336:246|336:246|271:241,1,191.999994140625,4|8,0:0|0:0,0:0:0:0:
11,76,77996,2,0,P|77:83|146:198,1,191.999994140625
127,384,78446,1,8,0:0:0:0:
65,304,78596,2,0,L|171:294,1,95.9999970703126
279,304,78896,6,0,L|222:282,1,47.9999985351563
106,220,79046,2,0,L|163:198,1,47.9999985351563,12|0,0:0|0:0,0:0:0:0:
305,161,79196,2,0,L|248:139,1,47.9999985351563
139,59,79346,2,0,L|152:221,1,143.999995605469,12|0,0:0|0:0,0:0:0:0:
219,242,79646,2,0,P|278:254|263:195,1,143.999995605469,12|0,0:0|0:0,0:0:0:0:
423,167,79946,6,0,L|338:162,1,80,4|0,0:0|0:0,0:0:0:0:
256,42,80246,1,8,0:0:0:0:
363,89,80396,1,0,0:0:0:0:
263,195,80546,2,0,P|247:237|256:281,1,80
340,245,80846,1,8,0:0:0:0:
185,151,80996,6,0,B|153:85|153:85|196:1,1,160
350,7,81446,1,8,0:0:0:0:
253,87,81596,1,0,0:0:0:0:
339,168,81746,2,0,P|382:176|421:154,1,80,0|8,0:0|0:0,0:0:0:0:
259,267,82046,2,0,P|216:275|177:253,1,80,8|0,0:0|0:0,0:0:0:0:
88,62,82346,6,0,L|84:158,1,80,4|0,0:0|0:0,0:0:0:0:
232,197,82646,1,8,0:0:0:0:
161,107,82796,1,0,0:0:0:0:
262,47,82946,2,0,P|315:39|349:57,1,80
366,191,83246,1,8,0:0:0:0:
467,82,83396,6,0,P|436:40|330:57,1,160
285,187,83846,1,8,0:0:0:0:
392,104,83996,1,0,0:0:0:0:
448,228,84146,2,0,L|440:322,1,80,0|8,0:0|0:0,0:0:0:0:
291,266,84446,2,0,L|283:172,1,80,8|0,0:0|0:0,0:0:0:0:
184,337,84746,6,0,P|130:351|87:325,1,80,4|0,0:0|0:0,0:0:0:0:
44,195,85046,1,8,0:0:0:0:
141,271,85196,1,0,0:0:0:0:
228,158,85346,2,0,P|192:140|133:154,1,80
226,260,85646,1,8,0:0:0:0:
287,102,85796,6,0,P|245:68|134:66,1,160
67,244,86246,1,8,0:0:0:0:
178,210,86396,1,0,0:0:0:0:
79,104,86546,2,0,P|39:94|1:100,1,80,0|8,0:0|0:0,0:0:0:0:
177,242,86846,2,0,P|216:247|254:237,1,80,8|0,0:0|0:0,0:0:0:0:
341,87,87146,5,4,0:0:0:0:
363,285,87296,1,0,0:0:0:0:
363,285,87446,1,8,0:0:0:0:
215,166,87596,5,4,0:0:0:0:
406,147,87746,1,0,0:0:0:0:
406,147,87896,1,0,0:0:0:0:
240,276,88046,5,12,0:0:0:0:
309,96,88196,1,0,0:0:0:0:
435,245,88346,1,12,0:0:0:0:
253,179,88496,6,0,L|164:185,2,80,0|0|8,0:0|0:0|0:0,0:0:0:0:
355,239,88946,2,0,L|442:245,1,80
282,305,89246,1,8,0:0:0:0:
399,141,89396,1,0,0:0:0:0:
468,354,89546,5,4,0:0:0:0:
256,192,89621,12,4,91946,0:0:0:0:
