osu file format v14

[General]
AudioFilename: audio.mp3
AudioLeadIn: 0
PreviewTime: 118034
Countdown: 0
SampleSet: Soft
StackLeniency: 0.7
Mode: 0
LetterboxInBreaks: 0
WidescreenStoryboard: 1

[Editor]
DistanceSpacing: 1
BeatDivisor: 2
GridSize: 4
TimelineZoom: 1

[Metadata]
Title:Kira Kira Days
TitleUnicode:キラキラ Days
Artist:HO-KAGO TEA TIME
ArtistUnicode:放課後ティータイム
Creator:MBmasher
Version:Advanced
Source:けいおん!!
Tags:after school keion miracle k-on yui hirasawa 平沢 唯 toyosaki aki 豊崎 愛生 mio akiyama 秋山 澪 ritsu tainaka 田井中 律 azusa nakano 中野 梓 tsumugi mugi kotobuki 琴吹 紬 歌うよ うたうよ ミラクル
BeatmapID:1255530
BeatmapSetID:592605

[Difficulty]
HPDrainRate:4
CircleSize:3.5
OverallDifficulty:4
ApproachRate:6
SliderMultiplier:0.999999999999999
SliderTickRate:1

[Events]
//Background and Video events
0,0,"kirakira.png",0,0
//Break Periods
2,39334,44834
2,104134,109634
2,161734,167234
//Storyboard Layer 0 (Background)
//Storyboard Layer 1 (Fail)
//Storyboard Layer 2 (Pass)
//Storyboard Layer 3 (Foreground)
//Storyboard Sound Samples

[TimingPoints]
734.573872995186,300,4,2,0,80,1,0
9134,-100,4,2,0,40,0,0
10034,-100,4,2,0,80,0,0
10334,-100,4,2,0,60,0,0
19934,-100,4,2,0,65,0,0
22334,-100,4,2,0,75,0,0
24734,-100,4,2,0,60,0,0
34334,-100,4,2,0,65,0,0
36734,-100,4,2,0,75,0,0
39134,-100,4,2,0,50,0,0
46334,-100,4,2,0,60,0,0
48734,-100,4,2,0,65,0,0
53534,-100,4,2,0,80,0,1
79934,-100,4,2,0,80,0,0
89234,-100,4,2,0,40,0,0
89534,-100,4,2,0,60,0,0
99134,-100,4,2,0,65,0,0
101534,-100,4,2,0,75,0,0
103934,-100,4,2,0,50,0,0
111134,-100,4,2,0,60,0,0
118034,-100,4,2,0,65,0,0
118334,-100,4,2,0,80,0,1
144734,-100,4,2,0,50,0,0
148484,-100,4,2,0,60,0,0
149534,-100,4,2,0,80,0,1
161534,-100,4,2,0,30,0,0
166334,-100,4,2,0,50,0,0
168734,-100,4,2,0,60,0,0
171134,-100,4,2,0,65,0,0
175934,-100,4,2,0,80,0,1
202334,-100,4,2,0,80,0,0

[Colours]
Combo1 : 255,128,128
Combo2 : 128,255,0
Combo3 : 255,128,0
Combo4 : 0,255,255

[HitObjects]
185,181,434,5,8,0:0:0:0:
185,181,734,6,0,P|140:159|82:159,1,99.9999999999999,2|8,0:0|0:0,0:0:0:0:
69,255,1334,2,0,P|114:277|182:275,1,99.9999999999999,0|8,0:0|0:0,0:0:0:0:
207,256,1784,6,0,P|216:222|271:167,1,99.9999999999999,0|8,0:0|0:0,0:0:0:0:
287,133,2234,1,10,0:0:0:0:
370,77,2534,1,2,0:0:0:0:
438,149,2834,1,10,0:0:0:0:
359,211,3134,6,0,P|357:260|327:329,1,99.9999999999999,2|8,0:0|0:0,0:0:0:0:
260,367,3734,2,0,P|209:337|165:334,1,99.9999999999999,0|8,0:0|0:0,0:0:0:0:
127,305,4184,6,0,L|60:219,1,99.9999999999999,0|8,0:0|0:0,0:0:0:0:
38,183,4634,1,10,0:0:0:0:
99,103,4934,1,2,0:0:0:0:
193,136,5234,1,10,0:0:0:0:
238,225,5534,6,0,P|280:187|292:145,1,99.9999999999999,2|8,0:0|0:0,0:0:0:0:
323,51,6134,2,0,P|380:93|408:138,1,99.9999999999999,0|8,0:0|0:0,0:0:0:0:
403,165,6584,6,0,B|367:203|354:255,1,99.9999999999999,0|8,0:0|0:0,0:0:0:0:
321,288,7034,1,10,0:0:0:0:
234,337,7334,1,2,0:0:0:0:
236,237,7634,1,10,0:0:0:0:
157,299,7934,6,0,L|86:322,2,50,10|0|0,0:0|0:0|0:0,0:0:0:0:
205,287,8384,2,0,P|237:256|250:198,1,99.9999999999999,10|0,0:0|0:0,0:0:0:0:
224,160,8834,2,0,L|178:126,1,50,10|0,0:0|0:0,0:0:0:0:
141,103,9134,5,10,0:0:0:0:
140,305,10034,5,8,0:0:0:0:
140,305,10334,6,0,P|184:340|235:348,1,99.9999999999999,6|0,0:0|0:0,0:0:0:0:
322,320,10934,2,0,P|352:285|424:269,1,99.9999999999999,0|8,0:0|0:0,0:0:0:0:
440,235,11384,1,0,0:0:0:0:
440,235,11534,6,0,B|447:191|411:132,1,99.9999999999999,2|8,0:0|0:0,0:0:0:0:
365,53,12134,2,0,L|251:83,1,99.9999999999999,0|8,0:0|0:0,0:0:0:0:
227,107,12584,1,0,0:0:0:0:
227,107,12734,6,0,P|174:125|141:189,1,99.9999999999999,2|8,0:0|0:0,0:0:0:0:
126,256,13334,2,0,P|160:304|207:307,1,99.9999999999999,0|8,0:0|0:0,0:0:0:0:
247,304,13784,2,0,L|358:272,1,99.9999999999999
386,251,14234,1,8,0:0:0:0:
481,220,14534,1,0,0:0:0:0:
408,150,14834,2,0,L|383:86,1,50,8|0,0:0|0:0,0:0:0:0:
347,76,15134,6,0,P|308:114|296:181,1,99.9999999999999,2|8,0:0|0:0,0:0:0:0:
313,254,15734,2,0,P|271:296|218:308,1,99.9999999999999,0|8,0:0|0:0,0:0:0:0:
133,317,16334,2,0,L|79:270,1,50,2|0,0:0|0:0,0:0:0:0:
68,242,16634,2,0,L|95:181,1,50,8|0,0:0|0:0,0:0:0:0:
114,153,16934,1,0,0:0:0:0:
203,197,17234,1,8,0:0:0:0:
208,97,17534,6,0,P|229:37|272:-8,1,99.9999999999999,2|8,0:0|0:0,0:0:0:0:
350,23,18134,2,0,P|373:54|431:84,1,99.9999999999999,0|8,0:0|0:0,0:0:0:0:
446,128,18584,6,0,L|388:217,1,99.9999999999999
346,233,19034,1,8,0:0:0:0:
327,331,19334,1,0,0:0:0:0:
245,272,19634,1,10,0:0:0:0:
244,172,19934,6,0,P|183:198|142:194,1,99.9999999999999,10|8,0:0|0:0,0:0:0:0:
113,103,20534,2,0,P|67:135|43:198,1,99.9999999999999,8|10,0:0|0:0,0:0:0:0:
88,264,21134,1,10,0:0:0:0:
168,323,21434,1,8,0:0:0:0:
229,243,21734,1,8,0:0:0:0:
311,298,22034,1,10,0:0:0:0:
379,224,22334,6,0,B|382:170|362:104,1,99.9999999999999,10|8,0:0|0:0,0:0:0:0:
272,95,22934,2,0,B|267:153|290:203,1,99.9999999999999,8|10,0:0|0:0,0:0:0:0:
321,286,23534,6,0,B|241:343|241:343|184:354,2,150,10|10|10,0:0|0:0|0:0,0:0:0:0:
392,215,24734,6,0,P|379:161|351:129,1,99.9999999999999,6|8,0:0|0:0,0:0:0:0:
251,114,25334,2,0,P|230:149|174:191,1,99.9999999999999,0|8,0:0|0:0,0:0:0:0:
84,187,25934,5,2,0:0:0:0:
72,286,26234,1,8,0:0:0:0:
160,332,26534,2,0,L|267:341,1,99.9999999999999,0|8,0:0|0:0,0:0:0:0:
335,275,27134,6,0,P|325:230|358:177,1,99.9999999999999,2|8,0:0|0:0,0:0:0:0:
428,122,27734,2,0,P|455:67|439:10,1,99.9999999999999,0|8,0:0|0:0,0:0:0:0:
404,9,28184,6,0,L|289:20,1,99.9999999999999,2|0,0:0|0:0,0:0:0:0:
254,22,28634,1,10,0:0:0:0:
189,98,28934,2,0,L|211:152,1,50,2|0,0:0|0:0,0:0:0:0:
247,175,29234,2,0,L|215:255,1,50,10|0,0:0|0:0,0:0:0:0:
190,254,29534,6,0,P|201:298|258:332,1,99.9999999999999,2|8,0:0|0:0,0:0:0:0:
343,335,30134,2,0,P|365:282|407:261,1,99.9999999999999,0|8,0:0|0:0,0:0:0:0:
464,185,30734,6,0,P|478:140|452:79,1,99.9999999999999,2|8,0:0|0:0,0:0:0:0:
414,77,31184,2,0,P|375:117|320:130,1,99.9999999999999
288,149,31634,2,0,L|225:207,1,50,8|0,0:0|0:0,0:0:0:0:
216,219,31934,6,0,L|248:314,1,99.9999999999999,2|8,0:0|0:0,0:0:0:0:
341,278,32534,2,0,P|305:232|247:223,1,99.9999999999999,0|8,0:0|0:0,0:0:0:0:
216,219,32984,2,0,P|165:211|126:169,1,99.9999999999999,2|0,0:0|0:0,0:0:0:0:
98,140,33434,1,8,0:0:0:0:
132,46,33734,6,0,L|183:63,1,50,2|0,0:0|0:0,0:0:0:0:
217,94,34034,2,0,L|267:65,1,50,10|0,0:0|0:0,0:0:0:0:
299,38,34334,6,0,L|410:93,1,99.9999999999999,10|8,0:0|0:0,0:0:0:0:
431,172,34934,2,0,L|385:279,1,99.9999999999999,8|10,0:0|0:0,0:0:0:0:
314,327,35534,5,10,0:0:0:0:
319,227,35834,1,8,0:0:0:0:
235,172,36134,1,8,0:0:0:0:
259,74,36434,1,10,0:0:0:0:
159,63,36734,6,0,P|180:115|166:174,1,99.9999999999999,10|8,0:0|0:0,0:0:0:0:
104,229,37334,2,0,P|121:280|153:312,1,99.9999999999999,8|10,0:0|0:0,0:0:0:0:
253,318,37934,2,0,B|305:233|305:233|356:203,2,150,10|10|10,0:0|0:0|0:0,0:0:0:0:
155,344,39134,5,14,0:0:0:0:
255,191,46034,5,8,0:0:0:0:
255,191,46334,6,0,P|188:191|146:210,1,99.9999999999999,6|8,0:0|0:0,0:0:0:0:
144,302,46934,2,0,P|202:345|254:345,1,99.9999999999999,0|8,0:0|0:0,0:0:0:0:
327,337,47534,6,0,B|320:289|346:210,1,99.9999999999999,2|8,0:0|0:0,0:0:0:0:
356,140,48134,2,0,B|312:115|244:119,1,99.9999999999999,0|8,0:0|0:0,0:0:0:0:
171,166,48734,6,0,P|151:201|159:286,2,99.9999999999999,10|8|10,0:0|0:0|0:0,0:0:0:0:
253,109,49634,2,0,L|310:157,1,50,8|0,0:0|0:0,0:0:0:0:
325,178,49934,6,0,P|342:231|332:307,2,99.9999999999999,10|8|10,0:0|0:0|0:0,0:0:0:0:
226,161,50834,2,0,L|166:153,1,50,8|0,0:0|0:0,0:0:0:0:
127,143,51134,6,0,P|64:106|44:74,2,99.9999999999999,10|8|10,0:0|0:0|0:0,0:0:0:0:
185,224,52034,2,0,L|237:281,1,50,8|0,0:0|0:0,0:0:0:0:
318,247,52484,6,0,L|342:323,2,50,8|10|8,0:0|0:0|0:0,0:0:0:0:
323,197,52934,1,10,0:0:0:0:
394,127,53234,1,10,0:0:0:0:
333,47,53534,5,6,0:0:0:0:
261,116,53834,1,8,0:0:0:0:
191,44,54134,1,0,0:0:0:0:
126,120,54434,1,8,0:0:0:0:
185,200,54734,6,0,P|123:223|120:320,1,150
123,346,55334,2,0,L|187:309,1,50,2|0,0:0|0:0,0:0:0:0:
216,325,55634,2,0,L|222:258,1,50,10|0,0:0|0:0,0:0:0:0:
215,225,55934,5,2,0:0:0:0:
294,164,56234,1,8,0:0:0:0:
309,262,56534,1,0,0:0:0:0:
381,193,56834,1,8,0:0:0:0:
364,94,57134,6,0,P|299:65|223:96,1,150
197,130,57734,2,0,L|173:212,1,50,2|0,0:0|0:0,0:0:0:0:
223,207,58034,2,0,L|244:278,1,50,10|0,0:0|0:0,0:0:0:0:
277,284,58334,6,0,P|323:277|390:227,1,99.9999999999999,2|8,0:0|0:0,0:0:0:0:
408,158,58934,2,0,P|347:142|300:156,1,99.9999999999999,0|8,0:0|0:0,0:0:0:0:
221,191,59534,2,0,B|174:278|174:278|178:341,2,150,10|8|8,0:0|0:0|0:0,0:0:0:0:
299,128,60734,6,0,P|353:139|398:170,1,99.9999999999999,2|8,0:0|0:0,0:0:0:0:
447,244,61334,2,0,L|451:323,1,50
399,289,61634,2,0,L|377:346,1,50,8|0,0:0|0:0,0:0:0:0:
232,313,62234,5,10,0:0:0:0:
198,218,62534,1,10,0:0:0:0:
123,151,62834,1,10,0:0:0:0:
218,119,63134,6,0,P|263:51|268:27,1,99.9999999999999,4|8,0:0|0:0,0:0:0:0:
327,113,63734,2,0,P|371:69|428:48,1,99.9999999999999,0|8,0:0|0:0,0:0:0:0:
490,104,64334,6,0,P|491:188|456:248,1,150
409,243,64934,2,0,L|378:306,1,50,2|0,0:0|0:0,0:0:0:0:
339,272,65234,2,0,L|326:327,1,50,10|0,0:0|0:0,0:0:0:0:
281,341,65534,6,0,P|269:263|263:241,1,99.9999999999999,2|8,0:0|0:0,0:0:0:0:
265,142,66134,1,0,0:0:0:0:
179,193,66434,1,8,0:0:0:0:
105,260,66734,6,0,P|112:216|79:119,1,150
87,69,67334,2,0,L|138:60,1,50,2|0,0:0|0:0,0:0:0:0:
171,95,67634,2,0,L|232:124,1,50,10|0,0:0|0:0,0:0:0:0:
223,165,67934,6,0,P|263:115|263:65,1,99.9999999999999,2|8,0:0|0:0,0:0:0:0:
171,47,68534,2,0,L|74:39,1,50
84,76,68834,2,0,L|52:149,1,50,8|0,0:0|0:0,0:0:0:0:
76,170,69134,2,0,B|166:152|166:152|228:166,2,150,10|8|8,0:0|0:0|0:0,0:0:0:0:
122,258,70334,6,0,L|219:197,1,99.9999999999999,2|8,0:0|0:0,0:0:0:0:
256,198,70784,2,0,P|257:259|277:315,2,99.9999999999999,8|8|8,0:0|0:0|0:0,0:0:0:0:
303,183,71534,5,2,0:0:0:0:
362,102,71834,1,10,0:0:0:0:
275,51,72134,1,2,0:0:0:0:
221,135,72434,1,10,0:0:0:0:
303,183,72734,6,0,P|261:205|243:260,1,99.9999999999999,2|8,0:0|0:0,0:0:0:0:
212,291,73184,2,0,L|119:218,2,99.9999999999999,8|8|8,0:0|0:0|0:0,0:0:0:0:
248,325,73934,5,2,0:0:0:0:
293,235,74234,1,10,0:0:0:0:
344,320,74534,1,2,0:0:0:0:
393,232,74834,1,10,0:0:0:0:
329,154,75134,6,0,L|364:40,1,99.9999999999999,10|8,0:0|0:0,0:0:0:0:
455,36,75734,2,0,P|493:73|497:135,1,99.9999999999999,10|8,0:0|0:0,0:0:0:0:
476,161,76184,6,0,P|463:203|464:272,1,99.9999999999999,10|8,0:0|0:0,0:0:0:0:
461,308,76634,1,10,0:0:0:0:
374,357,76934,1,10,0:0:0:0:
371,257,77234,1,10,0:0:0:0:
283,306,77534,6,0,P|304:267|310:206,1,99.9999999999999,10|8,0:0|0:0,0:0:0:0:
294,164,77984,2,0,P|247:185|166:186,1,99.9999999999999,10|8,0:0|0:0,0:0:0:0:
149,190,78434,1,0,0:0:0:0:
95,330,78884,6,8,L|101:397,2,50,8|10|8,0:0|0:0|0:0,0:0:0:0:
91,280,79334,1,10,0:0:0:0:
166,214,79634,1,10,0:0:0:0:
97,140,79934,6,0,P|174:114|224:131,1,99.9999999999999,6|8,0:0|0:0,0:0:0:0:
278,163,80534,2,0,L|265:272,1,99.9999999999999,0|8,0:0|0:0,0:0:0:0:
261,312,80984,6,0,P|313:290|376:290,1,99.9999999999999,0|8,0:0|0:0,0:0:0:0:
404,276,81434,1,10,0:0:0:0:
458,192,81734,1,2,0:0:0:0:
369,145,82034,1,10,0:0:0:0:
325,234,82334,6,0,P|320:176|280:121,1,99.9999999999999,2|8,0:0|0:0,0:0:0:0:
213,89,82934,2,0,L|108:135,1,99.9999999999999,0|8,0:0|0:0,0:0:0:0:
78,154,83384,6,0,P|69:209|94:258,1,99.9999999999999,0|8,0:0|0:0,0:0:0:0:
111,291,83834,1,10,0:0:0:0:
193,346,84134,1,2,0:0:0:0:
276,291,84434,1,10,0:0:0:0:
353,227,84734,6,0,P|405:219|456:235,1,99.9999999999999,2|8,0:0|0:0,0:0:0:0:
504,147,85334,2,0,L|446:52,1,99.9999999999999,0|8,0:0|0:0,0:0:0:0:
404,44,85784,6,0,P|347:78|298:81,1,99.9999999999999,0|8,0:0|0:0,0:0:0:0:
270,105,86234,1,10,0:0:0:0:
294,201,86534,1,2,0:0:0:0:
199,234,86834,1,10,0:0:0:0:
165,139,87134,6,0,L|139:81,2,50,10|0|0,0:0|0:0|0:0,0:0:0:0:
160,189,87584,2,0,P|140:235|151:298,1,99.9999999999999,10|0,0:0|0:0,0:0:0:0:
173,325,88034,2,0,L|248:342,1,50,10|0,0:0|0:0,0:0:0:0:
270,348,88334,5,10,0:0:0:0:
477,131,89234,5,8,0:0:0:0:
477,131,89534,6,6,P|433:98|384:86,1,99.9999999999999,6|8,0:0|0:0,0:0:0:0:
294,117,90134,2,0,P|236:157|202:160,1,99.9999999999999,0|8,0:0|0:0,0:0:0:0:
138,232,90734,6,0,L|142:297,2,50,2|0|8,0:0|0:0|0:0,0:0:0:0:
234,259,91334,1,0,0:0:0:0:
328,290,91634,2,0,L|374:261,1,50,8|0,0:0|0:0,0:0:0:0:
403,225,91934,6,0,P|398:155|408:109,1,99.9999999999999,2|8,0:0|0:0,0:0:0:0:
319,71,92534,2,0,P|264:55|226:69,1,99.9999999999999,0|8,0:0|0:0,0:0:0:0:
187,102,92984,2,0,L|177:206,1,99.9999999999999
175,251,93434,1,8,0:0:0:0:
267,289,93734,6,0,L|331:317,1,50
361,298,94034,2,0,L|425:254,1,50,8|0,0:0|0:0,0:0:0:0:
442,239,94334,6,0,P|444:171|431:128,1,99.9999999999999,2|8,0:0|0:0,0:0:0:0:
357,78,94934,2,0,P|294:45|243:44,1,99.9999999999999,0|8,0:0|0:0,0:0:0:0:
173,79,95534,2,0,L|181:140,1,50,2|0,0:0|0:0,0:0:0:0:
221,156,95834,2,0,L|238:248,1,50,8|0,0:0|0:0,0:0:0:0:
250,251,96134,2,0,P|195:309|189:340,1,99.9999999999999,0|8,0:0|0:0,0:0:0:0:
287,337,96734,6,0,B|385:357|385:357|483:332,2,200,2|0|2,0:0|0:0|0:0,0:0:0:0:
200,287,98234,1,8,0:0:0:0:
163,193,98534,2,0,L|217:203,1,50
253,231,98834,2,0,L|310:223,1,50,8|0,0:0|0:0,0:0:0:0:
326,180,99134,6,0,P|388:157|415:121,1,99.9999999999999,10|8,0:0|0:0,0:0:0:0:
413,32,99734,2,0,P|464:44|503:95,1,99.9999999999999,8|10,0:0|0:0,0:0:0:0:
488,177,100334,5,10,0:0:0:0:
492,276,100634,1,8,0:0:0:0:
409,218,100934,1,8,0:0:0:0:
412,317,101234,1,10,0:0:0:0:
318,280,101534,6,0,L|210:301,1,99.9999999999999,10|8,0:0|0:0,0:0:0:0:
122,273,102134,2,0,L|22:243,1,99.9999999999999,8|10,0:0|0:0,0:0:0:0:
84,162,102734,6,8,B|59:65|59:65|19:22,2,150,10|10|10,0:0|0:0|0:0,0:0:0:0:
26,244,103934,5,10,0:0:0:0:
256,128,110834,5,8,0:0:0:0:
256,128,111134,6,0,P|315:105|352:105,1,99.9999999999999,6|8,0:0|0:0,0:0:0:0:
415,181,111734,2,0,P|443:229|463:250,2,50,0|0|8,0:0|0:0|0:0,0:0:0:0:
452,273,112334,6,0,L|331:304,1,99.9999999999999,2|8,0:0|0:0,0:0:0:0:
305,305,112784,1,0,0:0:0:0:
255,297,112934,2,0,L|155:256,1,99.9999999999999,0|8,0:0|0:0,0:0:0:0:
158,159,113534,6,8,P|150:95|120:52,2,99.9999999999999,10|8|10,0:0|0:0|0:0,0:0:0:0:
178,256,114434,2,0,L|206:298,1,50,8|0,0:0|0:0,0:0:0:0:
241,332,114734,6,8,P|271:274|315:247,2,99.9999999999999,10|8|10,0:0|0:0|0:0,0:0:0:0:
143,352,115634,2,0,L|72:326,1,50,8|0,0:0|0:0,0:0:0:0:
83,286,115934,6,8,P|96:223|83:159,2,99.9999999999999,10|8|10,0:0|0:0|0:0,0:0:0:0:
182,275,116834,2,0,L|247:235,1,50,8|0,0:0|0:0,0:0:0:0:
197,152,117284,6,8,L|263:131,2,50,8|10|8,0:0|0:0|0:0,0:0:0:0:
150,171,117734,1,10,0:0:0:0:
167,72,118034,1,10,0:0:0:0:
244,136,118334,5,4,0:0:0:0:
296,221,118634,1,8,0:0:0:0:
330,127,118934,1,0,0:0:0:0:
388,207,119234,1,8,0:0:0:0:
339,294,119534,6,0,P|248:335|188:311,1,150
165,290,120134,2,0,L|188:243,1,50,2|0,0:0|0:0,0:0:0:0:
222,209,120434,2,0,L|283:180,1,50,10|0,0:0|0:0,0:0:0:0:
313,205,120734,5,2,0:0:0:0:
391,266,121034,1,8,0:0:0:0:
294,290,121334,1,0,0:0:0:0:
372,352,121634,1,8,0:0:0:0:
294,290,121934,6,0,P|220:299|147:253,1,150
128,221,122534,2,0,L|157:176,1,50,2|0,0:0|0:0,0:0:0:0:
197,153,122834,2,0,L|256:144,1,50,10|0,0:0|0:0,0:0:0:0:
286,176,123134,6,0,P|318:124|350:101,1,99.9999999999999,2|8,0:0|0:0,0:0:0:0:
439,143,123734,2,0,P|454:193|487:231,1,99.9999999999999,0|8,0:0|0:0,0:0:0:0:
407,292,124334,2,8,B|308:313|308:313|264:357,2,150,10|8|8,0:0|0:0|0:0,0:0:0:0:
408,191,125534,6,0,P|350:185|308:205,1,99.9999999999999,2|8,0:0|0:0,0:0:0:0:
316,301,126134,2,0,L|251:323,1,50
219,307,126434,2,0,L|166:286,1,50,8|0,0:0|0:0,0:0:0:0:
106,212,126884,6,0,L|87:162,1,50,0|10,0:0|0:0,0:0:0:0:
117,69,127334,1,10,0:0:0:0:
206,113,127634,1,10,0:0:0:0:
180,209,127934,6,0,P|225:235|284:241,1,99.9999999999999,6|8,0:0|0:0,0:0:0:0:
367,212,128534,1,0,0:0:0:0:
348,310,128834,1,8,0:0:0:0:
271,241,129134,6,0,P|263:170|279:89,1,150
308,54,129734,2,0,L|377:47,1,50,2|0,0:0|0:0,0:0:0:0:
405,64,130034,2,0,L|479:93,1,50,10|0,0:0|0:0,0:0:0:0:
470,128,130334,5,2,0:0:0:0:
394,193,130634,2,0,L|365:128,1,50,8|0,0:0|0:0,0:0:0:0:
344,106,130934,1,0,0:0:0:0:
262,164,131234,1,8,0:0:0:0:
296,257,131534,6,0,P|334:242|449:286,1,150
444,319,132134,2,0,L|396:358,1,50,2|0,0:0|0:0,0:0:0:0:
356,361,132434,2,0,L|297:338,1,50,10|0,0:0|0:0,0:0:0:0:
261,326,132734,6,0,P|219:272|225:227,1,99.9999999999999,2|8,0:0|0:0,0:0:0:0:
319,236,133334,2,0,L|325:182,1,50
364,155,133634,2,0,L|354:97,1,50,8|0,0:0|0:0,0:0:0:0:
310,83,133934,6,8,B|218:43|218:43|163:55,2,150,10|8|8,0:0|0:0|0:0,0:0:0:0:
409,94,135134,6,0,P|423:147|415:226,1,99.9999999999999,2|8,0:0|0:0,0:0:0:0:
389,229,135584,2,8,L|285:214,2,99.9999999999999
385,278,136334,5,2,0:0:0:0:
304,337,136634,1,10,0:0:0:0:
402,352,136934,1,2,0:0:0:0:
484,294,137234,1,10,0:0:0:0:
448,200,137534,6,0,P|433:117|408:94,1,99.9999999999999,2|8,0:0|0:0,0:0:0:0:
384,78,137984,2,8,L|282:105,2,99.9999999999999
359,121,138734,5,2,0:0:0:0:
386,217,139034,1,10,0:0:0:0:
307,154,139334,1,2,0:0:0:0:
323,252,139634,1,10,0:0:0:0:
251,181,139934,6,8,P|183:156|152:156,1,99.9999999999999,10|8,0:0|0:0,0:0:0:0:
63,192,140534,2,8,P|81:249|73:312,1,99.9999999999999,10|8,0:0|0:0,0:0:0:0:
111,327,140984,6,8,L|216:359,1,99.9999999999999,10|8,0:0|0:0,0:0:0:0:
256,348,141434,1,10,0:0:0:0:
315,267,141734,1,10,0:0:0:0:
381,341,142034,1,10,0:0:0:0:
429,253,142334,6,8,P|429:199|419:146,1,99.9999999999999,10|8,0:0|0:0,0:0:0:0:
321,163,142934,2,8,P|315:224|325:268,1,99.9999999999999,10|8,0:0|0:0,0:0:0:0:
465,307,143684,6,8,L|513:330,2,50,8|10|8,0:0|0:0|0:0,0:0:0:0:
421,281,144134,1,10,0:0:0:0:
418,181,144434,1,10,0:0:0:0:
328,137,144734,6,0,P|266:122|182:127,1,99.9999999999999
175,204,145334,2,0,P|174:252|205:318,1,99.9999999999999
241,308,145784,1,0,0:0:0:0:
314,239,146084,1,0,0:0:0:0:
405,357,146534,2,0,P|419:294|465:273,1,99.9999999999999,2|0,0:0|0:0,0:0:0:0:
473,179,147134,6,0,P|443:102|402:67,1,99.9999999999999
335,63,147734,2,0,L|233:87,1,99.9999999999999
194,111,148184,1,0,0:0:0:0:
264,205,148484,6,8,P|276:171|274:125,2,50,8|10|8,0:0|0:0|0:0,0:0:0:0:
219,198,148934,2,8,L|177:246,1,50,10|8,0:0|0:0,0:0:0:0:
147,267,149234,2,8,L|147:326,1,50,10|8,0:0|0:0,0:0:0:0:
197,327,149534,6,0,B|286:372|286:372|255:278|255:278|339:334|339:334|331:283|363:245,1,350,6|2,0:0|0:0,0:0:0:0:
369,242,150734,5,0,0:0:0:0:
369,242,150884,2,0,P|394:182|386:137,1,99.9999999999999
383,99,151334,2,0,L|305:61,1,50
294,53,151634,2,0,L|232:71,1,50
221,112,151934,6,0,B|216:160|160:183|160:183|123:262,2,150,2|0|0,0:0|0:0|0:0,0:0:0:0:
312,71,153134,2,0,P|364:62|419:73,1,99.9999999999999,2|8,0:0|0:0,0:0:0:0:
450,161,153734,2,0,P|438:219|453:274,1,99.9999999999999,0|8,0:0|0:0,0:0:0:0:
368,321,154334,6,8,L|317:350,1,50,10|0,0:0|0:0,0:0:0:0:
277,329,154634,2,8,L|219:358,1,50,10|0,0:0|0:0,0:0:0:0:
189,324,154934,2,8,L|142:347,1,50,10|0,0:0|0:0,0:0:0:0:
94,338,155234,1,10,0:0:0:0:
21,268,155534,6,0,L|39:221,1,50,10|0,0:0|0:0,0:0:0:0:
93,240,155834,2,0,L|120:195,1,50,8|0,0:0|0:0,0:0:0:0:
166,212,156134,2,8,L|203:153,1,50,10|0,0:0|0:0,0:0:0:0:
239,188,156434,2,8,L|273:134,1,50,10|0,0:0|0:0,0:0:0:0:
235,105,156734,6,0,B|124:185|217:232|56:346,1,300,10|0,0:0|0:0,0:0:0:0:
161,351,157934,6,0,P|287:360|382:226,1,300,10|0,0:0|0:0,0:0:0:0:
285,203,159134,6,8,P|294:152|317:119,2,66.6666666666666,10|10|10,0:0|0:0|0:0,0:0:0:0:
322,257,159734,2,8,P|366:232|394:230,2,66.6666666666666,10|10|10,0:0|0:0|0:0,0:0:0:0:
347,318,160334,1,10,0:0:0:0:
347,318,161534,5,6,0:0:0:0:
255,192,168434,5,8,0:0:0:0:
255,192,168734,6,0,P|278:150|322:121,1,99.9999999999999,6|8,0:0|0:0,0:0:0:0:
420,132,169334,2,0,P|451:160|489:172,2,50,0|0|8,0:0|0:0|0:0,0:0:0:0:
443,229,169934,6,0,L|379:307,1,99.9999999999999,2|8,0:0|0:0,0:0:0:0:
294,254,170534,2,0,L|208:279,2,50,0|0|8,0:0|0:0|0:0,0:0:0:0:
347,169,171134,6,8,P|358:93|343:67,2,99.9999999999999,10|8|10,0:0|0:0|0:0,0:0:0:0:
261,220,172034,2,0,L|198:254,1,50,8|0,0:0|0:0,0:0:0:0:
171,263,172334,6,8,P|108:216|103:195,2,99.9999999999999,10|8|10,0:0|0:0|0:0,0:0:0:0:
255,317,173234,2,0,L|315:331,1,50,8|0,0:0|0:0,0:0:0:0:
353,335,173534,6,0,P|408:268|419:224,2,99.9999999999999,10|8|10,0:0|0:0|0:0,0:0:0:0:
264,288,174434,2,0,L|205:235,1,50,8|0,0:0|0:0,0:0:0:0:
267,163,174884,6,8,L|313:135,2,50,8|10|8,0:0|0:0|0:0,0:0:0:0:
229,196,175334,1,10,0:0:0:0:
264,288,175634,1,10,0:0:0:0:
345,230,175934,5,6,0:0:0:0:
315,325,176234,1,8,0:0:0:0:
254,245,176534,1,0,0:0:0:0:
217,337,176834,1,8,0:0:0:0:
125,296,177134,6,0,P|114:244|159:153,1,150
199,139,177734,2,0,L|251:129,1,50
278,169,178034,2,0,L|341:177,1,50
375,160,178334,5,2,0:0:0:0:
433,241,178634,1,8,0:0:0:0:
333,243,178934,1,0,0:0:0:0:
382,329,179234,1,8,0:0:0:0:
282,327,179534,6,0,P|232:286|149:257,1,150
102,254,180134,2,0,L|141:201,1,50,2|0,0:0|0:0,0:0:0:0:
181,215,180434,2,0,L|222:171,1,50,10|0,0:0|0:0,0:0:0:0:
255,208,180734,6,0,L|296:112,1,99.9999999999999,2|8,0:0|0:0,0:0:0:0:
394,112,181334,2,0,P|388:164|425:203,1,99.9999999999999,0|8,0:0|0:0,0:0:0:0:
426,298,181934,2,8,B|327:279|327:279|286:235,2,150,10|8|8,0:0|0:0|0:0,0:0:0:0:
475,210,183134,6,0,P|484:147|475:96,1,99.9999999999999,2|8,0:0|0:0,0:0:0:0:
401,47,183734,2,0,L|346:47,1,50
325,89,184034,2,0,L|248:84,1,50,8|0,0:0|0:0,0:0:0:0:
342,219,184634,5,10,0:0:0:0:
271,290,184934,1,10,0:0:0:0:
236,196,185234,1,10,0:0:0:0:
178,277,185534,6,0,P|195:216|188:177,1,99.9999999999999,6|8,0:0|0:0,0:0:0:0:
123,105,186134,1,0,0:0:0:0:
212,61,186434,1,8,0:0:0:0:
256,150,186734,6,0,P|302:115|402:100,1,150
432,127,187334,2,0,L|464:175,1,50,2|0,0:0|0:0,0:0:0:0:
437,213,187634,2,0,L|420:277,1,50,10|0,0:0|0:0,0:0:0:0:
398,304,187934,6,0,P|353:252|288:238,1,99.9999999999999,0|8,0:0|0:0,0:0:0:0:
229,268,188534,2,0,P|186:295|119:303,1,99.9999999999999,0|8,0:0|0:0,0:0:0:0:
53,250,189134,6,0,L|128:106,1,150
171,110,189734,2,0,L|261:89,1,50,2|0,0:0|0:0,0:0:0:0:
257,131,190034,2,0,L|313:153,1,50,10|0,0:0|0:0,0:0:0:0:
336,187,190334,6,0,P|344:130|384:90,1,99.9999999999999,2|8,0:0|0:0,0:0:0:0:
467,124,190934,2,0,L|420:221,1,99.9999999999999,0|8,0:0|0:0,0:0:0:0:
335,262,191534,6,8,B|277:281|280:334|280:334|229:377,2,150,10|8|8,0:0|0:0|0:0,0:0:0:0:
379,172,192734,6,0,P|376:111|344:70,1,99.9999999999999,2|8,0:0|0:0,0:0:0:0:
306,89,193184,2,8,L|234:162,2,99.9999999999999
348,62,193934,5,2,0:0:0:0:
446,76,194234,1,10,0:0:0:0:
354,117,194534,1,2,0:0:0:0:
452,134,194834,1,10,0:0:0:0:
361,176,195134,6,0,P|350:229|362:277,1,99.9999999999999,2|8,0:0|0:0,0:0:0:0:
325,309,195584,2,8,L|209:323,2,99.9999999999999
317,259,196334,5,2,0:0:0:0:
327,159,196634,1,10,0:0:0:0:
426,166,196934,1,2,0:0:0:0:
418,265,197234,1,10,0:0:0:0:
485,191,197534,6,8,L|486:78,1,99.9999999999999,10|8,0:0|0:0,0:0:0:0:
391,57,198134,2,8,P|334:36|296:41,1,99.9999999999999,10|8,0:0|0:0,0:0:0:0:
253,67,198584,6,8,P|233:118|241:169,1,99.9999999999999,10|8,0:0|0:0,0:0:0:0:
263,204,199034,1,10,0:0:0:0:
324,125,199334,1,10,0:0:0:0:
375,210,199634,1,10,0:0:0:0:
303,280,199934,6,8,P|334:338|370:351,1,99.9999999999999,10|8,0:0|0:0,0:0:0:0:
451,303,200534,2,8,P|468:257|456:186,1,99.9999999999999,10|8,0:0|0:0,0:0:0:0:
386,78,201284,6,8,L|371:18,2,50,8|10|8,0:0|0:0|0:0,0:0:0:0:
390,127,201734,1,10,0:0:0:0:
310,187,202034,1,10,0:0:0:0:
293,88,202334,6,0,P|249:57|196:53,1,99.9999999999999,6|8,0:0|0:0,0:0:0:0:
126,115,202934,2,0,P|127:158|106:236,1,99.9999999999999,0|8,0:0|0:0,0:0:0:0:
134,260,203384,6,0,P|194:254|230:266,1,99.9999999999999,0|8,0:0|0:0,0:0:0:0:
279,278,203834,1,10,0:0:0:0:
337,199,204134,1,2,0:0:0:0:
386,285,204434,1,10,0:0:0:0:
444,204,204734,6,0,P|497:170|514:127,1,99.9999999999999,2|8,0:0|0:0,0:0:0:0:
482,42,205334,2,0,P|449:10|385:6,1,99.9999999999999,0|8,0:0|0:0,0:0:0:0:
369,44,205784,6,0,L|350:151,1,99.9999999999999,0|8,0:0|0:0,0:0:0:0:
333,189,206234,1,10,0:0:0:0:
417,243,206534,1,2,0:0:0:0:
340,307,206834,1,10,0:0:0:0:
259,248,207134,6,0,P|234:185|209:159,1,99.9999999999999,2|8,0:0|0:0,0:0:0:0:
138,94,207734,2,0,P|77:145|57:149,1,99.9999999999999,0|8,0:0|0:0,0:0:0:0:
44,197,208184,6,0,L|77:298,1,99.9999999999999,0|8,0:0|0:0,0:0:0:0:
104,332,208634,1,10,0:0:0:0:
182,270,208934,1,2,0:0:0:0:
260,331,209234,1,10,0:0:0:0:
302,240,209534,6,0,L|323:188,2,50,10|0|0,0:0|0:0|0:0,0:0:0:0:
252,230,209984,2,0,P|233:176|193:139,1,99.9999999999999,10|0,0:0|0:0,0:0:0:0:
153,151,210434,2,0,L|123:198,1,50,10|0,0:0|0:0,0:0:0:0:
96,233,210734,5,10,0:0:0:0:
387,161,211634,1,8,0:0:0:0:
387,161,211934,5,14,0:0:0:0:
