osu file format v14

[General]
AudioFilename: audio.mp3
AudioLeadIn: 0
PreviewTime: 117940
Countdown: 0
SampleSet: Soft
StackLeniency: 0.9
Mode: 0
LetterboxInBreaks: 0
WidescreenStoryboard: 1

[Editor]
Bookmarks: 149515
DistanceSpacing: 1.3
BeatDivisor: 4
GridSize: 32
TimelineZoom: 1.5

[Metadata]
Title:Kira Kira Days
TitleUnicode:キラキラDays
Artist:HO-KAGO TEA TIME
ArtistUnicode:放課後ティータイム
Creator:Keqing
Version:Shiawase!
Source:けいおん!!
Tags:kokusei fuju kazato asa shizuku- shikibe mayu kuroame kowari my angel ram kyuukai eimi fukada jeezyh illyasviel irya [XV] xahlt K-ON!! HTT Keion Yui Hirasawa Mio Akiyama Ritsu Tainaka Tsumugi Kotobuki Azusa Nakano Toyosaki Aki Hikasa Yoko Sato Satomi Minako Taketatsu Ayana Pony Canyon 平沢唯 秋山澪 田井中律 琴吹紬 中野梓 豊崎愛生 日笠陽子 佐藤聡美 寿美菜子 竹達彩奈 Youko Satou anime japanese pop j-pop jpop iljaaz
BeatmapID:2567738
BeatmapSetID:1234080

[Difficulty]
HPDrainRate:6.2
CircleSize:4
OverallDifficulty:9.2
ApproachRate:9.4
SliderMultiplier:1.74
SliderTickRate:1

[Events]
//Background and Video events
0,0,"swimsuit7.jpg",0,0
//Break Periods
//Storyboard Layer 0 (Background)
//Storyboard Layer 1 (Fail)
//Storyboard Layer 2 (Pass)
//Storyboard Layer 3 (Foreground)
//Storyboard Layer 4 (Overlay)
//Storyboard Sound Samples

[TimingPoints]
-485,300,4,2,4,60,1,0
715,-87.719298245614,4,2,4,67,0,0
9265,-135.135135135135,4,2,4,67,0,0
10015,-69.4444444444444,4,2,4,80,0,0
10315,-106.382978723404,4,2,4,54,0,0
19615,-87.7192982456139,4,2,4,67,0,0
19915,-96.153846153846,4,2,4,67,0,0
24715,-106.382978723404,4,2,4,54,0,0
34315,-96.153846153846,4,2,4,67,0,0
39115,-135.135135135135,4,2,4,54,0,0
42415,-87.719298245614,4,2,4,60,0,0
43915,-135.135135135135,4,2,4,54,0,0
44815,-96.1538461538461,4,2,4,60,0,0
45115,-135.135135135135,4,2,4,54,0,0
46015,-96.1538461538461,4,2,4,60,0,0
46315,-106.382978723404,4,2,4,54,0,0
48715,-106.382978723404,4,2,4,67,0,0
53215,-69.4444444444443,4,2,4,80,0,1
53515,-80.6451612903226,4,2,4,84,0,0
79615,-69.4444444444443,4,2,4,80,0,0
79915,-87.719298245614,4,2,4,67,0,0
88465,-135.135135135135,4,2,4,54,0,0
89215,-69.4444444444443,4,2,4,80,0,0
89515,-106.382978723404,4,2,4,54,0,0
99115,-96.153846153846,4,2,4,67,0,0
103915,-135.135135135135,4,2,4,54,0,0
107215,-87.719298245614,4,2,4,67,0,0
108715,-135.135135135135,4,2,4,54,0,0
109615,-96.1538461538461,4,2,4,60,0,0
109915,-135.135135135135,4,2,4,60,0,0
110815,-96.1538461538461,4,2,4,60,0,0
111115,-106.382978723404,4,2,4,54,0,0
113515,-106.382978723404,4,2,4,67,0,0
118015,-69.4444444444443,4,2,4,80,0,1
118315,-80.6451612903226,4,2,4,84,0,0
144415,-69.4444444444443,4,2,4,80,0,0
144715,-135.135135135135,4,2,4,54,0,0
148465,-135.135135135135,4,2,4,72,0,0
149515,-87.719298245614,4,2,4,90,0,1
159715,-74.6268656716418,4,2,4,90,0,1
160315,-106.382978723404,4,2,4,90,0,1
161440,-106.382978723404,4,2,4,5,0,1
161515,-185.185185185184,4,2,4,44,0,0
166315,-135.135135135134,4,2,4,54,0,0
167215,-87.7192982456137,4,2,4,67,0,0
167515,-135.135135135134,4,2,4,54,0,0
168415,-87.7192982456137,4,2,4,67,0,0
168715,-106.382978723404,4,2,4,54,0,0
170815,-69.4444444444443,4,2,4,60,0,0
171115,-87.719298245614,4,2,4,67,0,0
175615,-69.4444444444443,4,2,4,80,0,1
175915,-80.6451612903226,4,2,4,84,0,0
202015,-69.4444444444443,4,2,4,80,0,0
202315,-87.7192982456139,4,2,4,67,0,0
210865,-135.135135135135,4,2,4,67,0,0
211915,-158.730158730159,4,2,4,70,0,0
213115,-158.730158730159,4,2,4,5,0,0

[Colours]
Combo1 : 255,149,202
Combo2 : 255,159,113
Combo3 : 255,255,55
Combo4 : 255,98,98

[HitObjects]
429,346,415,5,8,0:0:0:0:
429,346,715,6,0,L|408:239,1,99.1799987893067,6|2,3:2|0:0,0:0:0:0:
227,132,1015,1,10,0:0:0:0:
416,47,1165,1,2,3:2:0:0:
276,237,1315,5,0,3:2:0:0:
307,27,1465,1,2,0:0:0:0:
461,167,1615,1,10,0:0:0:0:
217,43,1765,6,0,B|182:51|182:51|167:65|167:65|116:78,1,99.1799987893067,2|0,3:2|3:2,0:0:0:0:
275,236,2065,1,8,0:0:0:0:
101,152,2215,1,0,3:2:0:0:
217,43,2365,1,8,3:0:0:0:
138,239,2515,1,2,0:0:0:0:
313,130,2665,5,8,0:0:0:0:
112,43,2815,1,8,0:0:0:0:
324,152,2965,1,2,0:0:0:0:
118,349,3115,6,0,P|97:308|111:256,1,99.1799987893067,4|0,3:2|0:0,0:0:0:0:
313,130,3415,2,0,L|424:158,1,99.1799987893067,10|2,0:0|3:2,0:0:0:0:
217,43,3715,1,2,3:2:0:0:
281,235,3865,1,2,0:0:0:0:
342,6,4015,5,8,0:0:0:0:
131,161,4165,2,0,L|106:272,1,99.1799987893067,2|0,3:2|3:2,0:0:0:0:
36,102,4465,5,8,0:0:0:0:
197,259,4615,1,2,3:2:0:0:
4,365,4765,1,8,3:3:0:0:
109,185,4915,1,2,0:0:0:0:
197,384,5065,5,8,0:0:0:0:
24,235,5215,1,8,0:0:0:0:
230,125,5365,1,2,0:0:0:0:
117,356,5515,6,0,L|107:236,1,99.1799987893067,4|0,3:2|0:0,0:0:0:0:
328,130,5815,2,0,L|306:240,1,99.1799987893067,8|0,0:0|3:2,0:0:0:0:
154,81,6115,1,2,3:2:0:0:
301,10,6265,1,2,0:0:0:0:
145,96,6415,1,8,0:0:0:0:
318,250,6565,2,0,L|436:284,1,99.1799987893067,2|0,3:2|3:2,0:0:0:0:
284,377,6865,5,8,0:0:0:0:
498,230,7015,1,8,0:0:0:0:
328,130,7165,1,0,3:2:0:0:
454,378,7315,1,2,3:2:0:0:
234,251,7465,5,8,0:0:0:0:
458,124,7615,1,8,0:0:0:0:
371,351,7765,1,2,0:0:0:0:
219,131,7915,6,0,P|222:83|236:19,1,99.1799987893067,4|8,3:2|0:0,0:0:0:0:
383,254,8215,1,8,0:0:0:0:
116,98,8365,6,0,P|128:146|135:223,2,99.1799987893067,0|8|0,3:2|0:0|3:2,0:0:0:0:
230,32,8815,1,2,0:0:0:0:
28,167,8965,1,8,0:0:0:0:
254,312,9115,1,8,0:0:0:0:
173,213,9265,6,0,P|142:225|91:237,2,64.3800015717774,2|2|2,0:0|0:0|0:0,0:0:0:0:
81,372,9715,2,0,P|78:336|66:297,1,64.3800015717774,2|0,0:0|0:0,0:0:0:0:
282,122,10015,6,0,P|365:160|349:246,1,187.920004587891,8|0,0:0|0:0,0:0:0:0:
422,276,10315,6,0,B|328:254|358:333|257:306,1,163.559997504273,4|8,3:2|0:0,0:0:0:0:
111,233,10765,1,2,0:0:0:0:
282,122,10915,2,0,P|245:138|196:147,1,81.7799987521363,2|0,3:2|0:0,0:0:0:0:
409,303,11215,2,0,P|422:341|427:402,1,81.7799987521363,10|2,0:0|0:0,0:0:0:0:
210,229,11515,5,2,3:2:0:0:
299,103,11665,1,2,0:0:0:0:
352,242,11815,1,8,0:0:0:0:
204,146,11965,1,2,0:0:0:0:
375,61,12115,5,2,3:2:0:0:
281,184,12265,1,2,0:0:0:0:
231,31,12415,1,8,0:0:0:0:
381,147,12565,1,2,0:0:0:0:
192,251,12715,6,0,P|154:235|106:226,1,81.7799987521363,2|0,3:2|0:0,0:0:0:0:
2,95,13015,2,0,P|38:46|143:69,1,163.559997504273,10|2,0:0|3:2,0:0:0:0:
9,186,13465,1,0,0:0:0:0:
131,80,13615,1,10,0:0:0:0:
209,238,13765,6,0,P|215:278|228:323,1,81.7799987521363,2|0,3:2|0:0,0:0:0:0:
93,232,14065,1,0,3:2:0:0:
277,141,14215,1,8,0:0:0:0:
131,319,14365,1,0,3:2:0:0:
85,154,14515,6,0,B|135:146|159:181|159:181|170:235|223:240,1,163.559997504273,0|8,3:2|0:0,0:0:0:0:
52,376,14965,1,0,0:0:0:0:
208,237,15115,6,0,L|183:55,1,163.559997504273,2|10,3:2|0:0,0:0:0:0:
280,171,15565,1,2,0:0:0:0:
417,33,15715,2,0,L|406:119,1,81.7799987521363,2|0,3:2|0:0,0:0:0:0:
497,268,16015,2,0,P|516:230|490:181,1,81.7799987521363,10|2,0:0|0:0,0:0:0:0:
326,299,16315,5,2,3:2:0:0:
451,377,16465,1,2,0:0:0:0:
359,222,16615,1,8,0:0:0:0:
265,374,16765,1,2,0:0:0:0:
414,287,16915,1,2,3:2:0:0:
256,167,17065,2,0,P|215:183|160:199,1,81.7799987521363,2|8,0:0|0:0,0:0:0:0:
312,90,17365,1,2,0:0:0:0:
153,271,17515,6,0,P|81:252|90:160,1,163.559997504273,2|10,3:2|0:0,0:0:0:0:
231,292,17965,1,0,3:2:0:0:
108,365,18115,2,0,P|65:372|25:386,1,81.7799987521363,2|0,3:2|0:0,0:0:0:0:
178,194,18415,1,10,0:0:0:0:
317,304,18565,6,0,P|307:345|304:389,1,81.7799987521363,2|0,3:2|0:0,0:0:0:0:
153,271,18865,1,0,3:2:0:0:
286,164,19015,1,8,0:0:0:0:
189,363,19165,1,0,3:2:0:0:
77,173,19315,2,0,P|87:132|90:88,1,81.7799987521363,0|0,3:2|0:0,0:0:0:0:
257,12,19615,6,0,B|194:38|194:38|170:100|221:125,1,148.76999818396,10|0,0:0|0:0,0:0:0:0:
200,135,19915,6,0,L|308:171,1,90.4799994477539,6|0,3:2|3:2,0:0:0:0:
410,274,20215,1,10,0:0:0:0:
317,77,20365,1,0,3:2:0:0:
208,231,20515,2,0,L|190:330,1,90.4799994477539,2|0,3:2|0:0,0:0:0:0:
416,127,20815,2,0,L|400:24,1,90.4799994477539,10|0,0:0|0:0,0:0:0:0:
323,239,21115,6,0,B|419:251|380:328|487:342,2,180.959998895508,2|8|0,3:2|0:0|3:2,0:0:0:0:
200,135,21865,1,0,3:2:0:0:
318,331,22015,5,10,0:0:0:0:
416,127,22165,1,2,0:0:0:0:
215,241,22315,6,0,B|147:259|147:259|126:300|126:300|54:316,1,180.959998895508,6|10,3:2|0:0,0:0:0:0:
200,135,22765,1,2,0:0:0:0:
228,329,22915,5,2,3:2:0:0:
79,194,23065,1,0,0:2:0:0:
291,84,23215,2,0,L|275:183,1,90.4799994477539,10|0,0:0|0:0,0:0:0:0:
159,11,23515,5,8,0:0:0:0:
360,170,23665,1,0,3:2:0:0:
152,293,23815,1,0,3:2:0:0:
269,64,23965,5,8,0:0:0:0:
335,294,24115,1,8,0:0:0:0:
115,198,24265,1,8,0:0:0:0:
370,85,24415,1,8,0:0:0:0:
217,355,24565,1,8,0:0:0:0:
112,115,24715,6,0,B|157:108|182:147|182:147|196:207|256:197,1,163.559997504273,6|10,3:2|0:0,0:0:0:0:
62,314,25165,1,2,0:0:0:0:
242,191,25315,2,0,P|190:171|131:256,1,163.559997504273,2|10,3:2|0:0,0:0:0:0:
238,375,25765,1,2,0:0:0:0:
300,251,25915,5,2,3:2:0:0:
138,370,26065,1,2,0:0:0:0:
316,331,26215,1,10,0:0:0:0:
128,243,26365,1,2,0:0:0:0:
262,155,26515,5,2,3:2:0:0:
189,303,26665,1,2,0:0:0:0:
100,118,26815,1,8,0:0:0:0:
274,237,26965,1,2,0:0:0:0:
38,369,27115,6,0,L|55:274,1,81.7799987521363,2|0,3:2|0:0,0:0:0:0:
270,51,27415,2,0,L|283:145,1,81.7799987521363,10|0,0:0|0:0,0:0:0:0:
437,334,27715,2,0,P|487:266|448:183,1,163.559997504273,2|10,3:2|0:0,0:0:0:0:
268,350,28165,6,0,P|305:360|355:383,1,81.7799987521363,2|0,3:2|0:0,0:0:0:0:
200,225,28465,1,0,3:2:0:0:
359,108,28615,2,0,P|322:123|277:132,1,81.7799987521363,8|0,0:0|3:2,0:0:0:0:
384,269,28915,1,0,3:2:0:0:
251,366,29065,1,0,0:0:0:0:
358,190,29215,1,8,0:0:0:0:
437,334,29365,1,0,0:0:0:0:
224,210,29515,6,0,L|252:27,1,163.559997504273,4|10,3:2|0:0,0:0:0:0:
138,143,29965,1,2,0:0:0:0:
292,272,30115,2,0,P|316:241|303:189,1,81.7799987521363,2|2,3:2|3:2,0:0:0:0:
131,59,30415,2,0,L|31:93,1,81.7799987521363,10|2,0:0|0:0,0:0:0:0:
224,210,30715,5,2,3:2:0:0:
184,0,30865,1,2,0:0:0:0:
55,169,31015,1,10,0:0:0:0:
282,75,31165,2,0,B|368:85|332:148|422:165,1,163.559997504273,2|2,3:2|3:2,0:0:0:0:
269,51,31615,5,10,0:0:0:0:
361,271,31765,1,2,0:0:0:0:
504,97,31915,2,0,P|465:91|423:75,1,81.7799987521363,2|0,3:2|0:0,0:0:0:0:
227,301,32215,2,0,P|272:253|366:277,1,163.559997504273,10|2,0:0|3:2,0:0:0:0:
214,187,32665,1,0,0:0:0:0:
352,112,32815,5,10,0:0:0:0:
227,301,32965,2,0,P|224:340|216:383,1,81.7799987521363,2|0,3:2|0:0,0:0:0:0:
106,229,33265,1,0,3:2:0:0:
260,100,33415,2,0,P|297:114|361:128,1,81.7799987521363,8|0,0:0|3:2,0:0:0:0:
193,24,33715,1,0,3:2:0:0:
314,202,33865,1,0,0:0:0:0:
296,0,34015,5,8,0:0:0:0:
105,119,34165,1,2,0:0:0:0:
322,291,34315,6,0,B|411:277|391:358|495:338,1,180.959998895508,6|10,3:2|0:0,0:0:0:0:
314,202,34765,1,2,0:0:0:0:
228,301,34915,2,0,P|190:321|133:323,1,90.4799994477539,2|0,3:2|0:0,0:0:0:0:
293,384,35215,1,10,0:0:0:0:
165,233,35365,1,2,0:0:0:0:
333,114,35515,6,0,P|319:155|313:221,1,90.4799994477539,2|0,3:2|0:0,0:0:0:0:
143,324,35815,1,8,0:0:0:0:
290,218,35965,1,0,0:0:0:0:
121,127,36115,1,0,3:2:0:0:
237,274,36265,1,0,0:0:0:0:
232,94,36415,5,10,0:0:0:0:
147,353,36565,1,2,0:0:0:0:
74,211,36715,6,0,B|176:196|140:282|262:273,1,180.959998895508,6|10,3:2|0:0,0:0:0:0:
401,156,37165,1,2,0:0:0:0:
471,212,37315,6,0,P|479:257|492:303,1,90.4799994477539,2|0,3:2|0:0,0:0:0:0:
319,136,37615,1,10,0:0:0:0:
470,70,37765,1,2,0:0:0:0:
369,286,37915,5,14,0:0:0:0:
291,31,38065,1,8,0:0:0:0:
512,144,38215,1,8,0:0:0:0:
250,248,38365,1,8,3:2:0:0:
386,14,38515,1,8,0:0:0:0:
507,253,38665,1,8,0:0:0:0:
228,109,38815,1,8,0:0:0:0:
411,2,38965,1,8,0:0:0:0:
236,273,39115,6,0,B|172:258|197:220|121:205,1,128.760003143555,6|0,3:2|0:0,0:0:0:0:
79,146,39565,1,0,3:2:0:0:
248,286,39865,5,2,3:2:0:0:
126,383,40015,2,0,L|119:302,1,64.3800015717774,8|2,0:0|0:0,0:0:0:0:
290,172,40315,6,0,B|356:199|356:199|404:243|389:308|330:301,1,193.140004715332,6|0,3:2|3:2,0:0:0:0:
290,172,40915,2,0,L|301:91,1,64.3800015717774,2|0,0:0|3:2,0:0:0:0:
131,304,41215,2,0,L|136:368,1,64.3800015717774,10|0,0:0|0:0,0:0:0:0:
0,230,41515,6,0,P|29:176|152:183,1,193.140004715332,2|0,3:2|3:2,0:0:0:0:
288,15,42115,2,0,P|259:27|210:38,1,64.3800015717774,2|0,0:0|3:2,0:0:0:0:
360,168,42415,2,0,B|442:180|408:226|496:238,1,148.76999818396,10|0,0:0|0:0,0:0:0:0:
512,219,42715,5,6,3:2:0:0:
326,364,42865,1,2,0:0:0:0:
413,226,43015,1,2,0:0:0:0:
512,315,43165,6,0,B|439:327|439:327|412:372|412:372|336:383,1,198.359997578613,6|0,3:2|3:2,0:0:0:0:
147,178,43615,2,0,B|161:146|165:107|165:107|200:120|246:130,1,148.76999818396,8|0,0:0|0:0,0:0:0:0:
285,189,43915,6,0,L|261:329,1,128.760003143555,0|2,3:2|0:0,0:0:0:0:
165,201,44365,1,2,3:2:0:0:
243,274,44515,1,2,0:0:0:0:
119,359,44665,1,2,3:2:0:0:
285,189,44815,6,0,B|323:177|350:203|350:203|368:249|417:247,1,135.719999171631,10|0,0:0|0:0,0:0:0:0:
451,190,45115,2,0,L|426:51,1,128.760003143555,0|2,3:2|0:0,0:0:0:0:
308,168,45565,1,2,3:2:0:0:
414,90,45715,1,2,0:0:0:0:
280,1,45865,1,2,3:2:0:0:
228,57,46015,6,0,B|146:69|189:106|100:120,1,135.719999171631,10|0,0:0|0:0,0:0:0:0:
18,159,46315,6,0,B|52:117|95:135|95:135|106:180|154:198,1,163.559997504273,4|10,3:2|0:0,0:0:0:0:
141,192,46915,6,0,L|122:283,1,81.7799987521363,2|2,3:2|3:2,0:0:0:0:
299,111,47215,2,0,L|320:206,1,81.7799987521363,10|2,0:0|0:0,0:0:0:0:
200,64,47515,5,2,3:2:0:0:
331,139,47665,1,2,0:0:0:0:
173,217,47815,1,10,0:0:0:0:
284,71,47965,1,2,0:0:0:0:
376,275,48115,5,2,3:2:0:0:
232,159,48265,1,0,3:2:0:0:
451,26,48415,2,0,L|428:173,1,122.669998128204,10|0,0:0|0:0,0:0:0:0:
452,186,48715,6,0,L|465:91,1,81.7799987521363,14|0,0:0|3:2,0:2:0:0:
376,275,49015,1,10,0:0:0:0:
331,139,49165,1,0,3:2:0:0:
455,297,49315,2,0,B|359:279|383:359|271:332,1,163.559997504273,10|10,0:0|0:0,0:0:0:0:
175,219,49765,1,2,3:2:0:0:
314,152,49915,5,8,0:0:0:0:
169,316,50065,1,2,3:2:0:0:
153,94,50215,5,10,0:0:0:0:
286,238,50365,1,2,3:2:0:0:
88,357,50515,6,0,P|45:362|-4:382,1,81.7799987521363,10|0,0:0|0:0,0:0:0:0:
187,203,50815,2,0,P|227:210|284:238,1,81.7799987521363,10|0,0:0|3:2,0:0:0:0:
90,2,51115,6,0,P|62:45|77:94,1,81.7799987521363,10|2,0:0|3:2,0:0:0:0:
165,194,51415,1,10,0:0:0:0:
9,284,51565,1,2,3:2:0:0:
153,94,51715,1,10,0:0:0:0:
288,232,51865,2,0,L|307:326,1,81.7799987521363,2|8,3:2|0:0,0:0:0:0:
242,384,52165,1,2,3:2:0:0:
242,384,52465,5,8,0:0:0:0:
357,40,52615,1,8,0:0:0:0:
504,324,52765,1,8,0:0:0:0:
200,154,52915,1,8,0:0:0:0:
200,154,53215,6,0,P|257:122|345:196,1,187.920004587891,12|0,0:0|0:0,0:0:0:0:
319,205,53515,6,0,P|316:257|303:317,1,107.879995720093,6|0,3:2|0:0,0:0:0:0:
94,112,53815,2,0,P|93:163|107:225,1,107.879995720093,10|0,0:0|0:0,0:0:0:0:
261,59,54115,1,2,3:2:0:0:
163,5,54265,1,0,3:2:0:0:
241,161,54415,1,10,0:0:0:0:
352,0,54565,1,0,0:0:0:0:
184,103,54715,5,2,3:2:0:0:
363,266,54865,2,0,P|413:253|469:247,1,107.879995720093,2|8,0:0|0:0,0:0:0:0:
316,374,55165,1,2,0:0:0:0:
491,265,55315,5,0,3:2:0:0:
342,167,55465,1,0,3:2:0:0:
450,356,55615,1,8,0:0:0:0:
509,154,55765,1,0,0:0:0:0:
289,355,55915,6,0,P|259:316|274:250,1,107.879995720093,6|0,3:2|0:0,0:0:0:0:
411,94,56215,2,0,P|463:105|523:139,1,107.879995720093,10|0,0:0|0:0,0:0:0:0:
266,260,56515,2,0,P|214:269|162:290,1,107.879995720093,2|0,3:2|3:2,0:0:0:0:
23,114,56815,1,10,0:0:0:0:
170,203,56965,1,0,0:0:0:0:
14,289,57115,5,2,3:2:0:0:
150,107,57265,2,0,P|202:128|272:147,1,107.879995720093,2|8,0:0|0:0,0:0:0:0:
369,320,57565,1,2,0:0:0:0:
170,203,57715,5,0,3:2:0:0:
348,83,57865,1,0,3:2:0:0:
266,260,58015,1,8,0:0:0:0:
193,26,58165,1,0,0:0:0:0:
319,195,58315,6,0,B|425:173|401:287|521:260,1,215.759991440186,6|10,3:2|0:0,0:0:0:0:
321,101,58765,1,0,0:2:0:0:
488,181,58915,1,2,3:2:0:0:
266,260,59065,1,0,3:2:0:0:
427,68,59215,1,10,0:0:0:0:
450,336,59365,1,2,0:2:0:0:
236,163,59515,5,6,3:2:0:0:
427,68,59665,2,0,P|412:119|405:180,1,107.879995720093,2|8,0:0|0:0,0:0:0:0:
267,19,59965,2,0,P|196:1|105:102,1,215.759991440186,6|0,3:2|3:2,0:0:0:0:
19,252,60415,1,8,0:0:0:0:
236,163,60565,1,0,3:2:0:0:
21,158,60715,6,0,B|138:176|71:265|193:288,1,215.759991440186,6|10,3:2|0:0,0:0:0:0:
366,154,61165,1,2,0:0:0:0:
392,367,61315,1,2,3:2:0:0:
231,196,61465,1,2,3:2:0:0:
465,137,61615,1,10,0:0:0:0:
304,280,61765,1,2,0:0:0:0:
324,46,61915,1,0,3:2:0:0:
324,46,62215,6,0,P|286:81|215:82,1,107.879995720093,14|0,0:0|0:0,0:0:0:0:
47,362,62515,2,0,P|119:289|223:324,1,215.759991440186,6|8,3:2|0:0,0:0:0:0:
44,151,62965,1,2,0:0:0:0:
231,326,63115,6,0,P|280:341|344:373,1,107.879995720093,6|0,3:2|0:0,0:0:0:0:
143,180,63415,2,0,P|132:127|129:55,1,107.879995720093,10|0,0:0|0:2,0:0:0:0:
30,241,63715,1,2,3:2:0:0:
219,113,63865,1,0,3:2:0:0:
46,27,64015,1,10,0:0:0:0:
168,201,64165,1,0,0:2:0:0:
176,0,64315,5,4,3:2:0:0:
30,241,64465,1,2,0:0:0:0:
221,84,64615,5,10,0:0:0:0:
334,375,64765,2,0,B|395:401|421:283|291:269|253:355,1,215.759991440186,2|0,3:2|3:2,0:0:0:0:
417,212,65215,1,8,0:0:0:0:
240,102,65365,1,0,0:0:0:0:
383,0,65515,6,0,P|417:48|394:109,1,107.879995720093,6|0,3:2|0:0,0:0:0:0:
220,265,65815,1,10,0:0:0:0:
301,33,65965,1,8,0:0:0:0:
417,212,66115,2,0,P|406:264|402:330,1,107.879995720093,2|0,3:2|3:2,0:0:0:0:
166,139,66415,2,0,P|177:185|183:252,1,107.879995720093,10|0,0:0|0:2,0:0:0:0:
300,112,66715,5,4,3:2:0:0:
113,0,66865,1,2,0:0:0:0:
277,130,67015,1,10,0:0:0:0:
63,246,67165,1,2,3:2:0:0:
166,139,67315,6,0,P|177:185|183:252,1,107.879995720093,0|0,3:2|3:2,0:0:0:0:
32,112,67615,1,8,0:0:0:0:
246,27,67765,1,0,0:2:0:0:
166,139,67915,6,0,B|282:146|221:242|355:252,1,215.759991440186,4|10,3:2|0:0,0:0:0:0:
182,337,68365,1,0,3:2:0:0:
332,161,68515,1,2,3:2:0:0:
376,384,68665,1,2,3:2:0:0:
182,245,68815,1,10,0:0:0:0:
356,149,68965,1,2,0:2:0:0:
272,384,69115,5,4,3:2:0:0:
166,139,69265,2,0,P|180:84|190:25,1,107.879995720093,2|8,0:0|0:0,0:0:0:0:
302,263,69565,2,0,B|184:245|213:362|72:324,1,215.759991440186,4|0,3:2|3:2,0:0:0:0:
331,159,70015,1,8,0:0:0:0:
159,55,70165,1,0,0:0:0:0:
291,245,70315,5,6,3:2:0:0:
431,65,70465,2,0,P|436:122|456:202,1,107.879995720093,0|8,0:0|0:0,0:0:0:0:
260,15,70765,2,0,P|255:66|242:133,1,107.879995720093,2|0,0:0|3:2,0:0:0:0:
350,18,71065,1,2,3:2:0:0:
449,207,71215,1,8,0:0:0:0:
268,102,71365,1,2,0:2:0:0:
465,126,71515,6,0,B|346:113|385:221|274:200,1,215.759991440186,2|8,3:2|0:0,0:0:0:0:
146,381,71965,1,0,0:0:0:0:
122,182,72115,1,0,3:2:0:0:
249,335,72265,1,0,3:2:0:0:
60,280,72415,1,10,0:0:0:0:
240,188,72565,1,0,0:0:0:0:
134,360,72715,5,4,3:2:0:0:
8,195,72865,2,0,B|45:187|45:187|63:168|63:168|123:152,1,107.879995720093,2|8,0:0|0:0,0:0:0:0:
330,77,73165,2,0,P|289:17|150:39,1,215.759991440186,2|0,0:0|3:2,0:0:0:0:
341,253,73615,2,0,P|345:305|359:373,1,107.879995720093,8|0,0:0|0:0,0:0:0:0:
222,216,73915,5,4,3:2:0:0:
420,122,74065,1,0,0:0:0:0:
321,303,74215,1,8,0:0:0:0:
241,100,74365,1,0,0:0:0:0:
422,233,74515,1,0,3:2:0:0:
221,323,74665,1,0,3:2:0:0:
336,63,74815,1,8,0:0:0:0:
336,63,75115,6,0,P|294:95|217:92,1,107.879995720093,12|0,3:2|0:0,0:0:0:0:
361,297,75415,2,0,L|476:331,1,107.879995720093,8|0,0:0|3:2,0:0:0:0:
307,192,75715,1,8,0:0:0:0:
194,352,75865,1,0,3:2:0:0:
388,223,76015,1,8,0:0:0:0:
188,27,76165,6,0,B|117:57|117:57|66:125|104:189|181:171,1,215.759991440186,6|2,3:2|0:0,0:0:0:0:
295,364,76615,1,8,0:0:0:0:
119,255,76765,1,2,3:2:0:0:
300,154,76915,5,10,0:0:0:0:
175,382,77065,1,0,3:2:0:0:
156,150,77215,1,10,0:0:0:0:
361,297,77365,1,2,3:2:0:0:
193,239,77515,6,0,B|69:216|105:336|-34:304,1,215.759991440186,4|8,3:2|0:0,0:0:0:0:
270,148,77965,1,2,3:2:0:0:
95,44,78115,1,0,3:2:0:0:
190,252,78265,1,0,3:2:0:0:
288,27,78415,1,8,0:0:0:0:
80,136,78565,2,0,L|68:246,1,107.879995720093,0|0,0:2|3:2,0:0:0:0:
217,358,78865,5,10,0:0:0:0:
0,179,79015,1,10,0:0:0:0:
264,46,79165,1,10,0:0:0:0:
74,333,79315,1,10,0:0:0:0:
74,333,79615,6,0,P|98:263|195:286,1,187.920004587891,12|0,0:0|0:0,0:0:0:0:
219,319,79915,6,0,P|265:329|334:362,1,99.1799987893067,6|2,3:2|0:0,0:0:0:0:
504,180,80215,2,0,P|493:227|485:294,1,99.1799987893067,8|0,0:0|0:0,0:0:0:0:
334,138,80515,1,2,3:2:0:0:
461,77,80665,1,2,0:0:0:0:
325,152,80815,1,8,0:0:0:0:
486,277,80965,6,0,B|379:255|407:376|284:344,1,198.359997578613,2|2,3:2|3:2,0:0:0:0:
166,166,81415,1,10,0:0:0:0:
321,264,81565,1,2,3:2:0:0:
133,365,81715,2,0,P|143:315|150:259,1,99.1799987893067,2|0,3:2|0:0,0:0:0:0:
393,151,82015,2,0,P|395:199|405:262,1,99.1799987893067,8|0,0:0|0:0,0:0:0:0:
213,91,82315,5,4,3:2:0:0:
366,22,82465,1,2,0:0:0:0:
287,188,82615,1,8,0:0:0:0:
270,12,82765,1,2,0:0:0:0:
393,151,82915,5,2,3:2:0:0:
198,94,83065,1,2,0:0:0:0:
382,13,83215,1,8,0:0:0:0:
276,204,83365,6,0,B|239:214|239:214|222:229|222:229|167:241,1,99.1799987893067,2|0,0:0|3:2,0:0:0:0:
338,344,83665,1,0,3:2:0:0:
164,241,83815,1,8,0:0:0:0:
331,118,83965,1,0,3:2:0:0:
234,325,84115,5,2,3:2:0:0:
182,114,84265,1,0,0:0:0:0:
356,231,84415,1,10,0:0:0:0:
149,378,84565,1,2,0:0:0:0:
270,220,84715,6,0,B|374:238|323:329|445:352,1,198.359997578613,6|10,3:2|0:0,0:0:0:0:
450,160,85165,1,2,0:0:0:0:
234,325,85315,2,0,L|125:356,1,99.1799987893067,2|2,3:2|0:0,0:0:0:0:
274,247,85615,1,8,0:0:0:0:
73,150,85765,6,0,B|119:148|165:134|165:134|163:192|187:248,1,198.359997578613,2|0,3:2|3:2,0:0:0:0:
318,372,86215,1,8,0:0:0:0:
250,167,86365,1,0,3:2:0:0:
138,352,86515,5,2,3:2:0:0:
307,245,86665,1,0,0:0:0:0:
165,140,86815,5,8,0:0:0:0:
234,325,86965,1,0,0:0:0:0:
358,135,87115,5,12,0:0:0:0:
111,276,87265,1,0,3:2:0:0:
376,132,87415,1,0,3:2:0:0:
136,70,87565,5,8,0:0:0:0:
383,211,87715,1,0,3:2:0:0:
118,67,87865,1,0,3:2:0:0:
350,335,88015,5,8,0:0:0:0:
298,30,88165,1,0,3:2:0:0:
91,247,88315,1,8,0:0:0:0:
248,182,88465,6,0,L|241:109,2,64.3800015717774,2|2|2,0:0|0:0|0:0,0:0:0:0:
99,384,88915,2,0,L|111:310,1,64.3800015717774,2|2,0:0|0:0,0:0:0:0:
91,247,89140,1,0,3:2:0:0:
91,247,89215,6,0,B|141:233|171:274|171:274|187:348|265:333,1,187.920004587891,12|0,0:0|0:0,0:0:0:0:
298,271,89515,6,0,P|373:259|433:330,1,163.559997504273,4|8,3:2|0:2,0:2:0:0:
248,182,89965,1,2,0:2:0:0:
412,71,90115,2,0,P|400:112|391:164,1,81.7799987521363,2|0,3:2|0:0,0:0:0:0:
271,22,90415,6,0,B|181:14|209:78|121:69,1,163.559997504273,8|2,0:0|3:2,0:0:0:0:
248,182,90865,1,2,0:0:0:0:
91,247,91015,2,0,L|109:151,1,81.7799987521363,10|0,0:0|0:0,0:0:0:0:
243,288,91315,2,0,L|253:377,1,81.7799987521363,2|0,3:2|0:0,0:0:0:0:
80,221,91615,1,10,0:0:0:0:
252,147,91765,1,2,0:0:0:0:
112,328,91915,6,0,P|72:334|31:352,1,81.7799987521363,2|0,3:2|0:0,0:0:0:0:
181,220,92215,2,0,B|237:234|237:234|257:274|257:274|325:293,1,163.559997504273,10|2,0:0|3:2,0:0:0:0:
141,143,92665,1,0,0:0:0:0:
303,65,92815,1,8,0:0:0:0:
233,0,92965,6,0,P|217:40|217:94,1,81.7799987521363,2|0,3:2|0:0,0:0:0:0:
316,203,93265,1,0,3:2:0:0:
190,384,93415,6,0,P|186:342|173:304,1,81.7799987521363,8|0,0:0|3:2,0:0:0:0:
334,180,93715,1,0,3:2:0:0:
279,355,93865,1,0,3:2:0:0:
168,162,94015,1,8,0:0:0:0:
346,282,94165,1,2,0:0:0:0:
70,372,94315,6,0,P|91:304|178:310,1,163.559997504273,4|10,3:2|0:0,0:0:0:0:
334,180,94765,1,2,0:0:0:0:
214,78,94915,1,2,3:2:0:0:
254,242,95065,1,2,0:0:0:0:
312,88,95215,1,8,0:0:0:0:
174,184,95365,1,2,0:0:0:0:
312,310,95515,6,0,P|350:322|404:348,1,81.7799987521363,2|2,3:2|0:0,0:0:0:0:
163,168,95815,2,0,P|121:177|67:197,1,81.7799987521363,10|2,0:0|0:0,0:0:0:0:
311,7,96115,2,0,B|402:19|367:79|456:97,1,163.559997504273,2|10,3:2|0:0,0:0:0:0:
265,222,96565,1,2,0:0:0:0:
185,91,96715,6,0,P|192:53|200:4,1,81.7799987521363,2|0,3:2|0:0,0:0:0:0:
361,202,97015,2,0,P|350:239|344:292,1,81.7799987521363,10|0,0:0|0:0,0:0:0:0:
283,132,97315,6,0,P|315:82|428:96,1,163.559997504273,2|10,3:2|0:0,0:0:0:0:
251,246,97765,2,0,P|208:255|157:276,1,81.7799987521363,2|0,3:2|0:0,0:0:0:0:
1,178,98065,1,0,3:2:0:0:
181,101,98215,1,8,0:0:0:0:
105,311,98365,1,0,3:2:0:0:
75,91,98515,1,0,3:2:0:0:
200,225,98665,1,0,3:2:0:0:
0,337,98815,5,10,0:0:0:0:
117,165,98965,1,2,0:0:0:0:
246,332,99115,6,0,B|280:341|280:341|290:353|290:353|351:371,1,90.4799994477539,6|0,3:2|0:0,0:0:0:0:
464,189,99415,1,10,0:0:0:0:
328,275,99565,1,0,3:2:0:0:
474,380,99715,2,0,P|492:336|478:285,1,90.4799994477539,2|0,3:2|0:0,0:0:0:0:
312,166,100015,2,0,P|270:182|209:196,1,90.4799994477539,10|0,0:0|0:0,0:0:0:0:
356,0,100315,6,0,P|421:32|399:145,2,180.959998895508,2|8|0,3:2|0:0|3:2,0:0:0:0:
215,169,101065,1,0,3:2:0:0:
386,109,101215,1,10,0:0:0:0:
241,10,101365,1,0,0:0:0:0:
330,189,101515,6,0,P|319:234|314:280,1,90.4799994477539,6|0,3:2|0:0,0:0:0:0:
127,105,101815,1,10,0:0:0:0:
175,272,101965,1,0,0:0:0:0:
263,93,102115,1,2,3:2:0:0:
92,206,102265,1,0,3:2:0:0:
263,347,102415,2,0,P|307:354|365:376,1,90.4799994477539,10|0,0:0|0:0,0:0:0:0:
245,117,102715,5,14,0:0:0:0:
132,373,102865,1,0,3:2:0:0:
356,230,103015,1,0,3:2:0:0:
127,105,103165,5,8,0:0:0:0:
253,368,103315,1,8,0:0:0:0:
61,218,103465,1,8,3:0:0:0:
284,109,103615,1,8,0:0:0:0:
108,384,103765,1,8,3:0:0:0:
237,220,103915,6,0,B|334:206|313:304|430:291,1,193.140004715332,6|0,3:2|3:2,0:0:0:0:
396,214,104515,2,0,P|368:229|321:235,1,64.3800015717774,2|2,0:0|3:2,0:0:0:0:
253,368,104815,1,8,0:0:0:0:
37,101,105115,6,0,B|159:73|159:73|116:87|107:136,1,193.140004715332,0|0,3:2|3:2,0:0:0:0:
220,211,105715,1,2,0:0:0:0:
183,147,105865,1,2,3:2:0:0:
74,268,106015,2,0,L|63:338,1,64.3800015717774,10|0,0:0|0:0,0:0:0:0:
288,172,106315,6,0,P|348:151|439:234,1,193.140004715332,6|0,3:2|3:2,0:0:0:0:
328,68,106915,2,0,L|345:-3,1,64.3800015717774,2|0,0:0|3:2,0:0:0:0:
455,248,107215,6,0,P|399:303|328:274,1,148.76999818396,10|0,0:0|0:0,0:0:0:0:
320,258,107515,5,6,3:2:0:0:
200,358,107665,2,0,L|94:387,1,99.1799987893067,2|0,0:0|3:2,0:0:0:0:
0,108,107965,6,0,B|72:130|72:130|117:175|101:237|44:226,1,198.359997578613,6|0,3:2|3:2,0:0:0:0:
0,108,108415,1,8,0:0:0:0:
142,33,108565,1,0,0:0:0:0:
196,95,108715,6,0,B|265:106|239:143|323:160,1,128.760003143555,0|2,3:2|0:0,0:0:0:0:
212,242,109165,1,2,3:2:0:0:
288,176,109315,1,2,0:0:0:0:
353,307,109465,1,2,3:2:0:0:
163,174,109615,6,0,L|66:198,1,90.4799994477539,10|0,0:0|0:0,0:0:0:0:
283,335,109915,6,0,L|414:371,1,128.760003143555,0|2,3:2|0:0,0:0:0:0:
353,224,110365,1,2,3:2:0:0:
457,298,110515,1,2,0:0:0:0:
367,384,110665,1,2,3:2:0:0:
481,205,110815,6,0,L|462:98,1,90.4799994477539,10|0,0:0|0:0,0:0:0:0:
307,0,111115,6,0,P|251:25|268:135,1,163.559997504273,4|10,3:2|0:0,0:0:0:0:
248,117,111715,6,0,P|210:119|160:153,1,81.7799987521363,2|2,3:2|3:2,0:0:0:0:
289,357,112015,2,0,L|389:391,1,81.7799987521363,10|2,0:0|0:0,0:0:0:0:
187,257,112315,6,0,B|101:244|116:315|24:297,1,163.559997504273,2|10,3:2|0:0,0:0:0:0:
161,163,112765,1,2,0:0:0:0:
306,277,112915,2,0,P|295:315|288:374,1,81.7799987521363,2|0,3:2|0:0,0:0:0:0:
65,176,113215,2,0,P|77:138|83:80,1,81.7799987521363,10|0,0:0|0:0,0:0:0:0:
188,273,113515,5,12,0:0:0:0:
136,34,113665,1,0,3:2:0:0:
0,213,113815,6,0,P|39:197|93:193,1,81.7799987521363,10|0,0:0|0:0,0:0:0:0:
286,26,114115,2,0,P|250:11|191:1,1,81.7799987521363,10|0,0:0|0:0,0:0:0:0:
342,187,114415,1,10,0:0:0:0:
188,273,114565,1,2,0:0:0:0:
241,102,114715,6,0,P|250:140|250:189,1,81.7799987521363,8|2,0:0|0:0,0:0:0:0:
444,331,115015,2,0,P|450:282|465:236,1,81.7799987521363,10|2,0:0|3:2,0:0:0:0:
305,356,115315,1,10,0:0:0:0:
421,155,115465,1,2,3:2:0:0:
512,384,115615,1,10,0:0:0:0:
315,237,115765,1,0,3:2:0:0:
500,170,115915,6,0,L|514:81,1,81.7799987521363,8|2,0:0|3:2,0:0:0:0:
331,223,116215,1,10,0:0:0:0:
472,321,116365,1,2,3:2:0:0:
342,142,116515,1,10,0:0:0:0:
200,246,116665,2,0,L|184:338,1,81.7799987521363,2|8,3:2|0:0,0:0:0:0:
256,384,116965,1,2,3:2:0:0:
256,384,117265,5,8,0:0:0:0:
18,159,117415,1,8,0:0:0:0:
318,47,117565,1,8,0:0:0:0:
87,323,117715,1,8,0:0:0:0:
87,323,118015,6,0,B|80:281|66:244|66:244|97:181|166:217,1,187.920004587891,12|0,0:0|0:0,0:0:0:0:
197,278,118315,6,0,P|182:329|175:402,1,107.879995720093,6|0,3:2|0:0,0:0:0:0:
36,229,118615,2,0,P|26:176|78:139,1,107.879995720093,10|0,0:0|0:0,0:0:0:0:
236,54,118915,1,2,3:2:0:0:
132,237,119065,1,0,3:2:0:0:
121,35,119215,1,10,0:0:0:0:
261,163,119365,1,0,0:0:0:0:
67,120,119515,5,2,3:2:0:0:
256,32,119665,2,0,P|306:50|374:62,1,107.879995720093,2|8,0:0|0:0,0:0:0:0:
471,205,119965,1,2,3:2:0:0:
313,325,120115,2,0,P|361:306|421:304,1,107.879995720093,0|0,3:2|3:2,0:0:0:0:
267,190,120415,1,8,0:0:0:0:
447,102,120565,1,0,0:0:0:0:
301,343,120715,6,0,P|250:347|207:294,1,107.879995720093,6|0,3:2|0:0,0:2:0:0:
102,129,121015,2,0,L|127:12,1,107.879995720093,10|0,0:0|0:0,0:0:0:0:
237,176,121315,1,2,3:2:0:0:
35,273,121465,1,0,3:2:0:0:
136,122,121615,1,10,0:0:0:0:
226,292,121765,1,0,0:2:0:0:
25,163,121915,5,2,3:2:0:0:
246,39,122065,2,0,L|223:144,1,107.879995720093,2|10,0:0|0:0,0:0:0:0:
124,24,122365,1,2,0:0:0:0:
298,225,122515,2,0,B|337:216|337:216|351:198|351:198|414:180,1,107.879995720093,0|0,3:2|3:2,0:0:0:0:
275,355,122815,1,8,0:0:0:0:
493,241,122965,1,0,0:2:0:0:
246,39,123115,6,0,L|222:154,1,107.879995720093,6|0,3:2|0:2,0:2:0:0:
434,366,123415,2,0,L|415:240,1,107.879995720093,10|0,0:0|0:0,0:0:0:0:
275,355,123715,1,2,3:2:0:0:
394,185,123865,1,2,3:2:0:0:
460,384,124015,1,10,0:0:0:0:
285,253,124165,1,2,0:2:0:0:
486,149,124315,5,6,3:2:0:0:
275,355,124465,2,0,B|238:343|238:343|225:325|225:325|165:309,1,107.879995720093,2|8,0:0|0:0,0:0:0:0:
6,123,124765,2,0,B|50:73|106:100|106:100|94:165|145:203,1,215.759991440186,6|0,3:2|3:2,0:0:0:0:
7,281,125215,1,8,0:0:0:0:
197,128,125365,1,0,0:2:0:0:
66,3,125515,6,0,L|81:119,1,107.879995720093,6|0,3:2|0:0,0:0:0:0:
216,234,125815,1,10,0:0:0:0:
283,40,125965,1,2,0:0:0:0:
114,109,126115,1,2,3:2:0:0:
307,238,126265,1,2,3:2:0:0:
122,318,126415,1,10,0:0:0:0:
291,135,126565,2,0,P|340:157|402:172,1,107.879995720093,2|0,0:0|3:2,0:0:0:0:
449,301,126865,1,2,0:0:0:0:
279,115,127015,6,0,P|223:121|192:173,1,107.879995720093,14|0,0:0|0:0,0:0:0:0:
339,349,127315,1,6,3:2:0:0:
138,232,127465,1,0,3:2:0:0:
373,64,127615,2,0,L|395:190,1,107.879995720093,8|0,0:0|0:0,0:0:0:0:
224,383,127915,6,0,P|192:340|216:272,1,107.879995720093,6|0,3:2|0:0,0:2:0:0:
377,178,128215,2,0,L|501:213,1,107.879995720093,10|0,0:0|0:0,0:0:0:0:
290,18,128515,1,2,3:2:0:0:
354,251,128665,1,0,3:2:0:0:
469,71,128815,1,10,0:0:0:0:
276,173,128965,1,0,0:2:0:0:
444,277,129115,5,2,3:2:0:0:
373,64,129265,1,2,0:2:0:0:
275,310,129415,1,10,0:0:0:0:
494,192,129565,1,2,3:2:0:0:
251,91,129715,2,0,L|124:125,1,107.879995720093,0|0,3:2|3:2,0:0:0:0:
291,301,130015,2,0,B|349:318|349:318|367:352|367:352|449:375,1,161.819993580139,8|0,0:0|0:0,0:0:0:0:
463,384,130315,6,0,L|443:269,1,107.879995720093,6|0,3:2|0:0,0:0:0:0:
245,72,130615,1,10,0:0:0:0:
291,301,130765,1,2,3:2:0:0:
416,138,130915,1,2,3:2:0:0:
211,231,131065,1,0,3:2:0:0:
463,384,131215,2,0,L|443:269,1,107.879995720093,10|0,0:0|0:0,0:0:0:0:
287,0,131515,6,0,P|250:39|264:109,1,107.879995720093,6|2,3:2|0:0,0:0:0:0:
89,274,131815,1,10,0:0:0:0:
40,153,131965,2,0,P|118:142|214:260,1,215.759991440186,2|0,3:2|3:2,0:0:0:0:
337,66,132415,1,8,0:0:0:0:
183,154,132565,1,0,3:2:0:0:
362,317,132715,6,0,P|367:260|389:201,1,107.879995720093,6|0,3:2|0:0,0:0:0:0:
161,348,133015,2,0,P|214:354|270:382,1,107.879995720093,10|0,0:0|0:0,0:0:0:0:
113,241,133315,1,2,3:2:0:0:
274,125,133465,1,2,3:2:0:0:
164,322,133615,1,10,0:0:0:0:
105,101,133765,1,2,3:2:0:0:
289,272,133915,6,0,L|260:387,1,107.879995720093,6|0,3:2|3:2,0:0:0:0:
113,241,134215,1,8,0:0:0:0:
274,125,134365,2,0,B|328:97|371:150|371:150|395:227|474:212,1,215.759991440186,6|0,3:2|3:2,0:0:0:0:
253,22,134815,1,8,0:0:0:0:
451,130,134965,1,0,3:2:0:0:
289,272,135115,5,6,3:2:0:0:
367,50,135265,2,0,L|376:174,1,107.879995720093,2|8,0:0|0:0,0:0:0:0:
131,347,135565,2,0,P|101:306|126:246,1,107.879995720093,2|0,0:0|3:2,0:0:0:0:
250,149,135865,1,2,3:2:0:0:
340,350,136015,1,8,0:0:0:0:
194,225,136165,1,2,3:2:0:0:
392,134,136315,6,0,L|520:170,1,107.879995720093,4|0,3:2|0:0,0:2:0:0:
289,272,136615,1,8,0:0:0:0:
422,112,136765,1,0,3:2:0:0:
449,332,136915,1,0,3:2:0:0:
276,171,137065,1,0,3:2:0:0:
486,64,137215,2,0,P|509:108|486:173,1,107.879995720093,10|0,0:0|0:0,0:0:0:0:
250,379,137515,5,6,3:2:0:0:
171,208,137665,2,0,L|197:89,1,107.879995720093,2|8,0:0|0:0,0:0:0:0:
297,279,137965,2,0,B|185:259|202:367|84:340,1,215.759991440186,2|2,0:0|3:2,0:0:0:0:
275,195,138415,1,8,0:0:0:0:
96,76,138565,1,2,3:2:0:0:
171,208,138715,6,0,L|197:89,1,107.879995720093,4|0,3:2|0:0,0:0:0:0:
52,229,139015,1,8,0:0:0:0:
250,379,139165,1,0,3:2:0:0:
160,187,139315,1,2,3:2:0:0:
32,384,139465,1,0,3:2:0:0:
207,291,139615,1,10,0:0:0:0:
32,198,139765,1,0,0:0:0:0:
115,369,139915,6,0,L|136:247,1,107.879995720093,14|2,0:0|0:0,0:0:0:0:
366,120,140215,2,0,L|380:241,1,107.879995720093,8|2,0:0|3:2,0:0:0:0:
222,85,140515,1,8,0:0:0:0:
381,0,140665,1,2,3:2:0:0:
210,105,140815,1,8,0:0:0:0:
445,252,140965,6,0,B|321:225|369:340|237:302,1,215.759991440186,4|2,3:2|3:2,0:0:0:0:
461,165,141415,1,10,0:0:0:0:
296,40,141565,1,2,3:2:0:0:
374,223,141715,1,2,3:2:0:0:
466,48,141865,1,2,3:2:0:0:
238,197,142015,2,0,L|250:320,1,107.879995720093,10|2,0:0|0:0,0:0:0:0:
44,142,142315,6,0,P|44:64|175:47,1,215.759991440186,6|8,3:2|0:0,0:0:0:0:
265,213,142765,1,2,3:2:0:0:
116,317,142915,2,0,L|136:208,1,107.879995720093,0|0,3:2|3:2,0:0:0:0:
292,111,143215,1,8,0:0:0:0:
370,338,143365,1,0,3:2:0:0:
370,338,143665,5,10,0:0:0:0:
193,56,143815,1,10,0:0:0:0:
148,384,143965,1,10,0:0:0:0:
416,153,144115,1,10,0:0:0:0:
416,153,144415,6,0,P|350:120|286:203,1,187.920004587891,12|0,0:0|0:0,0:0:0:0:
305,219,144715,6,0,B|348:233|348:233|368:257|368:257|444:281,1,128.760003143555,4|0,3:2|3:2,0:0:0:0:
292,104,145165,1,2,0:0:0:0:
169,213,145315,2,0,L|179:301,1,64.3800015717774,8|0,0:0|0:0,0:0:0:0:
64,160,145615,1,0,3:2:0:0:
191,292,145765,6,0,B|144:303|144:303|120:329|120:329|67:339,1,128.760003143555,8|0,0:0|3:2,0:0:0:0:
196,201,146215,1,0,3:2:0:0:
56,134,146365,1,0,3:2:0:0:
150,28,146515,6,0,L|162:114,1,64.3800015717774,8|0,0:0|0:0,0:0:0:0:
293,280,146815,2,0,L|308:199,1,64.3800015717774,0|8,3:2|0:0,0:0:0:0:
492,71,147115,6,0,P|429:59|403:122,1,128.760003143555,0|0,3:2|0:0,0:0:0:0:
498,240,147565,1,0,3:2:0:0:
407,117,147715,2,0,L|319:93,1,64.3800015717774,8|0,0:0|0:0,0:0:0:0:
430,17,148015,1,0,3:2:0:0:
512,149,148165,1,8,0:0:0:0:
512,149,148465,5,8,0:0:0:0:
269,361,148615,1,8,0:0:0:0:
327,83,148765,1,8,0:0:0:0:
475,330,148915,1,8,0:0:0:0:
215,197,149065,1,8,0:0:0:0:
431,31,149215,1,8,0:0:0:0:
303,266,149365,1,8,0:0:0:0:
154,9,149515,6,0,P|201:30|260:40,1,99.1799987893067,6|2,3:2|0:0,0:0:0:0:
378,223,149815,2,0,B|267:201|298:311|173:280,1,198.359997578613,8|8,0:0|0:0,0:0:0:0:
336,104,150265,1,0,3:2:0:0:
382,330,150415,1,8,0:0:0:0:
193,178,150565,1,0,3:2:0:0:
417,47,150715,6,0,L|426:157,1,99.1799987893067,12|0,0:0|0:0,0:0:0:0:
112,339,151015,2,0,L|125:240,1,99.1799987893067,8|0,0:0|0:0,0:0:0:0:
318,118,151315,1,8,0:0:0:0:
201,371,151465,1,0,3:2:0:0:
92,95,151615,1,8,0:0:0:0:
301,256,151765,1,0,3:2:0:0:
94,345,151915,6,0,L|-5:314,1,99.1799987893067,12|0,0:0|0:0,0:0:0:0:
200,150,152215,1,8,0:0:0:0:
29,228,152365,1,0,3:2:0:0:
201,371,152515,1,8,0:0:0:0:
96,131,152665,1,0,3:2:0:0:
0,339,152815,1,8,0:0:0:0:
223,228,152965,1,0,3:2:0:0:
20,41,153115,6,0,L|-2:150,1,99.1799987893067,12|0,0:0|0:0,0:0:0:0:
161,283,153415,1,8,0:0:0:0:
0,365,153565,1,0,3:2:0:0:
109,105,153715,5,8,0:0:0:0:
235,380,153865,1,8,3:2:0:0:
29,228,154015,1,8,0:0:0:0:
281,83,154165,1,0,3:0:0:0:
161,283,154315,6,0,L|148:171,1,99.1799987893067,4|0,3:2|0:0,0:0:0:0:
327,289,154615,1,8,0:0:0:0:
148,384,154765,1,0,3:2:0:0:
268,118,154915,1,10,0:0:0:0:
419,350,155065,1,0,3:2:0:0:
182,202,155215,1,8,0:0:0:0:
427,74,155365,1,0,3:2:0:0:
317,314,155515,5,12,0:0:0:0:
248,21,155665,1,0,3:2:0:0:
482,199,155815,1,8,0:0:0:0:
187,317,155965,1,0,3:2:0:0:
336,74,156115,1,10,0:0:0:0:
431,384,156265,1,0,3:2:0:0:
165,177,156415,2,0,L|185:70,1,99.1799987893067,8|0,0:0|3:2,0:0:0:0:
25,343,156715,6,0,P|78:285|196:310,1,198.359997578613,12|8,3:2|0:0,0:0:0:0:
31,154,157165,1,0,3:2:0:0:
187,301,157315,2,0,P|140:303|98:259,1,99.1799987893067,8|0,0:0|3:2,0:0:0:0:
281,91,157615,2,0,L|300:202,1,99.1799987893067,8|0,0:0|3:2,0:0:0:0:
117,384,157915,5,12,0:0:0:0:
376,177,158065,1,0,3:2:0:0:
66,85,158215,1,8,0:0:0:0:
309,352,158365,1,0,3:2:0:0:
228,14,158515,1,8,0:0:0:0:
2,284,158665,1,0,3:2:0:0:
347,183,158815,1,8,0:0:0:0:
41,0,158965,1,0,3:2:0:0:
185,299,159115,6,0,P|194:266|201:228,1,66.1199991928711,12|0,3:0|0:0,0:0:0:0:
243,171,159315,2,0,P|235:139|232:100,1,66.1199991928711,8|0,3:0|0:0,0:0:0:0:
173,54,159515,1,8,3:0:0:0:
381,252,159715,6,0,P|371:216|363:175,1,77.7199963236696,12|0,3:0|0:0,0:0:0:0:
316,120,159915,2,0,P|324:85|327:43,1,77.7199963236696,8|0,3:0|0:0,0:0:0:0:
391,0,160115,1,8,3:0:0:0:
187,300,160315,6,0,B|262:258|346:322|322:326|372:479|532:450|555:318|496:180|351:191|322:326|346:322|311:418|225:369,1,613.349990641022,4|0,3:2|0:0,0:0:0:0:
233,366,161515,6,0,L|248:263,1,93.9600022939454,2|0,0:0|0:0,0:0:0:0:
136,52,162115,5,2,0:0:0:0:
39,111,162265,2,0,L|144:139,1,93.9600022939454,2|2,0:0|0:0,0:0:0:0:
202,182,162715,6,0,P|157:163|99:228,1,140.940003440918,2|0,0:0|0:0,0:0:0:0:
37,268,163315,2,0,L|51:375,1,93.9600022939454,2|2,0:0|0:0,0:0:0:0:
317,148,163915,6,0,L|336:38,1,93.9600022939454,2|2,0:0|0:0,0:0:0:0:
202,182,164515,1,2,0:0:0:0:
383,320,164815,1,2,0:0:0:0:
339,254,165115,6,0,L|286:270,2,46.9800011469727,2|2|2,0:0|0:0|0:0,0:0:0:0:
391,192,165565,2,0,P|440:180|492:247,1,140.940003440918,2|0,0:0|0:0,0:0:0:0:
391,192,166315,6,0,L|383:128,1,64.3800015717774,0|0,3:2|0:0,0:0:0:0:
420,63,166615,1,2,0:0:0:0:
296,155,166765,1,0,3:2:0:0:
254,93,166915,2,0,L|270:18,1,64.3800015717774,2|2,0:0|0:0,0:0:0:0:
92,167,167215,6,0,B|141:177|141:177|169:213|169:213|238:229,1,148.76999818396,10|0,0:0|0:0,0:0:0:0:
237,218,167515,6,0,P|186:198|134:254,1,128.760003143555,0|2,3:2|0:0,0:0:0:0:
238,341,167965,1,0,3:2:0:0:
167,379,168115,2,0,L|96:358,1,64.3800015717774,2|2,0:0|3:2,0:0:0:0:
237,218,168415,6,0,B|277:203|310:233|310:233|326:284|385:280,1,148.76999818396,10|0,0:0|0:0,0:0:0:0:
421,233,168715,6,0,L|399:122,1,81.7799987521363,4|2,3:2|0:0,0:0:0:0:
228,33,169015,2,0,L|207:121,1,81.7799987521363,10|2,0:0|0:0,0:0:0:0:
407,31,169315,6,0,L|319:1,1,81.7799987521363,2|2,3:2|3:2,0:0:0:0:
157,237,169615,2,0,L|242:216,1,81.7799987521363,10|0,0:0|0:0,0:0:0:0:
100,27,169915,6,0,P|27:84|47:154,1,163.559997504273,2|10,3:2|0:0,0:0:0:0:
157,237,170365,1,2,0:0:0:0:
22,352,170515,2,0,L|43:260,1,81.7799987521363,2|2,3:2|3:2,0:0:0:0:
162,148,170815,6,0,B|230:166|230:166|250:215|250:215|328:240,1,187.920004587891,14|0,0:0|0:0,0:0:0:0:
339,242,171115,5,12,3:2:0:0:
189,354,171265,1,0,3:2:0:0:
331,130,171415,1,10,0:0:0:0:
459,330,171565,1,0,3:2:0:0:
243,152,171715,6,0,L|267:48,1,99.1799987893067,10|0,0:0|3:2,0:0:0:0:
412,192,172015,1,10,0:0:0:0:
215,335,172165,1,2,0:0:0:0:
322,218,172315,6,0,L|340:328,1,99.1799987893067,8|2,0:0|3:2,0:0:0:0:
162,148,172615,1,10,0:0:0:0:
356,35,172765,1,0,3:2:0:0:
236,252,172915,5,10,0:0:0:0:
170,27,173065,1,2,3:2:0:0:
338,120,173215,1,10,0:0:0:0:
124,240,173365,1,0,3:2:0:0:
265,55,173515,5,8,0:0:0:0:
336,318,173665,1,2,3:2:0:0:
181,129,173815,1,10,0:0:0:0:
127,369,173965,1,0,3:2:0:0:
322,218,174115,1,10,0:0:0:0:
78,69,174265,2,0,L|88:172,1,99.1799987893067,2|8,3:2|0:0,0:0:0:0:
44,235,174565,1,0,3:2:0:0:
44,235,174865,5,8,0:0:0:0:
379,91,175015,1,8,0:0:0:0:
139,0,175165,1,8,0:0:0:0:
298,310,175315,1,8,0:0:0:0:
298,310,175615,6,0,P|269:247|172:283,1,187.920004587891,12|0,0:0|0:0,0:0:0:0:
126,344,175915,6,0,P|71:350|18:374,1,107.879995720093,6|0,3:2|0:0,0:0:0:0:
245,209,176215,2,0,P|255:156|258:94,1,107.879995720093,10|0,0:0|0:0,0:0:0:0:
319,315,176515,1,2,3:2:0:0:
175,155,176665,1,0,3:2:0:0:
348,71,176815,1,10,0:0:0:0:
173,278,176965,1,0,0:2:0:0:
249,78,177115,5,6,3:2:0:0:
382,233,177265,2,0,L|500:260,1,107.879995720093,2|8,0:0|0:0,0:0:0:0:
326,351,177565,1,2,3:2:0:0:
459,169,177715,1,0,3:2:0:0:
501,383,177865,1,0,3:2:0:0:
300,234,178015,1,8,0:0:0:0:
478,138,178165,1,0,0:2:0:0:
326,351,178315,6,0,P|273:355|211:377,1,107.879995720093,6|0,3:2|0:0,0:2:0:0:
45,181,178615,2,0,P|161:170|216:251,1,215.759991440186,10|2,0:0|3:2,0:0:0:0:
72,371,179065,1,0,3:2:0:0:
214,241,179215,2,0,P|204:185|202:126,1,107.879995720093,10|0,0:0|0:0,0:0:0:0:
77,248,179515,5,2,3:2:0:0:
13,62,179665,2,0,P|8:121|-3:180,1,107.879995720093,2|8,0:0|0:0,0:0:0:0:
177,35,179965,1,2,3:2:0:0:
242,251,180115,2,0,P|232:195|230:136,1,107.879995720093,0|0,3:2|3:2,0:0:0:0:
57,321,180415,1,8,0:0:0:0:
115,134,180565,1,0,0:2:0:0:
278,329,180715,6,0,P|317:364|382:358,1,107.879995720093,6|0,3:2|0:0,0:0:0:0:
423,150,181015,2,0,B|304:155|349:248|227:251,1,215.759991440186,10|2,0:0|3:2,0:0:0:0:
469,318,181465,1,2,3:2:0:0:
322,166,181615,1,10,0:0:0:0:
268,370,181765,1,2,0:0:0:0:
491,210,181915,5,6,3:2:0:0:
274,62,182065,2,0,P|222:80|160:92,1,107.879995720093,2|8,0:0|0:0,0:0:0:0:
16,269,182365,2,0,B|71:262|99:222|99:222|88:292|140:331,1,215.759991440186,6|0,3:2|3:2,0:2:0:0:
11,173,182815,1,8,0:0:0:0:
37,367,182965,1,0,0:2:0:0:
189,249,183115,6,0,P|292:231|359:315,1,215.759991440186,2|10,3:2|0:0,0:0:0:0:
185,133,183565,1,2,0:0:0:0:
357,225,183715,1,2,3:2:0:0:
150,358,183865,1,2,3:2:0:0:
300,115,184015,1,10,0:0:0:0:
412,384,184165,1,2,0:0:0:0:
189,249,184315,1,0,3:2:0:0:
177,241,184615,6,0,L|296:214,1,107.879995720093,14|0,0:0|0:0,0:0:0:0:
445,89,184915,1,6,3:2:0:0:
256,18,185065,1,0,3:2:0:0:
445,199,185215,1,8,0:0:0:0:
362,0,185365,1,0,0:2:0:0:
177,241,185515,6,0,L|158:365,1,107.879995720093,6|0,3:2|0:0,0:0:0:0:
363,182,185815,2,0,L|343:63,1,107.879995720093,10|0,0:0|0:0,0:0:0:0:
178,209,186115,1,2,3:2:0:0:
344,320,186265,1,0,3:2:0:0:
214,106,186415,1,10,0:0:0:0:
82,287,186565,1,0,0:2:0:0:
282,220,186715,5,6,3:2:0:0:
85,89,186865,1,2,0:0:0:0:
277,201,187015,1,8,0:0:0:0:
67,309,187165,1,0,3:2:0:0:
178,209,187315,6,0,P|201:258|191:338,1,107.879995720093,2|0,0:2|3:2,0:0:0:0:
51,177,187615,2,0,L|72:52,1,107.879995720093,8|0,0:0|0:0,0:0:0:0:
298,325,187915,6,0,B|179:295|199:407|68:377,1,215.759991440186,6|10,3:2|0:0,0:0:0:0:
282,220,188365,1,0,0:0:0:0:
85,89,188515,1,2,3:2:0:0:
200,310,188665,1,0,3:2:0:0:
371,152,188815,2,0,P|356:100|352:34,1,107.879995720093,10|0,0:0|0:0,0:0:0:0:
202,228,189115,5,6,3:2:0:0:
416,369,189265,1,2,3:2:0:0:
267,122,189415,1,10,0:0:0:0:
122,365,189565,1,2,3:2:0:0:
325,229,189715,1,0,3:2:0:0:
112,84,189865,1,0,3:2:0:0:
200,310,190015,2,0,L|222:185,1,107.879995720093,8|0,0:0|0:0,0:0:0:0:
83,5,190315,6,0,B|37:30|-10:48|-10:48|12:103|32:177,1,215.759991440186,6|10,3:2|0:0,0:0:0:0:
177,289,190765,1,0,3:2:0:0:
14,381,190915,1,2,3:2:0:0:
128,192,191065,1,2,3:2:0:0:
229,384,191215,1,10,0:0:0:0:
53,244,191365,1,2,0:0:0:0:
246,112,191515,5,6,3:2:0:0:
362,243,191665,2,0,P|345:298|338:362,1,107.879995720093,0|8,0:0|0:0,0:0:0:0:
233,192,191965,2,0,B|297:211|327:143|315:148|355:84|429:118,1,215.759991440186,6|0,3:2|3:2,0:0:0:0:
251,279,192415,1,8,0:0:0:0:
426,384,192565,1,0,3:2:0:0:
352,146,192715,5,6,3:2:0:0:
171,337,192865,2,0,L|35:363,1,107.879995720093,2|8,0:0|0:0,0:0:0:0:
233,192,193165,2,0,L|346:229,1,107.879995720093,2|0,0:0|3:2,0:0:0:0:
157,79,193465,1,2,3:2:0:0:
330,0,193615,1,8,0:0:0:0:
144,101,193765,1,2,0:2:0:0:
335,225,193915,6,0,L|319:98,1,107.879995720093,4|0,3:2|0:0,0:0:0:0:
139,226,194215,1,8,0:0:0:0:
284,359,194365,1,0,3:2:0:0:
220,171,194515,1,0,3:2:0:0:
100,333,194665,1,0,3:2:0:0:
301,245,194815,1,10,0:0:0:0:
133,114,194965,1,0,0:2:0:0:
213,293,195115,5,6,3:2:0:0:
383,113,195265,2,0,P|328:98|276:76,1,107.879995720093,2|8,0:0|0:0,0:0:0:0:
468,271,195565,2,0,B|343:264|405:371|267:357,1,215.759991440186,2|2,3:2|3:2,0:0:0:0:
471,186,196015,1,8,0:0:0:0:
276,98,196165,1,2,0:0:0:0:
402,331,196315,6,0,P|388:276|388:214,1,107.879995720093,4|0,3:2|0:0,0:0:0:0:
204,26,196615,2,0,P|187:72|187:133,1,107.879995720093,8|0,0:0|0:0,0:0:0:0:
41,323,196915,1,2,3:2:0:0:
225,202,197065,1,0,3:2:0:0:
67,102,197215,1,10,0:0:0:0:
170,286,197365,1,0,0:0:0:0:
325,42,197515,6,0,P|276:20|201:10,1,107.879995720093,14|2,0:0|0:0,0:0:0:0:
47,287,197815,2,0,P|100:271|154:270,1,107.879995720093,10|2,0:0|0:0,0:0:0:0:
36,116,198115,1,8,0:0:0:0:
250,222,198265,1,0,3:2:0:0:
36,364,198415,1,8,0:0:0:0:
158,144,198565,6,0,P|173:239|185:373,1,215.759991440186,4|2,3:2|3:2,0:0:0:0:
7,208,199015,1,10,0:0:0:0:
214,69,199165,1,0,3:2:0:0:
104,0,199315,2,0,P|84:50|84:116,1,107.879995720093,2|0,3:2|3:2,0:0:0:0:
250,222,199615,1,8,0:0:0:0:
36,364,199765,1,2,0:0:0:0:
150,239,199915,6,0,B|260:207|237:324|378:290,1,215.759991440186,6|8,3:2|0:0,0:0:0:0:
486,180,200365,1,0,3:2:0:0:
299,99,200515,1,0,3:2:0:0:
462,293,200665,1,0,3:2:0:0:
401,60,200815,1,8,0:0:0:0:
250,222,200965,2,0,L|262:335,1,107.879995720093,0|0,0:2|3:2,0:0:0:0:
392,163,201265,5,10,0:0:0:0:
104,46,201415,1,8,0:0:0:0:
339,234,201565,1,8,0:0:0:0:
38,337,201715,1,8,0:0:0:0:
38,337,202015,6,0,P|66:269|158:299,1,187.920004587891,6|0,3:2|0:2,0:2:0:0:
183,325,202315,6,0,P|229:337|296:369,1,99.1799987893067,6|2,3:2|0:0,0:0:0:0:
112,131,202615,2,0,P|107:171|92:234,1,99.1799987893067,10|0,0:0|3:2,0:0:0:0:
295,113,202915,1,2,3:2:0:0:
155,9,203065,1,2,3:2:0:0:
232,213,203215,1,10,0:0:0:0:
393,97,203365,6,0,L|374:-12,1,99.1799987893067,2|0,3:2|0:0,0:0:0:0:
209,133,203665,1,10,0:0:0:0:
414,267,203815,1,2,3:2:0:0:
290,93,203965,1,2,3:2:0:0:
183,325,204115,1,2,3:2:0:0:
395,183,204265,1,10,0:0:0:0:
181,50,204415,1,10,0:0:0:0:
285,249,204565,1,2,0:2:0:0:
393,97,204715,6,0,L|374:-12,1,99.1799987893067,6|2,3:2|0:0,0:0:0:0:
121,159,205015,2,0,L|100:271,1,99.1799987893067,10|2,0:0|3:2,0:0:0:0:
301,131,205315,1,2,3:2:0:0:
117,14,205465,1,2,0:2:0:0:
257,246,205615,1,10,0:0:0:0:
375,0,205765,2,0,L|279:32,1,99.1799987893067,2|0,3:2|3:2,0:0:0:0:
102,256,206065,5,10,0:0:0:0:
339,355,206215,1,2,3:2:0:0:
216,164,206365,1,2,3:2:0:0:
137,384,206515,1,2,3:2:0:0:
347,227,206665,1,10,0:0:0:0:
135,60,206815,2,0,L|118:175,1,99.1799987893067,10|0,0:0|0:0,0:0:0:0:
339,355,207115,6,0,L|326:235,1,99.1799987893067,6|2,3:2|0:0,0:0:0:0:
137,384,207415,1,10,0:0:0:0:
211,145,207565,1,2,3:2:0:0:
364,332,207715,1,2,3:2:0:0:
167,228,207865,1,2,0:2:0:0:
412,107,208015,1,10,0:0:0:0:
219,2,208165,2,0,L|100:33,1,99.1799987893067,2|2,3:2|3:2,0:0:0:0:
261,222,208465,5,10,0:0:0:0:
352,1,208615,1,2,3:2:0:0:
187,125,208765,1,2,3:2:0:0:
411,261,208915,2,0,L|527:234,1,99.1799987893067,2|10,3:2|0:0,0:0:0:0:
292,384,209215,2,0,L|183:361,1,99.1799987893067,10|0,0:0|0:0,0:0:0:0:
306,116,209515,5,6,3:2:0:0:
416,358,209665,1,10,0:0:0:0:
167,228,209815,1,2,3:2:0:0:
400,123,209965,1,2,3:2:0:0:
292,384,210115,5,10,0:0:0:0:
203,123,210265,1,2,3:2:0:0:
395,251,210415,1,2,3:2:0:0:
172,346,210565,1,10,0:0:0:0:
324,88,210715,1,10,0:0:0:0:
242,205,210865,6,0,L|253:279,1,64.3800015717774,2|2,3:2|0:0,0:0:0:0:
322,308,211165,1,8,0:0:0:0:
128,128,211315,6,0,L|140:51,1,64.3800015717774,2|2,3:2|3:2,0:0:0:0:
86,8,211615,1,8,0:0:0:0:
226,126,211765,1,0,3:2:0:0:
84,270,211915,6,0,B|62:209|-7:205|-7:205|94:178|157:288|109:271|165:376|260:357,1,438.479986618653,4|0,3:2|0:0,0:0:0:0:
