osu file format v14

[General]
AudioFilename: kira kira days2.mp3
AudioLeadIn: 0
PreviewTime: 53246
Countdown: 0
SampleSet: Soft
StackLeniency: 0.7
Mode: 0
LetterboxInBreaks: 0
WidescreenStoryboard: 0

[Editor]
DistanceSpacing: 0.8
BeatDivisor: 4
GridSize: 32
TimelineZoom: 2.3

[Metadata]
Title:Kira Kira Days
TitleUnicode:キラキラ Days
Artist:HO-KAGO TEA TIME
ArtistUnicode:放課後ティータイム
Creator:Kagetsu
Version:Shiawase!!
Source:けいおん!!
Tags:Milan- Mamayu fuyuyu- pkhg HappyRocket88 K-ON!! HTT Keion Yui Hirasawa Mio Akiyama Ritsu Tainaka Tsumugi Kotobuki Azusa Nakano Toyosaki Aki Hikasa Yoko Sato Satomi Minako Taketatsu Ayana tv size Pony Canyon 平沢唯 秋山澪 田井中律 琴吹紬 中野梓 豊崎愛生 日笠陽子 佐藤聡美 寿美菜子 竹達彩奈
BeatmapID:954692
BeatmapSetID:444335

[Difficulty]
HPDrainRate:7
CircleSize:4
OverallDifficulty:9
ApproachRate:9.5
SliderMultiplier:1.8
SliderTickRate:1

[Events]
//Background and Video events
0,0,"BG3.jpg",0,0
//Break Periods
//Storyboard Layer 0 (Background)
//Storyboard Layer 1 (Fail)
//Storyboard Layer 2 (Pass)
//Storyboard Layer 3 (Foreground)
//Storyboard Sound Samples

[TimingPoints]
746,300,4,2,1,80,1,0
10046,-83.3333333333333,4,2,1,80,0,0
10346,-100,4,2,1,80,0,0
39146,-133.333333333333,4,2,1,80,0,0
45071,-133.333333333333,4,2,1,5,0,0
45146,-133.333333333333,4,2,1,80,0,0
46271,-133.333333333333,4,2,1,5,0,0
46346,-100,4,2,1,80,0,0
53246,-83.3333333333333,4,2,1,80,0,0
53471,-83.3333333333333,4,2,1,5,0,0
53546,-100,4,2,1,100,0,1
79646,-66.6666666666667,4,2,1,100,0,1
79871,-66.6666666666667,4,2,1,5,0,1
79946,-100,4,2,1,80,0,0
90671,-100,4,2,1,5,0,0

[Colours]
Combo1 : 0,255,128
Combo2 : 255,170,255
Combo3 : 255,255,128
Combo4 : 128,255,255

[HitObjects]
303,277,446,5,12,0:0:0:0:
303,277,746,2,0,L|411:291,1,90,2|0,0:3|0:0,0:0:0:0:
252,193,1046,1,8,0:0:0:0:
153,283,1196,1,2,0:3:0:0:
172,136,1346,2,0,L|187:7,1,90,2|0,0:3|0:0,0:0:0:0:
79,164,1646,1,8,0:0:0:0:
287,47,1796,6,0,L|445:64,1,135,2|0,0:3|0:0,0:0:0:0:
455,49,2096,1,8,0:0:0:0:
326,167,2246,2,0,L|217:155,1,90,8|2,0:0|0:3,0:0:0:0:
392,255,2546,1,0,0:0:0:0:
435,146,2696,1,8,0:0:0:0:
268,264,2846,1,8,0:0:0:0:
404,272,2996,1,0,0:0:0:0:
268,264,3146,6,0,L|148:238,1,90,2|0,0:3|0:0,0:0:0:0:
76,313,3446,1,8,0:0:0:0:
244,147,3596,1,0,0:0:0:0:
147,68,3746,2,0,P|124:107|136:187,1,90,2|0,0:3|0:0,0:0:0:0:
191,323,4046,1,8,0:0:0:0:
354,253,4196,6,0,L|334:81,1,135,2|0,0:3|0:0,0:0:0:0:
358,89,4496,1,8,0:0:0:0:
218,184,4646,2,0,L|108:205,1,90,8|0,0:0|0:0,0:0:0:0:
243,96,4946,1,0,0:0:0:0:
136,219,5096,1,8,0:0:0:0:
20,143,5246,1,8,0:0:0:0:
142,237,5396,1,0,0:0:0:0:
104,104,5546,6,0,L|86:-2,1,90,2|0,0:3|0:0,0:0:0:0:
237,120,5846,1,8,0:0:0:0:
132,199,5996,1,0,0:0:0:0:
328,142,6146,2,0,L|442:169,1,90,2|0,0:3|0:0,0:0:0:0:
186,289,6446,1,8,0:0:0:0:
310,39,6596,6,0,L|316:211,1,135,2|0,0:3|0:0,0:0:0:0:
302,207,6896,1,8,0:0:0:0:
163,238,7046,2,0,L|175:105,1,90,8|0,0:0|0:0,0:0:0:0:
199,40,7346,1,0,0:0:0:0:
81,178,7496,1,8,0:0:0:0:
262,156,7646,1,8,0:0:0:0:
89,83,7796,1,0,0:0:0:0:
324,80,7946,6,0,L|442:90,1,90,8|0,0:0|0:0,0:0:0:0:
232,41,8246,1,0,0:0:0:0:
198,248,8396,1,8,0:0:0:0:
198,248,8546,1,8,0:0:0:0:
407,186,8696,1,0,0:0:0:0:
163,104,8846,1,8,0:0:0:0:
311,262,8996,1,8,0:0:0:0:
232,41,9146,1,8,0:0:0:0:
198,248,9296,5,2,0:0:0:0:
296,114,9446,1,2,0:0:0:0:
405,207,9596,1,0,0:0:0:0:
188,261,9746,1,2,0:0:0:0:
286,127,9896,1,2,0:0:0:0:
392,218,10046,6,0,P|377:286|279:294,1,161.999995056153,8|0,0:0|0:0,0:0:0:0:
284,297,10346,6,0,L|277:171,1,90,4|0,0:0|0:0,0:0:0:0:
185,185,10646,1,8,0:0:0:0:
287,104,10796,1,0,0:0:0:0:
128,265,10946,2,0,P|97:229|92:170,1,90,2|0,0:3|0:0,0:0:0:0:
158,91,11246,1,8,0:0:0:0:
5,219,11396,1,0,0:0:0:0:
216,314,11546,6,0,L|305:322,1,90,2|0,0:3|0:0,0:0:0:0:
245,204,11846,1,8,0:0:0:0:
443,212,11996,2,0,L|325:217,1,90,0|2,0:0|0:3,0:0:0:0:
244,105,12296,2,0,L|333:113,1,90,0|8,0:0|0:0,0:0:0:0:
436,60,12596,1,0,0:0:0:0:
147,81,12746,6,0,L|163:192,1,90,2|0,0:3|0:0,0:0:0:0:
256,343,13046,2,0,L|255:223,1,90,8|0,0:0|0:0,0:0:0:0:
424,105,13346,2,0,L|408:216,1,90,2|0,0:3|0:0,0:0:0:0:
302,83,13646,1,8,0:0:0:0:
346,344,13796,6,0,B|354:283|354:283|322:152,1,180,2|2,0:3|0:3,0:0:0:0:
246,377,14246,2,0,L|265:251,1,90,8|2,0:0|0:3,0:0:0:0:
418,195,14546,1,0,0:0:0:0:
346,344,14696,1,8,0:0:0:0:
244,202,14846,2,0,P|199:208|138:232,1,90,8|0,0:0|0:0,0:0:0:0:
43,375,15146,6,0,L|49:259,1,90,4|0,0:0|0:0,0:0:0:0:
52,180,15446,1,8,0:0:0:0:
136,305,15596,1,2,0:3:0:0:
124,115,15746,2,0,P|92:93|28:84,1,90,2|0,0:3|0:0,0:0:0:0:
156,222,16046,1,8,0:0:0:0:
226,104,16196,1,0,0:0:0:0:
423,268,16346,6,0,L|538:283,1,90,2|0,0:3|0:0,0:0:0:0:
356,119,16646,1,8,0:0:0:0:
317,306,16796,2,0,L|331:213,1,90,0|2,0:0|0:3,0:0:0:0:
461,82,17096,2,0,L|475:191,1,90,0|8,0:0|0:0,0:0:0:0:
423,268,17396,1,0,0:0:0:0:
305,187,17546,6,0,P|263:176|200:178,1,90,2|0,0:3|0:0,0:0:0:0:
405,76,17846,2,0,P|447:62|507:59,1,90,8|2,0:0|0:3,0:0:0:0:
387,244,18146,2,0,L|375:334,1,90,2|0,0:3|0:0,0:0:0:0:
472,172,18446,1,8,0:0:0:0:
253,251,18596,6,0,B|153:280|172:219|70:264,1,180,2|2,0:3|0:3,0:0:0:0:
134,342,19046,1,8,0:0:0:0:
204,163,19196,1,2,0:3:0:0:
259,340,19346,2,0,L|250:229,1,90
258,29,19646,2,0,P|301:20|344:32,1,90,8|0,0:0|0:0,0:0:0:0:
187,109,19946,6,0,P|157:75|146:32,1,90,6|0,0:3|0:0,0:0:0:0:
290,124,20246,2,0,P|275:166|243:197,1,90,8|0,0:0|0:0,0:0:0:0:
392,166,20546,2,0,P|436:162|484:159,1,90,2|0,0:3|0:0,0:0:0:0:
360,344,20846,2,0,P|315:340|270:338,1,90,8|0,0:0|0:0,0:0:0:0:
92,329,21146,6,0,L|99:218,1,90,2|0,0:3|0:0,0:0:0:0:
128,86,21446,1,8,0:0:0:0:
218,155,21596,1,0,0:0:0:0:
48,170,21746,1,2,0:3:0:0:
126,69,21896,1,2,0:3:0:0:
238,164,22046,1,8,0:0:0:0:
28,178,22196,1,2,0:3:0:0:
245,75,22346,6,0,B|345:104|326:43|428:88,1,180,4|8,0:0|0:0,0:0:0:0:
413,225,22796,1,0,0:0:0:0:
199,176,22946,2,0,P|153:172|85:169,1,90,2|2,0:3|0:3,0:0:0:0:
229,287,23246,2,0,P|273:284|318:280,1,90,8|2,0:0|0:3,0:0:0:0:
457,102,23546,5,12,0:0:0:0:
308,175,23696,1,2,0:3:0:0:
415,295,23846,1,2,0:3:0:0:
365,74,23996,1,12,0:0:0:0:
199,205,24146,1,2,0:3:0:0:
416,196,24296,1,2,0:3:0:0:
207,85,24446,1,12,0:0:0:0:
306,270,24596,1,2,0:3:0:0:
404,53,24746,6,0,L|315:43,1,90,4|0,0:0|0:0,0:0:0:0:
208,0,25046,1,8,0:0:0:0:
308,133,25196,1,0,0:0:0:0:
132,82,25346,2,0,L|28:94,1,90,2|0,0:3|0:0,0:0:0:0:
197,169,25646,1,8,0:0:0:0:
315,43,25796,1,0,0:0:0:0:
348,206,25946,6,0,P|351:256|352:308,1,90,2|0,0:3|0:0,0:0:0:0:
452,311,26246,1,8,0:0:0:0:
234,282,26396,2,0,P|186:283|135:301,1,90,0|2,0:0|0:3,0:0:0:0:
288,125,26696,2,0,P|260:86|217:54,1,90,0|8,0:0|0:0,0:0:0:0:
166,200,26996,1,0,0:0:0:0:
387,248,27146,6,0,P|426:223|445:184,1,90,2|0,0:3|0:0,0:0:0:0:
251,246,27446,2,0,P|253:292|277:328,1,90,8|0,0:0|0:0,0:0:0:0:
179,134,27746,2,0,P|137:112|94:115,1,90,2|0,0:3|0:0,0:0:0:0:
116,238,28046,1,8,0:0:0:0:
286,92,28196,2,0,B|354:79|441:60,1,135,2|0,0:3|0:0,0:0:0:0:
448,57,28496,6,0,L|460:174,1,90,2|8,0:3|0:0,0:0:0:0:
388,328,28796,1,2,0:3:0:0:
487,252,28946,1,2,0:3:0:0:
369,219,29096,1,2,0:0:0:0:
376,345,29246,1,10,0:0:0:0:
476,270,29396,1,0,0:0:0:0:
261,305,29546,6,0,P|215:309|166:292,1,90,6|0,0:3|0:0,0:0:0:0:
376,131,29846,2,0,P|380:178|367:223,1,90,8|0,0:0|0:0,0:0:0:0:
153,202,30146,1,2,0:3:0:0:
282,170,30296,1,0,0:0:0:0:
136,214,30446,2,0,L|14:200,1,90,8|0,0:0|0:0,0:0:0:0:
235,268,30746,6,0,L|241:358,1,90,2|0,0:3|0:0,0:0:0:0:
282,170,31046,1,8,0:0:0:0:
151,131,31196,2,0,P|109:114|74:62,1,90,0|2,0:0|0:3,0:0:0:0:
274,7,31496,2,0,L|407:-4,1,90,2|8,0:3|0:0,0:0:0:0:
172,39,31796,1,0,0:0:0:0:
385,105,31946,6,0,P|419:133|439:188,1,90,2|0,0:3|0:0,0:0:0:0:
241,171,32246,2,0,P|284:178|329:215,1,90,8|0,0:0|0:0,0:0:0:0:
180,305,32546,2,0,P|221:289|278:299,1,90,2|0,0:3|0:0,0:0:0:0:
396,287,32846,1,8,0:0:0:0:
180,305,32996,2,0,B|145:315|145:315|82:315|82:315|42:333,1,135,2|0,0:3|0:0,0:0:0:0:
14,341,33296,6,0,L|32:224,1,90,2|8,0:3|0:0,0:0:0:0:
55,67,33596,1,2,0:3:0:0:
95,184,33746,1,0,0:0:0:0:
196,120,33896,1,2,0:0:0:0:
68,86,34046,1,8,0:0:0:0:
109,204,34196,1,2,0:0:0:0:
275,108,34346,6,0,P|337:120|305:224,1,180,4|8,0:0|0:0,0:0:0:0:
121,219,34796,1,0,0:0:0:0:
279,291,34946,2,0,B|379:320|360:259|462:304,1,180,2|8,0:3|0:0,0:0:0:0:
398,382,35396,1,0,0:0:0:0:
401,177,35546,6,0,P|400:133|398:75,1,90,2|0,0:3|0:0,0:0:0:0:
297,224,35846,1,8,0:0:0:0:
172,131,35996,1,0,0:0:0:0:
294,50,36146,1,2,0:3:0:0:
279,239,36296,1,0,0:0:0:0:
153,146,36446,1,8,0:0:0:0:
276,65,36596,1,0,0:0:0:0:
365,225,36746,6,0,P|353:286|246:320,1,180,4|8,0:0|0:0,0:0:0:0:
144,288,37196,1,0,0:0:0:0:
311,156,37346,2,0,P|390:139|452:212,1,180,2|8,0:3|0:0,0:0:0:0:
287,346,37796,1,0,0:0:0:0:
194,201,37946,5,0,0:0:0:0:
423,316,38096,1,8,0:0:0:0:
205,306,38246,1,8,0:0:0:0:
384,207,38396,1,8,0:0:0:0:
130,120,38546,1,8,0:0:0:0:
318,284,38696,1,8,0:0:0:0:
105,242,38846,1,8,0:0:0:0:
384,207,38996,1,8,0:0:0:0:
358,49,39146,6,0,P|290:24|215:44,1,135.000005149842,6|0,0:3|0:0,0:0:0:0:
163,83,39596,1,2,0:3:0:0:
154,164,39746,2,0,L|151:250,1,67.5000025749208,0|2,0:0|0:3,0:0:0:0:
253,301,40046,2,0,L|250:232,1,67.5000025749208,8|0,0:0|0:0,0:0:0:0:
368,308,40346,6,0,P|429:282|446:200,1,135.000005149842,6|0,0:3|0:0,0:0:0:0:
369,226,40796,1,2,0:3:0:0:
323,153,40946,2,0,P|306:103|320:60,1,67.5000025749208,0|2,0:0|0:3,0:0:0:0:
429,53,41246,2,0,P|414:84|389:106,1,67.5000025749208,8|0,0:0|0:0,0:0:0:0:
149,112,41546,6,0,L|-1:103,2,135.000005149842,6|0|0,0:3|0:0|0:0,0:0:0:0:
184,185,42296,1,2,0:3:0:0:
192,265,42446,2,0,L|196:336,1,67.5000025749208,8|0,0:0|0:0,0:0:0:0:
319,278,42746,5,4,0:0:0:0:
398,296,42896,2,0,L|489:324,1,67.5000025749208
379,196,43196,2,0,P|321:229|258:211,1,135.000005149842,4|0,0:0|0:0,0:0:0:0:
260,130,43646,1,8,0:0:0:0:
330,90,43796,1,0,0:3:0:0:
407,116,43946,6,0,P|446:145|439:249,1,135.000005149842,2|0,0:3|0:0,0:0:0:0:
404,292,44396,1,2,0:3:0:0:
323,280,44546,1,0,0:0:0:0:
246,308,44696,1,2,0:3:0:0:
191,249,44846,2,0,P|145:231|81:249,1,101.250003862381,8|0,0:0|0:0,0:0:0:0:
73,289,45146,6,0,L|87:137,1,135.000005149842,2|0,0:3|0:0,0:0:0:0:
109,77,45596,1,2,0:3:0:0:
183,109,45746,1,0,0:0:0:0:
257,78,45896,1,2,0:3:0:0:
327,119,46046,2,0,L|454:130,1,101.250003862381,8|0,0:0|0:0,0:0:0:0:
491,89,46346,6,0,B|375:93,1,90,6|0,0:3|0:0,0:0:0:0:
320,19,46646,2,0,B|204:15,1,90,8|0,0:0|0:0,0:0:0:0:
126,51,46946,2,0,L|114:170,1,90,2|0,0:3|0:0,0:0:0:0:
308,178,47246,2,0,L|298:89,1,90,8|0,0:0|0:0,0:0:0:0:
211,174,47546,6,0,P|205:223|199:293,1,90,2|0,0:3|0:0,0:0:0:0:
402,302,47846,2,0,P|396:249|392:213,1,90,8|0,0:0|0:0,0:0:0:0:
354,33,48146,2,0,P|308:35|246:43,1,90,2|2,0:3|0:3,0:0:0:0:
128,148,48446,2,0,P|172:153|217:157,1,90,8|0,0:0|0:0,0:0:0:0:
423,177,48746,5,12,0:0:0:0:
265,92,48896,1,2,0:3:0:0:
332,273,49046,2,0,L|321:156,1,90,8|2,0:0|0:3,0:0:0:0:
489,348,49346,2,0,P|450:371|387:358,1,90,8|0,0:0|0:0,0:0:0:0:
187,275,49646,1,8,0:0:0:0:
323,183,49796,1,2,0:3:0:0:
89,176,49946,6,0,P|40:170|-22:166,1,90,4|2,0:0|0:3,0:0:0:0:
283,317,50246,1,8,0:0:0:0:
175,145,50396,1,2,0:3:0:0:
334,234,50546,2,0,P|382:224|443:217,1,90,8|0,0:0|0:0,0:0:0:0:
146,274,50846,2,0,L|47:254,1,90,8|2,0:0|0:3,0:0:0:0:
234,98,51146,5,12,0:0:0:0:
57,256,51296,1,2,0:3:0:0:
295,326,51446,1,12,0:0:0:0:
73,162,51596,1,2,0:3:0:0:
405,185,51746,1,12,0:0:0:0:
146,86,51896,1,2,0:3:0:0:
386,282,52046,1,12,0:0:0:0:
236,31,52196,1,2,0:3:0:0:
137,303,52346,1,4,0:0:0:0:
448,87,52496,5,12,0:0:0:0:
73,129,52646,1,12,0:0:0:0:
407,312,52796,1,12,0:0:0:0:
150,33,52946,1,12,0:0:0:0:
172,26,53246,6,0,L|363:49,1,161.999995056153
402,29,53546,6,0,P|340:59|361:125,1,135,6|0,0:3|0:0,0:0:0:0:
384,188,53846,2,0,L|482:175,1,90,8|0,0:0|0:0,0:0:0:0:
281,197,54146,1,2,0:3:0:0:
448,274,54296,1,2,0:3:0:0:
211,130,54446,2,0,L|113:117,1,90,8|0,0:0|0:0,0:0:0:0:
281,197,54746,5,2,0:3:0:0:
381,347,54896,1,0,0:0:0:0:
372,155,55046,2,0,L|363:33,1,90,8|2,0:0|0:3,0:0:0:0:
195,164,55346,2,0,P|190:210|187:261,1,90,0|2,0:0|0:3,0:0:0:0:
355,265,55646,2,0,P|359:312|361:362,1,90,8|0,0:0|0:0,0:0:0:0:
315,142,55946,6,0,P|319:79|402:72,1,135,6|0,0:3|0:0,0:0:0:0:
438,117,56246,2,0,L|449:208,1,90,8|0,0:0|0:0,0:0:0:0:
322,300,56546,1,2,0:3:0:0:
503,305,56696,1,2,0:3:0:0:
336,192,56846,1,8,0:0:0:0:
490,324,56996,1,0,0:0:0:0:
235,181,57146,6,0,P|187:187|147:205,1,90,2|0,0:3|0:0,0:0:0:0:
425,201,57446,2,0,P|469:199|512:185,1,90,8|0,0:0|0:0,0:0:0:0:
294,108,57746,2,0,P|286:62|278:20,1,90,2|2,0:3|0:3,0:0:0:0:
424,199,58046,2,0,P|420:244|418:289,1,90,8|0,0:0|0:0,0:0:0:0:
420,64,58346,5,4,0:0:0:0:
420,64,58496,1,0,0:0:0:0:
248,185,58646,2,0,L|87:206,1,135,8|0,0:0|0:0,0:0:0:0:
83,220,58946,1,2,0:3:0:0:
325,250,59096,1,2,0:3:0:0:
318,37,59246,2,0,L|332:139,1,90,8|0,0:0|0:0,0:0:0:0:
359,336,59546,5,6,0:3:0:0:
488,166,59696,2,0,P|462:127|409:112,1,90,0|8,0:0|0:0,0:0:0:0:
248,192,59996,2,0,B|148:221|167:160|65:205,1,180,6|2,0:3|0:3,0:0:0:0:
199,29,60446,2,0,B|216:73|198:119,1,90,8|0,0:0|0:0,0:0:0:0:
0,163,60746,6,0,P|12:78|92:82,1,180,4|8,0:0|0:0,0:0:0:0:
124,268,61196,1,0,0:0:0:0:
284,196,61346,1,2,0:3:0:0:
284,196,61496,1,2,0:3:0:0:
410,336,61646,1,8,0:0:0:0:
410,336,61796,1,0,0:0:0:0:
512,227,61946,6,0,L|399:236,1,90,2|0,0:3|0:0,0:0:0:0:
203,251,62246,2,0,L|238:100,1,135,12|0,0:0|0:0,0:0:0:0:
311,119,62546,2,0,L|412:148,1,90,6|2,0:3|0:3,0:0:0:0:
265,36,62846,1,8,0:0:0:0:
299,213,62996,1,0,0:0:0:0:
84,58,63146,6,0,P|39:43|-25:77,1,90,6|0,0:3|0:0,0:0:0:0:
106,235,63446,2,0,L|120:145,1,90,8|0,0:0|0:0,0:0:0:0:
73,317,63746,1,2,0:3:0:0:
35,129,63896,1,2,0:3:0:0:
277,146,64046,2,0,L|386:120,1,90,8|0,0:0|0:0,0:0:0:0:
193,340,64346,5,2,0:3:0:0:
316,251,64496,1,0,0:0:0:0:
139,202,64646,1,8,0:0:0:0:
322,274,64796,1,2,0:3:0:0:
452,108,64946,2,0,L|460:219,1,90,0|2,0:0|0:3,0:0:0:0:
411,348,65246,2,0,P|370:337|344:293,1,90,8|0,0:0|0:0,0:0:0:0:
323,96,65546,6,0,P|274:104|225:128,1,90,6|0,0:3|0:0,0:0:0:0:
167,325,65846,2,0,P|179:281|182:237,1,90,8|0,0:0|0:0,0:0:0:0:
107,127,66146,1,2,0:3:0:0:
297,229,66296,1,2,0:3:0:0:
343,35,66446,2,0,L|328:145,1,90,8|0,0:0|0:0,0:0:0:0:
226,322,66746,5,2,0:3:0:0:
400,175,66896,1,0,0:0:0:0:
169,224,67046,1,8,0:0:0:0:
225,64,67196,2,0,L|242:178,1,90,2|0,0:3|0:0,0:0:0:0:
321,240,67496,1,2,0:3:0:0:
155,214,67646,2,0,L|47:195,1,90,8|0,0:0|0:0,0:0:0:0:
148,384,67946,6,0,L|47:365,1,90,6|0,0:3|0:0,0:0:0:0:
336,327,68246,2,0,L|437:308,1,90,8|0,0:0|0:0,0:0:0:0:
243,356,68546,1,2,0:3:0:0:
243,356,68696,1,2,0:3:0:0:
400,219,68846,1,8,0:0:0:0:
400,219,68996,1,0,0:0:0:0:
207,160,69146,5,4,0:0:0:0:
207,160,69296,2,0,L|222:50,1,90,0|8,0:0|0:0,0:0:0:0:
105,339,69596,2,0,B|153:367|153:367|218:345|301:355,1,180,4|2,0:0|0:3,0:0:0:0:
447,346,70046,2,0,L|440:256,1,90,8|0,0:0|0:0,0:0:0:0:
404,71,70346,5,4,0:0:0:0:
404,71,70496,2,0,P|400:117|374:171,1,90,0|8,0:0|0:0,0:0:0:0:
123,221,70796,2,0,L|234:242,1,90,0|2,0:0|0:3,0:0:0:0:
389,258,71096,1,0,0:0:0:0:
292,138,71246,1,8,0:0:0:0:
252,328,71396,1,0,0:0:0:0:
292,138,71546,6,0,L|299:245,1,90,2|0,0:3|0:0,0:0:0:0:
187,40,71846,2,0,L|179:166,1,90,8|0,0:0|0:0,0:0:0:0:
406,22,72146,2,0,L|412:143,1,90,2|2,0:3|0:3,0:0:0:0:
505,93,72446,1,8,0:0:0:0:
313,36,72596,1,0,0:0:0:0:
376,280,72746,5,4,0:0:0:0:
376,280,72896,2,0,P|380:232|385:168,1,90,0|8,0:0|0:0,0:0:0:0:
216,40,73196,2,0,P|219:81|225:129,1,90,0|2,0:0|0:3,0:0:0:0:
284,290,73496,1,0,0:0:0:0:
238,148,73646,1,8,0:0:0:0:
387,100,73796,1,0,0:0:0:0:
186,285,73946,6,0,P|140:292|85:304,1,90,2|0,0:3|0:0,0:0:0:0:
127,130,74246,2,0,P|79:119|33:113,1,90,8|0,0:0|0:0,0:0:0:0:
205,14,74546,2,0,P|225:65|207:128,1,90,2|2,0:3|0:3,0:0:0:0:
97,301,74846,2,0,P|77:250|95:187,1,90,8|2,0:0|0:3,0:0:0:0:
316,111,75146,5,12,0:0:0:0:
235,320,75296,1,0,0:0:0:0:
407,139,75446,1,8,0:0:0:0:
161,243,75596,1,2,0:3:0:0:
422,234,75746,1,8,0:0:0:0:
168,145,75896,1,2,0:3:0:0:
348,313,76046,1,8,0:0:0:0:
360,33,76196,6,0,P|276:28|226:108,1,180,4|0,0:0|0:0,0:0:0:0:
423,93,76646,2,0,L|528:84,1,90,8|2,0:0|0:3,0:0:0:0:
338,274,76946,2,0,L|328:173,1,90,0|2,0:0|0:3,0:0:0:0:
451,236,77246,1,8,0:0:0:0:
243,180,77396,1,2,0:3:0:0:
413,317,77546,6,0,P|345:359|257:292,1,180,6|8,0:3|0:0,0:0:0:0:
184,357,77996,1,2,0:3:0:0:
272,137,78146,2,0,L|263:237,1,90,0|2,0:0|0:3,0:0:0:0:
431,91,78446,2,0,L|331:70,1,90,8|0,0:0|0:0,0:0:0:0:
381,181,78746,1,2,0:3:0:0:
252,60,78896,5,12,0:0:0:0:
305,358,79046,1,12,0:0:0:0:
89,161,79196,1,12,0:0:0:0:
397,199,79346,1,12,0:0:0:0:
101,342,79646,6,0,B|52:308|70:234|115:211|150:268|150:268|142:304|117:302,1,202.500007724762
142,287,79946,6,0,L|250:301,1,90,6|0,0:3|0:0,0:0:0:0:
352,330,80246,1,8,0:0:0:0:
215,209,80396,1,2,0:3:0:0:
407,184,80546,2,0,L|535:164,1,90,2|0,0:3|0:0,0:0:0:0:
305,237,80846,1,8,0:0:0:0:
264,138,80996,6,0,L|106:121,1,135,2|0,0:3|0:0,0:0:0:0:
96,136,81296,1,8,0:0:0:0:
121,324,81446,2,0,L|108:219,1,90,8|2,0:0|0:3,0:0:0:0:
221,347,81746,1,0,0:0:0:0:
409,207,81896,1,8,0:0:0:0:
220,236,82046,1,8,0:0:0:0:
353,343,82196,1,8,0:0:0:0:
409,207,82346,6,0,L|416:118,1,90,2|0,0:3|0:0,0:0:0:0:
312,201,82646,1,8,0:0:0:0:
425,283,82796,1,0,0:0:0:0:
315,106,82946,2,0,L|220:102,1,90,2|0,0:3|0:0,0:0:0:0:
307,11,83246,1,8,0:0:0:0:
131,176,83396,6,0,L|151:4,1,135,2|0,0:3|0:0,0:0:0:0:
173,17,83696,1,8,0:0:0:0:
222,211,83846,2,0,L|311:200,1,90,8|0,0:0|0:0,0:0:0:0:
307,296,84146,1,0,0:0:0:0:
415,212,84296,1,8,0:0:0:0:
347,91,84446,1,8,0:0:0:0:
432,230,84596,1,0,0:0:0:0:
209,237,84746,6,0,L|80:209,1,90,2|0,0:3|0:0,0:0:0:0:
300,216,85046,1,8,0:0:0:0:
167,323,85196,1,0,0:0:0:0:
315,208,85346,2,0,L|429:235,1,90,2|0,0:3|0:0,0:0:0:0:
180,317,85646,1,8,0:0:0:0:
400,161,85796,6,0,L|406:333,1,135,2|0,0:3|0:0,0:0:0:0:
382,324,86096,1,8,0:0:0:0:
272,147,86246,2,0,L|284:14,1,90,8|0,0:0|0:0,0:0:0:0:
145,46,86546,1,0,0:0:0:0:
160,222,86696,1,8,0:0:0:0:
262,156,86846,1,8,0:0:0:0:
89,136,86996,1,0,0:0:0:0:
287,287,87146,6,0,L|405:297,1,90,8|0,0:0|0:0,0:0:0:0:
213,352,87446,1,0,0:0:0:0:
383,193,87596,1,8,0:0:0:0:
383,193,87746,1,8,0:0:0:0:
160,229,87896,1,0,0:0:0:0:
332,87,88046,1,8,0:0:0:0:
284,244,88196,1,8,0:0:0:0:
46,192,88346,1,8,0:0:0:0:
244,132,88496,5,2,0:0:0:0:
213,323,88646,1,2,0:0:0:0:
59,208,88796,1,8,0:0:0:0:
256,148,88946,1,2,0:0:0:0:
226,339,89096,1,2,0:0:0:0:
407,130,89246,2,0,L|384:271,1,135,8|0,0:0|0:0,0:0:0:0:
386,287,89546,5,12,0:0:0:0:
256,192,89621,12,2,90671,0:0:0:0:
