osu file format v14

[General]
AudioFilename: kira kira days2.mp3
AudioLeadIn: 0
PreviewTime: 53246
Countdown: 0
SampleSet: Soft
StackLeniency: 0.7
Mode: 0
LetterboxInBreaks: 0
WidescreenStoryboard: 0

[Editor]
DistanceSpacing: 1.3
BeatDivisor: 4
GridSize: 4
TimelineZoom: 1.5

[Metadata]
Title:Kira Kira Days
TitleUnicode:キラキラ Days
Artist:HO-KAGO TEA TIME
ArtistUnicode:放課後ティータイム
Creator:Kagetsu
Version:Normal!!
Source:けいおん!!
Tags:Milan- Mamayu fuyuyu- pkhg HappyRocket88 K-ON!! HTT Keion Yui Hirasawa Mio Akiyama Ritsu Tainaka Tsumugi Kotobuki Azusa Nakano Toyosaki Aki Hikasa Yoko Sato Satomi Minako Taketatsu Ayana tv size Pony Canyon 平沢唯 秋山澪 田井中律 琴吹紬 中野梓 豊崎愛生 日笠陽子 佐藤聡美 寿美菜子 竹達彩奈
BeatmapID:958863
BeatmapSetID:444335

[Difficulty]
HPDrainRate:3
CircleSize:2.9
OverallDifficulty:3.5
ApproachRate:5.5
SliderMultiplier:1.2
SliderTickRate:1

[Events]
//Background and Video events
0,0,"BG3.jpg",0,0
//Break Periods
//Storyboard Layer 0 (Background)
//Storyboard Layer 1 (Fail)
//Storyboard Layer 2 (Pass)
//Storyboard Layer 3 (Foreground)
//Storyboard Sound Samples

[TimingPoints]
746,300,4,2,1,80,1,0
53546,-100,4,2,1,100,0,1
79946,-100,4,2,1,80,0,0
90671,-100,4,2,1,5,0,0

[Colours]
Combo1 : 0,255,128
Combo2 : 255,170,255
Combo3 : 255,255,128
Combo4 : 128,255,255

[HitObjects]
75,307,446,5,12,0:0:0:0:
75,307,746,2,0,B|132:313|132:313|206:291,1,120,2|8,0:3|0:0,0:0:0:0:
251,219,1346,2,0,B|311:211|311:211|396:251,1,120,2|8,0:3|0:0,0:0:0:0:
404,263,1796,1,2,0:3:0:0:
468,191,2096,1,8,0:0:0:0:
419,108,2396,1,2,0:3:0:0:
380,136,2546,2,0,L|227:117,1,120,2|8,0:3|0:0,0:0:0:0:
171,149,3146,6,0,L|179:307,1,120,2|8,0:3|0:0,0:0:0:0:
244,338,3746,2,0,P|196:317|108:366,1,120,2|8,0:3|0:0,0:0:0:0:
94,362,4196,1,2,0:3:0:0:
12,312,4496,1,8,0:0:0:0:
75,240,4796,1,2,0:3:0:0:
41,205,4946,2,0,B|34:77,1,120,2|8,0:3|0:0,0:0:0:0:
118,45,5546,6,0,L|257:59,1,120,2|8,0:3|0:0,0:0:0:0:
282,142,6146,2,0,L|436:124,1,120,2|8,0:3|0:0,0:0:0:0:
444,149,6596,1,2,0:3:0:0:
459,245,6896,1,8,0:0:0:0:
365,223,7196,1,2,0:3:0:0:
333,259,7346,2,0,L|163:252,1,120,2|8,0:3|0:0,0:0:0:0:
131,305,7946,6,0,P|118:243|159:173,1,120,8|2,0:0|0:3,0:0:0:0:
222,144,8546,1,8,0:0:0:0:
144,87,8846,1,8,0:0:0:0:
231,46,9146,1,8,0:0:0:0:
420,292,10346,6,0,P|441:249|408:135,1,120,4|8,0:0|0:0,0:0:0:0:
398,89,10946,2,0,P|340:103|283:88,1,120,2|8,0:3|0:0,0:0:0:0:
204,32,11546,2,0,P|146:16|89:31,1,120,2|8,0:3|0:0,0:0:0:0:
56,66,11996,2,0,L|64:201,1,120
63,233,12446,1,8,0:0:0:0:
113,314,12746,6,0,P|52:328|-26:260,2,120,2|8|2,0:3|0:0|0:3,0:0:0:0:
187,252,13646,1,8,0:0:0:0:
230,273,13796,2,0,L|397:252,1,120,2|2,0:3|0:3,0:0:0:0:
441,232,14396,1,2,0:3:0:0:
471,195,14546,2,0,L|479:60,1,120,2|8,0:3|0:0,0:0:0:0:
387,107,15146,6,0,P|328:117|268:73,1,120,4|8,0:0|0:0,0:0:0:0:
192,43,15746,2,0,L|203:197,1,120,2|8,0:3|0:0,0:0:0:0:
264,234,16346,2,0,P|206:218|149:233,1,120,2|8,0:3|0:0,0:0:0:0:
105,253,16796,2,0,L|93:117,1,120
78,88,17246,1,8,0:0:0:0:
164,46,17546,6,0,L|318:32,2,120,2|8|2,0:3|0:0|0:3,0:0:0:0:
172,141,18446,1,8,0:0:0:0:
197,181,18596,2,0,L|331:168,1,120,2|2,0:3|0:3,0:0:0:0:
411,154,19196,1,2,0:3:0:0:
437,193,19346,2,0,L|427:335,1,120,2|8,0:3|0:0,0:0:0:0:
335,334,19946,5,4,0:3:0:0:
239,341,20246,1,8,0:0:0:0:
188,259,20546,2,0,P|136:241|57:279,1,120,2|8,0:3|0:0,0:0:0:0:
0,320,21146,2,0,P|-20:253|9:194,1,120,2|8,0:3|0:0,0:0:0:0:
69,145,21746,2,0,P|132:145|186:103,1,120,2|8,0:3|0:0,0:0:0:0:
258,62,22346,5,4,0:0:0:0:
348,106,22646,1,8,0:0:0:0:
414,37,22946,2,0,P|445:101|406:181,1,120,2|8,0:3|0:0,0:0:0:0:
354,197,23546,2,0,P|403:238|472:233,1,120,12|2,0:0|0:3,0:0:0:0:
491,327,24146,1,2,0:3:0:0:
402,363,24446,1,12,0:0:0:0:
307,346,24746,6,0,L|182:324,1,120,4|8,0:0|0:0,0:0:0:0:
113,265,25346,2,0,P|106:207|152:142,1,120,2|8,0:3|0:0,0:0:0:0:
203,226,25946,2,0,P|261:221|300:178,1,120,2|8,0:3|0:0,0:0:0:0:
284,133,26396,2,0,L|453:129,1,120,0|0,0:0|0:0,0:0:0:0:
448,148,26846,1,8,0:0:0:0:
460,243,27146,6,0,L|466:375,2,120,2|8|2,0:3|0:0|0:3,0:0:0:0:
365,264,28046,1,8,0:0:0:0:
327,293,28196,2,0,L|181:285,1,120,2|2,0:3|0:3,0:0:0:0:
112,303,28796,1,2,0:3:0:0:
77,337,28946,2,0,L|67:197,1,120,2|8,0:3|0:0,0:0:0:0:
29,129,29546,6,0,P|88:119|148:163,1,120,6|8,0:3|0:0,0:0:0:0:
190,228,30146,2,0,L|205:84,1,120,2|8,0:3|0:0,0:0:0:0:
288,65,30746,2,0,P|346:81|403:66,1,120,2|8,0:3|0:0,0:0:0:0:
447,48,31196,2,0,L|435:184,1,120,0|2,0:0|0:3,0:0:0:0:
418,213,31646,1,8,0:0:0:0:
392,305,31946,6,0,L|546:291,2,120,2|8|2,0:3|0:0|0:3,0:0:0:0:
295,307,32846,1,8,0:0:0:0:
270,347,32996,2,0,L|136:334,1,120,2|2,0:3|0:3,0:0:0:0:
56,314,33596,1,2,0:3:0:0:
82,275,33746,2,0,L|72:133,1,120,2|8,0:3|0:0,0:0:0:0:
71,59,34346,5,4,0:0:0:0:
164,37,34646,1,8,0:0:0:0:
178,131,34946,2,0,P|239:145|313:98,1,120,2|8,0:3|0:0,0:0:0:0:
372,66,35546,2,0,P|390:122|374:178,1,120,2|8,0:3|0:0,0:0:0:0:
339,268,36146,2,0,P|402:268|456:226,1,120,2|8,0:3|0:0,0:0:0:0:
483,147,36746,5,4,0:0:0:0:
469,51,37046,1,8,0:0:0:0:
372,66,37346,2,0,P|309:100|227:65,1,120,2|8,0:3|0:0,0:0:0:0:
174,58,37946,2,0,P|104:66|57:143,1,120,0|8,0:0|0:0,0:0:0:0:
115,185,38546,1,8,0:0:0:0:
56,260,38846,1,8,0:0:0:0:
149,283,39146,6,0,B|247:263|317:323|317:323|305:223|381:131,1,360,6|8,0:3|0:0,0:0:0:0:
430,222,40346,2,0,P|430:79|269:130,1,360,6|8,0:3|0:0,0:0:0:0:
266,221,41546,6,0,B|157:269|157:269|199:161|191:98|146:73|102:52,1,360,6|8,0:3|0:0,0:0:0:0:
89,151,42746,2,0,P|79:211|41:271,1,120,4|0,0:0|0:0,0:0:0:0:
60,308,43196,2,0,P|118:360|205:355,1,120,4|0,0:0|0:0,0:0:0:0:
205,360,43646,1,8,0:0:0:0:
286,308,43946,6,0,B|365:349|365:349|484:346,2,180,2|2|8,0:3|0:3|0:0,0:0:0:0:
242,222,45146,2,0,B|151:219|151:219|72:260,2,180,2|2|8,0:3|0:3|0:0,0:0:0:0:
337,228,46346,6,0,P|325:168|260:121,1,120,6|8,0:3|0:0,0:0:0:0:
188,127,46946,2,0,P|208:69|278:37,1,120,2|8,0:3|0:0,0:0:0:0:
349,62,47546,2,0,L|473:52,1,120,2|8,0:3|0:0,0:0:0:0:
447,146,48146,2,0,L|327:155,1,120,2|8,0:3|0:0,0:0:0:0:
232,140,48746,5,12,0:0:0:0:
232,140,49046,2,0,L|248:277,1,120,8|8,0:0|0:0,0:0:0:0:
256,354,49646,1,8,0:0:0:0:
256,354,49946,2,0,L|137:371,1,120,12|8,0:0|0:0,0:0:0:0:
45,342,50546,2,0,L|31:222,1,120,8|8,0:0|0:0,0:0:0:0:
37,127,51146,5,12,0:0:0:0:
93,49,51446,1,12,0:0:0:0:
188,52,51746,1,12,0:0:0:0:
283,62,52046,1,12,0:0:0:0:
238,147,52346,6,0,P|224:262|332:306,1,240
394,129,53546,6,0,L|543:109,2,120,6|8|2,0:3|0:0|0:3,0:0:0:0:
337,208,54446,1,8,0:0:0:0:
296,294,54746,2,0,P|253:252|244:193,1,120,2|8,0:3|0:0,0:0:0:0:
245,101,55346,1,2,0:3:0:0:
149,98,55646,1,8,0:0:0:0:
58,130,55946,6,0,P|58:65|130:7,2,120,6|8|2,0:3|0:0|0:3,0:0:0:0:
98,217,56846,1,8,0:0:0:0:
179,166,57146,2,0,P|195:226|140:300,1,120,2|8,0:3|0:0,0:0:0:0:
83,309,57746,1,2,0:3:0:0:
156,370,58046,1,8,0:0:0:0:
250,354,58346,6,0,L|405:338,1,120,4|8,0:0|0:0,0:0:0:0:
399,250,58946,2,0,L|279:262,1,120,2|8,0:3|0:0,0:0:0:0:
190,225,59546,1,6,0:3:0:0:
100,258,59846,1,8,0:0:0:0:
69,221,59996,2,0,L|55:80,1,120,6|2,0:3|0:3,0:0:0:0:
47,54,60446,1,8,0:0:0:0:
142,56,60746,6,0,L|292:44,1,120,4|8,0:0|0:0,0:0:0:0:
355,26,61346,2,0,P|311:68|316:147,1,120,2|8,0:3|0:0,0:0:0:0:
379,187,61946,1,2,0:3:0:0:
290,224,62246,1,12,0:0:0:0:
217,161,62546,2,0,L|63:145,1,120,6|8,0:3|0:0,0:0:0:0:
7,181,63146,6,0,L|-1:50,2,120,6|8|2,0:3|0:0|0:3,0:0:0:0:
30,273,64046,1,8,0:0:0:0:
119,239,64346,2,0,P|177:223|232:246,1,120,2|8,0:3|0:0,0:0:0:0:
286,324,64946,1,2,0:3:0:0:
324,236,65246,1,8,0:0:0:0:
384,310,65546,6,0,L|528:324,2,120,6|8|2,0:3|0:0|0:3,0:0:0:0:
286,324,66446,1,8,0:0:0:0:
195,354,66746,2,0,P|133:359|69:292,1,120,2|8,0:3|0:0,0:0:0:0:
110,235,67346,1,2,0:3:0:0:
73,146,67646,1,8,0:0:0:0:
168,155,67946,6,0,P|227:160|293:87,1,120,6|8,0:3|0:0,0:0:0:0:
342,59,68546,2,0,L|337:201,1,120,2|8,0:3|0:0,0:0:0:0:
326,274,69146,1,4,0:0:0:0:
236,316,69446,1,8,0:0:0:0:
195,342,69596,2,0,L|53:336,1,120,4|2,0:0|0:3,0:0:0:0:
27,346,70046,1,8,0:0:0:0:
7,252,70346,6,0,P|-3:188|34:126,2,120,4|8|2,0:0|0:0|0:3,0:0:0:0:
90,204,71246,1,8,0:0:0:0:
181,232,71546,2,0,L|329:238,1,120,2|8,0:3|0:0,0:0:0:0:
337,148,72146,2,0,L|217:143,1,120,2|8,0:3|0:0,0:0:0:0:
122,159,72746,6,0,P|128:100|170:58,2,120,4|8|2,0:0|0:0|0:3,0:0:0:0:
184,232,73646,1,8,0:0:0:0:
278,250,73946,2,0,L|419:231,1,120,2|8,0:3|0:0,0:0:0:0:
452,312,74546,2,0,L|333:328,1,120,2|8,0:3|0:0,0:0:0:0:
238,342,75146,6,0,P|190:302|120:305,1,120,12|8,0:0|0:0,0:0:0:0:
50,352,75746,2,0,L|29:193,1,120,8|8,0:0|0:0,0:0:0:0:
21,186,76196,1,4,0:0:0:0:
92,122,76496,5,0,0:0:0:0:
137,137,76646,2,0,L|307:124,1,120,8|0,0:0|0:0,0:0:0:0:
346,162,77246,1,8,0:0:0:0:
435,126,77546,2,0,L|425:311,2,180,6|2|8,0:3|0:3|0:0,0:0:0:0:
438,30,78746,5,2,0:3:0:0:
348,63,79046,1,12,0:0:0:0:
257,32,79346,1,12,0:0:0:0:
276,223,79946,6,0,P|217:228|167:198,1,120,6|8,0:3|0:0,0:0:0:0:
155,102,80546,2,0,P|99:126|71:175,1,120,2|8,0:3|0:0,0:0:0:0:
74,223,80996,1,2,0:3:0:0:
102,314,81296,1,8,0:0:0:0:
197,319,81596,1,2,0:3:0:0:
236,347,81746,2,0,L|389:328,1,120,2|8,0:3|0:0,0:0:0:0:
447,360,82346,6,0,L|440:240,1,120,2|8,0:3|0:0,0:0:0:0:
497,162,82946,2,0,P|449:141|361:190,1,120,2|8,0:3|0:0,0:0:0:0:
354,195,83396,1,2,0:3:0:0:
282,259,83696,1,8,0:0:0:0:
196,214,83996,1,2,0:3:0:0:
153,232,84146,2,0,B|146:104,1,120,2|8,0:3|0:0,0:0:0:0:
210,39,84746,6,0,L|90:26,1,120,2|8,0:3|0:0,0:0:0:0:
44,111,85346,2,0,B|50:230,1,120,2|8,0:3|0:0,0:0:0:0:
52,279,85796,1,2,0:3:0:0:
117,349,86096,1,8,0:0:0:0:
169,268,86396,1,2,0:3:0:0:
212,247,86546,2,0,L|382:240,1,120,2|8,0:3|0:0,0:0:0:0:
415,289,87146,6,0,P|428:227|387:157,1,120,8|2,0:0|0:3,0:0:0:0:
314,149,87746,1,8,0:0:0:0:
261,68,88046,1,8,0:0:0:0:
172,106,88346,2,0,L|43:84,2,120,8|0|0,0:0|0:0|0:0,0:0:0:0:
231,181,89246,1,8,0:0:0:0:
316,137,89546,1,12,0:0:0:0:
256,192,89696,12,2,90671,0:0:0:0:
