osu file format v14

[General]
AudioFilename: kira kira days2.mp3
AudioLeadIn: 0
PreviewTime: 53246
Countdown: 0
SampleSet: Soft
StackLeniency: 0.7
Mode: 0
LetterboxInBreaks: 0
WidescreenStoryboard: 0

[Editor]
DistanceSpacing: 1.3
BeatDivisor: 4
GridSize: 4
TimelineZoom: 1.5

[Metadata]
Title:Kira Kira Days
TitleUnicode:キラキラ Days
Artist:HO-KAGO TEA TIME
ArtistUnicode:放課後ティータイム
Creator:Kagetsu
Version:Hard!!
Source:けいおん!!
Tags:Milan- Mamayu fuyuyu- pkhg HappyRocket88 K-ON!! HTT Keion Yui Hirasawa Mio Akiyama Ritsu Tainaka Tsumugi Kotobuki Azusa Nakano Toyosaki Aki Hikasa Yoko Sato Satomi Minako Taketatsu Ayana tv size Pony Canyon 平沢唯 秋山澪 田井中律 琴吹紬 中野梓 豊崎愛生 日笠陽子 佐藤聡美 寿美菜子 竹達彩奈
BeatmapID:958160
BeatmapSetID:444335

[Difficulty]
HPDrainRate:5
CircleSize:4
OverallDifficulty:5.5
ApproachRate:8
SliderMultiplier:1.4
SliderTickRate:1

[Events]
//Background and Video events
0,0,"BG3.jpg",0,0
//Break Periods
//Storyboard Layer 0 (Background)
//Storyboard Layer 1 (Fail)
//Storyboard Layer 2 (Pass)
//Storyboard Layer 3 (Foreground)
//Storyboard Sound Samples

[TimingPoints]
746,300,4,2,1,80,1,0
10046,-83.3333333333333,4,2,1,80,0,0
10271,-83.3333333333333,4,2,1,5,0,0
10346,-100,4,2,1,80,0,0
39146,-133.333333333333,4,2,1,80,0,0
46346,-100,4,2,1,80,0,0
53546,-100,4,2,1,100,0,1
79946,-100,4,2,1,80,0,0
90671,-100,4,2,1,5,0,0

[Colours]
Combo1 : 0,255,128
Combo2 : 255,170,255
Combo3 : 255,255,128
Combo4 : 128,255,255

[HitObjects]
461,32,446,5,12,0:0:0:0:
461,32,746,2,0,P|485:92|481:168,1,140,2|8,0:3|0:0,0:0:0:0:
389,169,1196,1,2,0:3:0:0:
319,109,1346,2,0,P|251:89|187:113,1,140,2|8,0:3|0:0,0:0:0:0:
120,172,1796,2,0,P|145:105|126:39,1,140,2|8,0:3|0:0,0:0:0:0:
37,27,2246,1,8,0:0:0:0:
24,117,2396,1,2,0:3:0:0:
24,117,2546,2,0,L|32:266,1,140,0|8,0:0|0:0,0:0:0:0:
95,321,2996,1,0,0:0:0:0:
177,283,3146,6,0,P|238:252|306:263,1,140,2|8,0:3|0:0,0:0:0:0:
376,323,3596,1,0,0:0:0:0:
389,232,3746,2,0,L|397:82,1,140,2|8,0:3|0:0,0:0:0:0:
459,26,4196,2,0,B|417:51|354:32|354:32|305:46,1,140,2|8,0:3|0:0,0:0:0:0:
283,122,4646,1,8,0:0:0:0:
207,71,4796,1,0,0:0:0:0:
207,71,4946,2,0,P|139:57|77:84,1,140,0|8,0:0|0:0,0:0:0:0:
65,175,5396,1,0,0:0:0:0:
213,169,5546,6,0,B|261:169|261:169|310:153|310:153|363:153,1,140,2|8,0:3|0:0,0:0:0:0:
425,203,5996,1,0,0:0:0:0:
470,124,6146,2,0,P|512:182|485:268,1,140,2|8,0:3|0:0,0:0:0:0:
435,307,6596,2,0,P|369:285|304:307,1,140,2|8,0:3|0:0,0:0:0:0:
222,346,7046,1,8,0:0:0:0:
131,338,7196,1,0,0:0:0:0:
131,338,7346,2,0,P|62:339|4:301,1,140,0|8,0:0|0:0,0:0:0:0:
34,214,7796,1,0,0:0:0:0:
69,129,7946,6,0,L|103:31,2,70,8|0|0,0:0|0:0|0:0,0:0:0:0:
177,116,8396,2,0,L|235:51,2,70,8|0|0,0:0|0:0|0:0,0:0:0:0:
265,160,8846,2,0,L|345:126,1,70,8|8,0:0|0:0,0:0:0:0:
428,97,9146,1,8,0:0:0:0:
428,97,10046,6,0,L|427:251,1,125.999996154785,8|0,0:0|0:0,0:0:0:0:
415,267,10346,6,0,P|349:246|285:269,1,140,4|8,0:0|0:0,0:0:0:0:
237,346,10796,1,0,0:0:0:0:
148,321,10946,2,0,P|78:322|22:281,1,140,2|8,0:3|0:0,0:0:0:0:
7,191,11396,1,0,0:0:0:0:
96,176,11546,6,0,L|250:158,1,140,2|8,0:3|0:0,0:0:0:0:
275,242,11996,2,0,L|361:217,1,70,0|2,0:0|0:3,0:0:0:0:
350,131,12296,2,0,L|453:120,1,70,0|8,0:0|0:0,0:0:0:0:
505,156,12596,1,0,0:0:0:0:
505,247,12746,6,0,P|486:315|401:333,2,140,2|8|2,0:3|0:0|0:3,0:0:0:0:
495,64,13646,1,8,0:0:0:0:
404,66,13796,6,0,P|337:83|272:49,1,140,2|2,0:3|0:3,0:0:0:0:
183,34,14246,1,8,0:0:0:0:
198,123,14396,1,2,0:3:0:0:
160,209,14546,2,0,P|109:166|118:76,1,140,2|8,0:3|0:0,0:0:0:0:
282,168,15146,6,0,B|372:158|372:158|447:186,1,140,4|8,0:0|0:0,0:0:0:0:
450,260,15596,1,2,0:3:0:0:
359,264,15746,2,0,B|269:274|269:274|194:246,1,140,2|8,0:3|0:0,0:0:0:0:
169,183,16196,1,0,0:0:0:0:
78,155,16346,6,0,P|32:206|30:274,1,140,2|8,0:3|0:0,0:0:0:0:
101,332,16796,2,0,L|203:346,1,70,0|2,0:0|0:3,0:0:0:0:
242,286,17096,2,0,L|344:272,1,70,0|8,0:0|0:0,0:0:0:0:
402,276,17396,1,0,0:0:0:0:
469,166,17546,6,0,B|498:80|498:80|495:21,2,140,2|8|2,0:3|0:0|0:3,0:0:0:0:
289,133,18446,1,8,0:0:0:0:
217,190,18596,6,0,P|145:200|75:147,1,140,2|2,0:3|0:3,0:0:0:0:
71,78,19046,2,0,L|86:-2,1,70,8|2,0:0|0:3,0:0:0:0:
171,35,19346,2,0,L|335:19,1,140,2|8,0:3|0:0,0:0:0:0:
459,126,19946,6,0,L|295:110,1,140,4|8,0:3|0:0,0:0:0:0:
230,133,20396,1,0,0:3:0:0:
157,187,20546,2,0,L|87:179,1,70,2|0,0:3|0:0,0:0:0:0:
236,231,20846,2,0,L|316:227,1,70,8|0,0:0|0:0,0:0:0:0:
463,238,21146,6,0,P|469:172|414:102,1,140,2|8,0:3|0:0,0:0:0:0:
339,119,21596,1,0,0:0:0:0:
249,132,21746,2,0,P|185:151|105:114,1,140,2|8,0:3|0:0,0:0:0:0:
44,72,22196,1,2,0:3:0:0:
44,163,22346,6,0,B|60:221|42:264|42:264|50:321,1,140,4|8,0:0|0:0,0:0:0:0:
126,345,22796,1,0,0:0:0:0:
180,271,22946,2,0,L|262:258,1,70,2|2,0:3|0:3,0:0:0:0:
324,311,23246,2,0,L|328:242,1,70,8|2,0:0|0:3,0:0:0:0:
285,102,23546,6,0,P|321:71|419:81,1,140,12|2,0:0|0:3,0:0:0:0:
267,186,23996,2,0,P|212:150|212:57,1,140,12|2,0:0|0:3,0:0:0:0:
360,150,24446,2,0,L|363:219,1,70,12|2,0:0|0:3,0:0:0:0:
353,306,24746,6,0,P|290:284|211:344,1,140,4|8,0:0|0:0,0:0:0:0:
146,358,25196,1,0,0:0:0:0:
92,284,25346,2,0,P|66:220|-28:197,1,140,2|8,0:3|0:0,0:0:0:0:
0,283,25796,1,0,0:0:0:0:
47,360,25946,6,0,P|113:369|180:302,1,140,2|8,0:3|0:0,0:0:0:0:
223,254,26396,2,0,L|303:207,1,70,0|2,0:0|0:3,0:0:0:0:
362,265,26696,2,0,L|456:248,1,70,0|8,0:0|0:0,0:0:0:0:
481,328,26996,1,0,0:0:0:0:
501,187,27146,6,0,L|513:41,2,140,2|8|2,0:3|0:0|0:3,0:0:0:0:
354,294,28046,1,8,0:0:0:0:
273,250,28196,6,0,P|231:212|142:224,1,140,2|2,0:3|0:3,0:0:0:0:
68,255,28646,2,0,L|-3:243,1,70,8|2,0:0|0:3,0:0:0:0:
0,152,28946,2,0,L|69:161,1,70,2|0,0:3|0:0,0:0:0:0:
68,72,29246,2,0,L|-1:62,1,70,8|0,0:0|0:0,0:0:0:0:
158,60,29546,6,0,B|231:70|231:70|311:60,1,140,6|8,0:3|0:0,0:0:0:0:
379,23,29996,1,0,0:0:0:0:
451,77,30146,2,0,L|441:222,1,140,2|8,0:3|0:0,0:0:0:0:
420,305,30596,1,0,0:0:0:0:
331,317,30746,6,0,B|285:335|226:308|226:308|175:315,1,140,2|8,0:3|0:0,0:0:0:0:
110,278,31196,2,0,L|94:187,1,70,0|2,0:0|0:3,0:0:0:0:
189,217,31496,2,0,L|206:128,1,70,2|8,0:3|0:0,0:0:0:0:
228,61,31796,1,0,0:0:0:0:
314,88,31946,6,0,L|470:70,2,140,2|8|0,0:3|0:0|0:0,0:0:0:0:
443,215,32846,1,8,0:0:0:0:
406,298,32996,6,0,L|259:311,1,140,2|2,0:3|0:3,0:0:0:0:
193,364,33446,2,0,L|114:340,1,70,8|2,0:0|0:3,0:0:0:0:
38,319,33746,2,0,L|27:234,1,70
118,207,34046,2,0,L|134:126,1,70,8|0,0:0|0:0,0:0:0:0:
203,32,34346,6,0,P|140:57|79:27,1,140,4|8,0:0|0:0,0:0:0:0:
35,106,34796,1,0,0:0:0:0:
45,196,34946,2,0,L|57:346,1,140,2|8,0:3|0:0,0:0:0:0:
137,375,35396,1,0,0:0:0:0:
211,322,35546,6,0,P|273:291|363:320,1,140,2|8,0:3|0:0,0:0:0:0:
420,345,35996,1,0,0:0:0:0:
439,256,36146,2,0,L|449:176,1,70,2|2,0:3|0:3,0:0:0:0:
357,194,36446,2,0,L|344:102,1,70,8|0,0:0|0:0,0:0:0:0:
381,10,36746,6,0,P|345:42|234:21,1,140,4|8,0:0|0:0,0:0:0:0:
171,7,37196,1,0,0:0:0:0:
131,89,37346,2,0,L|138:232,1,140,2|8,0:3|0:0,0:0:0:0:
143,319,37796,1,0,0:0:0:0:
225,281,37946,5,0,0:0:0:0:
315,272,38096,2,0,L|384:276,1,70,8|8,0:0|0:0,0:0:0:0:
498,200,38396,2,0,L|428:197,1,70,8|8,0:0|0:0,0:0:0:0:
361,110,38696,1,8,0:0:0:0:
361,110,38846,2,0,L|459:95,1,70,8|8,0:0|0:0,0:0:0:0:
326,26,39146,6,0,P|277:44|211:19,1,105.000004005432,6|0,0:3|0:0,0:0:0:0:
152,57,39596,1,2,0:3:0:0:
78,34,39746,2,0,P|47:25|15:21,2,52.5000020027161,0|2|8,0:0|0:3|0:0,0:0:0:0:
94,111,40196,1,0,0:0:0:0:
98,189,40346,6,0,L|103:317,1,105.000004005432,6|0,0:3|0:0,0:0:0:0:
153,357,40796,1,2,0:3:0:0:
231,334,40946,2,0,P|281:307|344:314,1,105.000004005432,0|8,0:0|0:0,0:0:0:0:
477,359,41546,6,0,L|463:232,1,105.000004005432,6|0,0:3|0:0,0:0:0:0:
462,175,41996,1,2,0:3:0:0:
403,122,42146,2,0,P|356:113|292:137,1,105.000004005432,0|8,0:0|0:0,0:0:0:0:
274,329,42746,6,0,L|280:219,1,105.000004005432,4|0,0:0|0:0,0:0:0:0:
185,167,43196,2,0,L|191:279,1,105.000004005432,4|2,0:0|0:3,0:0:0:0:
204,362,43646,1,8,0:0:0:0:
370,330,43946,6,0,P|320:312|256:321,1,105.000004005432,2|0,0:3|0:0,0:0:0:0:
204,362,44396,1,2,0:3:0:0:
125,361,44546,2,0,L|65:333,1,52.5000020027161,0|2,0:0|0:3,0:0:0:0:
100,262,44846,2,0,L|46:208,1,52.5000020027161,8|0,0:0|0:0,0:0:0:0:
149,183,45146,6,0,B|201:175|201:175|259:174,1,105.000004005432,2|0,0:3|0:0,0:0:0:0:
325,206,45596,1,2,0:3:0:0:
405,168,45746,2,0,L|466:158,1,52.5000020027161,0|2,0:0|0:3,0:0:0:0:
426,86,46046,2,0,L|485:73,1,52.5000020027161,8|0,0:0|0:0,0:0:0:0:
316,66,46346,6,0,L|326:223,1,140,6|8,0:3|0:0,0:0:0:0:
310,295,46796,1,0,0:0:0:0:
237,349,46946,2,0,L|135:348,1,70,2|0,0:3|0:0,0:0:0:0:
205,265,47246,2,0,L|117:213,1,70,8|0,0:0|0:0,0:0:0:0:
218,175,47546,6,0,L|168:86,1,70,2|0,0:3|0:0,0:0:0:0:
273,104,47846,2,0,L|273:2,1,70,8|0,0:0|0:0,0:0:0:0:
357,69,48146,2,0,L|518:44,1,140,2|8,0:3|0:0,0:0:0:0:
463,132,48596,1,0,0:0:0:0:
450,222,48746,6,0,L|442:310,1,70,12|2,0:0|0:3,0:0:0:0:
382,359,49046,2,0,L|306:343,1,70,8|2,0:0|0:3,0:0:0:0:
315,253,49346,2,0,L|239:269,1,70,8|0,0:0|0:0,0:0:0:0:
212,352,49646,2,0,L|136:336,1,70,8|2,0:0|0:3,0:0:0:0:
145,246,49946,6,0,L|84:206,1,70,4|2,0:0|0:3,0:0:0:0:
213,188,50246,2,0,L|281:173,1,70,8|2,0:0|0:3,0:0:0:0:
361,114,50546,2,0,L|407:166,1,70,8|0,0:0|0:0,0:0:0:0:
489,207,50846,2,0,L|467:273,1,70,8|2,0:0|0:3,0:0:0:0:
410,344,51146,6,0,L|341:358,1,70,12|2,0:0|0:3,0:0:0:0:
250,357,51446,1,12,0:0:0:0:
167,318,51596,1,2,0:3:0:0:
76,305,51746,2,0,L|-20:291,1,70,12|2,0:0|0:3,0:0:0:0:
102,222,52046,2,0,L|195:208,1,70,12|2,0:0|0:3,0:0:0:0:
239,281,52346,5,4,0:0:0:0:
239,281,52496,2,0,L|296:209,1,70,12|12,0:0|0:0,0:0:0:0:
342,157,52796,1,12,0:0:0:0:
405,227,52946,1,12,0:0:0:0:
273,353,53246,1,0,0:0:0:0:
405,227,53546,6,0,L|422:82,2,140,6|8|2,0:3|0:0|0:3,0:0:0:0:
377,313,54296,1,2,0:3:0:0:
286,325,54446,2,0,P|253:313|215:309,1,70,8|0,0:0|0:0,0:0:0:0:
98,341,54746,6,0,P|134:294|124:210,1,140,2|8,0:3|0:0,0:0:0:0:
74,143,55196,1,2,0:3:0:0:
164,140,55346,2,0,P|198:133|237:127,1,70,0|2,0:0|0:3,0:0:0:0:
265,212,55646,2,0,P|301:207|344:204,1,70,8|0,0:0|0:0,0:0:0:0:
427,202,55946,6,0,P|425:270|423:349,2,140,6|8|2,0:3|0:0|0:3,0:0:0:0:
443,112,56696,1,2,0:3:0:0:
366,63,56846,2,0,L|292:44,1,70,8|0,0:0|0:0,0:0:0:0:
184,0,57146,6,0,P|208:64|167:138,1,140,2|8,0:3|0:0,0:0:0:0:
148,211,57596,1,0,0:0:0:0:
229,246,57746,2,0,L|307:244,1,70,2|2,0:3|0:3,0:0:0:0:
326,330,58046,2,0,L|411:321,1,70,8|0,0:0|0:0,0:0:0:0:
241,339,58346,6,0,L|163:323,1,70,4|0,0:0|0:0,0:0:0:0:
81,330,58646,2,0,P|99:269|178:234,1,140,8|2,0:0|0:3,0:0:0:0:
252,238,59096,1,2,0:3:0:0:
342,227,59246,2,0,L|421:204,1,70,8|0,0:0|0:0,0:0:0:0:
371,100,59546,6,0,P|315:139|235:114,1,140,6|8,0:3|0:0,0:0:0:0:
296,47,59996,2,0,L|316:190,1,140,6|2,0:3|0:3,0:0:0:0:
310,276,60446,2,0,L|219:258,1,70,8|0,0:0|0:0,0:0:0:0:
213,175,60746,6,0,P|176:204|153:239,1,70,4|0,0:0|0:0,0:0:0:0:
259,329,61046,2,0,P|254:293|241:262,1,70,8|0,0:0|0:0,0:0:0:0:
101,294,61346,2,0,P|132:308|167:313,1,70,2|2,0:3|0:3,0:0:0:0:
75,210,61646,2,0,P|46:230|24:257,1,70,8|0,0:0|0:0,0:0:0:0:
162,222,61946,6,0,P|158:186|145:154,1,70,2|0,0:3|0:0,0:0:0:0:
242,160,62246,2,0,L|368:137,1,105,12|0,0:0|0:0,0:0:0:0:
371,120,62546,2,0,L|358:216,1,70,6|2,0:3|0:3,0:0:0:0:
282,234,62846,2,0,L|295:330,1,70,8|0,0:0|0:0,0:0:0:0:
237,359,63146,6,0,L|377:347,2,140,6|8|2,0:3|0:0|0:3,0:0:0:0:
149,332,63896,1,2,0:3:0:0:
206,261,64046,2,0,L|290:211,1,70,8|0,0:0|0:0,0:0:0:0:
421,210,64346,6,0,P|351:190|325:125,1,140,2|8,0:3|0:0,0:0:0:0:
410,123,64796,1,2,0:3:0:0:
324,132,64946,2,0,P|287:143|231:129,1,70,0|2,0:0|0:3,0:0:0:0:
224,230,65246,2,0,P|191:209|166:156,1,70,8|0,0:0|0:0,0:0:0:0:
198,38,65546,6,0,L|349:33,2,140,6|8|2,0:3|0:0|0:3,0:0:0:0:
107,46,66296,1,2,0:3:0:0:
44,112,66446,2,0,L|52:195,1,70,8|0,0:0|0:0,0:0:0:0:
23,297,66746,6,0,P|83:265|149:283,1,140,2|8,0:3|0:0,0:0:0:0:
204,355,67196,1,2,0:3:0:0:
284,308,67346,2,0,P|321:302|366:264,1,70,0|2,0:0|0:3,0:0:0:0:
289,155,67646,2,0,P|279:191|299:246,1,70,8|0,0:0|0:0,0:0:0:0:
373,200,67946,6,0,B|380:98|380:98|407:56,2,140,6|8|2,0:3|0:0|0:3,0:0:0:0:
404,285,68696,1,2,0:3:0:0:
344,353,68846,2,0,L|248:363,1,70,8|0,0:0|0:0,0:0:0:0:
220,250,69146,6,0,P|153:239|97:278,1,140,4|8,0:0|0:0,0:0:0:0:
37,348,69596,2,0,P|65:291|30:208,1,140,4|2,0:0|0:3,0:0:0:0:
41,129,70046,2,0,L|35:49,1,70,8|0,0:0|0:0,0:0:0:0:
164,98,70346,6,0,P|198:133|287:124,1,140,4|8,0:0|0:0,0:0:0:0:
330,48,70796,2,0,L|341:209,1,140,0|2,0:3|0:3,0:0:0:0:
360,276,71246,1,8,0:0:0:0:
450,277,71396,1,0,0:0:0:0:
489,195,71546,6,0,L|498:55,2,140,2|8|2,0:3|0:0|0:3,0:0:0:0:
450,277,72296,1,2,0:3:0:0:
406,201,72446,2,0,P|374:187|340:187,1,70,8|0,0:0|0:0,0:0:0:0:
266,241,72746,6,0,P|212:247|134:179,1,140,4|8,0:0|0:0,0:0:0:0:
88,127,73196,2,0,L|103:287,1,140,0|2,0:0|0:3,0:0:0:0:
121,355,73646,1,8,0:0:0:0:
194,300,73796,1,0,0:0:0:0:
277,262,73946,6,0,L|426:288,2,140,2|8|2,0:3|0:0|0:3,0:0:0:0:
193,224,74696,1,2,0:3:0:0:
144,147,74846,2,0,L|154:76,1,70,8|2,0:0|0:3,0:0:0:0:
222,122,75146,6,0,P|243:93|297:81,1,70,12|0,0:0|0:0,0:0:0:0:
184,200,75446,2,0,P|156:179|142:123,1,70,8|2,0:0|0:3,0:0:0:0:
256,244,75746,2,0,P|236:270|180:284,1,70,8|2,0:0|0:3,0:0:0:0:
348,227,76046,1,8,0:0:0:0:
348,227,76196,6,0,L|502:205,1,140,4|0,0:0|0:0,0:0:0:0:
487,298,76646,2,0,L|389:311,1,70,8|2,0:0|0:3,0:0:0:0:
355,371,76946,2,0,L|257:357,1,70,0|2,0:0|0:3,0:0:0:0:
243,279,77246,2,0,L|145:292,1,70,8|2,0:0|0:3,0:0:0:0:
59,368,77546,6,0,P|85:312|49:228,1,140,6|8,0:3|0:0,0:0:0:0:
147,207,77996,2,0,L|309:183,1,140,2|2,0:3|0:3,0:0:0:0:
371,219,78446,1,8,0:0:0:0:
451,176,78596,1,0,0:0:0:0:
451,176,78896,6,0,P|479:154|511:104,1,70,12|12,0:0|0:0,0:0:0:0:
417,89,79196,2,0,P|428:55|428:-4,1,70,12|12,0:0|0:0,0:0:0:0:
431,21,79946,6,0,L|268:16,1,140,6|8,0:3|0:0,0:0:0:0:
203,40,80396,1,2,0:3:0:0:
211,130,80546,2,0,L|224:290,1,140,2|8,0:3|0:0,0:0:0:0:
166,341,80996,2,0,P|221:306|319:323,1,140,2|8,0:3|0:0,0:0:0:0:
378,342,81446,1,8,0:0:0:0:
465,307,81596,1,2,0:3:0:0:
465,307,81746,2,0,B|449:249|467:206|467:206|459:149,1,140,0|8,0:0|0:0,0:0:0:0:
434,83,82196,1,0,0:0:0:0:
336,178,82346,6,0,P|268:188|207:157,1,140,2|8,0:3|0:0,0:0:0:0:
240,72,82796,1,2,0:3:0:0:
157,35,82946,2,0,L|2:44,1,140,2|8,0:3|0:0,0:0:0:0:
31,132,83396,2,0,B|18:188|18:188|29:220|29:220|29:293,1,140,2|8,0:3|0:0,0:0:0:0:
16,359,83846,1,8,0:0:0:0:
95,314,83996,1,0,0:0:0:0:
172,359,84146,2,0,P|236:334|311:357,1,140,0|8,0:0|0:0,0:0:0:0:
393,364,84596,1,0,0:0:0:0:
481,247,84746,6,0,B|492:158|492:158|482:109,1,140,2|8,0:3|0:0,0:0:0:0:
407,56,85196,1,0,0:0:0:0:
329,106,85346,2,0,P|272:143|205:130,1,140,2|8,0:3|0:0,0:0:0:0:
159,50,85796,2,0,P|94:23|28:40,1,140,2|8,0:3|0:0,0:0:0:0:
46,129,86246,1,8,0:0:0:0:
108,194,86396,1,0,0:0:0:0:
108,194,86546,2,0,P|180:201|250:232,1,140,0|8,0:0|0:0,0:0:0:0:
306,290,86996,1,0,0:0:0:0:
393,266,87146,6,0,P|405:298|411:333,2,70,12|0|0,0:0|0:0|0:0,0:0:0:0:
385,151,87596,2,0,P|390:116|403:83,2,70,8|8|0,0:0|0:0|0:0,0:0:0:0:
317,211,88046,2,0,L|235:204,1,70,8|8,0:0|0:0,0:0:0:0:
156,196,88346,1,8,0:0:0:0:
156,196,89546,5,12,0:0:0:0:
256,192,89621,12,2,90671,0:0:0:0:
