osu file format v14

[General]
AudioFilename: audio.mp3
AudioLeadIn: 0
PreviewTime: 63088
Countdown: 0
SampleSet: None
StackLeniency: 0
Mode: 0
LetterboxInBreaks: 0
WidescreenStoryboard: 1

[Editor]
DistanceSpacing: 1.5
BeatDivisor: 4
GridSize: 32
TimelineZoom: 2.1

[Metadata]
Title:Kira Kira Days (Drum Edit)
TitleUnicode:キラキラDays (Drum Edit)
Artist:HO-KAGO TEA TIME
ArtistUnicode:放課後ティータイム
Creator:Tsuyumaki
Version:hs
Source:けいおん!!
Tags:K-ON!! HTT Keion Yui Hirasawa Mio Akiyama Ritsu Tainaka Tsumugi Kotobuki Azusa Nakano Toyosaki Aki Hikasa Yoko Sato Satomi Minako Taketatsu Ayana tv size Pony Canyon 平沢唯 秋山澪 田井中律 琴吹紬 中野梓 豊崎愛生 日笠陽子 佐藤聡美 寿美菜子 竹達彩奈 Youko Satou Female Vocal Vocalist Short Edit japanese pop Utauyo!!MIRACLE anime
BeatmapID:4388528
BeatmapSetID:2093160

[Difficulty]
HPDrainRate:5
CircleSize:4.2
OverallDifficulty:9.4
ApproachRate:9.6
SliderMultiplier:1.8
SliderTickRate:1

[Events]
//Background and Video events
0,0,"nocchi.jpg",0,0
//Break Periods
//Storyboard Layer 0 (Background)
//Storyboard Layer 1 (Fail)
//Storyboard Layer 2 (Pass)
//Storyboard Layer 3 (Foreground)
//Storyboard Layer 4 (Overlay)
//Storyboard Sound Samples

[TimingPoints]
-1412,300,4,2,1,80,1,0
988,-100,4,2,1,60,0,0
10588,-100,4,2,1,50,0,0
20188,-100,4,2,1,60,0,0
24988,-100,4,2,1,50,0,0
34588,-100,4,2,1,60,0,0
39388,-100,4,2,1,40,0,0
42988,-100,4,2,1,60,0,0
44188,-100,4,2,1,30,0,0
46588,-100,4,2,1,40,0,0
48988,-100,4,2,1,60,0,0
53788,-100,4,2,1,80,0,0
80188,-100,4,2,1,60,0,0
85288,-100,4,2,1,70,0,0

[Colours]
Combo1 : 250,180,240
Combo2 : 120,200,230
Combo3 : 255,230,130
Combo4 : 160,230,150

[HitObjects]
256,192,688,5,8,0:0:0:0:
256,192,988,5,4,3:1:0:0:
256,192,1138,1,0,3:0:0:0:
256,192,1213,1,0,3:0:0:0:
256,192,1288,1,8,0:0:0:0:
256,192,1438,1,0,3:0:0:0:
256,192,1588,1,2,3:2:0:0:
256,192,1738,1,2,3:2:0:0:
256,192,1888,1,10,0:0:0:0:
256,192,2038,1,2,3:2:0:0:
256,192,2338,1,8,0:0:0:0:
256,192,2488,1,0,3:2:0:0:
256,192,2638,1,0,3:2:0:0:
256,192,2713,1,0,3:2:0:0:
256,192,2788,1,10,0:0:0:0:
256,192,2938,1,8,0:0:0:0:
256,192,3088,1,0,3:2:0:0:
256,192,3238,1,8,0:0:0:0:
256,192,3388,5,4,3:2:0:0:
256,192,3538,1,0,3:0:0:0:
256,192,3613,1,0,3:0:0:0:
256,192,3688,1,8,0:0:0:0:
256,192,3838,1,0,3:0:0:0:
256,192,3988,1,2,3:2:0:0:
256,192,4138,1,2,3:2:0:0:
256,192,4288,1,10,0:0:0:0:
256,192,4438,1,2,3:2:0:0:
256,192,4738,1,8,0:0:0:0:
256,192,4888,1,0,3:2:0:0:
256,192,5038,1,0,3:2:0:0:
256,192,5113,1,0,3:2:0:0:
256,192,5188,1,10,0:0:0:0:
256,192,5338,1,8,0:0:0:0:
256,192,5488,1,10,0:2:0:0:
256,192,5638,1,10,0:0:0:0:
256,192,5788,5,4,3:2:0:0:
256,192,5938,1,0,3:0:0:0:
256,192,6013,1,0,3:0:0:0:
256,192,6088,1,8,0:0:0:0:
256,192,6238,1,0,3:0:0:0:
256,192,6388,1,2,3:2:0:0:
256,192,6538,1,2,3:2:0:0:
256,192,6688,1,10,0:0:0:0:
256,192,6838,1,2,3:2:0:0:
256,192,7138,1,8,0:0:0:0:
256,192,7288,1,0,3:2:0:0:
256,192,7438,1,0,3:2:0:0:
256,192,7513,1,0,3:2:0:0:
256,192,7588,1,10,0:0:0:0:
256,192,7738,1,8,0:0:0:0:
256,192,7888,1,0,3:2:0:0:
256,192,8038,1,8,0:0:0:0:
256,192,8188,1,0,3:0:0:0:
256,192,8263,1,0,3:0:0:0:
256,192,8338,1,8,0:0:0:0:
256,192,8413,1,0,3:0:0:0:
256,192,8488,1,0,3:0:0:0:
256,192,8563,1,0,3:0:0:0:
256,192,8638,1,0,3:0:0:0:
256,192,8713,1,0,3:0:0:0:
256,192,8788,1,8,0:0:0:0:
256,192,8863,1,0,3:0:0:0:
256,192,8938,1,0,3:0:0:0:
256,192,9013,1,0,3:0:0:0:
256,192,9088,1,8,0:0:0:0:
256,192,9163,1,8,0:0:0:0:
256,192,9238,1,8,0:0:0:0:
256,192,9313,1,8,0:0:0:0:
256,192,9388,5,4,3:2:0:0:
256,192,10288,1,8,0:0:0:0:
256,192,10363,1,8,0:0:0:0:
256,192,10438,1,8,0:0:0:0:
256,192,10513,1,8,0:0:0:0:
256,192,10588,5,4,3:2:0:0:
256,192,10888,1,8,0:0:0:0:
256,192,11038,1,0,3:0:0:0:
256,192,11113,1,0,3:0:0:0:
256,192,11188,1,2,3:2:0:0:
256,192,11338,1,0,3:0:0:0:
256,192,11488,1,8,0:0:0:0:
256,192,11788,1,2,3:2:0:0:
256,192,11938,1,2,3:2:0:0:
256,192,12088,1,8,0:0:0:0:
256,192,12238,1,2,3:2:0:0:
256,192,12388,1,2,0:3:0:0:
256,192,12538,1,2,3:2:0:0:
256,192,12688,1,8,0:0:0:0:
256,192,12988,5,2,3:2:0:0:
256,192,13288,1,8,0:0:0:0:
256,192,13588,1,2,3:2:0:0:
256,192,13738,1,0,3:2:0:0:
256,192,13888,1,8,0:0:0:0:
256,192,14038,1,2,3:2:0:0:
256,192,14338,1,0,3:2:0:0:
256,192,14413,1,0,3:2:0:0:
256,192,14488,1,8,0:0:0:0:
256,192,14638,1,8,0:3:0:0:
256,192,14788,1,8,3:3:0:0:
256,192,14938,1,4,0:3:0:0:
256,192,15088,1,8,0:0:0:0:
256,192,15238,1,8,0:0:0:0:
256,192,15388,5,4,3:2:0:0:
256,192,15538,1,0,3:0:0:0:
256,192,15688,1,8,0:0:0:0:
256,192,15838,1,0,3:0:0:0:
256,192,15913,1,0,3:0:0:0:
256,192,15988,1,2,3:2:0:0:
256,192,16138,1,0,3:0:0:0:
256,192,16288,1,8,0:0:0:0:
256,192,16588,1,2,3:2:0:0:
256,192,16738,1,2,3:2:0:0:
256,192,16888,1,8,0:0:0:0:
256,192,17038,1,2,3:2:0:0:
256,192,17188,1,2,0:3:0:0:
256,192,17338,1,2,3:2:0:0:
256,192,17488,1,8,0:0:0:0:
256,192,17788,5,2,3:2:0:0:
256,192,18088,1,8,0:0:0:0:
256,192,18388,1,2,3:2:0:0:
256,192,18538,1,0,3:2:0:0:
256,192,18688,1,8,0:0:0:0:
256,192,18838,1,2,3:2:0:0:
256,192,19138,1,0,3:2:0:0:
256,192,19175,1,0,3:2:0:0:
256,192,19213,1,0,3:2:0:0:
256,192,19250,1,0,3:2:0:0:
256,192,19288,1,8,0:0:0:0:
256,192,19438,1,8,0:3:0:0:
256,192,19588,1,8,3:3:0:0:
256,192,19738,1,4,0:3:0:0:
256,192,19888,1,8,0:0:0:0:
256,192,19963,1,8,0:0:0:0:
256,192,20038,1,8,0:0:0:0:
256,192,20113,1,8,0:0:0:0:
256,192,20188,5,4,3:2:0:0:
256,192,20338,1,0,3:0:0:0:
256,192,20488,1,10,0:0:0:0:
256,192,20638,1,0,3:0:0:0:
256,192,20788,1,10,0:0:0:0:
256,192,20938,1,0,3:0:0:0:
256,192,21088,1,10,0:0:0:0:
256,192,21238,1,0,3:0:0:0:
256,192,21388,1,2,3:2:0:0:
256,192,21538,1,0,3:0:0:0:
256,192,21688,1,8,0:0:0:0:
256,192,21838,1,0,3:0:0:0:
256,192,21988,1,8,0:0:0:0:
256,192,22138,1,0,3:0:0:0:
256,192,22288,1,8,0:0:0:0:
256,192,22438,1,0,3:0:0:0:
256,192,22513,1,0,3:0:0:0:
256,192,22588,5,4,3:2:0:0:
256,192,22738,1,0,3:0:0:0:
256,192,22888,1,10,0:0:0:0:
256,192,23038,1,0,3:0:0:0:
256,192,23188,1,10,0:0:0:0:
256,192,23338,1,0,3:0:0:0:
256,192,23488,1,10,0:0:0:0:
256,192,23638,1,0,3:0:0:0:
256,192,23788,1,0,3:0:0:0:
256,192,23938,1,8,0:0:0:0:
256,192,24088,1,0,3:0:0:0:
256,192,24238,1,0,3:0:0:0:
256,192,24388,1,8,0:0:0:0:
256,192,24538,1,0,3:0:0:0:
256,192,24688,1,8,0:0:0:0:
256,192,24763,1,8,0:0:0:0:
256,192,24838,1,8,0:0:0:0:
256,192,24913,1,8,0:0:0:0:
256,192,24988,5,4,3:2:0:0:
256,192,25288,1,8,0:0:0:0:
256,192,25438,1,0,3:0:0:0:
256,192,25513,1,0,3:0:0:0:
256,192,25588,1,2,3:2:0:0:
256,192,25738,1,0,3:0:0:0:
256,192,25888,1,8,0:0:0:0:
256,192,26188,1,2,3:2:0:0:
256,192,26338,1,2,3:2:0:0:
256,192,26488,1,8,0:0:0:0:
256,192,26638,1,2,3:2:0:0:
256,192,26788,1,2,0:3:0:0:
256,192,26938,1,2,3:2:0:0:
256,192,27088,1,8,0:0:0:0:
256,192,27238,1,2,3:2:0:0:
256,192,27388,5,2,3:2:0:0:
256,192,27688,1,8,0:0:0:0:
256,192,27988,1,2,3:2:0:0:
256,192,28138,1,0,3:2:0:0:
256,192,28288,1,8,0:0:0:0:
256,192,28438,1,2,3:2:0:0:
256,192,28738,1,0,3:2:0:0:
256,192,28813,1,0,3:2:0:0:
256,192,28888,1,8,0:0:0:0:
256,192,29038,1,8,0:3:0:0:
256,192,29188,1,8,3:3:0:0:
256,192,29338,1,4,0:3:0:0:
256,192,29488,1,8,0:0:0:0:
256,192,29638,1,8,0:0:0:0:
256,192,29788,5,4,3:2:0:0:
256,192,29938,1,0,3:0:0:0:
256,192,30088,1,8,0:0:0:0:
256,192,30238,1,0,3:0:0:0:
256,192,30313,1,0,3:0:0:0:
256,192,30388,1,2,3:2:0:0:
256,192,30538,1,0,3:0:0:0:
256,192,30688,1,8,0:0:0:0:
256,192,30988,1,2,3:2:0:0:
256,192,31138,1,2,3:2:0:0:
256,192,31288,1,8,0:0:0:0:
256,192,31438,1,2,3:2:0:0:
256,192,31588,1,2,0:3:0:0:
256,192,31738,1,2,3:2:0:0:
256,192,31888,1,8,0:0:0:0:
256,192,32038,1,2,3:2:0:0:
256,192,32188,5,2,3:2:0:0:
256,192,32488,1,8,0:0:0:0:
256,192,32788,1,2,3:2:0:0:
256,192,32938,1,0,3:2:0:0:
256,192,33088,1,8,0:0:0:0:
256,192,33238,1,2,3:2:0:0:
256,192,33538,1,0,3:2:0:0:
256,192,33613,1,0,3:2:0:0:
256,192,33688,1,8,0:0:0:0:
256,192,33838,1,8,0:3:0:0:
256,192,33988,1,8,3:3:0:0:
256,192,34138,1,4,0:3:0:0:
256,192,34288,1,8,0:0:0:0:
256,192,34363,1,8,0:0:0:0:
256,192,34438,1,8,0:0:0:0:
256,192,34513,1,8,0:0:0:0:
256,192,34588,5,4,3:2:0:0:
256,192,34738,1,0,3:0:0:0:
256,192,34888,1,10,0:0:0:0:
256,192,35038,1,0,3:0:0:0:
256,192,35188,1,10,0:0:0:0:
256,192,35338,1,0,3:0:0:0:
256,192,35488,1,10,0:0:0:0:
256,192,35638,1,0,3:0:0:0:
256,192,35788,1,2,3:2:0:0:
256,192,35938,1,0,3:0:0:0:
256,192,36088,1,8,0:0:0:0:
256,192,36238,1,0,3:0:0:0:
256,192,36388,1,8,0:0:0:0:
256,192,36538,1,0,3:0:0:0:
256,192,36688,1,8,0:0:0:0:
256,192,36838,1,0,3:0:0:0:
256,192,36913,1,0,3:0:0:0:
256,192,36988,5,4,3:2:0:0:
256,192,37138,1,0,3:0:0:0:
256,192,37288,1,10,0:0:0:0:
256,192,37438,1,0,3:0:0:0:
256,192,37588,1,10,0:0:0:0:
256,192,37738,1,0,3:0:0:0:
256,192,37888,1,10,0:0:0:0:
256,192,38038,1,0,3:0:0:0:
256,192,38188,1,0,3:0:0:0:
256,192,38338,1,8,0:0:0:0:
256,192,38413,1,8,0:0:0:0:
256,192,38488,1,8,0:3:0:0:
256,192,38563,1,8,0:3:0:0:
256,192,38638,1,4,0:3:0:0:
256,192,38713,1,4,0:3:0:0:
256,192,38788,1,8,0:0:0:0:
256,192,38863,1,8,0:0:0:0:
256,192,38938,1,8,0:0:0:0:
256,192,39013,1,8,0:0:0:0:
256,192,39088,1,8,0:0:0:0:
256,192,39163,1,8,0:0:0:0:
256,192,39238,1,8,0:0:0:0:
256,192,39313,1,8,0:0:0:0:
256,192,39388,5,4,3:2:0:0:
256,192,39688,1,2,0:3:0:0:
256,192,39838,1,0,3:0:0:0:
256,192,39988,1,10,0:0:0:0:
256,192,40138,1,0,3:0:0:0:
256,192,40288,1,2,0:3:0:0:
256,192,40438,1,2,3:2:0:0:
256,192,40588,1,0,3:0:0:0:
256,192,40738,1,0,3:0:0:0:
256,192,41038,1,0,3:0:0:0:
256,192,41188,1,10,0:0:0:0:
256,192,41338,1,0,0:0:0:0:
256,192,41488,1,2,3:3:0:0:
256,192,41638,1,8,0:0:0:0:
256,192,41788,5,2,3:2:0:0:
256,192,42088,1,2,0:3:0:0:
256,192,42238,1,0,3:0:0:0:
256,192,42388,1,10,0:0:0:0:
256,192,42538,1,0,3:0:0:0:
256,192,42688,1,10,0:0:0:0:
256,192,42988,5,4,3:2:0:0:
256,192,43138,1,8,0:0:0:0:
256,192,43363,1,0,3:0:0:0:
256,192,43438,1,4,3:2:0:0:
256,192,43663,1,0,3:0:0:0:
256,192,43738,1,0,3:0:0:0:
256,192,43888,1,8,0:0:0:0:
256,192,44188,5,0,3:0:0:0:
256,192,44488,1,2,0:0:0:0:
256,192,44788,1,2,0:0:0:0:
256,192,44938,1,0,3:0:0:0:
256,192,45013,1,0,3:0:0:0:
256,192,45088,1,8,0:0:0:0:
256,192,45388,5,0,3:0:0:0:
256,192,45688,1,2,0:0:0:0:
256,192,45838,1,0,3:0:0:0:
256,192,45988,1,2,0:0:0:0:
256,192,46138,1,0,3:0:0:0:
256,192,46288,1,8,0:0:0:0:
256,192,46588,5,0,3:0:0:0:
256,192,46738,1,2,3:2:0:0:
256,192,46888,1,8,0:0:0:0:
256,192,47038,1,0,3:0:0:0:
256,192,47188,5,2,3:2:0:0:
256,192,47338,1,0,3:0:0:0:
256,192,47488,1,8,0:0:0:0:
256,192,47638,1,0,3:0:0:0:
256,192,47788,5,2,3:2:0:0:
256,192,47938,1,0,3:0:0:0:
256,192,48088,1,8,0:0:0:0:
256,192,48238,1,0,3:0:0:0:
256,192,48388,5,2,3:2:0:0:
256,192,48538,1,0,3:0:0:0:
256,192,48688,1,10,0:0:0:0:
256,192,48838,1,0,3:0:0:0:
256,192,48988,5,4,3:2:0:0:
256,192,49138,1,0,3:0:0:0:
256,192,49288,1,8,0:0:0:0:
256,192,49438,1,0,3:0:0:0:
256,192,49513,1,0,3:0:0:0:
256,192,49588,1,8,0:0:0:0:
256,192,49663,1,0,3:0:0:0:
256,192,49738,1,0,3:0:0:0:
256,192,49813,1,0,3:0:0:0:
256,192,49888,1,8,0:0:0:0:
256,192,49963,1,0,3:0:0:0:
256,192,50038,1,0,3:0:0:0:
256,192,50113,1,0,3:0:0:0:
256,192,50188,1,8,0:0:0:0:
256,192,50263,1,0,3:0:0:0:
256,192,50338,1,0,3:0:0:0:
256,192,50413,1,0,3:0:0:0:
256,192,50488,1,8,0:0:0:0:
256,192,50563,1,0,3:0:0:0:
256,192,50638,1,0,3:0:0:0:
256,192,50713,1,0,3:0:0:0:
256,192,50788,1,8,0:0:0:0:
256,192,50863,1,0,3:0:0:0:
256,192,50938,1,0,3:0:0:0:
256,192,51013,1,0,3:0:0:0:
256,192,51088,1,8,0:0:0:0:
256,192,51163,1,0,3:0:0:0:
256,192,51238,1,0,3:0:0:0:
256,192,51313,1,0,3:0:0:0:
256,192,51388,5,8,0:0:0:0:
256,192,51463,1,8,0:0:0:0:
256,192,51538,1,8,0:0:0:0:
256,192,51613,1,8,0:0:0:0:
256,192,51688,1,8,0:3:0:0:
256,192,51763,1,8,0:3:0:0:
256,192,51838,1,0,3:0:0:0:
256,192,51913,1,0,3:0:0:0:
256,192,51988,1,8,0:0:0:0:
256,192,52063,1,8,0:0:0:0:
256,192,52138,1,4,0:3:0:0:
256,192,52213,1,4,0:3:0:0:
256,192,52288,1,8,0:0:0:0:
256,192,52363,1,8,0:0:0:0:
256,192,52438,1,8,0:0:0:0:
256,192,52513,1,8,0:0:0:0:
256,192,52588,5,8,0:0:0:0:
256,192,52738,1,10,0:1:0:0:
256,192,52888,1,10,0:1:0:0:
256,192,53038,1,10,0:1:0:0:
256,192,53188,1,10,0:1:0:0:
256,192,53488,1,8,0:0:0:0:
256,192,53563,1,8,0:0:0:0:
256,192,53638,1,8,0:0:0:0:
256,192,53713,1,8,0:0:0:0:
256,192,53788,5,4,3:1:0:0:
256,192,54088,1,8,0:0:0:0:
256,192,54238,1,2,0:3:0:0:
256,192,54388,1,0,3:0:0:0:
256,192,54538,1,0,3:0:0:0:
256,192,54688,1,8,0:0:0:0:
256,192,54838,1,2,0:3:0:0:
256,192,54988,5,4,3:2:0:0:
256,192,55138,1,0,3:0:0:0:
256,192,55288,1,8,0:0:0:0:
256,192,55438,1,2,0:3:0:0:
256,192,55588,1,2,3:2:0:0:
256,192,55738,1,0,3:0:0:0:
256,192,55888,1,10,0:0:0:0:
256,192,56038,1,10,0:0:0:0:
256,192,56188,5,4,3:2:0:0:
256,192,56488,1,8,0:0:0:0:
256,192,56638,1,2,0:3:0:0:
256,192,56788,1,0,3:0:0:0:
256,192,56938,1,0,3:0:0:0:
256,192,57088,1,8,0:0:0:0:
256,192,57238,1,2,0:3:0:0:
256,192,57388,5,4,3:2:0:0:
256,192,57538,1,0,3:0:0:0:
256,192,57688,1,8,0:0:0:0:
256,192,57838,1,2,0:3:0:0:
256,192,57988,1,2,3:2:0:0:
256,192,58138,1,0,3:0:0:0:
256,192,58288,1,10,0:0:0:0:
256,192,58363,1,8,0:0:0:0:
256,192,58438,1,8,0:0:0:0:
256,192,58513,1,8,0:0:0:0:
256,192,58588,5,4,3:2:0:0:
256,192,58888,1,8,0:0:0:0:
256,192,59038,1,2,0:3:0:0:
256,192,59188,1,0,3:0:0:0:
256,192,59338,1,0,3:0:0:0:
256,192,59488,1,8,0:0:0:0:
256,192,59638,1,2,0:3:0:0:
256,192,59788,5,4,3:2:0:0:
256,192,59938,1,0,3:0:0:0:
256,192,60088,1,8,0:0:0:0:
256,192,60238,1,4,0:2:0:0:
256,192,60388,1,0,3:0:0:0:
256,192,60538,1,0,3:0:0:0:
256,192,60688,1,8,0:0:0:0:
256,192,60838,1,2,0:3:0:0:
256,192,60988,5,4,3:2:0:0:
256,192,61288,1,8,0:0:0:0:
256,192,61438,1,2,0:3:0:0:
256,192,61588,1,0,3:0:0:0:
256,192,61738,1,0,3:0:0:0:
256,192,61888,1,8,0:0:0:0:
256,192,62038,1,2,0:3:0:0:
256,192,62338,1,0,3:0:0:0:
256,192,62375,1,0,3:0:0:0:
256,192,62413,1,0,3:0:0:0:
256,192,62450,1,0,3:0:0:0:
256,192,62488,1,8,0:0:0:0:
256,192,62563,1,8,0:0:0:0:
256,192,62638,1,8,0:3:0:0:
256,192,62713,1,8,0:3:0:0:
256,192,62788,1,0,3:0:0:0:
256,192,62863,1,0,3:0:0:0:
256,192,62938,1,0,3:0:0:0:
256,192,63013,1,0,3:0:0:0:
256,192,63088,1,8,0:0:0:0:
256,192,63163,1,8,0:0:0:0:
256,192,63238,1,8,0:0:0:0:
256,192,63313,1,8,0:0:0:0:
256,192,63388,5,4,3:2:0:0:
256,192,63538,1,0,3:0:0:0:
256,192,63688,1,10,0:0:0:0:
256,192,63838,1,0,3:0:0:0:
256,192,63988,1,10,0:0:0:0:
256,192,64138,1,0,3:0:0:0:
256,192,64288,1,10,0:0:0:0:
256,192,64438,1,0,3:0:0:0:
256,192,64588,1,4,3:2:0:0:
256,192,64738,1,0,3:0:0:0:
256,192,64813,1,0,3:0:0:0:
256,192,64888,1,10,0:0:0:0:
256,192,65038,1,0,3:2:0:0:
256,192,65188,1,10,0:0:0:0:
256,192,65338,1,0,3:0:0:0:
256,192,65488,1,10,0:0:0:0:
256,192,65638,1,0,3:0:0:0:
256,192,65788,5,4,3:2:0:0:
256,192,65938,1,0,3:0:0:0:
256,192,66088,1,10,0:0:0:0:
256,192,66238,1,0,3:0:0:0:
256,192,66388,1,10,0:0:0:0:
256,192,66538,1,0,3:0:0:0:
256,192,66688,1,10,0:0:0:0:
256,192,66838,1,0,3:0:0:0:
256,192,66988,1,4,3:2:0:0:
256,192,67138,1,0,3:0:0:0:
256,192,67213,1,0,3:0:0:0:
256,192,67288,1,10,0:0:0:0:
256,192,67438,1,0,3:2:0:0:
256,192,67588,1,10,0:0:0:0:
256,192,67738,1,0,3:0:0:0:
256,192,67888,1,10,0:0:0:0:
256,192,67963,1,8,0:0:0:0:
256,192,68038,1,8,0:0:0:0:
256,192,68113,1,8,0:0:0:0:
256,192,68188,5,4,3:2:0:0:
256,192,68488,1,8,0:0:0:0:
256,192,68638,1,2,0:3:0:0:
256,192,68788,1,0,3:0:0:0:
256,192,68938,1,0,3:0:0:0:
256,192,69088,1,8,0:0:0:0:
256,192,69238,1,2,0:3:0:0:
256,192,69388,5,4,3:2:0:0:
256,192,69538,1,0,3:0:0:0:
256,192,69688,1,8,0:0:0:0:
256,192,69838,1,4,0:2:0:0:
256,192,69988,1,0,3:2:0:0:
256,192,70138,1,0,3:0:0:0:
256,192,70288,1,8,0:0:0:0:
256,192,70363,1,8,0:0:0:0:
256,192,70438,1,8,0:0:0:0:
256,192,70513,1,8,0:0:0:0:
256,192,70588,5,4,3:2:0:0:
256,192,70738,1,2,0:0:0:0:
256,192,70888,1,8,0:0:0:0:
256,192,71038,1,2,3:2:0:0:
256,192,71188,1,2,0:3:0:0:
256,192,71338,1,2,3:2:0:0:
256,192,71488,1,8,0:0:0:0:
256,192,71638,1,2,3:2:0:0:
256,192,71788,5,4,3:2:0:0:
256,192,71938,1,0,3:2:0:0:
256,192,72013,1,0,3:2:0:0:
256,192,72088,1,8,0:0:0:0:
256,192,72163,1,8,0:0:0:0:
256,192,72238,1,0,3:2:0:0:
256,192,72313,1,0,3:2:0:0:
256,192,72388,1,8,0:3:0:0:
256,192,72463,1,8,0:3:0:0:
256,192,72538,1,0,3:2:0:0:
256,192,72613,1,0,3:2:0:0:
256,192,72688,1,8,0:0:0:0:
256,192,72763,1,8,0:0:0:0:
256,192,72838,1,8,0:0:0:0:
256,192,72913,1,8,0:0:0:0:
256,192,72988,5,4,3:2:0:0:
256,192,73138,1,2,3:2:0:0:
256,192,73288,1,8,0:0:0:0:
256,192,73438,1,2,3:2:0:0:
256,192,73588,1,2,0:3:0:0:
256,192,73738,1,2,3:2:0:0:
256,192,73888,1,8,0:0:0:0:
256,192,74038,1,2,3:2:0:0:
256,192,74188,5,4,3:2:0:0:
256,192,74338,1,0,3:2:0:0:
256,192,74413,1,0,3:2:0:0:
256,192,74488,1,8,0:0:0:0:
256,192,74563,1,8,0:0:0:0:
256,192,74638,1,0,3:2:0:0:
256,192,74713,1,0,3:2:0:0:
256,192,74788,1,4,0:3:0:0:
256,192,74863,1,4,0:3:0:0:
256,192,74938,1,0,3:2:0:0:
256,192,75013,1,0,3:2:0:0:
256,192,75088,1,8,0:0:0:0:
256,192,75163,1,8,0:0:0:0:
256,192,75238,1,8,0:0:0:0:
256,192,75313,1,8,0:0:0:0:
256,192,75388,5,0,3:2:0:0:
256,192,75463,1,0,3:2:0:0:
256,192,75538,1,0,3:2:0:0:
256,192,75613,1,0,3:2:0:0:
256,192,75688,1,8,0:2:0:0:
256,192,75763,1,0,3:2:0:0:
256,192,75838,1,0,3:2:0:0:
256,192,75913,1,0,3:2:0:0:
256,192,75988,1,8,0:2:0:0:
256,192,76063,1,0,3:2:0:0:
256,192,76138,1,0,3:2:0:0:
256,192,76213,1,0,3:2:0:0:
256,192,76288,1,8,0:2:0:0:
256,192,76363,1,0,3:2:0:0:
256,192,76438,1,4,3:2:0:0:
256,192,76738,1,0,3:0:0:0:
256,192,76888,1,8,0:0:0:0:
256,192,77038,1,2,0:3:0:0:
256,192,77188,1,2,3:2:0:0:
256,192,77338,1,0,3:0:0:0:
256,192,77488,1,10,0:0:0:0:
256,192,77638,1,8,0:0:0:0:
256,192,77788,5,4,3:2:0:0:
256,192,78088,1,8,0:0:0:0:
256,192,78238,1,4,3:2:0:0:
256,192,78538,1,0,3:0:0:0:
256,192,78688,1,8,0:0:0:0:
256,192,78988,1,0,3:0:0:0:
256,192,79025,1,0,3:0:0:0:
256,192,79063,1,0,3:0:0:0:
256,192,79100,1,0,3:0:0:0:
256,192,79138,1,2,3:1:0:0:
256,192,79288,1,2,3:1:0:0:
256,192,79438,1,2,3:1:0:0:
256,192,79588,1,2,3:1:0:0:
256,192,79888,1,8,0:0:0:0:
256,192,80188,5,4,3:2:0:0:
256,192,80263,1,0,3:0:0:0:
256,192,80338,1,0,3:0:0:0:
256,192,80413,1,0,3:0:0:0:
256,192,80488,1,10,0:0:0:0:
256,192,80563,1,0,3:0:0:0:
256,192,80638,1,0,3:0:0:0:
256,192,80713,1,0,3:2:0:0:
256,192,80788,1,2,3:2:0:0:
256,192,80863,1,0,3:0:0:0:
256,192,80938,1,0,3:0:0:0:
256,192,81013,1,0,3:0:0:0:
256,192,81088,1,10,0:0:0:0:
256,192,81163,1,0,3:0:0:0:
256,192,81238,1,2,3:2:0:0:
256,192,81313,1,0,3:2:0:0:
256,192,81388,1,0,3:2:0:0:
256,192,81463,1,0,3:2:0:0:
256,192,81538,1,2,3:2:0:0:
256,192,81613,1,0,3:2:0:0:
256,192,81688,1,10,0:0:0:0:
256,192,81763,1,0,3:2:0:0:
256,192,81838,1,0,3:2:0:0:
256,192,81913,1,0,3:2:0:0:
256,192,81988,1,2,3:2:0:0:
256,192,82063,1,0,3:2:0:0:
256,192,82138,1,0,3:2:0:0:
256,192,82213,1,0,3:2:0:0:
256,192,82288,1,8,0:0:0:0:
256,192,82363,1,0,3:2:0:0:
256,192,82438,1,0,3:2:0:0:
256,192,82513,1,0,3:2:0:0:
256,192,82588,5,4,3:2:0:0:
256,192,82663,1,0,3:0:0:0:
256,192,82738,1,0,3:0:0:0:
256,192,82813,1,0,3:0:0:0:
256,192,82888,1,10,0:0:0:0:
256,192,82963,1,0,3:0:0:0:
256,192,83038,1,0,3:0:0:0:
256,192,83113,1,0,3:2:0:0:
256,192,83188,1,2,3:2:0:0:
256,192,83263,1,0,3:0:0:0:
256,192,83338,1,0,3:0:0:0:
256,192,83413,1,0,3:0:0:0:
256,192,83488,1,10,0:0:0:0:
256,192,83563,1,0,3:0:0:0:
256,192,83638,1,2,3:2:0:0:
256,192,83713,1,0,3:2:0:0:
256,192,83788,1,0,3:2:0:0:
256,192,83863,1,0,3:2:0:0:
256,192,83938,1,8,0:0:0:0:
256,192,84013,1,0,3:2:0:0:
256,192,84088,1,10,0:0:0:0:
256,192,84163,1,0,3:2:0:0:
256,192,84238,1,0,3:2:0:0:
256,192,84313,1,0,3:2:0:0:
256,192,84388,1,2,3:2:0:0:
256,192,84463,1,0,3:2:0:0:
256,192,84538,1,0,3:2:0:0:
256,192,84613,1,0,3:2:0:0:
256,192,84688,1,8,0:0:0:0:
256,192,84763,1,8,0:0:0:0:
256,192,84838,1,8,0:0:0:0:
256,192,84913,1,8,0:0:0:0:
256,192,84988,5,4,3:2:0:0:
256,192,85063,1,0,3:2:0:0:
256,192,85138,1,0,3:2:0:0:
256,192,85213,1,0,3:2:0:0:
256,192,85288,1,8,0:0:0:0:
256,192,85363,1,0,3:2:0:0:
256,192,85438,1,8,0:0:0:0:
256,192,85513,1,0,3:2:0:0:
256,192,85588,1,8,0:0:0:0:
256,192,85663,1,0,3:2:0:0:
256,192,85738,1,8,0:0:0:0:
256,192,85813,1,0,3:2:0:0:
256,192,85888,1,8,0:0:0:0:
256,192,85963,1,0,3:2:0:0:
256,192,86038,1,8,0:0:0:0:
256,192,86113,1,0,3:2:0:0:
256,192,86188,1,8,0:0:0:0:
256,192,86263,1,0,3:2:0:0:
256,192,86338,1,8,0:0:0:0:
256,192,86413,1,0,3:2:0:0:
256,192,86488,1,8,0:0:0:0:
256,192,86563,1,0,3:2:0:0:
256,192,86638,1,8,0:0:0:0:
256,192,86713,1,0,3:2:0:0:
256,192,86788,1,8,0:0:0:0:
256,192,86863,1,0,3:2:0:0:
256,192,86938,1,8,0:0:0:0:
256,192,87013,1,0,3:2:0:0:
256,192,87088,1,8,0:0:0:0:
256,192,87163,1,0,3:2:0:0:
256,192,87238,1,8,0:0:0:0:
256,192,87313,1,0,3:2:0:0:
256,192,87388,5,8,0:0:0:0:
256,192,87463,1,8,0:0:0:0:
256,192,87538,1,0,3:2:0:0:
256,192,87613,1,0,3:2:0:0:
256,192,87688,1,8,0:3:0:0:
256,192,87763,1,8,0:3:0:0:
256,192,87838,1,8,0:0:0:0:
256,192,87913,1,8,0:0:0:0:
256,192,87988,1,8,0:0:0:0:
256,192,88063,1,8,0:0:0:0:
256,192,88138,1,4,0:3:0:0:
256,192,88213,1,4,0:3:0:0:
256,192,88288,1,8,0:0:0:0:
256,192,88363,1,8,0:0:0:0:
256,192,88438,1,8,0:0:0:0:
256,192,88513,1,8,0:0:0:0:
256,192,88588,5,4,0:0:0:0:
256,192,88738,1,8,0:0:0:0:
256,192,88888,1,0,3:2:0:0:
256,192,89038,1,8,0:0:0:0:
256,192,89188,1,0,3:2:0:0:
256,192,89338,1,0,3:2:0:0:
256,192,89488,1,8,0:0:0:0:
256,192,89638,1,8,0:0:0:0:
256,192,89713,1,8,0:0:0:0:
256,192,89788,5,4,0:1:0:0:
