osu file format v14

[General]
AudioFilename: audio.mp3
AudioLeadIn: 0
PreviewTime: 63088
Countdown: 0
SampleSet: Soft
StackLeniency: 1
Mode: 0
LetterboxInBreaks: 0
WidescreenStoryboard: 1

[Editor]
Bookmarks: 8188,10588,38188,53788,62188,63388,71788,72988,74188,76588,80188
DistanceSpacing: 1.5
BeatDivisor: 4
GridSize: 16
TimelineZoom: 2.899999

[Metadata]
Title:Kira Kira Days (Drum Edit)
TitleUnicode:キラキラDays (Drum Edit)
Artist:HO-KAGO TEA TIME
ArtistUnicode:放課後ティータイム
Creator:Tsuyumaki
Version:Tragic Collab Ultra
Source:けいおん!!
Tags:K-ON!! HTT Keion Yui Hirasawa Mio Akiyama Ritsu Tainaka Tsumugi Kotobuki Azusa Nakano Toyosaki Aki Hikasa Yoko Sato Satomi Minako Taketatsu Ayana tv size Pony Canyon 平沢唯 秋山澪 田井中律 琴吹紬 中野梓 豊崎愛生 日笠陽子 佐藤聡美 寿美菜子 竹達彩奈 Youko Satou Female Vocal Vocalist Short Edit japanese pop Utauyo!!MIRACLE anime
BeatmapID:4516882
BeatmapSetID:2093160

[Difficulty]
HPDrainRate:5
CircleSize:4.3
OverallDifficulty:9.4
ApproachRate:9.6
SliderMultiplier:1.9
SliderTickRate:1

[Events]
//Background and Video events
0,0,"nocchi.jpg",0,0
//Break Periods
//Storyboard Layer 0 (Background)
//Storyboard Layer 1 (Fail)
//Storyboard Layer 2 (Pass)
//Storyboard Layer 3 (Foreground)
//Storyboard Layer 4 (Overlay)
//Storyboard Sound Samples

[TimingPoints]
-1412,300,4,2,1,80,1,0
988,-111.111111111111,4,2,1,60,0,0
4438,-166.666666666666,4,2,1,60,0,0
5788,-111.111111111111,4,2,1,60,0,0
8188,-83.3333333333333,4,2,1,60,0,0
9988,-111.111111111111,4,2,1,60,0,0
10588,-142.857142857143,4,2,1,50,0,0
20188,-200,4,2,1,60,0,0
22288,-142.857142857143,4,2,1,60,0,0
23488,-111.111111111111,4,2,1,60,0,0
23938,-90.9090909090908,4,2,1,60,0,0
24988,-125,4,2,1,50,0,0
34588,-200,4,2,1,60,0,0
36688,-100,4,2,1,60,0,0
36988,-142.857142857143,4,2,1,60,0,0
39388,-166.666666666667,4,2,1,40,0,0
42988,-166.666666666667,4,2,1,60,0,0
44188,-166.666666666667,4,2,1,30,0,0
46588,-100,4,2,1,40,0,0
48988,-100,4,2,1,60,0,0
53788,-90.9090909090909,4,2,1,80,0,0
58588,-166.666666666667,4,2,1,80,0,0
60238,-90.9090909090909,4,2,1,80,0,0
60988,-166.666666666667,4,2,1,80,0,0
62338,-90.909090909091,4,2,1,80,0,0
63388,-142.857142857143,4,2,1,80,0,0
69838,-90.9090909090909,4,2,1,80,0,0
70738,-111.111111111111,4,2,1,80,0,0
73138,-90.9090909090908,4,2,1,80,0,0
80188,-90.9090909090908,4,2,1,60,0,0
85288,-90.9090909090908,4,2,1,70,0,0
88588,-166.666666666667,4,2,1,70,0,0
89488,-90.9090909090909,4,2,1,70,0,0
89788,-166.666666666667,4,2,1,70,0,0

[Colours]
Combo1 : 250,180,240
Combo2 : 120,200,230
Combo3 : 255,230,130
Combo4 : 160,230,150

[HitObjects]
241,329,688,5,8,0:0:0:0:
241,329,988,6,0,P|235:266|219:225,1,85.4999973907472,4|0,3:1|3:0,0:0:0:0:
228,244,1213,1,0,3:0:0:0:
228,244,1288,1,8,0:0:0:0:
13,147,1438,1,0,3:0:0:0:
71,220,1588,5,2,3:2:0:0:
196,33,1738,1,2,3:2:0:0:
414,112,1888,1,10,0:0:0:0:
234,163,2038,6,0,P|321:198|399:212,1,170.999994781494,2|8,3:2|0:0,0:0:0:0:
192,307,2488,2,0,P|141:333|86:347,1,85.4999973907472,0|0,3:2|3:2,0:0:0:0:
114,341,2713,1,0,3:2:0:0:
114,341,2788,5,10,0:0:0:0:
172,100,2938,1,8,0:0:0:0:
117,242,3088,5,0,3:2:0:0:
44,20,3238,1,8,0:0:0:0:
289,37,3388,6,0,P|306:97|291:130,1,85.4999973907472,4|0,3:2|3:0,0:0:0:0:
300,116,3613,1,0,3:0:0:0:
300,116,3688,1,8,0:0:0:0:
211,173,3838,1,0,3:0:0:0:
133,106,3988,5,2,3:2:0:0:
318,226,4138,1,2,3:2:0:0:
470,57,4288,1,10,0:0:0:0:
390,12,4438,6,0,P|392:58|380:111,1,85.4999973907472,2|0,3:2|0:0,0:0:0:0:
385,97,4738,1,8,0:0:0:0:
297,122,4888,1,0,3:2:0:0:
238,49,5038,1,0,3:2:0:0:
238,49,5113,1,0,3:2:0:0:
238,49,5188,5,10,0:0:0:0:
358,280,5338,1,8,0:0:0:0:
146,384,5488,1,10,0:2:0:0:
40,165,5638,1,10,0:0:0:0:
133,236,5788,6,0,P|160:202|160:154,1,85.4999973907472,4|0,3:2|3:0,0:0:0:0:
162,161,6013,1,0,3:0:0:0:
162,161,6088,1,8,0:0:0:0:
22,263,6238,1,0,3:0:0:0:
93,313,6388,5,2,3:2:0:0:
0,108,6538,1,2,3:2:0:0:
203,3,6688,1,10,0:0:0:0:
72,167,6838,6,0,P|125:214|247:209,1,170.999994781494,2|8,3:2|0:0,0:0:0:0:
382,88,7288,2,0,P|400:37|398:-12,1,85.4999973907472,0|0,3:2|3:2,0:0:0:0:
400,6,7513,1,0,3:2:0:0:
400,6,7588,5,10,0:0:0:0:
435,232,7738,1,8,0:0:0:0:
499,150,7888,5,0,3:2:0:0:
463,384,8038,1,8,0:0:0:0:
286,241,8188,6,0,P|281:214|272:181,1,56.9999982604981,0|0,3:0|3:0,0:0:0:0:
298,15,8338,5,8,0:0:0:0:
296,71,8413,1,0,3:0:0:0:
248,102,8488,1,0,3:0:0:0:
192,88,8563,1,0,3:0:0:0:
177,32,8638,1,0,3:0:0:0:
122,15,8713,1,0,3:0:0:0:
71,41,8788,1,8,0:0:0:0:
68,97,8863,1,0,3:0:0:0:
102,124,8938,1,0,3:0:0:0:
101,159,9013,1,0,3:0:0:0:
77,172,9088,5,8,0:0:0:0:
142,132,9163,1,8,0:0:0:0:
208,141,9238,1,8,0:0:0:0:
249,187,9313,1,8,0:0:0:0:
248,233,9388,2,0,P|234:264|204:277,1,56.9999982604981,4|0,3:2|0:0,0:0:0:0:
35,327,9538,1,0,0:0:0:0:
195,366,9688,5,0,0:0:0:0:
109,240,9838,1,0,0:0:0:0:
19,344,9988,6,0,B|14:365|14:365|34:407,2,42.7499986953736
270,233,10288,1,8,0:0:0:0:
306,230,10363,1,8,0:0:0:0:
344,259,10438,1,8,0:0:0:0:
401,241,10513,1,8,0:0:0:0:
440,271,10588,6,0,P|479:202|474:136,1,132.999995941162,4|8,3:2|0:0,0:0:0:0:
478,150,11038,2,0,L|465:117,1,33.2499989852906,0|0,3:0|3:0,0:0:0:0:
333,7,11188,2,0,P|294:76|299:142,1,132.999995941162,2|8,3:2|0:0,0:0:0:0:
294,127,11788,5,2,3:2:0:0:
379,237,11938,1,2,3:2:0:0:
274,317,12088,1,8,0:0:0:0:
185,171,12238,6,0,P|194:197|197:223,1,33.2499989852906,2|0,3:2|0:0,0:0:0:0:
113,363,12538,2,0,P|87:372|61:375,1,33.2499989852906,2|0,3:2|0:0,0:0:0:0:
0,213,12688,2,0,P|52:236|109:255,1,99.7499969558717,8|0,0:0|0:0,0:0:0:0:
92,250,12988,6,0,P|135:201|133:112,1,132.999995941162,2|8,3:2|0:0,0:0:0:0:
11,48,13588,1,2,3:2:0:0:
69,97,13738,1,0,3:2:0:0:
83,23,13888,1,8,0:0:0:0:
164,170,14038,6,0,P|203:188|233:196,1,66.4999979705811,2|0,3:2|0:0,0:0:0:0:
225,194,14338,2,0,L|266:191,1,33.2499989852906,0|0,3:2|3:2,0:0:0:0:
158,78,14488,5,8,0:0:0:0:
52,182,14638,5,8,0:3:0:0:
95,312,14788,5,8,3:3:0:0:
178,331,14938,5,4,0:3:0:0:
290,150,15088,5,8,0:0:0:0:
436,224,15238,2,0,P|467:220|483:214,1,33.2499989852906,8|0,0:0|0:0,0:0:0:0:
285,334,15388,6,0,P|229:369|164:372,1,132.999995941162,4|8,3:2|0:0,0:0:0:0:
163,371,15838,2,0,L|118:356,1,33.2499989852906,0|0,3:0|3:0,0:0:0:0:
36,213,15988,2,0,P|92:178|157:175,1,132.999995941162,2|8,3:2|0:0,0:0:0:0:
157,175,16588,5,2,3:2:0:0:
247,297,16738,1,2,3:2:0:0:
389,243,16888,1,8,0:0:0:0:
277,109,17038,6,0,L|283:159,1,33.2499989852906,2|0,3:2|0:0,0:0:0:0:
404,243,17338,2,0,L|454:237,1,33.2499989852906,2|0,3:2|0:0,0:0:0:0:
381,62,17488,2,0,P|417:103|479:134,1,99.7499969558717,8|0,0:0|0:0,0:0:0:0:
455,126,17788,6,0,P|404:162|314:174,1,132.999995941162,2|8,3:2|0:0,0:0:0:0:
240,39,18388,1,2,3:2:0:0:
298,88,18538,1,0,3:2:0:0:
312,14,18688,1,8,0:0:0:0:
201,170,18838,6,0,P|168:213|93:275,1,132.999995941162,2|0,3:2|3:2,0:0:0:0:
108,264,19213,1,0,3:2:0:0:
108,264,19288,1,8,0:0:0:0:
0,310,19438,5,8,0:3:0:0:
38,228,19588,5,8,3:3:0:0:
78,361,19738,5,4,0:3:0:0:
216,332,19888,5,8,0:0:0:0:
252,296,19963,1,8,0:0:0:0:
262,245,20038,1,8,0:0:0:0:
240,196,20113,1,8,0:0:0:0:
193,172,20188,2,0,P|156:190|116:195,1,71.25,4|0,3:2|0:0,0:0:0:0:
126,194,20488,5,10,0:0:0:0:
288,54,20638,1,0,3:0:0:0:
82,71,20788,5,10,0:0:0:0:
340,194,20938,1,0,3:0:0:0:
91,338,21088,6,0,P|130:316|169:299,1,71.25,10|0,0:0|0:0,0:0:0:0:
154,304,21388,5,2,3:2:0:0:
339,384,21538,1,0,3:0:0:0:
512,230,21688,5,8,0:0:0:0:
384,314,21838,1,0,3:0:0:0:
231,215,21988,5,8,0:0:0:0:
322,255,22138,1,0,3:0:0:0:
242,382,22288,6,0,P|256:336|271:306,1,66.4999979705811,8|0,0:0|3:0,0:0:0:0:
404,198,22513,1,0,3:0:0:0:
404,198,22588,1,4,3:2:0:0:
404,198,22888,5,10,0:0:0:0:
163,68,23038,1,0,3:0:0:0:
443,4,23188,5,10,0:0:0:0:
123,245,23338,1,0,3:0:0:0:
327,0,23488,6,0,P|340:80|319:144,1,128.249996086121,10|0,0:0|0:0,0:0:0:0:
328,124,23788,5,0,3:0:0:0:
100,271,23938,2,0,P|38:259|-21:232,1,104.500003189087,8|0,0:0|3:0,0:0:0:0:
0,244,24163,1,0,0:0:0:0:
0,244,24238,1,0,3:0:0:0:
210,162,24388,5,8,0:0:0:0:
395,384,24538,1,0,3:0:0:0:
460,146,24688,5,8,0:0:0:0:
409,136,24763,1,8,0:0:0:0:
360,155,24838,1,8,0:0:0:0:
329,197,24913,1,8,0:0:0:0:
327,248,24988,2,0,P|405:272|486:308,1,152,4|8,3:2|0:0,0:0:0:0:
469,299,25438,2,0,L|519:293,1,38,0|0,3:0|3:0,0:0:0:0:
242,384,25588,6,0,P|257:333|248:296,1,76,2|0,3:2|3:0,0:0:0:0:
124,210,25888,2,0,P|109:261|125:331,1,114,8|0,0:0|0:0,0:0:0:0:
119,319,26188,5,2,3:2:0:0:
57,255,26338,1,2,3:2:0:0:
132,172,26488,1,8,0:0:0:0:
44,105,26638,1,2,3:2:0:0:
230,170,26788,5,2,0:3:0:0:
230,170,26938,2,0,L|244:116,1,38,2|0,3:2|0:0,0:0:0:0:
264,51,27088,1,8,0:0:0:0:
264,51,27238,2,0,L|278:-3,1,38,2|0,3:2|0:0,0:0:0:0:
442,123,27388,6,0,P|471:160|475:198,1,76,2|0,3:2|0:0,0:0:0:0:
381,340,27688,2,0,P|352:303|348:265,1,76,8|0,0:0|0:0,0:0:0:0:
416,233,27988,5,2,3:2:0:0:
279,322,28138,1,0,3:2:0:0:
172,190,28288,1,8,0:0:0:0:
313,246,28438,6,0,P|292:243|269:234,1,38,2|0,3:2|0:0,0:0:0:0:
314,161,28738,1,0,3:2:0:0:
314,161,28813,1,0,3:2:0:0:
314,161,28888,1,8,0:0:0:0:
333,64,29038,1,8,0:3:0:0:
164,18,29188,5,8,3:3:0:0:
214,188,29338,1,4,0:3:0:0:
248,90,29488,5,8,0:0:0:0:
9,140,29638,1,8,0:0:0:0:
171,261,29788,6,0,P|107:282|12:288,1,152,4|8,3:2|0:0,0:0:0:0:
221,384,30238,1,0,3:0:0:0:
221,384,30313,1,0,3:0:0:0:
221,384,30388,2,0,P|239:344|240:301,1,76,2|0,3:2|3:0,0:0:0:0:
181,175,30688,2,0,P|141:157|98:156,1,76,8|0,0:0|0:0,0:0:0:0:
258,230,30988,5,2,3:2:0:0:
381,128,31138,1,2,3:2:0:0:
262,20,31288,1,8,0:0:0:0:
364,228,31438,2,0,P|405:257|439:268,1,76,2|2,3:2|0:3,0:0:0:0:
428,265,31738,5,2,3:2:0:0:
374,357,31888,1,8,0:0:0:0:
291,302,32038,1,2,3:2:0:0:
188,237,32188,6,0,P|201:271|201:316,1,76,2|0,3:2|0:0,0:0:0:0:
0,175,32488,2,0,P|34:162|79:162,1,76,8|0,0:0|0:0,0:0:0:0:
45,361,32788,2,0,P|63:316|88:272,1,76,2|0,3:2|3:2,0:0:0:0:
75,291,33088,1,8,0:0:0:0:
215,76,33238,2,0,P|185:114|167:147,1,76,2|0,3:2|0:0,0:0:0:0:
171,137,33538,2,0,L|165:185,1,38,0|0,3:2|3:2,0:0:0:0:
297,306,33688,5,8,0:0:0:0:
433,261,33838,1,8,0:3:0:0:
381,192,33988,5,8,3:3:0:0:
347,374,34138,1,4,0:3:0:0:
173,304,34288,5,8,0:0:0:0:
157,255,34363,1,8,0:0:0:0:
171,205,34438,1,8,0:0:0:0:
213,171,34513,1,8,0:0:0:0:
263,163,34588,2,0,P|271:210|261:251,1,71.25,4|0,3:2|0:0,0:0:0:0:
267,232,34888,5,10,0:0:0:0:
58,72,35038,1,0,3:0:0:0:
323,58,35188,5,10,0:0:0:0:
0,246,35338,1,0,3:0:0:0:
290,333,35488,6,0,P|289:292|263:252,1,71.25,10|0,0:0|0:0,0:0:0:0:
275,265,35788,5,2,3:2:0:0:
159,46,35938,1,0,3:0:0:0:
135,344,36088,5,8,0:0:0:0:
287,126,36238,1,0,3:0:0:0:
87,3,36388,5,8,0:0:0:0:
180,146,36538,1,0,3:0:0:0:
337,14,36688,6,0,P|306:4|230:1,1,95,8|0,0:0|3:0,0:0:0:0:
83,138,36913,1,0,3:0:0:0:
83,138,36988,2,0,P|100:197|126:238,1,99.7499969558717,4|0,3:2|0:0,0:0:0:0:
119,229,37288,5,10,0:0:0:0:
356,328,37438,1,0,3:0:0:0:
112,384,37588,5,10,0:0:0:0:
380,157,37738,1,0,3:0:0:0:
0,56,37888,5,10,0:0:0:0:
181,164,38038,2,0,P|206:118|203:58,1,99.7499969558717,0|0,3:0|0:0,0:0:0:0:
326,2,38338,5,8,0:0:0:0:
299,48,38413,1,8,0:0:0:0:
322,95,38488,1,8,0:3:0:0:
364,105,38563,1,8,0:3:0:0:
395,86,38638,1,4,0:3:0:0:
403,65,38713,1,4,0:3:0:0:
396,55,38788,5,8,0:0:0:0:
356,88,38863,1,8,0:0:0:0:
352,141,38938,1,8,0:0:0:0:
386,184,39013,1,8,0:0:0:0:
448,193,39088,1,8,0:0:0:0:
499,232,39163,1,8,0:0:0:0:
505,299,39238,1,8,0:0:0:0:
455,348,39313,1,8,0:0:0:0:
385,327,39388,6,0,P|327:314|271:299,1,113.999996520996,4|2,3:2|0:3,0:0:0:0:
107,339,39838,1,0,3:0:0:0:
214,220,39988,1,10,0:0:0:0:
158,150,40138,1,0,3:0:0:0:
153,161,40438,5,2,3:2:0:0:
74,116,40588,2,0,P|52:73|41:4,1,113.999996520996,0|0,3:0|0:0,0:0:0:0:
217,90,41038,1,0,3:0:0:0:
291,50,41188,1,10,0:0:0:0:
415,128,41338,5,0,0:0:0:0:
295,67,41488,1,2,3:3:0:0:
468,39,41638,5,8,0:0:0:0:
338,147,41788,2,0,P|317:212|311:262,1,113.999996520996,2|2,3:2|0:3,0:0:0:0:
485,347,42238,1,0,3:0:0:0:
439,252,42388,1,10,0:0:0:0:
46,338,42688,5,10,0:0:0:0:
320,332,42988,5,4,3:2:0:0:
38,226,43138,1,8,0:0:0:0:
151,345,43363,5,0,3:0:0:0:
151,345,43438,1,4,3:2:0:0:
28,366,43588,1,0,0:0:0:0:
28,366,43663,2,0,P|18:345|12:318,1,28.4999991302491,0|0,3:0|3:0,0:0:0:0:
162,218,43888,2,0,P|176:161|169:91,2,113.999996520996,8|0|2,0:0|3:0|0:0,0:0:0:0:
50,68,44938,5,0,3:0:0:0:
54,78,45013,1,0,3:0:0:0:
55,87,45088,1,8,0:0:0:0:
334,0,45388,5,0,3:0:0:0:
348,9,45688,5,2,0:0:0:0:
299,197,45988,1,2,0:0:0:0:
494,260,46288,1,8,0:0:0:0:
496,246,46588,6,0,P|434:232|375:210,1,95,0|2,3:0|3:2,0:0:0:0:
196,256,46888,2,0,P|144:272|84:293,1,95,8|0,0:0|3:0,0:0:0:0:
0,130,47188,5,2,3:2:0:0:
178,173,47338,1,0,3:0:0:0:
67,79,47488,5,8,0:0:0:0:
219,15,47638,1,0,3:0:0:0:
317,139,47788,5,2,3:2:0:0:
161,83,47938,1,0,3:0:0:0:
409,6,48088,5,8,0:0:0:0:
441,118,48238,1,0,3:0:0:0:
275,220,48388,5,2,3:2:0:0:
355,348,48538,1,0,3:0:0:0:
496,194,48688,5,10,0:0:0:0:
326,108,48838,1,0,3:0:0:0:
490,378,48988,6,0,P|508:319|512:252,1,95,4|0,3:2|3:0,0:0:0:0:
223,124,49288,5,8,0:0:0:0:
339,293,49438,1,0,3:0:0:0:
339,293,49513,1,0,3:0:0:0:
339,293,49588,5,8,0:0:0:0:
310,274,49663,1,0,3:0:0:0:
265,278,49738,1,0,3:0:0:0:
231,311,49813,1,0,3:0:0:0:
209,358,49888,1,8,0:0:0:0:
158,384,49963,1,0,3:0:0:0:
98,369,50038,1,0,3:0:0:0:
75,319,50113,1,0,3:0:0:0:
84,275,50188,1,8,0:0:0:0:
113,255,50263,1,0,3:0:0:0:
148,258,50338,1,0,3:0:0:0:
174,250,50413,1,0,3:0:0:0:
188,236,50488,6,0,P|192:212|185:190,1,47.5,8|0,0:0|3:0,0:0:0:0:
58,117,50638,2,0,P|75:132|98:137,1,47.5,0|0,3:0|3:0,0:0:0:0:
239,66,50788,2,0,P|216:73|200:90,1,47.5,8|0,0:0|3:0,0:0:0:0:
312,169,50938,1,0,3:0:0:0:
312,169,51013,1,0,3:0:0:0:
312,169,51088,2,0,P|346:159|366:134,1,47.5,8|0,0:0|3:0,0:0:0:0:
441,125,51238,2,0,P|449:90|437:60,1,47.5,0|0,3:0|3:0,0:0:0:0:
215,163,51388,5,8,0:0:0:0:
184,227,51463,1,8,0:0:0:0:
225,287,51538,1,8,0:0:0:0:
286,295,51613,1,8,0:0:0:0:
328,268,51688,1,8,0:3:0:0:
376,265,51763,1,8,0:3:0:0:
411,288,51838,1,0,3:0:0:0:
420,324,51913,1,0,3:0:0:0:
409,349,51988,5,8,0:0:0:0:
458,314,52063,1,8,0:0:0:0:
462,269,52138,2,0,P|449:241|421:220,1,47.5,4|4,0:3|0:3,0:0:0:0:
41,362,52288,5,8,0:0:0:0:
106,383,52363,1,8,0:0:0:0:
173,360,52438,1,8,0:0:0:0:
210,302,52513,1,8,0:0:0:0:
203,232,52588,6,0,P|193:205|182:172,1,47.5,8|0,0:0|0:0,0:0:0:0:
94,28,52738,5,10,0:1:0:0:
451,104,52888,5,10,0:1:0:0:
30,265,53038,5,10,0:1:0:0:
411,378,53188,5,10,0:1:0:0:
391,384,53488,5,8,0:0:0:0:
367,320,53563,1,8,0:0:0:0:
390,257,53638,1,8,0:0:0:0:
453,240,53713,1,8,0:0:0:0:
512,273,53788,6,0,P|437:337|326:354,2,209.000006378174,4|8|0,3:1|0:0|3:0,0:0:0:0:
489,178,54538,1,0,3:0:0:0:
384,22,54688,5,8,0:0:0:0:
349,260,54838,1,2,0:3:0:0:
244,21,54988,5,4,3:2:0:0:
15,172,55138,1,0,3:0:0:0:
200,365,55288,1,8,0:0:0:0:
360,143,55438,6,0,B|273:148|292:196|204:202,1,156.750004783631,2|0,0:3|0:0,0:0:0:0:
197,192,55738,1,0,3:0:0:0:
129,0,55888,5,10,0:0:0:0:
220,384,56038,1,10,0:0:0:0:
112,81,56188,6,0,P|88:111|76:174,1,104.500003189087,4|0,3:2|0:0,0:0:0:0:
284,313,56488,2,0,P|308:283|320:220,1,104.500003189087,8|2,0:0|0:3,0:0:0:0:
208,85,56788,5,0,3:0:0:0:
228,224,56938,1,0,3:0:0:0:
84,384,57088,5,8,0:0:0:0:
138,162,57238,1,2,0:3:0:0:
8,271,57388,5,4,3:2:0:0:
253,355,57538,1,0,3:0:0:0:
435,146,57688,1,8,0:0:0:0:
130,276,57838,6,0,P|232:257|328:216,1,209.000006378174,2|0,0:3|3:0,0:0:0:0:
159,2,58288,5,10,0:0:0:0:
105,24,58363,1,8,0:0:0:0:
77,74,58438,1,8,0:0:0:0:
91,129,58513,1,8,0:0:0:0:
138,160,58588,2,0,P|190:138|257:130,1,113.999996520996,4|8,3:2|0:0,0:0:0:0:
488,353,59188,5,0,3:0:0:0:
343,288,59338,1,0,3:0:0:0:
495,256,59488,1,8,0:0:0:0:
378,376,59638,1,2,0:3:0:0:
413,135,59788,5,4,3:2:0:0:
42,260,59938,1,0,3:0:0:0:
297,356,60088,1,8,0:0:0:0:
186,88,60238,6,0,P|138:57|88:43,1,104.500003189087,4|0,0:2|3:0,0:0:0:0:
92,43,60463,1,0,0:0:0:0:
92,43,60538,1,0,3:0:0:0:
195,186,60688,1,8,0:0:0:0:
304,127,60838,1,2,0:3:0:0:
214,384,60988,6,0,P|232:332|248:292,1,85.4999973907472,4|0,3:2|0:0,0:0:0:0:
243,303,61288,1,8,0:0:0:0:
375,237,61438,1,2,0:3:0:0:
231,23,61588,1,0,3:0:0:0:
19,169,61738,1,0,3:0:0:0:
303,143,61888,5,8,0:0:0:0:
374,94,62038,1,2,0:3:0:0:
374,94,62338,6,0,P|352:85|327:58,1,52.2500015945435,0|0,3:0|3:0,0:0:0:0:
474,103,62488,5,8,0:0:0:0:
481,162,62563,1,8,0:0:0:0:
446,202,62638,1,8,0:3:0:0:
402,206,62713,1,8,0:3:0:0:
362,198,62788,1,0,3:0:0:0:
330,213,62863,1,0,3:0:0:0:
317,232,62938,2,0,P|313:258|329:293,1,52.2500015945435,0|0,3:0|3:0,0:0:0:0:
380,360,63088,5,8,0:0:0:0:
341,300,63163,1,8,0:0:0:0:
273,277,63238,1,8,0:0:0:0:
205,296,63313,1,8,0:0:0:0:
152,344,63388,2,0,L|37:374,1,99.7499969558717,4|0,3:2|0:0,0:0:0:0:
31,363,63688,5,10,0:0:0:0:
268,269,63838,1,0,3:0:0:0:
76,256,63988,5,10,0:0:0:0:
228,376,64138,1,0,3:0:0:0:
3,200,64288,5,10,0:0:0:0:
299,68,64438,1,0,3:0:0:0:
43,64,64588,5,4,3:2:0:0:
444,260,64738,1,0,3:0:0:0:
444,260,64813,1,0,3:0:0:0:
444,260,64888,5,10,0:0:0:0:
231,0,65038,1,0,3:2:0:0:
387,31,65188,5,10,0:0:0:0:
286,235,65338,1,0,3:0:0:0:
386,190,65488,5,10,0:0:0:0:
297,75,65638,1,0,3:0:0:0:
161,291,65788,6,0,P|151:232|136:187,1,99.7499969558717,4|0,3:2|0:0,0:0:0:0:
138,194,66088,5,10,0:0:0:0:
104,342,66238,1,0,3:0:0:0:
90,121,66388,5,10,0:0:0:0:
246,284,66538,1,0,3:0:0:0:
369,66,66688,5,10,0:0:0:0:
302,344,66838,1,0,3:0:0:0:
0,82,66988,5,4,3:2:0:0:
511,253,67138,1,0,3:0:0:0:
511,253,67213,1,0,3:0:0:0:
511,253,67288,5,10,0:0:0:0:
156,330,67438,1,0,3:2:0:0:
336,304,67588,5,10,0:0:0:0:
33,202,67738,1,0,3:0:0:0:
321,180,67888,5,10,0:0:0:0:
267,196,67963,1,8,0:0:0:0:
211,191,68038,1,8,0:0:0:0:
162,165,68113,1,8,0:0:0:0:
126,121,68188,2,0,P|155:72|177:-8,1,132.999995941162,4|8,3:2|0:0,0:0:0:0:
66,37,68788,5,0,3:0:0:0:
232,147,68938,1,0,3:0:0:0:
24,177,69088,1,8,0:0:0:0:
266,6,69238,1,2,0:3:0:0:
141,100,69388,5,4,3:2:0:0:
260,298,69538,1,0,3:0:0:0:
494,237,69688,1,8,0:0:0:0:
282,163,69838,6,0,P|214:201|75:231,1,209.000006378174,4|0,0:2|3:0,0:0:0:0:
232,18,70288,5,8,0:0:0:0:
266,61,70363,1,8,0:0:0:0:
315,87,70438,1,8,0:0:0:0:
371,92,70513,1,8,0:0:0:0:
425,76,70588,1,4,3:2:0:0:
257,188,70738,6,0,P|233:232|231:290,1,85.4999973907472,2|8,0:0|0:0,0:0:0:0:
391,384,71038,2,0,P|415:340|417:282,1,85.4999973907472,2|2,3:2|0:3,0:0:0:0:
157,307,71338,2,0,P|203:303|255:295,1,85.4999973907472,2|8,3:2|0:0,0:0:0:0:
165,41,71638,5,2,3:2:0:0:
29,167,71788,2,0,P|38:193|49:225,1,42.7499986953736,4|0,3:2|0:0,0:0:0:0:
280,194,71938,1,0,3:2:0:0:
294,185,72013,1,0,3:2:0:0:
302,160,72088,1,8,0:0:0:0:
289,135,72163,1,8,0:0:0:0:
254,125,72238,1,0,3:2:0:0:
220,142,72313,1,0,3:2:0:0:
180,153,72388,1,8,0:3:0:0:
139,137,72463,1,8,0:3:0:0:
129,89,72538,1,0,3:2:0:0:
154,58,72613,1,0,3:2:0:0:
177,55,72688,5,8,0:0:0:0:
151,113,72763,1,8,0:0:0:0:
168,168,72838,1,8,0:0:0:0:
139,225,72913,1,8,0:0:0:0:
163,279,72988,1,4,3:2:0:0:
407,384,73138,6,0,P|436:345|449:288,1,104.500003189087,2|8,3:2|0:0,0:0:0:0:
306,150,73438,2,0,P|277:189|264:246,1,104.500003189087,2|2,3:2|0:3,0:0:0:0:
356,270,73663,1,0,0:0:0:0:
356,270,73738,2,0,P|314:276|247:297,1,104.500003189087,2|8,3:2|0:0,0:0:0:0:
450,180,74038,1,2,3:2:0:0:
311,23,74188,6,0,P|306:56|299:97,1,52.2500015945435,4|0,3:2|0:0,0:0:0:0:
178,167,74338,1,0,3:2:0:0:
178,167,74413,1,0,3:2:0:0:
178,167,74488,5,8,0:0:0:0:
120,171,74563,1,8,0:0:0:0:
72,144,74638,1,0,3:2:0:0:
59,103,74713,1,0,3:2:0:0:
72,63,74788,1,4,0:3:0:0:
101,48,74863,1,4,0:3:0:0:
133,51,74938,1,0,3:2:0:0:
151,65,75013,1,0,3:2:0:0:
156,80,75088,2,0,P|142:106|131:156,1,52.2500015945435,8|8,0:0|0:0,0:0:0:0:
24,218,75238,2,0,P|38:244|49:294,1,52.2500015945435,8|8,0:0|0:0,0:0:0:0:
165,368,75388,5,0,3:2:0:0:
217,369,75463,1,0,3:2:0:0:
250,329,75538,1,0,3:2:0:0:
238,278,75613,1,0,3:2:0:0:
188,260,75688,1,8,0:2:0:0:
175,209,75763,1,0,3:2:0:0:
209,169,75838,1,0,3:2:0:0:
261,169,75913,1,0,3:2:0:0:
287,214,75988,1,8,0:2:0:0:
276,265,76063,1,0,3:2:0:0:
303,309,76138,1,0,3:2:0:0:
354,315,76213,1,0,3:2:0:0:
398,287,76288,2,0,P|425:278|466:267,1,52.2500015945435,8|0,0:2|3:2,0:0:0:0:
249,0,76438,6,0,P|262:100|300:226,1,209.000006378174,4|0,3:2|3:0,0:0:0:0:
291,203,76888,5,8,0:0:0:0:
390,150,77038,1,2,0:3:0:0:
192,121,77188,5,2,3:2:0:0:
481,234,77338,1,0,3:0:0:0:
390,0,77488,5,10,0:0:0:0:
271,383,77638,1,8,0:0:0:0:
178,366,77788,6,0,P|120:292|101:173,1,209.000006378174,4|8,3:2|0:0,0:0:0:0:
334,18,78238,2,0,P|392:92|411:211,1,209.000006378174,4|0,3:2|3:0,0:0:0:0:
258,193,78688,1,8,0:0:0:0:
258,193,78988,2,0,L|270:255,1,52.2500015945435,0|0,3:0|3:0,0:0:0:0:
37,82,79138,5,2,3:1:0:0:
340,19,79288,5,2,3:1:0:0:
472,362,79438,5,2,3:1:0:0:
158,367,79588,5,2,3:1:0:0:
158,367,79888,6,0,P|164:317|151:367,1,156.750004783631,8|0,0:0|0:0,0:0:0:0:
211,330,80188,5,4,3:2:0:0:
188,294,80263,1,0,3:0:0:0:
148,283,80338,1,0,3:0:0:0:
112,294,80413,1,0,3:0:0:0:
77,289,80488,1,10,0:0:0:0:
54,260,80563,1,0,3:0:0:0:
58,216,80638,1,0,3:0:0:0:
95,189,80713,1,0,3:2:0:0:
144,191,80788,1,2,3:2:0:0:
190,177,80863,1,0,3:0:0:0:
216,134,80938,1,0,3:0:0:0:
212,84,81013,1,0,3:0:0:0:
183,52,81088,1,10,0:0:0:0:
144,50,81163,1,0,3:0:0:0:
114,65,81238,2,0,P|85:61|70:20,3,52.2500015945435,2|0|0|0,3:2|3:2|3:2|3:2,0:0:0:0:
308,137,81538,6,0,P|342:123|375:112,1,52.2500015945435,2|0,3:2|3:2,0:0:0:0:
469,33,81688,1,10,0:0:0:0:
456,28,81763,1,0,3:2:0:0:
444,24,81838,1,0,3:2:0:0:
431,21,81913,1,0,3:2:0:0:
418,18,81988,2,0,P|432:52|443:85,1,52.2500015945435,2|0,3:2|3:2,0:0:0:0:
493,211,82138,2,0,P|501:186|512:162,1,52.2500015945435,0|0,3:2|3:2,0:0:0:0:
364,251,82288,2,0,P|372:275|383:299,1,52.2500015945435,8|0,0:0|3:2,0:0:0:0:
467,341,82438,1,0,3:2:0:0:
298,184,82588,5,4,3:2:0:0:
256,194,82663,1,0,3:0:0:0:
218,176,82738,1,0,3:0:0:0:
200,143,82813,1,0,3:0:0:0:
170,124,82888,1,10,0:0:0:0:
134,130,82963,1,0,3:0:0:0:
107,166,83038,1,0,3:0:0:0:
117,211,83113,1,0,3:2:0:0:
154,241,83188,1,2,3:2:0:0:
179,283,83263,1,0,3:0:0:0:
170,332,83338,1,0,3:0:0:0:
133,366,83413,1,0,3:0:0:0:
90,370,83488,1,10,0:0:0:0:
60,346,83563,1,0,3:0:0:0:
48,314,83638,2,0,P|23:297|-14:317,3,52.2500015945435,2|0|0|0,3:2|3:2|3:2|3:2,0:0:0:0:
258,265,83938,6,0,P|294:255|351:243,1,52.2500015945435,8|0,0:0|3:2,0:0:0:0:
481,204,84088,2,0,P|455:210|430:217,3,52.2500015945435,10|0|0|0,0:0|3:2|3:2|3:2,0:0:0:0:
260,131,84388,6,0,P|224:121|167:109,1,52.2500015945435,2|0,3:2|3:2,0:0:0:0:
310,16,84538,1,0,3:2:0:0:
361,12,84613,1,0,3:2:0:0:
407,35,84688,1,8,0:0:0:0:
433,79,84763,1,8,0:0:0:0:
433,131,84838,2,0,P|418:167|407:198,1,52.2500015945435,8|8,0:0|0:0,0:0:0:0:
329,384,84988,6,0,P|303:291|274:217,1,156.750004783631,4|0,3:2|3:2,0:0:0:0:
392,287,85288,1,8,0:0:0:0:
340,333,85363,1,0,3:2:0:0:
280,302,85438,1,8,0:0:0:0:
292,235,85513,1,0,3:2:0:0:
357,227,85588,1,8,0:0:0:0:
392,169,85663,1,0,3:2:0:0:
348,115,85738,1,8,0:0:0:0:
281,119,85813,1,0,3:2:0:0:
251,179,85888,1,8,0:0:0:0:
186,196,85963,1,0,3:2:0:0:
129,158,86038,1,8,0:0:0:0:
113,91,86113,1,0,3:2:0:0:
148,36,86188,1,8,0:0:0:0:
213,19,86263,1,0,3:2:0:0:
266,59,86338,5,8,0:0:0:0:
202,39,86413,1,0,3:2:0:0:
148,80,86488,1,8,0:0:0:0:
148,147,86563,1,0,3:2:0:0:
211,170,86638,1,8,0:0:0:0:
228,233,86713,1,0,3:2:0:0:
192,289,86788,1,8,0:0:0:0:
122,294,86863,1,0,3:2:0:0:
82,247,86938,1,8,0:0:0:0:
92,201,87013,1,0,3:2:0:0:
131,179,87088,1,8,0:0:0:0:
174,188,87163,1,0,3:2:0:0:
190,225,87238,2,0,P|182:250|176:286,1,52.2500015945435,8|0,0:0|3:2,0:0:0:0:
0,384,87388,5,8,0:0:0:0:
54,371,87463,1,8,0:0:0:0:
102,361,87538,2,0,P|136:354|168:346,1,52.2500015945435,0|0,3:2|3:2,0:0:0:0:
241,277,87688,2,0,P|275:284|307:292,1,52.2500015945435,8|8,0:3|0:3,0:0:0:0:
352,364,87838,1,8,0:0:0:0:
406,351,87913,1,8,0:0:0:0:
454,341,87988,2,0,P|488:334|520:326,1,52.2500015945435,8|8,0:0|0:0,0:0:0:0:
391,162,88138,5,4,0:3:0:0:
377,172,88213,1,4,0:3:0:0:
371,192,88288,5,8,0:0:0:0:
410,216,88363,1,8,0:0:0:0:
464,190,88438,1,8,0:0:0:0:
467,123,88513,1,8,0:0:0:0:
409,82,88588,6,0,P|373:97|339:103,2,56.9999982604981,4|8|0,0:0|0:0|3:2,0:0:0:0:
229,243,89038,1,8,0:0:0:0:
229,243,89338,1,0,3:2:0:0:
95,92,89488,6,0,P|69:87|44:79,1,52.2500015945435,8|0,0:0|0:0,0:0:0:0:
263,2,89638,5,8,0:0:0:0:
291,49,89713,1,8,0:0:0:0:
290,102,89788,2,2,P|278:140|247:202,4,85.4999973907472,4|0|0|0|0,0:1|3:0|3:0|3:0|3:0,0:1:0:0:
290,102,90763,1,0,3:0:0:0:
290,102,90838,1,8,0:0:0:0:
