osu file format v14

[General]
AudioFilename: audio.ogg
AudioLeadIn: 0
PreviewTime: 53625
Countdown: 0
SampleSet: Soft
StackLeniency: 0.7
Mode: 3
LetterboxInBreaks: 0
SpecialStyle: 0
WidescreenStoryboard: 0

[Editor]
Bookmarks: 8025,9225,10425,20025,24825,34425,39225,46425,48825,53625,63225,75225,77625,80025,87225,88425,89625
DistanceSpacing: 0.9
BeatDivisor: 2
GridSize: 32
TimelineZoom: 1.8

[Metadata]
Title:Kira Kira Days (Cut Ver.)
TitleUnicode:キラキラDays (Cut Ver.)
Artist:HO-KAGO TEA TIME
ArtistUnicode:放課後ティータイム
Creator:Sillot
Version:N4iveDx's Easy
Source:けいおん!!
Tags:n4ivedx -ryu- chrisse thisyuzu japanese j-pop jpop pop htt keion k-on!! kirakira anime Aki Toyosaki Yoko Hikasa Minako Kotobuki Satomi Sato Ayana Taketatsu hirasawa yui Akiyama Mio Kotobuki Tsumugi Nakano Azusa Tainaka Ritsu 豊崎 愛生 日笠 陽子 寿 美菜子 佐藤 聡美 竹達 彩奈 平沢唯 秋山 澪 琴吹 紬 中野 梓 田井中 律 田村 信二 小森 茂生 大森 祥子 Shinji Tamura Shigeo Komori Shoko Omori pony canyon inc. 株式会社ポニーキャニオン PCCG-01330
BeatmapID:4039691
BeatmapSetID:1950971

[Difficulty]
HPDrainRate:6
CircleSize:4
OverallDifficulty:6
ApproachRate:5
SliderMultiplier:1.4
SliderTickRate:1

[Events]
//Background and Video events
0,0,"BG.jpg",0,0
//Break Periods
//Storyboard Layer 0 (Background)
//Storyboard Layer 1 (Fail)
//Storyboard Layer 2 (Pass)
//Storyboard Layer 3 (Foreground)
//Storyboard Layer 4 (Overlay)
//Storyboard Sound Samples
Sample,1125,0,"E6.wav",50
Sample,1425,0,"A5.wav",50
Sample,1725,0,"A5.wav",50
Sample,2925,0,"E5.wav",50
Sample,3525,0,"E6.wav",50
Sample,3825,0,"A5.wav",50
Sample,4125,0,"A5.wav",50
Sample,4275,0,"E5.wav",50
Sample,4725,0,"B5.wav",50
Sample,5325,0,"E5.wav",50
Sample,5925,0,"E6.wav",50
Sample,6225,0,"A5.wav",50
Sample,6525,0,"A5.wav",50
Sample,6675,0,"E5.wav",50
Sample,7125,0,"B5.wav",50
Sample,7725,0,"E5.wav",50
Sample,8325,0,"bell.wav",50
Sample,8925,0,"bell.wav",50
Sample,53925,0,"C#6.wav",50
Sample,54225,0,"B5.wav",50
Sample,54525,0,"C#6.wav",50
Sample,55725,0,"B6.wav",50
Sample,56025,0,"C#6.wav",50
Sample,56325,0,"C#6.wav",50
Sample,56625,0,"B5.wav",50
Sample,56925,0,"C#6.wav",50
Sample,58125,0,"D7.wav",50
Sample,58425,0,"C#7.wav",50
Sample,58725,0,"E5.wav",50
Sample,59025,0,"E5.wav",50
Sample,59325,0,"E5.wav",50
Sample,59625,0,"G5.wav",50
Sample,60075,0,"F#5.wav",50
Sample,61125,0,"E5.wav",50
Sample,61425,0,"F#5.wav",50
Sample,61725,0,"G#5.wav",50
Sample,63525,0,"C#6.wav",50
Sample,63825,0,"B5.wav",50
Sample,64125,0,"C#6.wav",50
Sample,65325,0,"B6.wav",50
Sample,65625,0,"C#6.wav",50
Sample,65925,0,"C#6.wav",50
Sample,66225,0,"B5.wav",50
Sample,66525,0,"C#6.wav",50
Sample,67725,0,"D7.wav",50
Sample,71625,0,"A6.wav",50
Sample,71925,0,"F6.wav",50
Sample,72225,0,"E6.wav",50
Sample,72525,0,"D6.wav",50
Sample,74025,0,"C#7.wav",50
Sample,74325,0,"B6.wav",50
Sample,74625,0,"G#6.wav",50
Sample,74925,0,"A6.wav",50
Sample,80325,0,"E6.wav",50
Sample,80625,0,"A5.wav",50
Sample,80925,0,"A5.wav",50
Sample,82125,0,"E5.wav",50
Sample,82725,0,"E6.wav",50
Sample,83025,0,"A5.wav",50
Sample,83325,0,"A5.wav",50
Sample,84525,0,"E5.wav",50
Sample,85125,0,"E6.wav",50
Sample,85425,0,"A5.wav",50
Sample,85725,0,"A5.wav",50
Sample,85875,0,"E5.wav",50
Sample,86325,0,"B5.wav",50
Sample,86925,0,"E5.wav",50
Sample,88875,0,"E5.wav",50
Sample,89325,0,"E5.wav",50

[TimingPoints]
825,300,4,2,1,60,1,0
53625,-100,4,2,1,60,0,1
80025,-100,4,2,1,60,0,0

[HitObjects]
320,192,525,5,8,0:0:0:50:
64,192,825,1,2,0:0:0:50:
192,192,825,128,0,1125:0:0:0:50:A5.wav
448,192,1125,1,8,0:0:0:50:
320,192,1425,128,2,1725:0:0:0:50:
64,192,1725,1,8,0:0:0:50:
192,192,1875,128,0,2325:0:0:0:50:E5.wav
448,192,2325,1,0,0:0:0:50:B5.wav
64,192,2625,1,0,0:0:0:50:E6.wav
320,192,2925,1,8,0:0:0:50:
64,192,3225,1,6,0:0:0:50:
192,192,3225,128,0,3525:0:0:0:50:A5.wav
320,192,3525,1,8,0:0:0:50:
448,192,3825,128,2,4125:0:0:0:50:
64,192,4125,1,8,0:0:0:50:
192,192,4275,128,2,4725:0:0:0:50:
320,192,4725,1,2,0:0:0:50:
64,192,5025,1,0,0:0:0:50:E6.wav
448,192,5325,1,8,0:0:0:50:
192,192,5625,1,6,0:0:0:50:
320,192,5625,128,0,5925:0:0:0:50:A5.wav
64,192,5925,1,8,0:0:0:50:
192,192,6225,128,2,6525:0:0:0:50:
448,192,6525,1,8,0:0:0:50:
320,192,6675,128,2,7125:0:0:0:50:
64,192,7125,1,2,0:0:0:50:
192,192,7425,1,0,0:0:0:50:E6.wav
448,192,7725,1,8,0:0:0:50:
64,192,8025,1,2,0:0:0:50:
320,192,8025,1,0,0:0:0:0:
192,192,8325,1,2,0:0:0:50:
448,192,8625,1,8,0:0:0:50:
64,192,8925,1,8,0:0:0:50:
320,192,9225,1,8,0:0:0:50:
448,192,9225,1,0,0:0:0:0:
64,192,9525,1,0,0:0:0:50:bell.wav
64,192,10125,1,8,0:0:0:50:
192,192,10125,1,0,0:0:0:50:bell.wav
320,192,10425,1,4,0:0:0:50:
448,192,10425,1,2,0:0:0:50:
64,192,10725,1,8,0:0:0:50:
320,192,11025,128,2,11325:0:0:0:50:
192,192,11325,1,8,0:0:0:50:
64,192,11625,128,2,11925:0:0:0:50:
320,192,11925,1,8,0:0:0:50:
192,192,12225,128,2,12525:0:0:0:50:
448,192,12525,1,8,0:0:0:50:
64,192,12825,128,2,13125:0:0:0:50:
320,192,13125,1,8,0:0:0:50:
448,192,13425,128,2,13725:0:0:0:50:
64,192,13725,1,8,0:0:0:50:
192,192,13875,1,2,0:0:0:50:
448,192,14175,1,2,0:0:0:50:
320,192,14475,1,2,0:0:0:50:
192,192,14625,1,2,0:0:0:50:
64,192,14925,128,8,15225:0:0:0:50:
320,192,15225,1,2,0:0:0:50:
448,192,15225,128,0,15525:0:0:0:0:
192,192,15525,1,8,0:0:0:50:
320,192,15825,128,2,16125:0:0:0:50:
64,192,16125,1,8,0:0:0:50:
192,192,16425,1,2,0:0:0:50:
448,192,16425,128,0,16725:0:0:0:0:
64,192,16725,1,8,0:0:0:50:
320,192,17025,128,2,17325:0:0:0:50:
192,192,17325,1,8,0:0:0:50:
320,192,17625,128,2,17925:0:0:0:50:
448,192,17625,1,0,0:0:0:0:
64,192,17925,1,8,0:0:0:50:
192,192,18225,128,2,18525:0:0:0:50:
448,192,18525,1,8,0:0:0:50:
320,192,18675,1,2,0:0:0:50:
64,192,18975,1,2,0:0:0:50:
192,192,19275,1,2,0:0:0:50:
320,192,19425,1,2,0:0:0:50:
64,192,19725,128,8,20025:0:0:0:50:
320,192,20025,1,4,0:0:0:50:
448,192,20025,128,2,20325:0:0:0:50:
192,192,20325,1,8,0:0:0:50:
320,192,20625,128,2,20925:0:0:0:50:
64,192,20925,1,8,0:0:0:50:
192,192,21225,128,2,21825:0:0:0:50:
448,192,21825,1,2,0:0:0:50:
320,192,22125,1,8,0:0:0:50:
64,192,22425,128,4,22725:0:0:0:50:
192,192,22425,1,2,0:0:0:50:
448,192,22725,1,8,0:0:0:50:
320,192,23025,128,2,23325:0:0:0:50:
192,192,23325,128,8,23625:0:0:0:50:
64,192,23625,1,8,0:0:0:50:
448,192,23625,1,0,0:0:0:0:
192,192,24075,1,8,0:0:0:50:
64,192,24525,1,8,0:0:0:50:
320,192,24525,1,0,0:0:0:0:
192,192,24825,1,4,0:0:0:50:
448,192,24825,1,2,0:0:0:50:
64,192,25125,1,8,0:0:0:50:
448,192,25425,128,2,25725:0:0:0:50:
320,192,25725,1,8,0:0:0:50:
64,192,26025,1,2,0:0:0:50:
192,192,26025,128,0,26325:0:0:0:0:
320,192,26325,1,8,0:0:0:50:
192,192,26625,128,2,26925:0:0:0:50:
448,192,26925,1,8,0:0:0:50:
64,192,27225,1,2,0:0:0:50:
320,192,27225,128,0,27525:0:0:0:0:
192,192,27525,1,8,0:0:0:50:
448,192,27825,128,2,28125:0:0:0:50:
64,192,28125,1,8,0:0:0:50:
320,192,28275,128,2,28575:0:0:0:50:
64,192,28575,1,2,0:0:0:50:
448,192,28875,1,2,0:0:0:50:
320,192,29025,1,2,0:0:0:50:
192,192,29325,1,8,0:0:0:50:
64,192,29625,1,2,0:0:0:50:
320,192,29625,128,0,29925:0:0:0:0:
448,192,29925,1,8,0:0:0:50:
192,192,30225,128,2,30525:0:0:0:50:
320,192,30525,1,8,0:0:0:50:
64,192,30825,1,2,0:0:0:50:
192,192,30825,128,0,31125:0:0:0:0:
448,192,31125,1,8,0:0:0:50:
320,192,31275,128,0,31575:0:0:0:0:
64,192,31575,1,2,0:0:0:50:
192,192,31725,1,8,0:0:0:50:
320,192,32025,128,2,32325:0:0:0:50:
448,192,32025,1,0,0:0:0:0:
64,192,32325,1,8,0:0:0:50:
448,192,32625,1,2,0:0:0:50:
320,192,32925,1,8,0:0:0:50:
192,192,33075,1,2,0:0:0:50:
448,192,33375,128,2,33675:0:0:0:50:
64,192,33675,1,2,0:0:0:50:
192,192,33825,128,2,34125:0:0:0:50:
320,192,34125,128,8,34425:0:0:0:50:
64,192,34425,1,4,0:0:0:50:
448,192,34425,1,2,0:0:0:50:
320,192,34725,128,8,35025:0:0:0:50:
192,192,35025,1,2,0:0:0:50:
448,192,35325,128,8,35625:0:0:0:50:
64,192,35625,1,2,0:0:0:50:
320,192,35925,1,8,0:0:0:50:
192,192,36225,1,2,0:0:0:50:
448,192,36525,1,8,0:0:0:50:
64,192,36825,128,4,37125:0:0:0:50:
192,192,36825,1,2,0:0:0:50:
320,192,37125,1,8,0:0:0:50:
192,192,37425,128,2,37725:0:0:0:50:
448,192,37725,1,8,0:0:0:50:
64,192,38025,1,0,0:0:0:0:
320,192,38025,1,0,0:0:0:0:
192,192,38325,1,2,0:0:0:50:
448,192,38625,1,8,0:0:0:50:
320,192,38925,1,8,0:0:0:50:
64,192,39225,128,8,39825:0:0:0:50:
192,192,39225,1,2,0:0:0:50:
448,192,39825,1,0,0:0:0:0:
320,192,39975,1,2,0:0:0:50:
192,192,40425,128,2,41025:0:0:0:50:
448,192,40425,1,0,0:0:0:0:
320,192,41025,1,0,0:0:0:0:
64,192,41325,1,8,0:0:0:50:
320,192,41625,128,2,41925:0:0:0:50:
448,192,41625,1,0,0:0:0:0:
64,192,41925,1,0,0:0:0:0:
192,192,42225,128,0,42525:0:0:0:0:
448,192,42525,1,8,0:0:0:50:
64,192,42825,1,6,0:0:0:50:
320,192,42975,128,0,43275:0:0:0:0:
192,192,43275,128,2,43725:0:0:0:50:
448,192,43725,1,8,0:0:0:50:
64,192,44025,1,2,0:0:0:50:
320,192,44025,1,0,0:0:0:0:
192,192,44325,128,0,44625:0:0:0:0:
448,192,44625,128,0,44925:0:0:0:0:
192,192,44925,128,8,45225:0:0:0:50:
320,192,45225,1,2,0:0:0:50:
448,192,45225,1,0,0:0:0:0:
64,192,45525,128,0,45825:0:0:0:0:
448,192,45825,128,0,46125:0:0:0:0:
64,192,46125,128,8,46425:0:0:0:50:
320,192,46425,1,4,0:0:0:50:
448,192,46425,1,2,0:0:0:50:
64,192,46725,1,8,0:0:0:50:
320,192,47025,1,2,0:0:0:50:
448,192,47325,1,8,0:0:0:50:
192,192,47625,1,2,0:0:0:50:
64,192,47925,1,8,0:0:0:50:
448,192,48225,128,2,48525:0:0:0:50:
192,192,48525,128,8,48825:0:0:0:50:
64,192,48825,1,8,0:0:0:50:
320,192,48825,1,0,0:0:0:0:
448,192,49125,1,8,0:0:0:50:
192,192,49425,1,8,0:0:0:50:
320,192,49725,1,8,0:0:0:50:
64,192,50025,1,8,0:0:0:50:
192,192,50025,1,0,0:0:0:0:
448,192,50325,1,8,0:0:0:50:
192,192,50625,128,8,50925:0:0:0:50:
320,192,50925,128,8,51225:0:0:0:50:
64,192,51225,1,8,0:0:0:50:
448,192,51225,1,0,0:0:0:0:
192,192,51525,1,8,0:0:0:50:
448,192,51825,1,8,0:0:0:50:
320,192,51975,128,2,52275:0:0:0:50:
192,192,52275,128,2,52575:0:0:0:50:
448,192,52575,1,8,0:0:0:50:
64,192,52725,1,8,0:0:0:50:
192,192,52875,1,8,0:0:0:50:
320,192,53025,1,8,0:0:0:50:
448,192,53325,1,8,0:0:0:50:
64,192,53625,128,6,53925:0:0:0:50:
320,192,53625,1,0,0:0:0:50:C#6.wav
448,192,53925,128,8,54225:0:0:0:50:
192,192,54225,1,2,0:0:0:50:
320,192,54525,1,8,0:0:0:50:
64,192,54825,1,2,0:0:0:50:
192,192,54825,128,0,55275:0:0:0:50:D6.wav
320,192,55275,128,0,55575:0:0:0:50:C#6.wav
448,192,55575,1,2,0:0:0:50:
192,192,55725,1,8,0:0:0:50:
64,192,56025,1,2,0:0:0:50:
448,192,56025,128,0,56325:0:0:0:50:A6.wav
320,192,56325,128,8,56625:0:0:0:50:
64,192,56625,1,2,0:0:0:50:
192,192,56925,1,8,0:0:0:50:
320,192,57225,128,2,57675:0:0:0:50:
448,192,57225,1,0,0:0:0:50:E6.wav
64,192,57675,128,0,57975:0:0:0:50:D6.wav
192,192,57975,1,2,0:0:0:50:
320,192,58125,1,8,0:0:0:50:
192,192,58425,1,6,0:0:0:50:
448,192,58425,1,0,0:0:0:50:E5.wav
64,192,58725,1,8,0:0:0:50:
320,192,59025,1,2,0:0:0:50:
192,192,59325,1,8,0:0:0:50:
448,192,59625,1,2,0:0:0:50:
320,192,59775,128,0,60075:0:0:0:50:G5.wav
192,192,60075,128,2,60525:0:0:0:50:
64,192,60525,1,8,0:0:0:50:
192,192,60825,1,2,0:0:0:50:
320,192,60825,1,0,0:0:0:50:D5.wav
448,192,61125,1,8,0:0:0:50:
192,192,61425,1,2,0:0:0:50:
448,192,61725,1,8,0:0:0:50:
320,192,61875,1,0,0:0:0:50:A5.wav
64,192,62325,1,8,0:0:0:50:
192,192,62325,1,0,0:0:0:50:C#6.wav
320,192,62625,1,2,0:0:0:50:
448,192,62625,1,0,0:0:0:50:B5.wav
320,192,62925,1,8,0:0:0:50:
64,192,63225,1,6,0:0:0:50:
192,192,63225,128,0,63525:0:0:0:50:C#6.wav
320,192,63525,128,8,63825:0:0:0:50:
64,192,63825,1,2,0:0:0:50:
448,192,64125,1,8,0:0:0:50:
64,192,64425,128,2,64875:0:0:0:50:
320,192,64425,1,0,0:0:0:50:D6.wav
448,192,64875,128,0,65175:0:0:0:50:C#6.wav
320,192,65175,1,2,0:0:0:50:
192,192,65325,1,8,0:0:0:50:
64,192,65625,1,6,0:0:0:50:
448,192,65625,128,0,65925:0:0:0:50:A6.wav
192,192,65925,128,8,66225:0:0:0:50:
320,192,66225,1,2,0:0:0:50:
64,192,66525,1,8,0:0:0:50:
320,192,66825,128,2,67275:0:0:0:50:
448,192,66825,1,0,0:0:0:50:E6.wav
192,192,67275,128,0,67575:0:0:0:50:D6.wav
448,192,67575,1,2,0:0:0:50:
320,192,67725,1,8,0:0:0:50:
64,192,68025,1,6,0:0:0:50:
192,192,68025,128,0,68325:0:0:0:50:C#7.wav
448,192,68325,128,8,68625:0:0:0:50:
64,192,68625,1,2,0:0:0:50:
320,192,68925,1,8,0:0:0:50:
192,192,69225,128,2,69675:0:0:0:50:
448,192,69225,1,0,0:0:0:0:
320,192,69675,128,2,69975:0:0:0:50:
64,192,69975,1,2,0:0:0:50:
448,192,70125,1,8,0:0:0:50:
64,192,70425,1,2,0:0:0:50:
192,192,70425,1,0,0:0:0:0:
448,192,70725,1,8,0:0:0:50:
192,192,71025,1,2,0:0:0:50:
320,192,71325,1,8,0:0:0:50:
64,192,71625,128,2,71925:0:0:0:50:
448,192,71925,128,8,72225:0:0:0:50:
192,192,72225,128,2,72525:0:0:0:50:
320,192,72525,128,8,72825:0:0:0:50:
64,192,72825,1,4,0:0:0:50:
448,192,72825,1,2,0:0:0:50:
320,192,73125,1,8,0:0:0:50:
192,192,73425,1,2,0:0:0:50:
448,192,73725,1,8,0:0:0:50:
320,192,74025,128,2,74325:0:0:0:50:
64,192,74325,128,8,74625:0:0:0:50:
448,192,74625,128,2,74925:0:0:0:50:
192,192,74925,128,8,75225:0:0:0:50:
320,192,75225,1,4,0:0:0:50:
448,192,75225,1,8,0:0:0:50:
64,192,75525,1,8,0:0:0:50:
320,192,75825,1,8,0:0:0:50:
192,192,76125,1,8,0:0:0:50:
320,192,76275,128,2,76725:0:0:0:50:
192,192,76725,128,8,77025:0:0:0:50:
448,192,77025,128,8,77325:0:0:0:50:
320,192,77325,128,8,77625:0:0:0:50:
64,192,77625,1,2,0:0:0:50:
192,192,77625,128,0,78075:0:0:0:0:
448,192,78075,128,0,78525:0:0:0:0:
320,192,78525,1,8,0:0:0:50:
192,192,78675,1,0,0:0:0:0:
64,192,78975,1,12,0:0:0:50:
448,192,79125,1,12,0:0:0:50:
320,192,79275,1,12,0:0:0:50:
192,192,79425,1,12,0:0:0:50:
320,192,79725,1,8,0:0:0:50:
64,192,80025,1,2,0:0:0:50:
192,192,80025,128,0,80325:0:0:0:50:A5.wav
448,192,80325,1,8,0:0:0:50:
320,192,80625,128,2,80925:0:0:0:50:
64,192,80925,1,8,0:0:0:50:
192,192,81075,128,0,81525:0:0:0:50:E5.wav
448,192,81525,1,0,0:0:0:50:B5.wav
64,192,81825,1,0,0:0:0:50:E6.wav
320,192,82125,1,8,0:0:0:50:
64,192,82425,1,2,0:0:0:50:
192,192,82425,128,0,82725:0:0:0:50:A5.wav
320,192,82725,1,8,0:0:0:50:
448,192,83025,128,2,83325:0:0:0:50:
64,192,83325,1,8,0:0:0:50:
192,192,83475,128,0,83925:0:0:0:50:E5.wav
320,192,83925,1,0,0:0:0:50:B5.wav
64,192,84225,1,0,0:0:0:50:E6.wav
448,192,84525,1,8,0:0:0:50:
192,192,84825,1,6,0:0:0:50:
320,192,84825,128,0,85125:0:0:0:50:A5.wav
64,192,85125,1,8,0:0:0:50:
192,192,85425,128,2,85725:0:0:0:50:
448,192,85725,1,8,0:0:0:50:
320,192,85875,128,2,86325:0:0:0:50:
64,192,86325,1,2,0:0:0:50:
192,192,86625,1,0,0:0:0:50:E6.wav
448,192,86925,1,8,0:0:0:50:
64,192,87225,1,4,0:0:0:50:
320,192,87225,1,2,0:0:0:50:
192,192,87525,1,2,0:0:0:50:
448,192,87825,1,8,0:0:0:50:
64,192,88125,1,8,0:0:0:50:
320,192,88425,1,8,0:0:0:50:
448,192,88425,1,0,0:0:0:0:
192,192,88875,1,8,0:0:0:50:
320,192,89325,1,8,0:0:0:50:
64,192,89625,1,8,0:0:0:50:
192,192,89625,128,0,90825:0:0:0:0:
