osu file format v14

[General]
AudioFilename: audio.mp3
AudioLeadIn: 0
PreviewTime: 53414
Countdown: 0
SampleSet: Normal
StackLeniency: 0.5
Mode: 0
LetterboxInBreaks: 0
WidescreenStoryboard: 0

[Editor]
DistanceSpacing: 1.2
BeatDivisor: 4
GridSize: 4
TimelineZoom: 1.9

[Metadata]
Title:Kira Kira Days
TitleUnicode:キラキラ Days
Artist:HO-KAGO TEA TIME
ArtistUnicode:放課後ティータイム
Creator:[ L u k a s ]
Version:Normal!!
Source:けいおん!!
Tags:Corinn Akitoshi Ascendance -[_Asuna_]- DreaM117er Sharkie SnowNiNo_ A_r_M_i_N alienflybot yassu- Nifty Nardoxyribonucleic Hanjamon DavidEd Kagari K-ON!! HTT Keion Yui Hirasawa Mio Akiyama Ritsu Tainaka Tsumugi Kotobuki Azusa Nakano Toyosaki Aki Hikasa Yoko Sato Satomi Minako Taketatsu Ayana tv size Pony Canyon 平沢唯 秋山澪 田井中律 琴吹紬 中野梓 豊崎愛生 日笠陽子 佐藤聡美 寿美菜子 竹達彩奈
BeatmapID:1389382
BeatmapSetID:641711

[Difficulty]
HPDrainRate:4
CircleSize:2.5
OverallDifficulty:4
ApproachRate:5
SliderMultiplier:1.0999999666214
SliderTickRate:1

[Events]
//Background and Video events
0,0,"help LOL.png",0,0
//Break Periods
//Storyboard Layer 0 (Background)
//Storyboard Layer 1 (Fail)
//Storyboard Layer 2 (Pass)
//Storyboard Layer 3 (Foreground)
//Storyboard Sound Samples

[TimingPoints]
764,300,4,2,2,75,1,0
2114,-100,4,2,2,75,0,0
2564,-100,4,2,2,75,0,0
2714,-100,4,2,2,75,0,0
2864,-100,4,2,2,75,0,0
4514,-100,4,2,2,75,0,0
4964,-100,4,2,2,75,0,0
5114,-100,4,2,2,75,0,0
5264,-100,4,2,2,75,0,0
6914,-100,4,2,2,75,0,0
7364,-100,4,2,2,75,0,0
7514,-100,4,2,2,75,0,0
7664,-100,4,2,2,75,0,0
10364,-100,4,2,3,60,0,0
14114,-100,4,2,3,60,0,0
14414,-100,4,2,3,60,0,0
14564,-100,4,2,3,60,0,0
14864,-100,4,2,3,60,0,0
18914,-100,4,2,3,60,0,0
19214,-100,4,2,3,60,0,0
19364,-100,4,2,3,60,0,0
19664,-100,4,2,3,60,0,0
19964,-100,4,2,2,75,0,0
24764,-100,4,2,3,60,0,0
28514,-100,4,2,3,60,0,0
28814,-100,4,2,3,60,0,0
28964,-100,4,2,3,60,0,0
29114,-100,4,2,3,60,0,0
29264,-100,4,2,3,60,0,0
33314,-100,4,2,3,60,0,0
33614,-100,4,2,3,60,0,0
33764,-100,4,2,3,60,0,0
33914,-100,4,2,3,60,0,0
34064,-100,4,2,3,60,0,0
34364,-100,4,2,2,75,0,0
38114,-100,4,2,2,75,0,0
38714,-100,4,2,2,75,0,0
38864,-100,4,2,2,85,0,0
39014,-100,4,2,2,85,0,0
39164,-100,4,1,10,40,0,0
39464,-100,4,1,10,40,0,0
39764,-100,4,1,10,40,0,0
42764,-100,4,2,3,60,0,0
43964,-100,4,1,10,40,0,0
46364,-100,4,2,3,50,0,0
47564,-100,4,2,3,50,0,0
48764,-100,4,2,3,75,0,0
49964,-100,4,2,3,75,0,0
51164,-100,4,2,3,75,0,0
52214,-100,4,2,3,75,0,0
52964,-100,4,2,3,75,0,0
53564,-100,4,2,3,85,0,1
54764,-100,4,2,3,85,0,1
55364,-100,4,2,3,85,0,1
55964,-100,4,2,3,85,0,1
57164,-100,4,2,3,85,0,1
57764,-100,4,2,3,85,0,1
58364,-100,4,2,3,85,0,1
61814,-100,4,2,3,85,0,1
62264,-100,4,2,3,85,0,1
62414,-100,4,2,3,85,0,1
62564,-100,4,2,3,85,0,1
64364,-100,4,2,3,85,0,1
64964,-100,4,2,3,85,0,1
65564,-100,4,2,3,85,0,1
66764,-100,4,2,3,85,0,1
67364,-100,4,2,3,85,0,1
67964,-100,4,2,3,85,0,1
75164,-100,4,2,3,85,0,1
75464,-100,4,2,3,85,0,1
75764,-100,4,2,3,85,0,1
76064,-100,4,2,3,85,0,1
76364,-100,4,2,3,85,0,1
76664,-100,4,2,3,85,0,1
76964,-100,4,2,3,85,0,1
77264,-100,4,2,3,85,0,1
77564,-100,4,2,3,85,0,1
77864,-100,4,2,3,85,0,1
78014,-100,4,2,3,85,0,1
78464,-100,4,2,3,85,0,1
78914,-100,4,2,3,85,0,1
79064,-100,4,2,3,85,0,1
79214,-100,4,2,3,85,0,1
79364,-100,4,2,3,85,0,1
79664,-100,4,1,0,50,0,1
79889,-100,4,2,2,60,0,1
79964,-100,4,2,2,60,0,0
81314,-100,4,2,2,60,0,0
81764,-100,4,2,2,60,0,0
81914,-100,4,2,2,60,0,0
82064,-100,4,2,2,60,0,0
83714,-100,4,2,2,60,0,0
84164,-100,4,2,2,60,0,0
84314,-100,4,2,2,60,0,0
84464,-100,4,2,2,60,0,0
86114,-100,4,2,2,60,0,0
86564,-100,4,2,2,60,0,0
86714,-100,4,2,2,60,0,0
86864,-100,4,2,2,60,0,0
88514,-100,4,2,2,60,0,0
88814,-100,4,2,2,60,0,0
88964,-100,4,2,2,60,0,0
89264,-100,4,2,2,60,0,0
89564,-100,4,2,2,60,0,0
89639,-100,4,2,2,60,0,0
89714,-100,4,2,2,60,0,0
89789,-100,4,2,2,60,0,0
89864,-100,4,2,2,45,0,0
90014,-100,4,2,2,45,0,0
90164,-100,4,2,2,30,0,0
90314,-100,4,2,2,30,0,0
90464,-100,4,2,2,15,0,0
90764,-100,4,2,2,5,0,0

[Colours]
Combo1 : 255,255,111
Combo2 : 255,79,167
Combo3 : 249,164,128

[HitObjects]
376,148,464,5,0,1:0:0:0:
376,148,764,6,0,P|408:132|488:140,2,109.99999666214,0|2|0,0:1|1:0|0:1,0:0:0:0:
240,292,1814,2,0,B|260:236|240:208|220:184|240:125,1,164.99999499321,0|0,0:1|0:0,0:0:0:0:
304,16,2564,2,0,P|208:4|176:20,1,109.99999666214,0|2,1:0|1:0,0:0:0:0:
140,128,3164,6,0,L|20:136,2,109.99999666214,0|2|0,0:1|1:0|0:1,0:0:0:0:
332,76,4214,2,0,B|348:128|348:128|328:248,1,164.99999499321,0|0,0:1|0:0,0:0:0:0:
272,356,4964,2,0,L|144:352,1,109.99999666214,0|2,1:0|1:0,0:0:0:0:
96,240,5564,6,0,L|88:120,2,109.99999666214,4|2|0,0:1|1:0|0:1,0:0:0:0:
264,344,6614,2,0,L|252:180,1,164.99999499321,0|0,0:1|0:0,0:0:0:0:
172,72,7364,2,0,B|226:55|226:55|291:60,1,109.99999666214,0|2,1:0|1:0,0:0:0:0:
412,80,7964,5,0,0:1:0:0:
392,212,8264,1,0,0:1:0:0:
368,340,8564,2,0,P|317:355|243:355,1,109.99999666214,2|0,1:0|1:0,0:0:0:0:
176,256,9164,1,2,1:0:0:0:
176,256,10064,1,8,0:0:0:0:
156,124,10364,6,0,P|197:100|274:101,1,109.99999666214,6|0,0:0|1:0,0:0:0:0:
352,188,10964,2,0,B|338:121|338:121|350:64,1,109.99999666214,2|8,0:0|0:0,0:0:0:0:
476,64,11564,2,0,B|500:147|500:147|483:223,2,164.99999499321,2|2|8,0:0|0:0|0:0,0:0:0:0:
355,34,12764,6,0,L|228:46,1,109.99999666214,2|8,0:0|0:0,0:0:0:0:
148,132,13364,2,0,L|335:143,2,164.99999499321,0|2|0,0:0|0:0|1:0,0:0:0:0:
56,228,14564,2,0,P|52:282|75:331,1,109.99999666214,2|8,0:0|0:0,0:0:0:0:
208,340,15164,6,0,P|249:316|326:317,1,109.99999666214,2|8,0:0|0:0,0:0:0:0:
432,368,15764,2,0,B|418:301|418:301|430:244,1,109.99999666214,2|8,0:0|0:0,0:0:0:0:
512,160,16364,2,0,B|529:84|529:84|505:1,2,164.99999499321,2|2|0,0:0|0:0|0:0,0:0:0:0:
384,196,17564,6,0,P|323:187|257:208,1,109.99999666214,2|8,0:0|0:0,0:0:0:0:
248,328,18164,2,0,P|307:351|411:327,2,164.99999499321,2|2|0,0:0|0:0|1:0,0:0:0:0:
124,276,19364,2,0,L|123:145,1,109.99999666214,2|2,0:0|0:0,0:0:0:0:
124,36,19964,6,0,P|179:8|310:91,1,219.99999332428,12|8,0:0|0:0,0:0:0:0:
309,207,20864,1,8,1:0:0:0:
309,207,21164,2,0,B|228:178|194:203|155:231|86:199,1,219.99999332428,8|8,0:0|0:0,0:0:0:0:
344,124,22364,6,0,P|397:193|322:299,1,219.99999332428,6|8,0:0|3:0,0:0:0:0:
207,320,23264,1,2,1:0:0:0:
207,320,23564,2,0,L|192:141,2,164.99999499321,2|2|2,1:0|1:0|1:0,0:0:0:0:
340,336,24764,6,0,P|381:312|458:313,1,109.99999666214,6|0,0:0|1:0,0:0:0:0:
440,176,25364,2,0,B|454:109|454:109|442:52,1,109.99999666214,2|8,0:0|0:0,0:0:0:0:
316,36,25964,2,0,L|136:40,2,164.99999499321,2|2|8,0:0|0:0|0:0,0:0:0:0:
340,168,27164,6,0,B|284:160|284:160|213:180,1,109.99999666214,2|8,0:0|0:0,0:0:0:0:
324,272,27764,2,0,L|511:283,2,164.99999499321,0|2|0,0:0|0:0|1:0,0:0:0:0:
208,340,28964,2,0,P|184:290|188:236,1,109.99999666214,2|8,0:0|0:0,0:0:0:0:
112,128,29564,6,0,P|153:104|230:105,1,109.99999666214,2|8,0:0|0:0,0:0:0:0:
344,132,30164,2,0,B|352:172|352:172|338:239,1,109.99999666214,2|8,0:0|0:0,0:0:0:0:
220,296,30764,2,0,B|171:283|135:299|103:312|51:292,2,164.99999499321,2|2|0,0:0|0:0|0:0,0:0:0:0:
344,348,31964,6,0,L|472:344,1,109.99999666214,2|8,0:0|0:0,0:0:0:0:
464,212,32564,2,0,P|484:136|464:28,2,164.99999499321,2|2|0,0:0|0:0|1:0,0:0:0:0:
340,252,33764,2,0,P|328:200|339:121,1,109.99999666214,2|2,0:0|0:0,0:0:0:0:
232,56,34364,6,0,B|184:40|184:40|8:64,1,219.99999332428,12|8,0:0|0:0,0:0:0:0:
44,192,35264,1,8,1:0:0:0:
44,192,35564,2,0,P|80:280|96:200,1,219.99999332428,8|8,0:0|0:0,0:0:0:0:
340,92,36764,6,0,P|393:161|404:304,1,219.99999332428,6|8,0:0|3:0,0:0:0:0:
296,364,37664,1,2,1:0:0:0:
180,304,37964,2,0,L|48:320,2,109.99999666214,2|0|0,1:0|3:0|3:0,0:0:0:0:
308,280,38864,1,2,1:0:0:0:
416,356,39164,6,0,B|440:288|440:288|396:144,1,219.99999332428,0|2,0:0|0:0,0:0:0:0:
320,40,40064,1,8,0:0:0:0:
240,144,40364,2,0,B|168:156|124:136|92:124|16:152,1,219.99999332428,2|2,0:0|0:0,0:0:0:0:
92,260,41264,1,8,0:0:0:0:
92,260,41564,2,0,P|68:328|152:284,1,219.99999332428,2|2,0:0|0:0,0:0:0:0:
140,160,42464,1,8,0:0:0:0:
140,160,42764,2,0,L|320:168,2,164.99999499321,12|0|8,0:0|0:0|0:0,0:0:0:0:
68,48,43964,5,0,0:0:0:0:
68,48,44264,2,0,L|192:32,2,109.99999666214,0|2|8,0:0|0:0|0:0,0:0:0:0:
96,176,45164,5,2,0:0:0:0:
96,176,45464,2,0,L|220:160,2,109.99999666214,0|2|8,0:0|0:0|0:0,0:0:0:0:
112,308,46364,6,0,L|236:292,1,109.99999666214,0|8,0:0|1:0,0:0:0:0:
300,188,46964,2,0,L|409:202,1,109.99999666214,2|8,0:0|1:0,0:0:0:0:
484,312,47564,2,0,P|504:252|512:188,2,109.99999666214,2|8|2,0:0|1:0|0:0,0:0:0:0:
368,376,48464,1,2,0:0:0:0:
248,324,48764,6,0,L|256:192,1,109.99999666214,8|2,0:0|0:0,0:0:0:0:
140,148,49364,2,0,L|133:257,1,109.99999666214,8|2,1:0|0:0,0:0:0:0:
4,284,49964,2,0,L|12:152,2,109.99999666214,8|2|8,0:0|0:0|0:0,0:0:0:0:
128,332,50864,1,2,0:0:0:0:
128,332,51164,6,8,B|176:328|176:328|260:340,1,109.99999666214,8|8,0:0|0:0,0:0:0:0:
368,364,51764,2,8,B|364:316|364:316|376:232,1,109.99999666214,8|8,0:0|0:0,0:0:0:0:
392,124,52364,1,0,0:0:0:0:
332,152,52514,2,0,L|160:156,1,164.99999499321,2|2,0:0|0:0,0:0:0:0:
36,132,53264,1,8,1:0:0:0:
84,256,53564,6,0,P|104:304|160:336,2,109.99999666214,12|8|2,0:0|1:0|0:0,0:0:0:0:
128,128,54464,1,8,1:0:0:0:
128,128,54764,2,0,B|196:112|252:136|296:152|364:132,1,219.99999332428,2|2,0:0|0:0,0:0:0:0:
441,58,55664,1,8,1:0:0:0:
441,58,55964,6,0,L|441:190,2,109.99999666214,2|8|2,0:0|1:0|0:0,0:0:0:0:
308,16,56864,1,8,1:0:0:0:
308,16,57164,2,0,L|308:248,1,219.99999332428,2|2,0:0|0:0,0:0:0:0:
304,368,58064,1,8,1:0:0:0:
304,368,58364,6,0,L|176:364,1,109.99999666214,0|8,0:0|1:0,0:0:0:0:
68,328,58964,2,0,P|36:268|40:216,1,109.99999666214,2|8,0:0|1:0,0:0:0:0:
120,120,59564,2,0,P|140:72|40:52,2,164.99999499321,8|12|8,0:0|0:0|1:0,0:0:0:0:
120,252,60764,6,0,P|192:220|240:224,1,109.99999666214,2|8,0:0|1:0,0:0:0:0:
320,308,61364,2,0,L|328:192,1,109.99999666214,2|8,0:0|1:0,0:0:0:0:
340,68,61964,1,0,0:0:0:0:
340,68,62264,2,8,P|256:100|224:96,2,109.99999666214,12|2|8,0:0|0:0|1:0,0:0:0:0:
448,143,63164,6,0,L|454:271,2,109.99999666214,12|8|2,0:0|1:0|0:0,0:0:0:0:
437,10,64064,1,8,1:0:0:0:
437,10,64364,2,0,L|201:19,1,219.99999332428,2|2,0:0|0:0,0:0:0:0:
85,27,65264,1,8,1:0:0:0:
109,156,65564,6,0,L|109:288,2,109.99999666214,2|8|2,0:0|1:0|0:0,0:0:0:0:
217,80,66464,1,8,1:0:0:0:
217,80,66764,2,0,L|217:312,1,219.99999332428,2|2,0:0|0:0,0:0:0:0:
337,354,67664,1,8,1:0:0:0:
337,354,67964,6,0,L|446:357,1,109.99999666214,12|8,0:0|1:0,0:0:0:0:
500,236,68564,2,0,L|390:239,1,109.99999666214,2|8,0:0|1:0,0:0:0:0:
260,212,69164,2,0,B|277:156|268:98|268:98|280:124|298:136,2,164.99999499321,8|12|8,0:0|0:0|1:0,0:0:0:0:
272,343,70364,6,0,P|217:338|170:311,1,109.99999666214,2|0,0:0|1:0,0:0:0:0:
69,225,70964,2,0,L|77:109,1,109.99999666214,2|8,0:0|1:0,0:0:0:0:
206,93,71564,2,0,P|261:89|309:63,2,109.99999666214,2|8|2,0:0|1:0|0:0,0:0:0:0:
93,24,72464,1,8,1:0:0:0:
78,155,72764,6,0,P|82:209|109:256,1,109.99999666214,12|8,0:0|1:0,0:0:0:0:
219,331,73364,2,0,L|227:215,1,109.99999666214,2|8,0:0|1:0,0:0:0:0:
309,118,73964,2,0,P|364:114|412:88,2,109.99999666214,2|8|2,0:0|1:0|0:0,0:0:0:0:
185,71,74864,1,8,1:0:0:0:
185,71,75164,6,0,P|217:143|213:191,1,109.99999666214,8|8,0:0|1:0,0:0:0:0:
345,203,75764,2,0,P|298:266|255:287,1,109.99999666214,8|8,1:0|1:0,0:0:0:0:
211,307,76214,2,0,P|291:324|357:372,1,164.99999499321,8|8,0:0|1:0,0:0:0:0:
460,289,76964,2,0,L|451:171,1,109.99999666214,8|8,1:0|1:0,0:0:0:0:
376,70,77564,6,0,L|152:86,1,219.99999332428,12|0,0:0|0:0,0:0:0:0:
46,158,78464,2,0,L|61:266,1,109.99999666214,8|0,0:0|0:0,0:0:0:0:
78,330,78914,1,12,0:0:0:0:
78,330,79064,2,8,L|137:326,2,54.99999833107,8|8|8,0:0|0:0|0:0,0:0:0:0:
144,215,79664,1,2,1:0:0:0:
263,270,79964,6,0,P|282:320|274:374,2,109.99999666214,0|2|0,0:1|1:0|0:1,0:0:0:0:
169,95,81014,2,0,L|341:87,1,164.99999499321,0|0,0:1|0:0,0:0:0:0:
452,29,81764,2,0,P|464:125|448:157,1,109.99999666214,0|2,1:0|1:0,0:0:0:0:
386,244,82364,6,0,L|266:252,2,109.99999666214,0|2|0,0:1|1:0|0:1,0:0:0:0:
205,161,83414,2,0,L|35:155,1,164.99999499321,0|0,0:1|0:0,0:0:0:0:
80,29,84164,2,0,L|194:33,1,109.99999666214,0|2,1:0|1:0,0:0:0:0:
313,79,84764,6,0,B|329:132|329:132|320:188,2,109.99999666214,4|2|0,0:1|1:0|0:1,0:0:0:0:
131,158,85814,2,0,L|143:322,1,164.99999499321,0|0,0:1|0:0,0:0:0:0:
274,331,86564,2,0,B|328:314|328:314|393:319,1,109.99999666214,0|2,1:0|1:0,0:0:0:0:
494,249,87164,5,0,0:1:0:0:
416,142,87464,1,0,0:1:0:0:
320,51,87764,2,0,P|269:66|195:66,1,109.99999666214,2|0,1:0|1:0,0:0:0:0:
86,106,88364,2,8,B|63:63|63:63|67:235,1,219.99999332428,2|0,1:0|0:0,0:0:0:0:
123,355,89264,1,2,0:0:0:0:
256,192,89564,12,0,90764,0:0:0:0:
