osu file format v14

[General]
AudioFilename: audio.mp3
AudioLeadIn: 0
PreviewTime: 31754
Countdown: 1
SampleSet: Soft
StackLeniency: 0.7
Mode: 0
LetterboxInBreaks: 0
WidescreenStoryboard: 1

[Editor]
Bookmarks: 84333
DistanceSpacing: 1.4
BeatDivisor: 3
GridSize: 8
TimelineZoom: 2.3

[Metadata]
Title:Gohan wa Okazu
TitleUnicode:ごはんはおかず
Artist:HO-KAGO TEA TIME
ArtistUnicode:放課後ティータイム
Creator:hypercyte
Version:Hard
Source:けいおん!!
Tags:Rice as a Side Dish Ho-kago tea time II Keion 2 K-On!! 2nd Season Aki Toyosaki Youko Hikasa Satomi Satou Minako Kotobuki Ayana Taketatsu Yui Hirasawa Mio Akiyama Ritsu Tainaka Mugi Kotobuki Azusa Nakano Dashyy-
BeatmapID:1501616
BeatmapSetID:708448

[Difficulty]
HPDrainRate:6
CircleSize:4
OverallDifficulty:6.5
ApproachRate:8
SliderMultiplier:1.4
SliderTickRate:1

[Events]
//Background and Video events
0,0,"1512148220792.jpg",0,0
//Break Periods
//Storyboard Layer 0 (Background)
//Storyboard Layer 1 (Fail)
//Storyboard Layer 2 (Pass)
//Storyboard Layer 3 (Foreground)
//Storyboard Sound Samples

[TimingPoints]
1439,315.789473684211,4,2,1,50,1,0
10912,-100,4,2,1,25,0,0
11386,-100,4,2,1,50,0,0
11544,-111.111111111111,4,2,1,50,0,0
21649,-111.111111111111,4,2,1,50,0,0
30965,-111.111111111111,4,2,1,25,0,0
31596,-111.111111111111,4,2,1,50,0,0
31754,-100,4,2,1,50,0,1
40596,-100,4,2,1,50,0,0
44386,-100,4,2,1,50,0,0
46281,-100,4,2,1,25,0,0
46912,-100,4,2,1,50,0,0
56386,-100,4,2,1,25,0,0
57017,-111.111111111111,4,2,1,50,0,0
73754,-117.647058823529,4,2,1,50,0,0
73991,-111.111111111111,4,2,1,10,0,0
74070,-111.111111111111,4,2,1,50,0,0
74307,-111.111111111111,4,2,1,10,0,0
74386,-111.111111111111,4,2,1,50,0,0
74623,-111.111111111111,4,2,1,10,0,0
74702,-111.111111111111,4,2,1,50,0,0
76596,-111.111111111111,4,2,1,25,0,0
77228,-100,4,2,1,50,0,1
86070,-100,4,2,1,50,0,0
87544,-100,4,2,1,40,0,0
88070,-100,4,2,1,50,0,0

[Colours]
Combo1 : 117,102,251
Combo2 : 254,112,175
Combo3 : 251,222,136
Combo4 : 129,237,156

[HitObjects]
208,160,1439,6,0,L|296:176,1,70,2|0,0:0|0:0,0:0:0:0:
336,94,1754,2,0,L|404:81,1,70,8|0,0:0|0:0,0:0:0:0:
474,151,2070,2,0,L|474:238,1,70,2|2,0:0|0:0,0:0:0:0:
468,319,2386,1,8,0:0:0:0:
378,251,2544,6,0,P|316:226|240:259,1,140,0|0,0:0|0:0,0:0:0:0:
186,323,3017,1,0,0:0:0:0:
131,241,3175,1,0,0:0:0:0:
81,156,3333,2,0,L|97:84,1,70,2|2,0:0|0:0,0:0:0:0:
191,60,3649,2,0,L|175:132,1,70,8|0,0:0|0:0,0:0:0:0:
275,124,3965,6,0,P|309:116|351:125,1,70,2|0,0:0|0:0,0:0:0:0:
409,197,4281,1,8,0:0:0:0:
409,197,4439,1,0,0:0:0:0:
442,105,4596,2,0,L|425:36,1,70,2|2,0:0|0:0,0:0:0:0:
327,33,4912,1,8,0:0:0:0:
275,124,5070,6,0,P|213:144|140:112,1,140,0|2,0:0|0:0,0:0:0:0:
51,87,5544,2,0,L|58:174,1,70,8|0,0:0|0:0,0:0:0:0:
129,223,5860,2,0,L|124:292,1,70,2|0,0:0|0:0,0:0:0:0:
40,344,6175,1,8,0:0:0:0:
37,245,6333,1,0,0:0:0:0:
124,292,6491,6,0,P|169:302|219:284,1,70,0|0,0:0|0:0,0:0:0:0:
258,224,6807,2,0,L|330:235,1,70,8|0,0:0|0:0,0:0:0:0:
379,315,7123,2,0,L|451:304,1,70,2|2,0:0|0:0,0:0:0:0:
483,212,7439,1,8,0:0:0:0:
382,163,7596,6,0,P|362:104|392:33,1,140,0|0,0:0|0:0,0:0:0:0:
460,104,8070,1,2,0:0:0:0:
382,163,8228,1,2,0:0:0:0:
301,219,8386,2,0,P|269:228|222:215,1,70
144,178,8702,2,0,P|110:168|76:175,1,70
112,266,9017,6,0,L|113:359,1,70,2|0,0:0|0:0,0:0:0:0:
19,368,9333,1,8,0:0:0:0:
31,271,9491,1,0,0:0:0:0:
112,335,9649,6,0,P|177:357|253:333,1,140,2|8,0:0|0:0,0:0:0:0:
321,277,10123,2,0,P|256:255|180:279,1,140
96,243,10596,2,0,L|103:173,1,70,12|0,0:0|0:0,0:0:0:0:
74,79,10912,2,0,P|110:71|144:82,1,70,12|0,0:0|0:0,0:0:0:0:
141,80,11149,1,0,0:0:0:0:
141,80,11228,1,0,0:0:0:0:
189,185,11386,1,0,0:0:0:0:
189,185,11544,6,0,L|196:259,1,62.9999980773926,4|0,0:0|0:0,0:0:0:0:
205,335,11860,1,2,0:0:0:0:
273,279,12017,2,0,P|330:261|390:288,1,125.999996154785,0|0,0:0|0:0,0:0:0:0:
473,310,12491,2,0,L|473:229,1,62.9999980773926,2|0,0:0|0:0,0:0:0:0:
448,161,12807,6,0,P|399:138|329:169,1,125.999996154785,2|2,0:0|0:0,0:0:0:0:
255,201,13281,2,0,L|255:71,1,125.999996154785,0|0,0:0|0:0,0:0:0:0:
170,49,13754,2,0,L|170:112,1,62.9999980773926,2|0,0:0|0:0,0:0:0:0:
138,200,14070,6,0,P|200:221|257:197,1,125.999996154785,2|2,0:0|0:0,0:0:0:0:
327,149,14544,1,0,0:0:0:0:
395,93,14702,2,0,P|415:151|394:209,1,125.999996154785,2|2,0:0|0:0,0:0:0:0:
393,209,15175,1,0,0:0:0:0:
238,251,15333,5,0,0:0:0:0:
238,251,15491,1,0,0:0:0:0:
203,332,15649,1,0,0:0:0:0:
203,332,15807,2,0,P|236:338|280:331,1,62.9999980773926
339,287,16123,1,0,0:0:0:0:
339,287,16281,2,0,L|424:299,1,62.9999980773926,2|0,0:0|0:0,0:0:0:0:
451,223,16596,6,0,P|463:164|423:112,1,125.999996154785,2|2,0:0|0:0,0:0:0:0:
350,67,17070,1,0,0:0:0:0:
267,35,17228,2,0,L|278:116,1,62.9999980773926,2|0,0:0|0:0,0:0:0:0:
251,183,17544,2,0,L|240:249,1,62.9999980773926,2|0,0:0|0:0,0:0:0:0:
203,335,17860,6,0,P|149:358|84:338,1,125.999996154785,2|2,0:0|0:0,0:0:0:0:
44,262,18333,1,0,0:0:0:0:
123,224,18491,2,0,L|111:161,1,62.9999980773926,2|0,0:0|0:0,0:0:0:0:
44,106,18807,2,0,L|56:44,1,62.9999980773926,2|0,0:0|0:0,0:0:0:0:
152,74,19123,6,0,P|208:98|286:69,1,125.999996154785,2|2,0:0|0:0,0:0:0:0:
341,32,19596,1,0,0:0:0:0:
421,67,19754,2,0,P|447:128|418:199,1,125.999996154785,2|2,0:0|0:0,0:0:0:0:
383,257,20228,1,0,0:0:0:0:
297,203,20386,5,6,0:0:0:0:
297,203,20544,1,0,0:0:0:0:
363,131,20702,1,0,0:0:0:0:
363,131,20860,2,0,P|334:113|290:103,1,62.9999980773926
227,143,21175,1,0,0:0:0:0:
227,143,21333,2,0,L|165:149,1,62.9999980773926,8|0,0:0|0:0,0:0:0:0:
104,83,21649,6,0,P|79:147|98:211,1,125.999996154785,0|2,0:0|0:0,0:0:0:0:
140,274,22123,1,0,0:0:0:0:
140,274,22281,2,0,P|202:254|260:278,1,125.999996154785,8|2,0:0|0:0,0:0:0:0:
313,358,22754,5,4,0:0:0:0:
388,198,23070,1,2,0:0:0:0:
307,160,23228,2,0,L|317:247,1,62.9999980773926
384,276,23544,2,0,L|376:338,1,62.9999980773926,8|0,0:0|0:0,0:0:0:0:
291,366,23860,2,0,L|298:303,1,62.9999980773926
223,235,24175,6,0,P|161:212|104:231,1,125.999996154785,2|0,0:0|0:0,0:0:0:0:
51,299,24649,1,0,0:0:0:0:
111,363,24807,2,0,P|173:386|230:367,1,125.999996154785,8|0,0:0|0:0,0:0:0:0:
288,287,25281,6,0,L|280:218,1,62.9999980773926,4|0,0:0|0:0,0:0:0:0:
207,186,25596,1,8,0:0:0:0:
207,186,25754,2,0,L|215:117,1,62.9999980773926,0|0,0:0|0:0,0:0:0:0:
288,74,26070,2,0,P|334:56|412:84,1,125.999996154785,2|2,0:0|0:0,0:0:0:0:
214,123,26702,6,0,P|166:133|131:127,1,62.9999980773926,4|0,0:0|0:0,0:0:0:0:
78,83,27017,1,8,0:0:0:0:
53,167,27175,2,0,L|71:233,1,62.9999980773926,0|0,0:0|0:0,0:0:0:0:
140,280,27491,2,0,L|222:273,1,62.9999980773926,8|0,0:0|0:0,0:0:0:0:
266,212,27807,2,0,L|336:222,1,62.9999980773926,8|0,0:0|0:0,0:0:0:0:
343,44,28281,5,8,0:0:0:0:
343,44,28596,1,0,0:0:0:0:
343,44,28912,1,8,0:0:0:0:
204,190,29228,6,0,B|249:208|303:184|303:184|342:202|342:202|398:175|463:203,1,251.999992309571,4|0,0:0|0:0,0:0:0:0:
476,279,30017,1,2,0:0:0:0:
476,279,30175,2,0,L|465:355,1,62.9999980773926,8|0,0:0|0:0,0:0:0:0:
386,302,30491,6,0,L|308:311,1,62.9999980773926,0|0,0:0|0:0,0:0:0:0:
257,368,30807,2,0,L|179:359,1,62.9999980773926,8|8,0:0|0:0,0:0:0:0:
95,337,31123,2,0,L|91:274,1,62.9999980773926
91,274,31360,1,0,0:0:0:0:
91,274,31439,1,0,0:0:0:0:
80,187,31596,1,0,0:0:0:0:
158,127,31754,6,0,L|242:140,1,70,4|0,0:0|0:0,0:0:0:0:
293,210,32070,2,0,L|365:198,1,70,8|0,0:0|0:0,0:0:0:0:
404,109,32386,1,0,0:0:0:0:
306,113,32544,1,0,0:0:0:0:
293,210,32702,2,0,L|311:291,1,70,8|0,0:0|0:0,0:0:0:0:
199,249,33017,6,0,P|122:234|62:278,1,140,0|8,0:0|0:0,0:0:0:0:
19,347,33491,2,0,P|95:361|154:315,1,140,0|0,0:0|0:0,0:0:0:0:
199,249,33965,2,0,L|187:164,1,70,8|0,0:0|0:0,0:0:0:0:
105,127,34281,6,0,L|117:42,1,70,4|0,0:0|0:0,0:0:0:0:
212,54,34596,1,8,0:0:0:0:
271,132,34754,1,0,0:0:0:0:
367,113,34912,2,0,L|357:43,1,70,0|0,0:0|0:0,0:0:0:0:
458,84,35228,2,0,L|448:153,1,70,8|0,0:0|0:0,0:0:0:0:
358,195,35544,6,0,P|325:191|286:213,1,70
203,248,35860,1,8,0:0:0:0:
172,155,36017,2,0,P|176:98|235:36,1,140,0|0,0:0|0:0,0:0:0:0:
328,44,36491,1,8,0:0:0:0:
432,209,36807,6,0,L|417:285,1,70,4|0,0:0|0:0,0:0:0:0:
333,328,37123,2,0,L|319:256,1,70,8|0,0:0|0:0,0:0:0:0:
271,173,37439,2,0,P|235:169|197:187,1,70,0|0,0:0|0:0,0:0:0:0:
150,263,37754,1,8,0:0:0:0:
93,183,37912,1,0,0:0:0:0:
29,275,38070,6,0,P|49:340|118:379,1,140,4|8,0:0|0:0,0:0:0:0:
205,366,38544,2,0,L|280:352,1,70,0|0,0:0|0:0,0:0:0:0:
329,272,38860,2,0,L|404:286,1,70,0|8,0:0|0:0,0:0:0:0:
320,104,39333,6,0,L|303:183,1,70,4|0,0:0|0:0,0:0:0:0:
222,119,39649,2,0,L|207:50,1,70,8|0,0:0|0:0,0:0:0:0:
121,99,39965,2,0,L|104:178,1,70,0|0,0:0|0:0,0:0:0:0:
189,220,40281,2,0,L|206:299,1,70,8|0,0:0|0:0,0:0:0:0:
227,383,40596,5,4,0:0:0:0:
296,310,40754,2,0,P|363:284|432:320,1,140,0|0,0:0|0:0,0:0:0:0:
286,167,41386,1,0,0:0:0:0:
379,138,41544,2,0,L|372:226,1,70,8|0,0:0|0:0,0:0:0:0:
289,260,41860,5,0,0:0:0:0:
201,217,42017,2,0,L|195:147,1,70,0|8,0:0|0:0,0:0:0:0:
106,104,42333,2,0,L|111:173,1,70,0|0,0:0|0:0,0:0:0:0:
116,272,42649,1,0,0:0:0:0:
116,272,42807,2,0,L|170:320,1,70
264,339,43123,6,0,L|343:328,1,70
405,261,43439,1,4,0:0:0:0:
405,261,43596,2,0,L|326:239,1,70,0|0,0:0|0:0,0:0:0:0:
156,164,44070,1,8,0:0:0:0:
363,54,44386,6,0,L|353:143,1,70,0|0,0:0|0:0,0:0:0:0:
287,195,44702,2,0,L|279:125,1,70,8|8,0:0|0:0,0:0:0:0:
206,59,45017,2,0,P|146:32|69:70,1,140,0|8,0:0|0:0,0:0:0:0:
115,250,45649,6,0,L|142:108,1,140,0|8,0:0|0:0,0:0:0:0:
225,307,46281,2,0,L|231:272,3,35,8|8|8|8,0:0|0:0|0:0|0:0,0:0:0:0:
279,266,46596,2,0,L|287:232,3,35,8|8|8|8,0:0|0:0|0:0|0:0,0:0:0:0:
256,192,46912,6,0,L|272:110,1,70,2|0,0:0|0:0,0:0:0:0:
367,133,47228,2,0,L|353:64,1,70,8|0,0:0|0:0,0:0:0:0:
260,33,47544,2,0,P|227:41|183:26,1,70,2|2,0:0|0:0,0:0:0:0:
95,18,47860,1,8,0:0:0:0:
24,85,48017,6,0,L|33:247,1,140,0|0,0:0|0:0,0:0:0:0:
126,197,48491,1,8,0:0:0:0:
135,100,48649,1,8,0:0:0:0:
214,157,48807,2,0,P|220:212|208:240,1,70,2|2,0:0|0:0,0:0:0:0:
137,285,49123,2,0,P|131:340|143:368,1,70,8|0,0:0|0:0,0:0:0:0:
243,321,49439,6,0,L|312:308,1,70,0|0,0:0|0:0,0:0:0:0:
361,223,49754,2,0,L|430:236,1,70,8|0,0:0|0:0,0:0:0:0:
401,141,50070,2,0,P|336:133|274:186,1,140,0|8,0:0|0:0,0:0:0:0:
223,256,50544,6,0,P|180:198|208:110,1,140,0|0,0:0|0:0,0:0:0:0:
279,175,51017,2,0,P|322:233|294:321,1,140,8|0,0:0|0:0,0:0:0:0:
117,313,51649,1,8,0:0:0:0:
99,117,51965,6,0,L|182:128,1,70,6|0,0:0|0:0,0:0:0:0:
225,206,52281,2,0,L|294:196,1,70,8|2,0:0|0:0,0:0:0:0:
389,173,52596,2,0,L|378:256,1,70,2|2,0:0|0:0,0:0:0:0:
295,294,52912,1,8,0:0:0:0:
225,206,53070,6,0,P|247:142|312:127,1,140,0|0,0:0|0:0,0:0:0:0:
389,173,53544,2,0,L|389:87,1,70,8|8,0:0|0:0,0:0:0:0:
307,47,53860,2,0,P|276:40|231:53,1,70,0|0,0:0|0:0,0:0:0:0:
158,103,54175,2,0,P|127:110|82:97,1,70,8|0,0:0|0:0,0:0:0:0:
35,183,54491,6,0,L|48:252,1,70,0|0,0:0|0:0,0:0:0:0:
133,301,54807,2,0,L|118:374,1,70,8|0,0:0|0:0,0:0:0:0:
215,341,55123,2,0,P|223:276|173:215,1,140,0|8,0:0|0:0,0:0:0:0:
100,163,55596,6,0,P|158:120|246:148,1,140,0|0,0:0|0:0,0:0:0:0:
180,218,56070,2,0,P|122:261|34:233,1,140,8|8,0:0|0:0,0:0:0:0:
29,158,56544,1,8,0:0:0:0:
29,158,56623,1,8,0:0:0:0:
29,158,56702,2,0,L|33:109,3,35,8|8|8|8,0:0|0:0|0:0|0:0,0:0:0:0:
39,79,57017,6,0,L|50:6,1,62.9999980773926,12|0,0:0|0:0,0:0:0:0:
135,36,57333,1,0,0:0:0:0:
128,123,57491,2,0,P|198:143|263:123,1,125.999996154785,0|0,0:0|0:0,0:0:0:0:
332,102,57965,2,0,L|325:185,1,62.9999980773926,2|0,0:0|0:0,0:0:0:0:
380,235,58281,6,0,P|331:258|261:227,1,125.999996154785,2|2,0:0|0:0,0:0:0:0:
187,195,58755,2,0,L|187:325,1,125.999996154785,0|0,0:0|0:0,0:0:0:0:
102,347,59228,2,0,L|102:284,1,62.9999980773926,2|0,0:0|0:0,0:0:0:0:
70,196,59544,6,0,P|132:175|189:199,1,125.999996154785,2|2,0:0|0:0,0:0:0:0:
259,247,60018,1,0,0:0:0:0:
327,303,60176,2,0,P|347:245|326:187,1,125.999996154785,2|2,0:0|0:0,0:0:0:0:
258,132,60649,1,0,0:0:0:0:
186,196,60807,5,2,0:0:0:0:
186,196,60965,1,0,0:0:0:0:
145,104,61123,1,2,0:0:0:0:
145,104,61281,1,2,0:0:0:0:
218,55,61439,2,0,L|303:67,1,62.9999980773926,0|2,0:0|0:0,0:0:0:0:
326,140,61755,2,0,L|411:128,1,62.9999980773926,2|0,0:0|0:0,0:0:0:0:
459,182,62070,6,0,P|483:236|456:296,1,125.999996154785,2|2,0:0|0:0,0:0:0:0:
379,333,62544,1,0,0:0:0:0:
298,297,62702,2,0,L|309:215,1,62.9999980773926,2|0,0:0|0:0,0:0:0:0:
221,211,63017,2,0,L|210:129,1,62.9999980773926,2|0,0:0|0:0,0:0:0:0:
170,70,63333,6,0,P|112:59|53:93,1,125.999996154785,2|2,0:0|0:0,0:0:0:0:
19,172,63807,1,0,0:0:0:0:
107,168,63965,2,0,L|99:241,1,62.9999980773926,2|0,0:0|0:0,0:0:0:0:
22,274,64281,2,0,L|30:347,1,62.9999980773926,2|0,0:0|0:0,0:0:0:0:
116,322,64597,6,0,P|165:301|235:328,1,125.999996154785,2|2,0:0|0:0,0:0:0:0:
309,364,65070,1,0,0:0:0:0:
378,309,65228,2,0,P|389:243|345:181,1,125.999996154785,2|2,0:0|0:0,0:0:0:0:
293,137,65702,1,0,0:0:0:0:
217,204,65860,5,2,0:0:0:0:
217,204,66018,1,0,0:0:0:0:
140,138,66176,1,0,0:0:0:0:
140,138,66334,1,0,0:0:0:0:
327,65,66649,5,0,0:0:0:0:
327,65,66807,2,0,L|312:139,1,62.9999980773926,8|0,0:0|0:0,0:0:0:0:
291,225,67123,6,0,P|355:222|407:171,1,125.999996154785,6|0,0:0|0:0,0:0:0:0:
314,126,67596,1,0,0:0:0:0:
314,126,67754,2,0,P|250:129|198:180,1,125.999996154785,0|8,0:0|0:0,0:0:0:0:
177,265,68228,1,12,0:0:0:0:
116,72,68544,5,8,0:0:0:0:
199,44,68702,2,0,L|271:53,1,62.9999980773926,8|0,0:0|0:0,0:0:0:0:
314,126,69017,2,0,L|376:118,1,62.9999980773926,8|0,0:0|0:0,0:0:0:0:
454,77,69333,2,0,P|463:111|460:156,1,62.9999980773926,0|0,0:0|0:0,0:0:0:0:
426,233,69649,6,0,P|362:250|285:219,1,125.999996154785,4|0,0:0|0:0,0:0:0:0:
230,187,70123,1,0,0:0:0:0:
159,239,70281,2,0,P|137:292|160:371,1,125.999996154785,8|8,0:0|0:0,0:0:0:0:
220,303,70754,6,0,L|289:314,1,62.9999980773926,4|0,0:0|0:0,0:0:0:0:
305,234,71070,1,8,0:0:0:0:
305,234,71228,2,0,L|367:224,1,62.9999980773926,0|0,0:0|0:0,0:0:0:0:
446,184,71544,2,0,P|458:244|419:299,1,125.999996154785,0|0,0:0|0:0,0:0:0:0:
225,215,72175,6,0,P|215:167|221:132,1,62.9999980773926,4|0,0:0|0:0,0:0:0:0:
265,79,72490,1,8,0:0:0:0:
181,54,72649,2,0,L|115:72,1,62.9999980773926
137,157,72965,2,0,L|144:239,1,62.9999980773926,8|0,0:0|0:0,0:0:0:0:
75,278,73281,2,0,L|66:340,1,62.9999980773926,8|0,0:0|0:0,0:0:0:0:
223,283,73754,5,8,0:0:0:0:
223,283,74070,1,0,0:0:0:0:
223,283,74386,1,8,0:0:0:0:
153,120,74702,6,0,B|211:82|270:109|270:109|344:140|416:93,1,251.999992309571,4|0,0:0|0:0,0:0:0:0:
223,185,75649,1,8,0:0:0:0:
387,42,75965,6,0,L|396:120,1,62.9999980773926,0|0,0:0|0:0,0:0:0:0:
453,171,76281,2,0,L|444:249,1,62.9999980773926,8|0,0:0|0:0,0:0:0:0:
422,333,76597,1,0,0:0:0:0:
362,269,76754,2,0,L|360:220,2,31.4999990386963
307,339,77070,1,8,0:0:0:0:
214,306,77228,6,0,L|227:222,1,70,2|0,0:0|0:0,0:0:0:0:
300,173,77544,2,0,L|288:101,1,70,8|0,0:0|0:0,0:0:0:0:
207,47,77860,1,0,0:0:0:0:
116,85,78018,1,0,0:0:0:0:
141,179,78176,2,0,L|209:146,1,70,8|0,0:0|0:0,0:0:0:0:
288,103,78491,6,0,P|365:88|425:132,1,140,4|8,0:0|0:0,0:0:0:0:
470,191,78965,2,0,P|393:206|333:162,1,140,4|8,0:0|0:0,0:0:0:0:
265,202,79439,2,0,L|255:271,1,70,8|0,0:0|0:0,0:0:0:0:
161,302,79755,6,0,L|173:217,1,70,4|0,0:0|0:0,0:0:0:0:
193,137,80070,1,8,0:0:0:0:
265,202,80228,1,0,0:0:0:0:
318,119,80386,2,0,L|308:49,1,70,4|0,0:0|0:0,0:0:0:0:
401,82,80702,2,0,L|391:151,1,70,8|0,0:0|0:0,0:0:0:0:
343,236,81017,6,0,P|337:270|336:328,1,70
236,318,81334,1,8,0:0:0:0:
161,256,81491,2,0,P|141:188|173:118,1,140,8|8,0:0|0:0,0:0:0:0:
253,83,81965,1,8,0:0:0:0:
405,206,82281,6,0,L|329:191,1,70,4|0,0:0|0:0,0:0:0:0:
332,290,82596,2,0,L|263:303,1,70,8|0,0:0|0:0,0:0:0:0:
239,207,82912,2,0,L|163:192,1,70,4|0,0:0|0:0,0:0:0:0:
122,280,83228,1,8,0:0:0:0:
79,191,83386,1,0,0:0:0:0:
140,114,83544,6,0,P|211:92|276:124,1,140,4|8,0:0|0:0,0:0:0:0:
316,203,84018,2,0,L|330:278,1,70,8|0,0:0|0:0,0:0:0:0:
231,286,84333,2,0,L|218:354,1,70,0|8,0:0|0:0,0:0:0:0:
110,190,84807,6,0,P|142:156|181:143,1,70,4|0,0:0|0:0,0:0:0:0:
258,172,85123,2,0,P|288:155|310:128,1,70,8|0,0:0|0:0,0:0:0:0:
382,60,85439,2,0,L|401:143,1,70,4|0,0:0|0:0,0:0:0:0:
345,211,85754,2,0,L|326:294,1,70,8|0,0:0|0:0,0:0:0:0:
428,281,86070,1,4,0:0:0:0:
370,360,86228,2,0,P|298:364|245:317,1,140,0|8,0:0|0:0,0:0:0:0:
184,247,86702,2,0,L|159:312,1,70
90,242,87017,1,8,0:0:0:0:
224,99,87333,6,0,L|219:171,2,46.6666666666667,2|0|8,0:0|0:0|0:0,0:0:0:0:
248,160,87649,6,0,L|255:231,2,46.6666666666667,2|0|8,0:0|0:0|0:0,0:0:0:0:
293,207,87965,6,0,L|312:276,2,46.6666666666667,2|0|8,0:0|0:0|0:0,0:0:0:0:
345,246,88281,6,0,L|376:310,2,46.6666666666667,2|0|8,0:0|0:0|0:0,0:0:0:0:
395,286,88596,5,0,0:0:0:0:
