osu file format v14

[General]
AudioFilename: audio.mp3
AudioLeadIn: 0
PreviewTime: 31754
Countdown: 1
SampleSet: Soft
StackLeniency: 0.7
Mode: 0
LetterboxInBreaks: 0
WidescreenStoryboard: 1

[Editor]
Bookmarks: 84333
DistanceSpacing: 1
BeatDivisor: 4
GridSize: 8
TimelineZoom: 2.3

[Metadata]
Title:Gohan wa Okazu
TitleUnicode:ごはんはおかず
Artist:HO-KAGO TEA TIME
ArtistUnicode:放課後ティータイム
Creator:hypercyte
Version:Easy
Source:けいおん!!
Tags:Rice as a Side Dish Ho-kago tea time II Keion 2 K-On!! 2nd Season Aki Toyosaki Youko Hikasa Satomi Satou Minako Kotobuki Ayana Taketatsu Yui Hirasawa Mio Akiyama Ritsu Tainaka Mugi Kotobuki Azusa Nakano Dashyy-
BeatmapID:1502525
BeatmapSetID:708448

[Difficulty]
HPDrainRate:2
CircleSize:3
OverallDifficulty:2
ApproachRate:3
SliderMultiplier:0.9
SliderTickRate:1

[Events]
//Background and Video events
0,0,"1512148220792.jpg",0,0
//Break Periods
//Storyboard Layer 0 (Background)
//Storyboard Layer 1 (Fail)
//Storyboard Layer 2 (Pass)
//Storyboard Layer 3 (Foreground)
//Storyboard Sound Samples

[TimingPoints]
1439,315.789473684211,4,2,1,50,1,0
10912,-100,4,2,1,25,0,0
11386,-100,4,2,1,50,0,0
11544,-100,4,2,1,50,0,0
21649,-100,4,2,1,50,0,0
30965,-100,4,2,1,25,0,0
31596,-100,4,2,1,50,0,0
31754,-100,4,2,1,50,0,1
40596,-100,4,2,1,50,0,0
44386,-100,4,2,1,50,0,0
46281,-100,4,2,1,25,0,0
46912,-100,4,2,1,50,0,0
56386,-100,4,2,1,25,0,0
57017,-100,4,2,1,50,0,0
73754,-100,4,2,1,50,0,0
73991,-100,4,2,1,10,0,0
74070,-100,4,2,1,50,0,0
74307,-100,4,2,1,10,0,0
74386,-100,4,2,1,50,0,0
74623,-100,4,2,1,10,0,0
74702,-100,4,2,1,50,0,0
76596,-100,4,2,1,25,0,0
77228,-100,4,2,1,50,0,1
86070,-100,4,2,1,50,0,0
87544,-100,4,2,1,40,0,0
88070,-100,4,2,1,50,0,0

[Colours]
Combo1 : 117,102,251
Combo2 : 254,112,175
Combo3 : 251,222,136
Combo4 : 129,237,156

[HitObjects]
145,111,1439,6,0,P|190:99|242:119,2,90,2|8|2,0:0|0:0|0:0,0:0:0:0:
82,175,2386,1,0,0:0:0:0:
154,228,2702,2,0,L|148:322,1,90
237,330,3333,2,0,P|280:321|331:339,1,90
329,244,3965,6,0,L|327:146,1,90,2|8,0:0|0:0,0:0:0:0:
303,66,4596,1,0,0:0:0:0:
236,126,4912,2,0,P|192:136|149:126,1,90,8|2,0:0|0:0,0:0:0:0:
132,37,5544,2,0,P|90:27|37:42,1,90,8|2,0:0|0:0,0:0:0:0:
35,127,6175,1,8,0:0:0:0:
53,215,6491,6,0,L|151:209,1,90,0|8,0:0|0:0,0:0:0:0:
233,204,7123,1,2,0:0:0:0:
322,211,7439,6,0,L|411:216,1,90,0|8,0:0|0:0,0:0:0:0:
429,304,8070,2,0,L|331:298,1,90,0|8,0:0|0:0,0:0:0:0:
249,292,8702,1,8,0:0:0:0:
175,345,9017,6,0,P|143:368|77:366,2,90,2|8|2,0:0|0:0|0:0,0:0:0:0:
109,282,9965,1,8,0:0:0:0:
63,204,10281,2,0,L|77:98,1,90,0|12,0:0|0:0,0:0:0:0:
164,123,10912,2,0,L|178:229,1,90,8|8,0:0|0:0,0:0:0:0:
253,166,11544,6,0,P|311:148|383:168,2,135,4|0|2,0:0|0:0|0:0,0:0:0:0:
183,225,12807,2,0,P|161:163|188:103,2,135,2|0|2,0:0|0:0|0:0,0:0:0:0:
259,274,14070,6,0,L|356:287,1,90,2|2,0:0|0:0,0:0:0:0:
388,204,14702,2,0,L|485:191,1,90,2|2,0:0|0:0,0:0:0:0:
471,102,15333,2,0,B|407:80|407:80|338:98,1,135,2|0,0:0|0:0,0:0:0:0:
221,158,16281,1,2,0:0:0:0:
134,180,16596,6,0,P|143:117|207:69,2,135,2|0|2,0:0|0:0|0:0,0:0:0:0:
134,270,17860,2,0,P|91:320|26:330,2,135,2|0|2,0:0|0:0|0:0,0:0:0:0:
212,225,19123,6,0,P|262:268|272:333,2,135,2|0|2,0:0|0:0|0:0,0:0:0:0:
279,165,20386,2,0,B|343:190|343:190|416:165,1,135,6|0,0:0|0:0,0:0:0:0:
417,33,21333,1,8,0:0:0:0:
335,70,21649,6,0,B|250:98|250:48|142:75,2,180,0|8|0,0:0|0:0|0:0,0:0:0:0:
394,138,23228,2,0,L|416:228,2,90,0|8|0,0:0|0:0|0:0,0:0:0:0:
315,181,24175,6,0,B|246:182|246:182|204:168|204:168|123:169,2,180,2|8|0,0:0|0:0|0:0,0:0:0:0:
288,267,25754,2,0,L|290:356,2,90,0|2|2,0:0|0:0|0:0,0:0:0:0:
376,285,26702,6,0,P|436:307|509:277,1,135,4|0,0:0|0:0,0:0:0:0:
437,220,27491,2,0,B|435:175|435:175|456:122,1,90,8|8,0:0|0:0,0:0:0:0:
319,137,28281,2,0,P|259:147|230:139,1,90,8|0,0:0|0:0,0:0:0:0:
150,99,28912,1,8,0:0:0:0:
69,58,29228,6,0,B|35:151|114:145|85:239,1,180,4|0,0:0|0:0,0:0:0:0:
215,357,30491,2,0,L|306:337,1,90,0|8,0:0|0:0,0:0:0:0:
358,266,31123,2,0,L|445:285,1,90,8|8,0:0|0:0,0:0:0:0:
458,195,31754,6,0,P|470:148|449:97,1,90,4|8,0:0|0:0,0:0:0:0:
378,152,32386,2,0,P|335:161|290:147,1,90,0|8,0:0|0:0,0:0:0:0:
281,58,33017,2,0,P|223:84|201:156,2,135,0|0|8,0:0|0:0|0:0,0:0:0:0:
291,147,34281,6,0,L|299:242,1,90,4|8,0:0|0:0,0:0:0:0:
222,284,34912,2,0,L|214:379,1,90,0|8,0:0|0:0,0:0:0:0:
304,370,35544,2,0,B|392:351|392:351|446:373,1,135,4|0,0:0|0:0,0:0:0:0:
453,280,36333,1,0,0:0:0:0:
360,182,36807,6,0,L|369:92,1,90,4|8,0:0|0:0,0:0:0:0:
280,81,37439,2,0,L|270:170,1,90,0|8,0:0|0:0,0:0:0:0:
211,238,38070,2,0,P|150:263|80:234,1,135,4|0,0:0|0:0,0:0:0:0:
50,158,38860,1,0,0:0:0:0:
144,61,39333,6,0,L|167:151,1,90,4|8,0:0|0:0,0:0:0:0:
256,151,39965,2,0,L|278:63,1,90,0|8,0:0|0:0,0:0:0:0:
368,60,40596,2,0,B|395:103|395:103|376:142|377:185,2,135,4|0|8,0:0|0:0|0:0,0:0:0:0:
278,63,41860,6,0,L|141:70,1,135
125,294,43123,6,0,L|259:300,1,135
390,338,44070,1,8,0:0:0:0:
436,261,44386,6,0,L|419:165,1,90,0|8,0:0|0:0,0:0:0:0:
338,134,45017,2,0,L|355:38,1,90,0|8,0:0|0:0,0:0:0:0:
263,55,45649,2,0,P|220:66|175:52,1,90,0|8,0:0|0:0,0:0:0:0:
90,79,46281,2,0,B|79:125|79:125|89:170,1,90,10|8,0:0|0:0,0:0:0:0:
149,232,46912,6,0,L|138:328,2,90,2|8|2,0:0|0:0|0:0,0:0:0:0:
229,271,47859,2,0,P|274:282|318:269,1,90,8|2,0:0|0:0,0:0:0:0:
369,198,48491,2,0,P|404:262|355:351,1,180,8|8,0:0|0:0,0:0:0:0:
269,368,49439,6,0,L|173:347,1,90,0|8,0:0|0:0,0:0:0:0:
118,283,50070,2,0,L|30:302,2,90,0|8|0,0:0|0:0|0:0,0:0:0:0:
188,227,51017,2,0,P|198:185|183:132,1,90,8|0,0:0|0:0,0:0:0:0:
136,66,51648,1,8,0:0:0:0:
224,49,51965,6,0,L|320:60,2,90,6|8|2,0:0|0:0|0:0,0:0:0:0:
136,66,52912,2,0,P|92:83|60:118,1,90,8|2,0:0|0:0,0:0:0:0:
143,154,53544,2,0,P|236:166|290:242,1,180,8|8,0:0|0:0,0:0:0:0:
265,317,54492,6,0,L|169:296,1,90,0|8,0:0|0:0,0:0:0:0:
107,240,55123,2,0,L|19:259,2,90,0|8|0,0:0|0:0|0:0,0:0:0:0:
184,194,56070,2,0,P|194:152|179:99,1,90,8|8,0:0|0:0,0:0:0:0:
118,45,56701,1,8,0:0:0:0:
204,19,57017,6,0,L|302:33,1,90,12|0,0:0|0:0,0:0:0:0:
356,95,57649,2,0,P|369:139|350:190,1,90,2|2,0:0|0:0,0:0:0:0:
309,256,58281,2,0,P|364:269|436:226,2,135,2|0|2,0:0|0:0|0:0,0:0:0:0:
245,192,59544,6,0,L|147:196,1,90,2|2,0:0|0:0,0:0:0:0:
72,160,60175,2,0,P|67:204|78:247,1,90,2|2,0:0|0:0,0:0:0:0:
127,323,60807,2,0,B|188:347|188:347|256:316,1,135,2|2,0:0|0:0,0:0:0:0:
315,200,61754,1,2,0:0:0:0:
268,123,62070,6,0,P|205:103|133:132,2,135,2|0|2,0:0|0:0|0:0,0:0:0:0:
208,190,63333,6,0,P|145:211|81:191,2,135,2|0|2,0:0|0:0|0:0,0:0:0:0:
293,161,64596,6,0,L|298:255,1,90,2|2,0:0|0:0,0:0:0:0:
338,331,65228,2,0,P|295:341|249:326,1,90,2|2,0:0|0:0,0:0:0:0:
163,344,65860,2,0,B|98:325|98:325|25:349,1,135,2|0,0:0|0:0,0:0:0:0:
28,211,66807,1,8,0:0:0:0:
117,200,67123,6,0,P|201:168|296:202,2,180,6|0|0,0:0|0:0|0:0,0:0:0:0:
27,204,68702,2,0,L|22:101,2,90,8|8|0,0:0|0:0|0:0,0:0:0:0:
66,284,69649,6,0,B|154:316|156:258|253:297,2,180,4|8|0,0:0|0:0|0:0,0:0:0:0:
26,202,71228,2,0,L|31:99,2,90
116,204,72175,6,0,P|176:182|249:212,1,135,4|0,0:0|0:0,0:0:0:0:
317,251,72965,2,0,L|335:147,1,90,8|8,0:0|0:0,0:0:0:0:
284,36,73754,2,0,P|224:26|195:34,1,90,8|0,0:0|0:0,0:0:0:0:
151,111,74385,1,8,0:0:0:0:
68,75,74701,6,0,B|34:168|113:162|84:256,1,180,4|0,0:0|0:0,0:0:0:0:
254,182,75965,2,0,L|345:202,1,90,0|8,0:0|0:0,0:0:0:0:
366,288,76597,2,0,L|453:269,1,90,0|8,0:0|0:0,0:0:0:0:
448,178,77228,6,0,P|460:131|439:80,1,90,2|8,0:0|0:0,0:0:0:0:
366,52,77860,2,0,P|323:43|278:57,1,90,0|8,0:0|0:0,0:0:0:0:
188,55,78491,2,0,P|209:117|269:145,2,135,4|8|8,0:0|0:0|0:0,0:0:0:0:
98,46,79755,6,0,L|106:141,1,90,4|8,0:0|0:0,0:0:0:0:
164,203,80386,2,0,L|156:298,1,90,4|8,0:0|0:0,0:0:0:0:
225,350,81018,2,0,B|313:369|313:369|367:347,1,135,4|8,0:0|0:0,0:0:0:0:
424,294,81807,1,8,0:0:0:0:
458,163,82281,6,0,L|447:63,1,90,4|8,0:0|0:0,0:0:0:0:
365,109,82913,2,0,L|355:198,1,90,4|0,0:0|0:0,0:0:0:0:
301,270,83544,2,0,P|240:295|170:266,1,135,4|8,0:0|0:0,0:0:0:0:
106,216,84334,1,0,0:0:0:0:
173,99,84807,6,0,L|263:122,1,90,4|8,0:0|0:0,0:0:0:0:
327,181,85439,2,0,L|417:158,1,90,4|8,0:0|0:0,0:0:0:0:
469,230,86070,2,0,P|455:296|403:337,2,135,4|8|0,0:0|0:0|0:0,0:0:0:0:
256,192,87333,12,2,88596,0:0:0:0:
