osu file format v14

[General]
AudioFilename: audio.mp3
AudioLeadIn: 0
PreviewTime: 31754
Countdown: 1
SampleSet: Soft
StackLeniency: 0.7
Mode: 0
LetterboxInBreaks: 0
WidescreenStoryboard: 1

[Editor]
DistanceSpacing: 0.1
BeatDivisor: 4
GridSize: 8
TimelineZoom: 2.3

[Metadata]
Title:Gohan wa Okazu
TitleUnicode:ごはんはおかず
Artist:HO-KAGO TEA TIME
ArtistUnicode:放課後ティータイム
Creator:hypercyte
Version:Dash's Insane
Source:けいおん!!
Tags:Rice as a Side Dish Ho-kago tea time II Keion 2 K-On!! 2nd Season Aki Toyosaki Youko Hikasa Satomi Satou Minako Kotobuki Ayana Taketatsu Yui Hirasawa Mio Akiyama Ritsu Tainaka Mugi Kotobuki Azusa Nakano Dashyy-
BeatmapID:1501681
BeatmapSetID:708448

[Difficulty]
HPDrainRate:7
CircleSize:4
OverallDifficulty:8
ApproachRate:9
SliderMultiplier:1.4
SliderTickRate:1

[Events]
//Background and Video events
0,0,"1512148220792.jpg",0,0
//Break Periods
//Storyboard Layer 0 (Background)
//Storyboard Layer 1 (Fail)
//Storyboard Layer 2 (Pass)
//Storyboard Layer 3 (Foreground)
//Storyboard Sound Samples

[TimingPoints]
1439,315.789473684211,4,2,1,50,1,0
10912,-100,4,2,1,25,0,0
11386,-100,4,2,1,50,0,0
11544,-125,4,2,1,50,0,0
16281,-125,4,2,1,50,0,0
16596,-125,4,2,1,50,0,0
21570,-125,4,2,1,50,0,0
21649,-111.111111111111,4,2,1,50,0,0
30965,-111.111111111111,4,2,1,25,0,0
31596,-111.111111111111,4,2,1,50,0,0
31754,-95.2380952380952,4,2,1,50,0,1
40596,-100,4,2,1,50,0,0
44386,-100,4,2,1,50,0,0
46281,-100,4,2,1,25,0,0
46912,-100,4,2,1,50,0,0
56386,-100,4,2,1,25,0,0
57017,-111.111111111111,4,2,1,50,0,0
67044,-111.111111111111,4,2,1,50,0,0
67123,-111.111111111111,4,2,1,50,0,0
73754,-125,4,2,1,50,0,0
73991,-125,4,2,1,10,0,0
74070,-125,4,2,1,50,0,0
74307,-125,4,2,1,10,0,0
74386,-125,4,2,1,50,0,0
74623,-125,4,2,1,10,0,0
74702,-125,4,2,1,50,0,0
76596,-125,4,2,1,25,0,0
77228,-100,4,2,1,50,0,1
86070,-100,4,2,1,50,0,0
87544,-100,4,2,1,40,0,0
88070,-100,4,2,1,50,0,0

[Colours]
Combo1 : 117,102,251
Combo2 : 254,112,175
Combo3 : 251,222,136
Combo4 : 129,237,156

[HitObjects]
108,168,175,5,4,0:0:0:0:
112,181,491,1,4,0:0:0:0:
115,194,807,1,4,0:0:0:0:
119,207,1123,1,4,0:0:0:0:
124,224,1439,6,0,B|160:209|160:209|199:205,1,70,2|0,0:0|0:0,0:0:0:0:
290,246,1754,1,8,0:0:0:0:
318,137,1912,1,0,0:0:0:0:
412,217,2070,2,0,L|481:220,2,70,2|2|8,0:0|0:0|0:0,0:0:0:0:
331,141,2544,6,0,B|314:100|314:100|291:-1,1,140
400,68,3017,1,8,0:0:0:0:
228,43,3175,1,8,0:0:0:0:
403,75,3333,2,0,P|439:81|479:100,2,70,2|2|8,0:0|0:0|0:0,0:0:0:0:
334,144,3807,1,0,0:0:0:0:
185,111,3965,6,0,L|21:120,1,140,2|8,0:0|0:0,0:0:0:0:
228,38,4439,1,0,0:0:0:0:
147,225,4596,2,0,B|82:201|82:201|-7:185,1,140,2|8,0:0|0:0,0:0:0:0:
185,299,5070,6,0,P|225:249|194:162,1,140,0|2,0:0|0:0,0:0:0:0:
94,279,5544,2,0,L|101:359,1,70,8|0,0:0|0:0,0:0:0:0:
284,304,5860,2,0,P|298:259|301:221,1,70,2|0,0:0|0:0,0:0:0:0:
299,98,6175,1,8,0:0:0:0:
305,98,6491,6,0,B|344:104|344:104|386:115,1,70,0|0,0:0|0:0,0:0:0:0:
467,144,6807,1,8,0:0:0:0:
432,42,6965,1,0,0:0:0:0:
344,183,7123,2,0,L|337:266,2,70,2|2|8,0:0|0:0|0:0,0:0:0:0:
232,126,7596,6,0,B|164:134|164:134|86:159,1,140,0|0,0:0|0:0,0:0:0:0:
204,210,8070,1,2,0:0:0:0:
155,46,8228,1,2,0:0:0:0:
198,223,8386,2,0,L|272:231,2,70,0|0|8,0:0|0:0|0:0,0:0:0:0:
125,290,8860,1,0,0:0:0:0:
294,325,9017,6,0,L|448:310,1,140,2|8,0:0|0:0,0:0:0:0:
217,377,9491,1,0,0:0:0:0:
378,221,9649,2,0,B|453:231|453:231|522:260,1,140,2|8,0:0|0:0,0:0:0:0:
299,265,10123,6,0,P|281:192|337:132,1,140,0|0,0:0|0:0,0:0:0:0:
492,106,10596,2,0,P|451:127|416:131,1,70,12|0,0:0|0:0,0:0:0:0:
331,51,10912,1,8,0:0:0:0:
309,41,10990,1,8,0:0:0:0:
287,35,11069,1,8,0:0:0:0:
264,33,11148,1,8,0:0:0:0:
243,38,11228,2,0,L|190:35,3,35,8|0|8|0,0:0|0:0|0:0|0:0,0:0:0:0:
175,41,11544,6,0,P|186:76|188:117,1,56,4|0,0:0|0:0,0:0:0:0:
175,184,11860,1,2,0:0:0:0:
86,97,12017,2,0,B|63:157|63:157|54:215,1,112,0|0,0:0|0:0,0:0:0:0:
139,324,12491,2,0,L|134:253,1,56,2|0,0:0|0:0,0:0:0:0:
230,368,12807,6,0,P|234:326|247:296,1,56,2|0,0:0|0:0,0:0:0:0:
270,231,13123,1,2,0:0:0:0:
377,362,13281,2,0,B|384:313|384:313|379:225,1,112,0|0,0:0|0:0,0:0:0:0:
341,102,13754,2,0,L|332:172,1,56,2|0,0:0|0:0,0:0:0:0:
268,40,14070,6,0,B|234:29|234:29|195:23,1,56,2|0,0:0|0:0,0:0:0:0:
127,130,14386,1,2,0:0:0:0:
208,103,14544,1,0,0:0:0:0:
105,34,14702,2,0,L|38:28,1,56,2|0,0:0|0:0,0:0:0:0:
42,119,15017,2,0,P|13:130|-20:148,1,56,2|0,0:0|0:0,0:0:0:0:
180,205,15333,5,2,0:0:0:0:
82,238,15491,1,0,0:0:0:0:
178,289,15649,1,2,0:0:0:0:
61,354,15807,2,0,L|-15:347,1,56,0|0,0:0|0:0,0:0:0:0:
428,356,16596,6,0,P|423:324|436:278,1,56,2|0,0:0|0:0,0:0:0:0:
449,216,16912,1,2,0:0:0:0:
321,313,17070,2,0,P|338:269|347:199,1,112,0|0,0:0|0:0,0:0:0:0:
335,56,17544,2,0,L|345:119,1,56,2|0,0:0|0:0,0:0:0:0:
260,10,17860,6,0,P|245:50|243:84,1,56,2|0,0:0|0:0,0:0:0:0:
251,142,18175,1,2,0:0:0:0:
120,20,18333,2,0,B|150:75|162:149,1,112,0|0,0:0|0:0,0:0:0:0:
86,269,18807,2,0,L|92:199,1,56,2|0,0:0|0:0,0:0:0:0:
163,323,19123,6,0,P|194:308|235:308,1,56,2|0,0:0|0:0,0:0:0:0:
291,339,19439,1,2,0:0:0:0:
319,251,19596,1,0,0:0:0:0:
400,335,19754,2,0,L|479:337,1,56,2|0,0:0|0:0,0:0:0:0:
419,242,20070,2,0,P|452:228|483:209,1,56,2|0,0:0|0:0,0:0:0:0:
325,147,20386,5,6,0:0:0:0:
410,162,20544,1,0,0:0:0:0:
341,66,20702,1,0,0:0:0:0:
456,42,20860,2,0,L|530:50,1,56
411,143,21175,1,0,0:0:0:0:
270,31,21333,2,0,P|225:33|172:46,1,84,8|0,0:0|0:0,0:0:0:0:
161,57,21649,6,0,P|182:94|201:181,1,125.999996154785,0|2,0:0|0:0,0:0:0:0:
60,148,22123,1,0,0:0:0:0:
150,273,22281,2,0,L|286:286,1,125.999996154785,8|2,0:0|0:0,0:0:0:0:
365,217,22754,1,4,0:0:0:0:
365,217,23070,5,2,0:0:0:0:
416,297,23228,2,0,L|502:303,1,62.9999980773926,0|0,0:0|0:0,0:0:0:0:
345,338,23544,2,0,P|310:351|274:355,1,62.9999980773926,8|0,0:0|0:0,0:0:0:0:
207,233,23860,2,0,B|226:261|226:261|236:297,1,62.9999980773926,0|0,0:0|0:0,0:0:0:0:
74,357,24175,6,0,L|88:214,1,125.999996154785,2|0,0:0|0:0,0:0:0:0:
161,315,24649,1,0,0:0:0:0:
0,222,24807,2,0,B|27:171|27:171|85:113,1,125.999996154785,8|0,0:0|0:0,0:0:0:0:
164,74,25281,1,4,0:0:0:0:
164,74,25596,5,8,0:0:0:0:
224,141,25754,2,0,P|263:141|297:131,1,62.9999980773926,0|0,0:0|0:0,0:0:0:0:
134,154,26070,2,0,L|127:224,1,62.9999980773926,10|0,0:0|0:0,0:0:0:0:
222,292,26386,2,0,L|214:221,1,62.9999980773926,2|0,0:0|0:0,0:0:0:0:
326,304,26702,6,0,B|336:239|336:239|363:153,1,125.999996154785,4|8,0:0|0:0,0:0:0:0:
450,70,27175,2,0,P|408:91|313:64,1,125.999996154785,0|8,0:0|0:0,0:0:0:0:
270,17,27649,1,0,0:0:0:0:
220,123,27807,2,0,L|74:136,1,125.999996154785,8|0,0:0|0:0,0:0:0:0:
50,242,28281,6,0,P|95:256|117:269,1,62.9999980773926,8|0,0:0|0:0,0:0:0:0:
169,384,28596,2,0,L|162:318,1,62.9999980773926,0|0,0:0|0:0,0:0:0:0:
199,219,28912,2,0,B|237:198|237:198|275:188,1,62.9999980773926,8|0,0:0|0:0,0:0:0:0:
394,297,29228,6,0,P|368:258|386:174,1,125.999996154785,4|2,0:0|0:0,0:0:0:0:
469,126,29702,1,0,0:0:0:0:
348,38,29860,2,0,B|283:51|283:51|215:78,1,125.999996154785,0|8,0:0|0:0,0:0:0:0:
223,80,30491,6,0,L|142:76,1,62.9999980773926
34,166,30807,2,0,B|65:146|65:146|102:136,1,62.9999980773926,8|8,0:0|0:0,0:0:0:0:
138,265,31123,1,8,0:0:0:0:
167,276,31201,1,8,0:0:0:0:
198,277,31280,1,8,0:0:0:0:
228,268,31359,1,8,0:0:0:0:
255,248,31439,2,0,L|263:207,3,31.4999990386963,8|0|8|0,0:0|0:0|0:0|0:0,0:0:0:0:
263,180,31754,6,0,B|309:160|309:160|356:155,1,73.4999977569581,4|0,0:0|0:0,0:0:0:0:
457,261,32070,2,0,L|468:349,1,73.4999977569581,8|0,0:0|0:0,0:0:0:0:
346,235,32386,1,0,0:0:0:0:
468,140,32544,1,0,0:0:0:0:
367,341,32702,2,0,P|330:353|296:360,1,73.4999977569581,8|0,0:0|0:0,0:0:0:0:
158,163,33017,6,0,P|121:156|36:231,1,146.999995513916,0|8,0:0|0:0,0:0:0:0:
93,384,33491,2,0,B|113:337|113:337|128:222,1,146.999995513916,0|0,0:0|0:0,0:0:0:0:
104,12,33965,1,8,0:0:0:0:
16,90,34123,1,0,0:0:0:0:
208,107,34281,5,4,0:0:0:0:
113,19,34439,1,0,0:0:0:0:
159,182,34596,1,8,0:0:0:0:
295,145,34754,1,0,0:0:0:0:
75,140,34912,2,0,B|56:182|56:182|50:232,1,73.4999977569581,0|0,0:0|0:0,0:0:0:0:
251,241,35228,1,8,0:0:0:0:
204,99,35386,1,0,0:0:0:0:
140,303,35544,6,0,L|224:313,1,73.4999977569581,4|0,0:0|0:0,0:0:0:0:
312,355,35860,1,8,0:0:0:0:
432,252,36017,2,0,B|412:174|412:174|402:88,1,146.999995513916,0|0,0:0|0:0,0:0:0:0:
272,22,36491,2,0,L|259:120,1,73.4999977569581,8|0,0:0|0:0,0:0:0:0:
336,219,36807,6,0,B|287:225|287:225|250:238,1,73.4999977569581,4|0,0:0|0:0,0:0:0:0:
110,325,37123,2,0,P|149:296|163:269,1,73.4999977569581,8|0,0:0|0:0,0:0:0:0:
185,86,37439,2,0,L|190:182,1,73.4999977569581,0|0,0:0|0:0,0:0:0:0:
242,288,37754,1,8,0:0:0:0:
100,208,37912,1,0,0:0:0:0:
266,85,38070,6,0,L|426:101,1,146.999995513916,4|8,0:0|0:0,0:0:0:0:
465,198,38544,2,0,B|441:246|441:246|416:347,1,146.999995513916,0|0,0:0|0:0,0:0:0:0:
290,273,39017,2,0,L|282:195,1,73.4999977569581,8|0,0:0|0:0,0:0:0:0:
335,49,39333,5,4,0:0:0:0:
374,177,39491,1,0,0:0:0:0:
211,61,39649,1,8,0:0:0:0:
340,35,39807,1,0,0:0:0:0:
196,214,39965,2,0,L|103:226,1,73.4999977569581,0|0,0:0|0:0,0:0:0:0:
275,135,40281,2,0,B|295:182|295:182|307:217,1,73.4999977569581,8|0,0:0|0:0,0:0:0:0:
297,337,40596,5,4,0:0:0:0:
145,263,40754,2,0,B|99:254|99:254|69:235|69:235|33:233|-10:249,2,140,0|0|0,0:0|0:0|0:0,0:0:0:0:
261,231,41544,1,8,0:0:0:0:
261,231,41860,5,0,0:0:0:0:
361,104,42017,2,0,P|433:110|519:136,2,140,0|0|0,0:0|0:0|0:0,0:0:0:0:
241,67,42807,1,8,0:0:0:0:
181,144,42965,1,0,0:0:0:0:
70,116,43123,6,0,B|41:185|41:185|31:268,1,140,0|4,0:0|0:0,0:0:0:0:
78,362,43596,2,0,P|102:324|200:324,1,140,0|0,0:0|0:0,0:0:0:0:
305,370,44070,1,8,0:0:0:0:
305,370,44386,5,0,0:0:0:0:
358,185,44544,1,0,0:0:0:0:
233,265,44702,1,8,0:0:0:0:
421,253,44860,1,8,0:0:0:0:
217,344,45017,2,0,L|132:344,1,70,0|0,0:0|0:0,0:0:0:0:
329,279,45333,2,0,P|363:306|384:339,1,70,8|0,0:0|0:0,0:0:0:0:
169,232,45649,6,0,L|177:110,1,105,0|0,0:0|0:0,0:0:0:0:
186,90,45965,2,0,P|223:107|261:111,1,70,8|0,0:0|0:0,0:0:0:0:
147,12,46281,1,10,0:0:0:0:
117,30,46359,1,8,0:0:0:0:
96,58,46438,1,8,0:0:0:0:
86,91,46517,1,8,0:0:0:0:
88,124,46596,2,0,L|94:167,3,35,8|8|8|8,0:0|0:0|0:0|0:0,0:0:0:0:
108,189,46912,6,0,B|120:238|120:238|119:274,1,70,2|0,0:0|0:0,0:0:0:0:
83,355,47228,1,8,0:0:0:0:
29,249,47386,1,0,0:0:0:0:
170,330,47544,2,0,L|246:338,2,70,2|2|8,0:0|0:0|0:0,0:0:0:0:
221,233,48017,6,0,P|265:220|348:280,1,140,0|0,0:0|0:0,0:0:0:0:
333,121,48491,1,8,0:0:0:0:
270,296,48649,1,8,0:0:0:0:
337,109,48807,2,0,L|330:9,2,70,2|2|8,0:0|0:0|0:0,0:0:0:0:
415,193,49281,1,0,0:0:0:0:
226,121,49439,6,0,P|190:111|150:106,1,70
68,148,49754,2,0,B|51:187|51:187|45:235,1,70,8|0,0:0|0:0,0:0:0:0:
90,69,50070,2,0,P|86:33|81:-5,1,70
1,84,50386,1,8,0:0:0:0:
137,197,50544,2,0,B|185:180|185:180|276:167,1,140,0|0,0:0|0:0,0:0:0:0:
400,241,51017,2,0,L|495:257,1,70,8|0,0:0|0:0,0:0:0:0:
272,260,51333,2,0,P|248:296|241:331,1,70,0|0,0:0|0:0,0:0:0:0:
356,376,51649,1,8,0:0:0:0:
348,378,51965,6,0,L|355:286,1,70,6|0,0:0|0:0,0:0:0:0:
355,174,52281,1,8,0:0:0:0:
268,257,52439,1,2,0:0:0:0:
435,232,52596,2,0,P|478:237|509:244,2,70,2|2|8,0:0|0:0|0:0,0:0:0:0:
252,166,53070,6,0,L|88:149,1,140,0|0,0:0|0:0,0:0:0:0:
185,241,53544,1,8,0:0:0:0:
195,70,53702,1,8,0:0:0:0:
175,252,53860,2,0,P|140:256|81:271,2,70,0|0|8,0:0|0:0|0:0,0:0:0:0:
257,313,54333,1,0,0:0:0:0:
345,230,54491,6,0,P|362:186|364:147,1,70,0|0,0:0|0:0,0:0:0:0:
305,90,54807,2,0,L|214:83,1,70,8|0,0:0|0:0,0:0:0:0:
408,88,55123,2,0,B|442:71|442:71|472:42,1,70,0|0,0:0|0:0,0:0:0:0:
354,16,55439,1,8,0:0:0:0:
476,142,55596,6,0,L|466:296,1,140,0|0,0:0|0:0,0:0:0:0:
373,343,56070,2,0,P|340:327|295:318,1,70,8|0,0:0|0:0,0:0:0:0:
125,355,56386,1,8,0:0:0:0:
154,337,56464,1,8,0:0:0:0:
177,310,56543,1,8,0:0:0:0:
189,277,56622,1,8,0:0:0:0:
195,235,56702,2,0,L|190:177,3,35,8|8|8|8,0:0|0:0|0:0|0:0,0:0:0:0:
190,166,57017,6,0,P|226:145|261:139,1,62.9999980773926,12|0,0:0|0:0,0:0:0:0:
361,148,57333,1,0,0:0:0:0:
282,229,57491,2,0,B|338:231|338:231|435:251,1,125.999996154785,0|0,0:0|0:0,0:0:0:0:
488,335,57965,2,0,L|412:328,1,62.9999980773926,2|0,0:0|0:0,0:0:0:0:
273,339,58281,6,0,P|233:353|193:353,1,62.9999980773926,2|0,0:0|0:0,0:0:0:0:
103,337,58596,1,2,0:0:0:0:
225,258,58754,2,0,B|171:262|171:262|88:253,1,125.999996154785,0|0,0:0|0:0,0:0:0:0:
0,189,59228,2,0,L|90:179,1,62.9999980773926,2|0,0:0|0:0,0:0:0:0:
195,151,59544,6,0,P|212:105|215:67,1,62.9999980773926,2|0,0:0|0:0,0:0:0:0:
174,4,59860,1,2,0:0:0:0:
104,87,60017,1,0,0:0:0:0:
261,35,60175,2,0,L|327:29,1,62.9999980773926,2|0,0:0|0:0,0:0:0:0:
359,104,60491,2,0,P|397:111|430:131,1,62.9999980773926,2|0,0:0|0:0,0:0:0:0:
345,192,60807,5,2,0:0:0:0:
442,215,60965,1,0,0:0:0:0:
348,281,61123,1,2,0:0:0:0:
448,356,61281,2,0,L|522:364,1,62.9999980773926,2|0,0:0|0:0,0:0:0:0:
259,159,62070,6,0,P|217:159|175:171,1,62.9999980773926,2|0,0:0|0:0,0:0:0:0:
120,216,62386,1,2,0:0:0:0:
185,80,62544,2,0,B|133:96|133:96|52:103,1,125.999996154785
9,19,63017,2,0,L|81:24,1,62.9999980773926,2|0,0:0|0:0,0:0:0:0:
261,65,63333,6,0,P|299:73|338:72,1,62.9999980773926,2|0,0:0|0:0,0:0:0:0:
426,46,63649,1,2,0:0:0:0:
306,167,63807,2,0,B|349:146|349:146|429:129,1,125.999996154785,0|0,0:0|0:0,0:0:0:0:
488,215,64281,2,0,L|409:208,1,62.9999980773926,2|0,0:0|0:0,0:0:0:0:
280,258,64596,6,0,P|236:280|206:304,1,62.9999980773926,2|0,0:0|0:0,0:0:0:0:
181,384,64912,1,2,0:0:0:0:
280,346,65070,1,0,0:0:0:0:
119,325,65228,2,0,L|47:321,1,62.9999980773926,2|0,0:0|0:0,0:0:0:0:
76,238,65544,2,0,P|37:228|4:213,1,62.9999980773926,2|0,0:0|0:0,0:0:0:0:
187,137,65860,5,2,0:0:0:0:
82,158,66017,1,0,0:0:0:0:
158,67,66175,1,0,0:0:0:0:
62,10,66333,2,0,L|-10:4,1,62.9999980773926
83,85,66649,1,0,0:0:0:0:
236,11,66807,2,0,P|284:15|333:30,1,94.499997116089,8|0,0:0|0:0,0:0:0:0:
353,40,67123,6,0,B|330:78|330:78|318:174,1,125.999996154785,6|0,0:0|0:0,0:0:0:0:
447,120,67596,1,0,0:0:0:0:
396,261,67754,2,0,L|249:270,1,125.999996154785,0|8,0:0|0:0,0:0:0:0:
169,218,68228,1,12,0:0:0:0:
169,218,68544,5,8,0:0:0:0:
63,318,68702,2,0,L|55:388,1,62.9999980773926,8|0,0:0|0:0,0:0:0:0:
80,237,69017,2,0,B|74:201|61:169,1,62.9999980773926,8|0,0:0|0:0,0:0:0:0:
136,292,69333,2,0,B|172:301|172:301|223:305,1,62.9999980773926,0|0,0:0|0:0,0:0:0:0:
309,228,69649,6,0,B|377:223|377:223|449:237,1,125.999996154785,4|0,0:0|0:0,0:0:0:0:
507,290,70123,1,0,0:0:0:0:
465,135,70281,2,0,L|329:120,1,125.999996154785,8|8,0:0|0:0,0:0:0:0:
224,123,70754,1,4,0:0:0:0:
224,123,71070,5,8,0:0:0:0:
111,78,71228,2,0,P|91:40|87:14,1,62.9999980773926,0|0,0:0|0:0,0:0:0:0:
147,156,71544,2,0,L|135:240,1,62.9999980773926,0|0,0:0|0:0,0:0:0:0:
196,51,71860,2,0,P|226:37|259:35,1,62.9999980773926,0|0,0:0|0:0,0:0:0:0:
342,109,72175,6,0,P|321:159|321:246,1,125.999996154785,4|8,0:0|0:0,0:0:0:0:
384,344,72649,2,0,B|345:328|345:328|241:312,1,125.999996154785,0|8,0:0|0:0,0:0:0:0:
163,362,73123,1,0,0:0:0:0:
58,278,73281,2,0,L|70:148,1,125.999996154785,8|0,0:0|0:0,0:0:0:0:
174,49,73754,6,0,P|212:60|241:87,1,56,8|0,0:0|0:0,0:0:0:0:
271,199,74070,2,0,L|262:130,1,56,0|0,0:0|0:0,0:0:0:0:
356,54,74386,2,0,B|323:71|323:71|286:82,1,56,8|0,0:0|0:0,0:0:0:0:
186,137,74702,6,0,B|165:190|165:190|155:255,1,112,4|8,0:0|0:0,0:0:0:0:
199,333,75175,1,0,0:0:0:0:
302,255,75333,2,0,P|342:235|410:255,1,112,0|8,0:0|0:0,0:0:0:0:
404,250,75965,6,0,B|390:214|390:214|385:180,1,56,0|0,0:0|0:0,0:0:0:0:
483,76,76281,2,0,P|456:113|435:124,1,56,8|0,0:0|0:0,0:0:0:0:
343,82,76596,1,0,0:0:0:0:
318,67,76674,1,8,0:0:0:0:
291,63,76753,1,8,0:0:0:0:
264,68,76832,1,8,0:0:0:0:
240,83,76912,2,0,L|188:81,3,28,8|8|8|8,0:0|0:0|0:0|0:0,0:0:0:0:
175,91,77228,6,0,B|135:80|135:80|86:53,1,70,2|0,0:0|0:0,0:0:0:0:
26,148,77544,2,0,L|36:237,1,70,8|0,0:0|0:0,0:0:0:0:
137,318,77860,1,0,0:0:0:0:
13,346,78017,1,0,0:0:0:0:
109,211,78175,2,0,L|187:202,1,70,8|0,0:0|0:0,0:0:0:0:
325,347,78491,6,0,P|366:378|474:361,1,140,4|8,0:0|0:0,0:0:0:0:
449,168,78965,2,0,P|417:225|399:318,1,140,8|0,0:0|0:0,0:0:0:0:
512,115,79439,1,8,0:0:0:0:
379,46,79596,1,0,0:0:0:0:
337,172,79754,5,4,0:0:0:0:
397,53,79912,1,0,0:0:0:0:
184,120,80070,1,8,0:0:0:0:
294,84,80228,1,0,0:0:0:0:
168,22,80386,2,0,B|124:27|124:27|80:44,1,70,4|0,0:0|0:0,0:0:0:0:
237,216,80702,1,8,0:0:0:0:
190,106,80860,1,0,0:0:0:0:
55,197,81017,6,0,L|48:275,1,70,4|0,0:0|0:0,0:0:0:0:
94,366,81333,1,8,0:0:0:0:
208,305,81491,2,0,B|265:288|265:288|370:280,1,140,8|8,0:0|0:0,0:0:0:0:
479,197,81965,2,0,L|405:188,1,70,8|0,0:0|0:0,0:0:0:0:
268,118,82281,6,0,P|248:78|241:33,1,70,4|0,0:0|0:0,0:0:0:0:
331,182,82596,2,0,L|327:260,1,70,8|0,0:0|0:0,0:0:0:0:
357,95,82912,2,0,P|391:78|437:75,1,70,4|0,0:0|0:0,0:0:0:0:
236,192,83228,1,8,0:0:0:0:
291,29,83386,1,0,0:0:0:0:
439,221,83544,5,4,0:0:0:0:
239,106,83702,2,0,P|189:107|149:117,1,70,0|8,0:0|0:0,0:0:0:0:
91,155,84017,2,0,P|111:192|124:238,1,70,8|0,0:0|0:0,0:0:0:0:
23,334,84333,2,0,B|28:293|28:293|45:250,1,70,0|8,0:0|0:0,0:0:0:0:
112,352,84649,1,0,0:0:0:0:
199,247,84807,6,0,L|298:241,1,70,4|0,0:0|0:0,0:0:0:0:
414,259,85123,1,8,0:0:0:0:
333,168,85281,1,0,0:0:0:0:
334,300,85439,2,0,L|343:374,1,70,4|0,0:0|0:0,0:0:0:0:
228,238,85754,2,0,L|235:156,1,70,8|0,0:0|0:0,0:0:0:0:
267,39,86070,1,4,0:0:0:0:
352,146,86228,2,0,L|516:160,2,140,0|8|0,0:0|0:0|0:0,0:0:0:0:
245,179,87017,1,8,0:0:0:0:
51,151,87333,6,0,L|43:198,2,46.6666666666667,2|0|8,0:0|0:0|0:0,0:0:0:0:
62,208,87649,6,0,L|64:255,2,46.6666666666667,8|8|8,0:0|0:0|0:0,0:0:0:0:
89,250,87965,6,0,L|104:294,2,46.6666666666667,8|10|10,0:0|0:0|0:0,0:0:0:0:
127,282,88281,6,0,L|154:320,2,46.6666666666667,10|10|10,0:0|0:0|0:0,0:0:0:0:
191,313,88596,5,2,0:0:0:0:
