osu file format v14

[General]
AudioFilename: audio.mp3
AudioLeadIn: 0
PreviewTime: 31754
Countdown: 1
SampleSet: Soft
StackLeniency: 0.7
Mode: 0
LetterboxInBreaks: 0
WidescreenStoryboard: 0

[Editor]
DistanceSpacing: 1
BeatDivisor: 3
GridSize: 8
TimelineZoom: 2.3

[Metadata]
Title:Gohan wa Okazu
TitleUnicode:ごはんはおかず
Artist:HO-KAGO TEA TIME
ArtistUnicode:放課後ティータイム
Creator:hypercyte
Version:Gohan
Source:けいおん!!
Tags:Rice as a Side Dish Ho-kago tea time II Keion 2 K-On!! 2nd Season Aki Toyosaki Youko Hikasa Satomi Satou Minako Kotobuki Ayana Taketatsu Yui Hirasawa Mio Akiyama Ritsu Tainaka Mugi Kotobuki Azusa Nakano Dashyy-
BeatmapID:1497775
BeatmapSetID:708448

[Difficulty]
HPDrainRate:6
CircleSize:4.2
OverallDifficulty:8
ApproachRate:9
SliderMultiplier:1.7
SliderTickRate:1

[Events]
//Background and Video events
0,0,"1512148220792.jpg",0,0
//Break Periods
//Storyboard Layer 0 (Background)
//Storyboard Layer 1 (Fail)
//Storyboard Layer 2 (Pass)
//Storyboard Layer 3 (Foreground)
//Storyboard Sound Samples

[TimingPoints]
1439,315.789473684211,4,2,1,50,1,0
10912,-100,4,2,1,35,0,0
11386,-100,4,2,1,50,0,0
11544,-125,4,2,1,50,0,0
21649,-111.111111111111,4,2,1,50,0,0
30965,-111.111111111111,4,2,1,25,0,0
31596,-111.111111111111,4,2,1,50,0,0
31754,-95.2380952380952,4,2,1,50,0,1
40596,-100,4,2,1,50,0,0
44386,-100,4,2,1,50,0,0
46281,-100,4,2,1,25,0,0
46912,-100,4,2,1,50,0,0
56386,-100,4,2,1,25,0,0
57017,-111.111111111111,4,2,1,50,0,0
73754,-125,4,2,1,50,0,0
73991,-125,4,2,1,10,0,0
74070,-125,4,2,1,50,0,0
74307,-125,4,2,1,10,0,0
74386,-125,4,2,1,50,0,0
74623,-125,4,2,1,10,0,0
74702,-125,4,2,1,50,0,0
76596,-125,4,2,1,25,0,0
77228,-100,4,2,1,50,0,1
86070,-100,4,2,1,50,0,0
87544,-100,4,2,1,40,0,0
88070,-100,4,2,1,50,0,0

[Colours]
Combo1 : 117,102,251
Combo2 : 254,112,175
Combo3 : 251,222,136
Combo4 : 129,237,156

[HitObjects]
45,285,175,5,4,0:0:0:0:
53,277,491,1,4,0:0:0:0:
61,269,807,1,4,0:0:0:0:
69,261,1123,1,4,0:0:0:0:
208,160,1439,6,0,L|311:169,1,85
237,74,1754,1,8,0:0:0:0:
271,257,1912,1,0,0:0:0:0:
368,134,2070,1,2,0:0:0:0:
314,325,2228,1,2,0:0:0:0:
292,167,2386,1,8,0:0:0:0:
186,267,2544,6,0,P|110:296|36:248,1,170
203,173,3017,1,8,0:0:0:0:
113,328,3175,1,8,0:0:0:0:
116,191,3333,1,2,0:0:0:0:
199,345,3491,1,2,0:0:0:0:
282,191,3649,1,8,0:0:0:0:
285,328,3807,1,0,0:0:0:0:
440,270,3965,6,0,P|398:260|356:259,1,85,2|0,0:0|0:0,0:0:0:0:
361,374,4281,1,8,0:0:0:0:
506,335,4439,1,0,0:0:0:0:
447,185,4596,2,0,L|439:269,1,85,2|2,0:0|0:0,0:0:0:0:
462,40,4912,1,8,0:0:0:0:
205,97,5070,6,0,P|280:132|360:108,1,170,0|2,0:0|0:0,0:0:0:0:
112,48,5544,2,0,L|120:158,1,85,8|0,0:0|0:0,0:0:0:0:
178,262,5860,2,0,L|184:177,1,85,2|0,0:0|0:0,0:0:0:0:
98,319,6175,1,8,0:0:0:0:
178,262,6333,1,0,0:0:0:0:
332,327,6491,6,0,P|291:337|251:327,1,85
432,175,6807,1,8,0:0:0:0:
293,249,6965,1,0,0:0:0:0:
420,265,7123,1,2,0:0:0:0:
359,128,7281,1,2,0:0:0:0:
332,327,7439,1,8,0:0:0:0:
143,246,7596,6,0,P|218:213|293:249,1,170
217,132,8070,1,2,0:0:0:0:
220,303,8228,1,2,0:0:0:0:
135,155,8386,2,0,P|175:140|217:132,1,85
60,271,8702,1,8,0:0:0:0:
43,105,8860,1,0,0:0:0:0:
163,222,9017,6,0,P|122:213|90:187,1,85,2|0,0:0|0:0,0:0:0:0:
301,183,9333,1,8,0:0:0:0:
163,299,9491,1,0,0:0:0:0:
321,381,9649,2,0,L|321:296,1,85,2|2,0:0|0:0,0:0:0:0:
177,376,9965,1,8,0:0:0:0:
399,324,10123,6,0,P|320:296|242:325,1,170
335,180,10596,2,0,L|325:271,1,85,12|0,0:0|0:0,0:0:0:0:
212,72,10912,1,8,0:0:0:0:
214,95,10991,1,8,0:0:0:0:
217,119,11070,1,8,0:0:0:0:
219,142,11148,1,8,0:0:0:0:
223,167,11228,2,0,L|228:214,1,42.5
312,210,11386,2,0,L|307:167,1,42.5
231,255,11544,6,0,L|239:329,1,68,4|0,0:0|0:0,0:0:0:0:
151,320,11860,1,2,0:0:0:0:
307,240,12017,1,0,0:0:0:0:
217,119,12175,2,0,L|223:197,1,68,2|0,0:0|0:0,0:0:0:0:
151,320,12491,2,0,L|156:252,1,68,2|0,0:0|0:0,0:0:0:0:
250,307,12807,6,0,P|315:326|384:284,1,136,2|2,0:0|0:0,0:0:0:0:
416,209,13281,1,0,0:0:0:0:
310,140,13439,2,0,L|318:222,1,68,2|0,0:0|0:0,0:0:0:0:
394,115,13754,2,0,L|400:47,1,68,2|0,0:0|0:0,0:0:0:0:
316,207,14070,6,0,P|261:236|189:211,1,136,2|2,0:0|0:0,0:0:0:0:
159,122,14544,1,0,0:0:0:0:
256,166,14702,2,0,P|269:232|227:285,1,136,2|2,0:0|0:0,0:0:0:0:
130,272,15175,1,0,0:0:0:0:
69,130,15333,5,2,0:0:0:0:
193,215,15491,1,0,0:0:0:0:
159,122,15649,1,2,0:0:0:0:
130,272,15807,1,0,0:0:0:0:
130,272,16123,1,0,0:0:0:0:
45,215,16281,2,0,P|47:251|44:286,1,68
321,267,16596,6,0,P|268:307|203:297,1,136,2|2,0:0|0:0,0:0:0:0:
351,148,17070,1,0,0:0:0:0:
242,160,17228,2,0,L|248:239,1,68,2|0,0:0|0:0,0:0:0:0:
315,335,17544,2,0,L|321:255,1,68,2|0,0:0|0:0,0:0:0:0:
414,81,17860,6,0,P|439:142|418:205,1,136,2|2,0:0|0:0,0:0:0:0:
320,266,18333,1,0,0:0:0:0:
283,140,18491,2,0,L|362:146,1,68,2|0,0:0|0:0,0:0:0:0:
208,220,18807,2,0,L|140:225,1,68,2|0,0:0|0:0,0:0:0:0:
320,266,19123,6,0,P|381:292|456:261,1,136,2|2,0:0|0:0,0:0:0:0:
386,211,19596,1,0,0:0:0:0:
320,266,19754,2,0,P|259:292|184:261,1,136,2|2,0:0|0:0,0:0:0:0:
99,164,20228,1,0,0:0:0:0:
278,195,20386,5,6,0:0:0:0:
195,271,20544,1,0,0:0:0:0:
156,72,20702,1,0,0:0:0:0:
198,170,20860,1,0,0:0:0:0:
198,170,21175,1,0,0:0:0:0:
322,105,21333,2,0,L|254:96,1,68,8|0,0:0|0:0,0:0:0:0:
198,311,21649,6,0,P|223:240|198:170,1,152.999995330811,0|2,0:0|0:0,0:0:0:0:
124,85,22123,1,0,0:0:0:0:
338,170,22281,2,0,P|267:195|197:169,1,152.999995330811,8|2,0:0|0:0,0:0:0:0:
438,242,22754,1,4,0:0:0:0:
438,242,23070,5,2,0:0:0:0:
481,119,23228,2,0,L|404:126,1,76.4999976654053
265,51,23544,2,0,L|342:45,1,76.4999976654053
308,216,23860,2,0,L|313:139,1,76.4999976654053
229,312,24175,6,0,P|298:346|378:311,1,152.999995330811,2|0,0:0|0:0,0:0:0:0:
424,215,24649,1,0,0:0:0:0:
324,81,24807,2,0,P|285:149|325:230,1,152.999995330811,8|0,0:0|0:0,0:0:0:0:
473,129,25281,6,0,L|396:121,1,76.4999976654053,4|0,0:0|0:0,0:0:0:0:
307,215,25596,1,8,0:0:0:0:
248,89,25754,2,0,L|326:80,1,76.4999976654053
217,193,26070,2,0,L|209:270,1,76.4999976654053,2|0,0:0|0:0,0:0:0:0:
141,115,26386,2,0,L|133:38,1,76.4999976654053,2|0,0:0|0:0,0:0:0:0:
354,197,26702,6,0,P|284:224|217:193,1,152.999995330811,4|8,0:0|0:0,0:0:0:0:
273,88,27175,2,0,L|349:95,1,76.4999976654053,8|0,0:0|0:0,0:0:0:0:
479,109,27491,1,0,0:0:0:0:
463,237,27649,1,0,0:0:0:0:
314,190,27807,2,0,L|391:183,1,76.4999976654053,8|0,0:0|0:0,0:0:0:0:
219,71,28281,5,8,0:0:0:0:
314,190,28596,1,0,0:0:0:0:
223,313,28912,1,8,0:0:0:0:
82,181,29228,6,0,B|143:160|199:191|199:191|253:172|253:172|325:207|390:177,1,305.999990661621,4|0,0:0|0:0,0:0:0:0:
327,98,30017,1,2,0:0:0:0:
190,33,30175,2,0,L|198:111,1,76.4999976654053,8|0,0:0|0:0,0:0:0:0:
281,17,30491,5,0,0:0:0:0:
281,17,30649,1,0,0:0:0:0:
109,105,30807,1,8,0:0:0:0:
109,105,30965,1,8,0:0:0:0:
268,216,31123,1,8,0:0:0:0:
305,107,31281,1,8,0:0:0:0:
266,104,31359,1,8,0:0:0:0:
228,101,31438,1,8,0:0:0:0:
109,105,31596,1,8,0:0:0:0:
109,105,31754,6,0,P|102:148|117:200,1,89.2499972763062,4|0,0:0|0:0,0:0:0:0:
208,263,32070,2,0,P|215:306|200:358,1,89.2499972763062,4|0,0:0|0:0,0:0:0:0:
125,302,32386,1,0,0:0:0:0:
319,321,32544,1,0,0:0:0:0:
257,168,32702,1,8,0:0:0:0:
204,349,32860,1,0,0:0:0:0:
386,278,33017,6,0,P|357:250|307:241,1,89.2499972763062,4|0,0:0|0:0,0:0:0:0:
346,347,33333,1,8,0:0:0:0:
346,347,33491,2,0,P|388:362|439:338,1,89.2499972763062
472,253,33807,1,0,0:0:0:0:
407,167,33965,1,8,0:0:0:0:
500,115,34123,1,0,0:0:0:0:
417,46,34281,6,0,P|371:32|323:47,1,89.2499972763062,4|0,0:0|0:0,0:0:0:0:
263,124,34596,1,8,0:0:0:0:
370,122,34754,1,0,0:0:0:0:
255,35,34912,2,0,L|263:130,1,89.2499972763062
310,305,35228,2,0,L|317:216,1,89.2499972763062
222,256,35544,5,4,0:0:0:0:
317,216,35702,1,0,0:0:0:0:
185,155,35860,1,8,0:0:0:0:
124,275,36017,2,0,P|161:334|270:344,1,178.499994552612,0|0,0:0|0:0,0:0:0:0:
262,347,36491,1,8,0:0:0:0:
426,239,36807,6,0,L|330:247,1,89.2499972763062,4|0,0:0|0:0,0:0:0:0:
181,159,37123,2,0,L|269:166,1,89.2499972763062,4|0,0:0|0:0,0:0:0:0:
269,343,37439,2,0,L|260:247,1,89.2499972763062
349,336,37754,1,8,0:0:0:0:
171,313,37912,1,0,0:0:0:0:
269,166,38070,6,0,L|260:261,1,89.2499972763062,4|0,0:0|0:0,0:0:0:0:
181,159,38386,1,8,0:0:0:0:
257,87,38544,2,0,P|332:119|335:207,1,178.499994552612
335,206,39017,1,8,0:0:0:0:
147,283,39333,5,4,0:0:0:0:
273,167,39491,1,0,0:0:0:0:
249,335,39649,1,8,0:0:0:0:
174,182,39807,1,0,0:0:0:0:
322,263,39965,1,0,0:0:0:0:
336,93,40123,1,0,0:0:0:0:
437,225,40281,1,8,0:0:0:0:
273,167,40439,1,0,0:0:0:0:
427,122,40596,5,4,0:0:0:0:
348,258,40754,2,0,L|354:172,1,85,0|8,0:0|0:0,0:0:0:0:
421,37,41070,2,0,L|427:123,1,85,0|0,0:0|0:0,0:0:0:0:
334,76,41386,1,0,0:0:0:0:
261,147,41544,2,0,P|217:162|167:139,1,85,8|0,0:0|0:0,0:0:0:0:
137,58,41860,5,0,0:0:0:0:
261,147,42017,2,0,P|271:193|265:237,1,85,0|8,0:0|0:0,0:0:0:0:
160,330,42333,2,0,P|156:287|165:246,1,85,0|0,0:0|0:0,0:0:0:0:
262,331,42649,1,0,0:0:0:0:
346,235,42807,1,8,0:0:0:0:
427,333,42965,1,0,0:0:0:0:
507,225,43123,6,0,L|419:232,1,85
503,354,43439,1,4,0:0:0:0:
507,225,43596,2,0,P|478:143|409:103,1,170,0|0,0:0|0:0,0:0:0:0:
409,103,44070,1,8,0:0:0:0:
185,193,44386,6,0,P|239:201|271:192,1,85,0|0,0:0|0:0,0:0:0:0:
312,104,44702,2,0,P|258:96|226:105,1,85,8|8,0:0|0:0,0:0:0:0:
185,193,45017,2,0,L|193:288,1,85
270,361,45333,2,0,L|277:276,1,85
192,277,45649,6,0,P|151:284|102:273,1,85
77,172,45965,2,0,P|118:165|167:176,1,85,12|0,0:0|0:0,0:0:0:0:
234,276,46281,1,10,0:0:0:0:
362,316,46438,1,8,0:0:0:0:
403,307,46517,1,8,0:0:0:0:
436,280,46596,1,8,0:0:0:0:
453,242,46675,1,8,0:0:0:0:
450,200,46754,1,8,0:0:0:0:
429,163,46833,1,8,0:0:0:0:
394,140,46912,5,6,0:0:0:0:
290,278,47070,1,0,0:0:0:0:
226,120,47228,1,8,0:0:0:0:
364,225,47386,1,0,0:0:0:0:
311,63,47544,1,2,0:0:0:0:
227,210,47702,1,2,0:0:0:0:
394,140,47860,1,8,0:0:0:0:
226,120,48017,6,0,P|163:145|144:253,1,170,0|0,0:0|0:0,0:0:0:0:
287,319,48491,1,8,0:0:0:0:
303,127,48649,1,8,0:0:0:0:
371,322,48807,2,0,L|284:318,1,85
412,168,49123,1,8,0:0:0:0:
227,210,49281,1,0,0:0:0:0:
484,321,49439,6,0,L|476:233,1,85
419,83,49754,2,0,L|411:170,1,85
245,102,50070,2,0,P|290:94|348:119,1,85,0|0,0:0|0:0,0:0:0:0:
411,167,50386,1,8,0:0:0:0:
181,245,50544,6,0,P|255:278|328:240,1,170
245,102,51017,2,0,L|253:197,1,85,8|0,0:0|0:0,0:0:0:0:
173,329,51333,2,0,L|181:233,1,85
180,244,51649,1,8,0:0:0:0:
70,58,51965,5,6,0:0:0:0:
77,227,52123,1,0,0:0:0:0:
168,83,52281,1,8,0:0:0:0:
191,249,52439,1,2,0:0:0:0:
61,140,52596,1,2,0:0:0:0:
227,175,52754,1,2,0:0:0:0:
118,306,52912,1,8,0:0:0:0:
146,138,53070,6,0,P|209:91|294:120,1,170,0|0,0:0|0:0,0:0:0:0:
315,311,53544,1,8,0:0:0:0:
385,128,53702,1,8,0:0:0:0:
420,320,53860,1,0,0:0:0:0:
276,188,54017,1,0,0:0:0:0:
470,204,54175,1,8,0:0:0:0:
315,311,54333,1,0,0:0:0:0:
300,120,54491,6,0,L|395:128,1,85
471,282,54807,2,0,L|375:273,1,85
230,322,55123,2,0,L|325:313,1,85
240,179,55439,1,8,0:0:0:0:
88,256,55596,6,0,P|62:173|107:103,1,170
240,179,56070,2,0,L|148:188,1,85,8|0,0:0|0:0,0:0:0:0:
247,64,56386,1,8,0:0:0:0:
307,216,56544,1,8,0:0:0:0:
338,243,56622,1,8,0:0:0:0:
379,254,56701,1,8,0:0:0:0:
420,245,56780,1,8,0:0:0:0:
453,218,56859,1,8,0:0:0:0:
470,180,56938,1,8,0:0:0:0:
467,138,57017,6,0,L|382:132,1,76.4999976654053,12|0,0:0|0:0,0:0:0:0:
307,216,57333,1,0,0:0:0:0:
432,360,57491,2,0,L|418:207,1,152.999995330811
307,216,57965,2,0,L|312:292,1,76.4999976654053,2|0,0:0|0:0,0:0:0:0:
153,364,58281,6,0,P|190:365|223:347,1,76.4999976654053,2|0,0:0|0:0,0:0:0:0:
63,324,58596,1,2,0:0:0:0:
140,261,58754,2,0,P|185:209|171:125,1,152.999995330811,0|0,0:0|0:0,0:0:0:0:
36,152,59228,2,0,P|70:176|121:178,1,76.4999976654053,2|0,0:0|0:0,0:0:0:0:
242,158,59544,6,0,P|212:136|175:130,1,76.4999976654053,2|0,0:0|0:0,0:0:0:0:
176,218,59860,1,2,0:0:0:0:
324,186,60017,1,0,0:0:0:0:
247,81,60175,2,0,L|240:175,1,76.4999976654053,2|0,0:0|0:0,0:0:0:0:
329,262,60491,2,0,L|322:168,1,76.4999976654053,2|0,0:0|0:0,0:0:0:0:
235,247,60807,5,2,0:0:0:0:
413,201,60965,1,0,0:0:0:0:
355,375,61123,1,2,0:0:0:0:
413,201,61281,1,2,0:0:0:0:
134,74,61596,5,2,0:0:0:0:
192,248,61754,1,2,0:0:0:0:
310,120,62070,6,0,L|224:125,1,76.4999976654053,2|0,0:0|0:0,0:0:0:0:
283,246,62386,1,2,0:0:0:0:
388,201,62544,2,0,P|428:142|413:61,1,152.999995330811,0|0,0:0|0:0,0:0:0:0:
305,43,63017,2,0,L|310:133,1,76.4999976654053,2|0,0:0|0:0,0:0:0:0:
383,277,63333,6,0,L|388:187,1,76.4999976654053,2|0,0:0|0:0,0:0:0:0:
283,246,63649,1,2,0:0:0:0:
312,347,63807,2,0,P|390:372|464:326,1,152.999995330811,0|0,0:0|0:0,0:0:0:0:
387,200,64281,2,0,L|302:191,1,76.4999976654053,2|0,0:0|0:0,0:0:0:0:
188,264,64596,6,0,L|273:255,1,76.4999976654053,2|0,0:0|0:0,0:0:0:0:
311,103,64912,1,2,0:0:0:0:
240,182,65070,1,0,0:0:0:0:
387,200,65228,2,0,L|396:120,1,76.4999976654053,2|0,0:0|0:0,0:0:0:0:
302,26,65544,2,0,L|311:106,1,76.4999976654053,2|0,0:0|0:0,0:0:0:0:
402,43,65860,5,2,0:0:0:0:
315,184,66017,1,0,0:0:0:0:
402,43,66175,1,0,0:0:0:0:
451,233,66333,1,0,0:0:0:0:
186,41,66649,6,0,L|145:45,1,38.2499988327027
109,38,66807,2,0,P|86:70|53:90,1,76.4999976654053,8|0,0:0|0:0,0:0:0:0:
198,223,67123,6,0,B|260:261|331:231|331:231|358:245|358:245|394:222|442:234,1,229.499992996216,6|0,0:0|0:0,0:0:0:0:
396,315,67754,2,0,B|355:326|355:326|326:314|326:314|275:332|238:314,1,152.999995330811,0|8,0:0|0:0,0:0:0:0:
134,175,68228,6,0,P|122:248|175:300,1,152.999995330811,12|8,0:0|0:0,0:0:0:0:
198,223,68702,1,8,0:0:0:0:
63,316,68860,1,0,0:0:0:0:
57,169,69017,2,0,L|142:175,1,76.4999976654053,8|0,0:0|0:0,0:0:0:0:
274,217,69333,2,0,L|197:222,1,76.4999976654053,8|0,0:0|0:0,0:0:0:0:
376,134,69649,6,0,B|414:196|384:267|384:267|398:294|398:294|375:330|387:378,1,229.499992996216,4|0,0:0|0:0,0:0:0:0:
433,288,70281,2,0,B|361:248|355:301|285:276,1,152.999995330811,8|8,0:0|0:0,0:0:0:0:
293,133,70754,6,0,P|326:65|400:57,1,152.999995330811,4|8,0:0|0:0,0:0:0:0:
447,130,71228,2,0,L|361:125,1,76.4999976654053
255,215,71544,2,0,L|341:210,1,76.4999976654053
454,309,71860,2,0,L|368:303,1,76.4999976654053
255,215,72175,6,0,P|223:147|252:79,1,152.999995330811,4|8,0:0|0:0,0:0:0:0:
382,135,72649,2,0,P|342:150|288:135,1,76.4999976654053
140,107,72965,2,0,L|133:191,1,76.4999976654053,8|0,0:0|0:0,0:0:0:0:
121,298,73281,1,8,0:0:0:0:
317,158,73754,6,0,L|228:106,1,102,8|0,0:0|0:0,0:0:0:0:
181,186,74070,2,0,L|181:288,1,102,0|0,0:0|0:0,0:0:0:0:
270,287,74386,2,0,L|358:236,1,102,8|0,0:0|0:0,0:0:0:0:
437,196,74702,2,0,L|438:333,1,136,4|8,0:0|0:0,0:0:0:0:
317,158,75333,2,0,L|317:22,1,136,0|8,0:0|0:0,0:0:0:0:
125,97,75965,5,0,0:0:0:0:
239,197,76123,1,0,0:0:0:0:
165,167,76281,1,8,0:0:0:0:
314,199,76439,1,0,0:0:0:0:
125,97,76596,1,0,0:0:0:0:
263,98,76755,1,0,0:0:0:0:
263,98,76833,1,0,0:0:0:0:
263,98,76913,2,0,L|251:147,1,34
314,199,77070,2,0,L|321:165,1,34
234,222,77227,5,0,0:0:0:0:
208,332,77386,2,0,L|294:325,1,85,0|8,0:0|0:0,0:0:0:0:
139,146,77702,1,0,0:0:0:0:
100,303,77860,1,0,0:0:0:0:
234,222,78017,1,0,0:0:0:0:
58,136,78175,2,0,L|68:224,1,85,8|0,0:0|0:0,0:0:0:0:
216,121,78491,6,0,P|174:122|140:146,1,85,4|0,0:0|0:0,0:0:0:0:
289,188,78807,1,8,0:0:0:0:
289,188,78965,2,0,P|330:186|365:163,1,85,8|0,0:0|0:0,0:0:0:0:
296,54,79281,1,0,0:0:0:0:
216,121,79439,1,8,0:0:0:0:
144,49,79596,1,0,0:0:0:0:
296,54,79754,5,4,0:0:0:0:
216,121,79912,1,0,0:0:0:0:
288,193,80069,1,0,0:0:0:0:
367,128,80228,1,0,0:0:0:0:
216,121,80386,2,0,P|194:163|191:212,1,85,4|0,0:0|0:0,0:0:0:0:
261,271,80702,2,0,P|283:229|286:180,1,85,8|0,0:0|0:0,0:0:0:0:
187,272,81017,5,4,0:0:0:0:
260,376,81175,1,0,0:0:0:0:
343,279,81333,1,8,0:0:0:0:
287,192,81491,2,0,L|196:199,1,85,8|0,0:0|0:0,0:0:0:0:
61,105,81807,1,0,0:0:0:0:
61,105,81965,2,0,L|145:111,1,85,8|0,0:0|0:0,0:0:0:0:
123,189,82281,6,0,L|114:280,1,85,4|0,0:0|0:0,0:0:0:0:
34,361,82596,2,0,L|25:270,1,85,4|0,0:0|0:0,0:0:0:0:
118,358,82912,2,0,P|164:369|210:345,1,85,4|0,0:0|0:0,0:0:0:0:
251,258,83228,1,8,0:0:0:0:
123,189,83386,1,0,0:0:0:0:
251,120,83544,5,4,0:0:0:0:
330,281,83702,2,0,P|285:276|246:254,1,85,0|8,0:0|0:0,0:0:0:0:
346,112,84017,2,0,L|353:200,1,85,8|0,0:0|0:0,0:0:0:0:
251,120,84333,2,0,P|294:33|362:17,1,170
352,196,84807,6,0,P|301:212|243:214,1,85,4|0,0:0|0:0,0:0:0:0:
161,127,85123,1,8,0:0:0:0:
271,64,85281,1,0,0:0:0:0:
167,240,85439,1,4,0:0:0:0:
57,177,85597,1,0,0:0:0:0:
157,351,85754,1,8,0:0:0:0:
267,288,85912,2,0,L|258:197,1,85,0|4,0:0|0:0,0:0:0:0:
190,67,86228,6,0,L|181:151,1,85,0|4,0:0|0:0,0:0:0:0:
267,288,86544,2,0,P|348:302|415:253,1,170,8|0,0:0|0:0,0:0:0:0:
415,253,87017,1,8,0:0:0:0:
326,102,87333,6,0,L|323:180,2,56.6666666666667,2|0|8,0:0|0:0|0:0,0:0:0:0:
222,150,87649,6,0,L|225:228,2,56.6666666666667,2|0|8,0:0|0:0|0:0,0:0:0:0:
320,245,87965,6,0,L|306:318,2,56.6666666666667,8|10|10,0:0|0:0|0:0,0:0:0:0:
218,297,88281,6,0,L|232:370,2,56.6666666666667,10|10|10,0:0|0:0|0:0,0:0:0:0:
218,297,88596,5,2,0:0:0:0:
