osu file format v14

[General]
AudioFilename: audio.mp3
AudioLeadIn: 0
PreviewTime: 45931
Countdown: 0
SampleSet: Soft
StackLeniency: 0.7
Mode: 0
LetterboxInBreaks: 0
WidescreenStoryboard: 0

[Editor]
DistanceSpacing: 0.6
BeatDivisor: 4
GridSize: 32
TimelineZoom: 1.6

[Metadata]
Title:Gohan wa Okazu
TitleUnicode:ごはんはおかず
Artist:HO-KAGO TEA TIME
ArtistUnicode:放課後ティータイム
Creator:MashaSG
Version:vanucik's Insane!!
Source:けいおん!!
Tags:K-ON! Light Music Rice is a Dish J-Pop bice TheMefisto Pata-Mon Karen vanucik wajinshu Fanteer Momochikun Underforest Armin A_r_M_i_N
BeatmapID:1252710
BeatmapSetID:591709

[Difficulty]
HPDrainRate:6
CircleSize:4
OverallDifficulty:8
ApproachRate:9
SliderMultiplier:1.4
SliderTickRate:1

[Events]
//Background and Video events
0,0,"vanucik1.jpg",0,0
//Break Periods
//Storyboard Layer 0 (Background)
//Storyboard Layer 1 (Fail)
//Storyboard Layer 2 (Pass)
//Storyboard Layer 3 (Foreground)
//Storyboard Sound Samples

[TimingPoints]
458,315.789473684211,4,2,1,80,1,0
458,-90.9090909090909,4,2,1,80,0,0
10563,-111.111111111111,4,2,1,80,0,0
13010,-111.111111111111,4,2,1,80,0,0
13089,-111.111111111111,4,2,1,80,0,0
13958,-111.111111111111,4,2,1,5,0,0
14036,-111.111111111111,4,2,1,80,0,0
18379,-111.111111111111,4,2,1,80,0,0
18458,-111.111111111111,4,2,1,80,0,0
19010,-111.111111111111,4,2,1,5,0,0
19089,-111.111111111111,4,2,1,80,0,0
20352,-142.857142857143,4,2,1,80,0,0
20589,-142.857142857143,4,2,1,5,0,0
20668,-125,4,2,1,80,0,0
21931,-99.9999999999999,4,2,1,80,0,0
23194,-125,4,2,1,80,0,0
24458,-99.9999999999999,4,2,1,80,0,0
25721,-90.9090909090909,4,2,1,80,0,0
25958,-90.9090909090909,4,2,1,5,0,0
26036,-90.9090909090909,4,2,1,80,0,0
26984,-111.111111111111,4,2,1,80,0,0
27536,-111.111111111111,4,2,1,80,0,0
27615,-111.111111111111,4,2,1,80,0,0
27852,-111.111111111111,4,2,1,80,0,0
27931,-111.111111111111,4,2,1,80,0,0
28168,-111.111111111111,4,2,1,80,0,0
28247,-111.111111111111,4,2,1,80,0,0
28484,-111.111111111111,4,2,1,5,0,0
28563,-111.111111111111,4,2,1,80,0,0
29510,-99.9999999999999,4,2,1,80,0,0
30142,-83.3333333333333,4,2,1,80,0,0
30773,-83.3333333333333,4,2,1,80,0,0
32036,-90.9090909090909,4,2,1,80,0,0
32273,-90.9090909090909,4,2,1,5,0,0
32352,-90.9090909090909,4,2,1,80,0,0
32747,-90.9090909090909,4,2,1,5,0,0
32826,-90.9090909090909,4,2,1,80,0,0
35747,-90.9090909090909,4,2,1,5,0,0
35826,-83.3333333333333,4,2,1,80,0,0
37089,-90.9090909090909,4,2,1,80,0,0
40326,-90.9090909090909,4,2,1,5,0,0
40405,-90.9090909090909,4,2,1,80,0,0
40800,-90.9090909090909,4,2,1,5,0,0
40879,-90.9090909090909,4,2,1,80,0,0
41589,-90.9090909090909,4,2,1,5,0,0
41668,-90.9090909090909,4,2,1,80,0,0
42379,-90.9090909090909,4,2,1,5,0,0
42458,-90.9090909090909,4,2,1,80,0,0
45931,-83.3333333333333,4,2,1,80,0,1
50905,-83.3333333333333,4,2,1,5,0,1
50984,-83.3333333333333,4,2,1,80,0,1
56036,-76.9230769230769,4,2,1,80,0,0
59905,-76.9230769230769,4,2,1,40,0,0
60142,-76.9230769230769,4,2,1,80,0,0
60221,-76.9230769230769,4,2,1,40,0,0
60458,-76.9230769230769,4,2,1,80,0,0
63536,-76.9230769230769,4,2,1,40,0,0

[Colours]
Combo1 : 0,206,206
Combo2 : 234,117,0
Combo3 : 0,206,0
Combo4 : 230,0,155

[HitObjects]
156,220,458,6,0,L|255:215,1,77.0000023498536,6|0,0:0|0:0,0:0:0:0:
343,144,773,1,8,0:0:0:0:
343,144,931,1,0,0:0:0:0:
419,270,1089,2,0,P|416:331|411:354,2,77.0000023498536,2|0|8,0:0|0:0|0:0,0:0:0:0:
267,206,1563,6,0,P|220:248|234:343,1,154.000004699707,2|0,0:0|0:0,0:0:0:0:
367,197,2036,2,0,P|364:141|364:117,1,77.0000023498536,8|8,0:0|0:0,0:0:0:0:
160,86,2352,2,0,P|160:48|161:0,1,77.0000023498536,2|0,0:0|0:0,0:0:0:0:
267,206,2668,2,0,L|263:289,1,77.0000023498536,8|0,0:0|0:0,0:0:0:0:
44,219,2984,6,0,P|82:185|181:193,1,154.000004699707,6|8,0:0|0:0,0:0:0:0:
126,280,3458,1,0,0:0:0:0:
35,117,3615,2,0,P|33:81|34:31,2,77.0000023498536,2|0|8,0:0|0:0|0:0,0:0:0:0:
240,184,4089,6,0,P|226:122|146:80,1,154.000004699707,2|0,0:0|0:0,0:0:0:0:
209,286,4563,2,0,P|257:295|287:295,1,77.0000023498536,10|0,0:0|0:0,0:0:0:0:
419,183,4879,2,0,L|327:193,1,77.0000023498536,2|0,0:0|0:0,0:0:0:0:
151,119,5194,2,0,L|232:122,1,77.0000023498536,8|0,0:0|0:0,0:0:0:0:
475,103,5510,6,0,P|479:55|476:10,1,77.0000023498536,6|0,0:0|0:0,0:0:0:0:
339,128,5826,1,8,0:0:0:0:
339,128,5984,1,0,0:0:0:0:
421,231,6142,2,0,P|469:235|510:232,1,77.0000023498536,2|0,0:0|0:0,0:0:0:0:
475,103,6458,1,8,0:0:0:0:
307,214,6615,6,0,P|313:281|377:341,1,154.000004699707,2|0,0:0|0:0,0:0:0:0:
322,124,7089,2,0,P|268:116|239:114,1,77.0000023498536,8|8,0:0|0:0,0:0:0:0:
118,136,7405,1,2,0:0:0:0:
118,136,7563,1,0,0:0:0:0:
275,33,7721,2,0,L|364:35,1,77.0000023498536,8|0,0:0|0:0,0:0:0:0:
388,214,8036,6,0,P|321:220|256:146,1,154.000004699707,6|8,0:0|0:0,0:0:0:0:
412,112,8510,1,0,0:0:0:0:
483,243,8668,2,0,P|481:288|479:336,2,77.0000023498536,2|0|8,0:0|0:0|0:0,0:0:0:0:
299,210,9142,6,0,P|283:254|343:352,1,154.000004699707,2|0,0:0|0:0,0:0:0:0:
301,121,9615,2,0,P|255:115|217:115,1,77.0000023498536,8|0,0:0|0:0,0:0:0:0:
103,154,9931,1,2,0:0:0:0:
118,13,10089,1,8,0:0:0:0:
147,3,10168,1,8,0:0:0:0:
179,2,10247,1,8,0:0:0:0:
207,9,10326,1,8,0:0:0:0:
233,24,10405,1,8,0:0:0:0:
254,46,10484,1,8,0:0:0:0:
265,77,10563,6,0,P|265:139|260:219,1,125.999996154785,6|8,0:0|0:0,0:0:0:0:
404,142,11036,2,0,P|397:80|346:37,1,125.999996154785,2|0,0:0|0:0,0:0:0:0:
360,220,11510,2,0,L|435:222,1,62.9999980773926,8|0,0:0|0:0,0:0:0:0:
286,331,11826,6,0,P|226:343|163:313,1,125.999996154785,2|8,0:0|0:0,0:0:0:0:
78,226,12300,2,0,P|74:271|73:356,1,125.999996154785,2|0,0:0|0:0,0:0:0:0:
168,235,12773,2,0,P|171:176|167:148,1,62.9999980773926,8|0,0:0|0:0,0:0:0:0:
124,54,13089,6,0,P|206:63|261:63,1,125.999996154785,2|8,0:0|0:0,0:0:0:0:
352,36,13563,1,0,0:0:0:0:
400,126,13721,2,0,B|411:161|397:195|397:195|402:219|402:219|393:250,1,125.999996154785,2|8,0:0|0:0,0:0:0:0:
318,324,14194,1,0,0:0:0:0:
314,154,14352,5,2,0:0:0:0:
471,243,14510,1,2,0:0:0:0:
277,248,14668,1,10,0:0:0:0:
504,146,14826,1,2,0:0:0:0:
505,134,15142,1,2,0:0:0:0:
470,257,15300,2,0,L|473:329,1,62.9999980773926,2|0,0:0|0:0,0:0:0:0:
384,160,15615,6,0,P|322:147|262:184,1,125.999996154785,6|8,0:0|0:0,0:0:0:0:
317,351,16089,2,0,P|349:298|326:223,1,125.999996154785,2|0,0:0|0:0,0:0:0:0:
205,289,16563,2,0,L|210:355,1,62.9999980773926,8|0,0:0|0:0,0:0:0:0:
74,222,16879,6,0,P|113:193|191:202,1,125.999996154785,2|8,0:0|0:0,0:0:0:0:
317,127,17352,2,0,P|280:102|182:117,1,125.999996154785,2|0,0:0|0:0,0:0:0:0:
311,226,17826,2,0,L|388:222,1,62.9999980773926,8|0,0:0|0:0,0:0:0:0:
481,162,18142,6,0,L|475:290,1,125.999996154785,2|8,0:0|0:0,0:0:0:0:
377,348,18615,1,0,0:0:0:0:
377,348,18773,2,0,L|373:222,1,125.999996154785,2|8,0:0|0:0,0:0:0:0:
369,118,19247,1,0,0:0:0:0:
261,247,19405,5,2,0:0:0:0:
467,194,19563,1,2,0:0:0:0:
248,146,19721,1,8,0:0:0:0:
484,296,19879,1,2,0:0:0:0:
483,284,20194,1,2,0:0:0:0:
348,366,20352,6,0,P|389:375|431:357,1,73.4999977569581,8|0,0:0|0:0,0:0:0:0:
381,296,20668,6,0,P|345:276|270:283,1,112,6|0,0:0|0:0,0:0:0:0:
186,318,21142,1,0,0:0:0:0:
268,164,21300,2,0,P|308:162|365:202,1,112,8|8,0:0|0:0,0:0:0:0:
179,228,21773,1,8,0:0:0:0:
181,207,22089,5,8,0:0:0:0:
238,299,22247,2,0,L|243:376,1,70,0|0,0:0|0:0,0:0:0:0:
97,257,22563,2,0,L|87:188,1,70,8|0,0:0|0:0,0:0:0:0:
268,109,22879,2,0,L|258:181,1,70
64,48,23194,6,0,P|106:23|182:28,1,112,6|0,0:0|0:0,0:0:0:0:
141,140,23668,1,0,0:0:0:0:
46,216,23826,2,0,P|21:174|26:98,1,112,8|8,0:0|0:0,0:0:0:0:
167,269,24300,1,8,0:0:0:0:
163,289,24615,5,8,0:0:0:0:
253,186,24773,2,0,L|260:261,1,70,0|0,0:0|0:0,0:0:0:0:
110,161,25089,2,0,L|115:82,1,70,8|0,0:0|0:0,0:0:0:0:
279,30,25405,2,0,L|287:103,1,70,0|0,0:0|0:0,0:0:0:0:
240,255,25721,6,0,P|200:211|216:118,1,154.000004699707,6|8,0:0|0:0,0:0:0:0:
321,261,26194,1,0,0:0:0:0:
125,221,26510,5,10,0:0:0:0:
327,242,26668,1,10,0:0:0:0:
112,307,26826,1,10,0:0:0:0:
139,139,26984,5,0,0:0:0:0:
245,289,27300,6,0,P|246:326|242:365,1,62.9999980773926,2|0,0:0|0:0,0:0:0:0:
269,171,27615,2,0,P|294:147|322:126,1,62.9999980773926,2|0,0:0|0:0,0:0:0:0:
155,224,27931,2,0,P|109:227|89:226,1,62.9999980773926,2|0,0:0|0:0,0:0:0:0:
162,58,28247,6,0,P|216:33|287:61,1,125.999996154785,6|8,0:0|0:0,0:0:0:0:
116,134,28721,1,0,0:0:0:0:
116,134,28879,2,0,L|32:129,1,62.9999980773926,2|0,0:0|0:0,0:0:0:0:
223,117,29194,1,8,0:0:0:0:
286,304,29510,6,0,P|288:340|285:378,1,70,2|2,0:0|0:0,0:0:0:0:
239,193,29826,2,0,P|284:185|308:185,1,70,10|2,0:0|0:0,0:0:0:0:
178,349,30142,6,0,P|167:312|161:264,1,83.9999974365235,2|8,0:0|0:0,0:0:0:0:
405,203,30458,2,0,P|400:245|386:285,1,83.9999974365235,8|8,0:0|0:0,0:0:0:0:
227,85,30773,6,0,P|272:79|310:81,1,83.9999974365235,6|0,0:0|0:0,0:0:0:0:
426,112,31089,1,8,0:0:0:0:
426,112,31247,1,0,0:0:0:0:
250,201,31405,2,0,L|160:194,1,83.9999974365235,6|0,0:0|0:0,0:0:0:0:
310,81,31721,1,8,0:0:0:0:
349,234,31879,1,0,0:0:0:0:
167,98,32036,5,6,0:0:0:0:
304,101,32194,1,0,0:0:0:0:
164,74,32352,1,8,0:0:0:0:
250,201,32510,1,2,0:0:0:0:
247,183,32826,1,0,0:0:0:0:
380,104,32984,2,0,P|336:98|293:102,1,77.0000023498536,8|0,0:0|0:0,0:0:0:0:
377,264,33300,6,0,L|470:255,1,77.0000023498536,6|0,0:0|0:0,0:0:0:0:
278,277,33615,1,8,0:0:0:0:
364,175,33773,1,0,0:0:0:0:
365,355,33931,2,0,P|320:364|276:362,1,77.0000023498536,6|0,0:0|0:0,0:0:0:0:
183,184,34247,2,0,P|221:184|258:192,1,77.0000023498536,8|0,0:0|0:0,0:0:0:0:
109,248,34563,5,6,0:0:0:0:
195,106,34721,1,2,0:0:0:0:
205,284,34879,1,10,0:0:0:0:
102,73,35036,1,2,0:0:0:0:
105,95,35352,1,0,0:0:0:0:
233,195,35510,2,0,P|285:199|319:196,1,77.0000023498536,8|0,0:0|0:0,0:0:0:0:
474,35,35826,6,0,L|364:32,1,83.9999974365235,6|0,0:0|0:0,0:0:0:0:
209,109,36142,2,0,P|252:115|293:106,1,83.9999974365235,8|0,0:0|0:0,0:0:0:0:
120,41,36458,1,6,0:0:0:0:
162,202,36615,1,0,0:0:0:0:
256,18,36773,1,8,0:0:0:0:
112,17,36931,1,0,0:0:0:0:
299,156,37089,6,0,P|353:162|395:157,2,77.0000023498536,6|0|8,0:0|0:0|0:0,0:0:0:0:
478,111,37563,2,0,P|488:157|482:202,1,77.0000023498536,2|0,0:0|0:0,0:0:0:0:
321,37,37879,2,0,B|356:25|386:37|386:37|414:26|414:26|444:37|476:25,1,154.000004699707,2|0,0:0|0:0,0:0:0:0:
299,156,38352,6,0,L|216:151,1,77.0000023498536,6|0,0:0|0:0,0:0:0:0:
422,228,38668,2,0,L|506:222,1,77.0000023498536,8|0,0:0|0:0,0:0:0:0:
298,263,38984,2,0,P|292:313|296:347,1,77.0000023498536,6|0,0:0|0:0,0:0:0:0:
418,114,39300,1,8,0:0:0:0:
418,114,39458,1,0,0:0:0:0:
225,189,39615,6,0,P|173:191|146:189,2,77.0000023498536,6|0|8,0:0|0:0|0:0,0:0:0:0:
34,129,40089,2,0,P|42:205|44:286,1,154.000004699707,2|0,0:0|0:0,0:0:0:0:
183,108,40563,2,0,P|184:63|180:31,1,77.0000023498536,8|0,0:0|0:0,0:0:0:0:
208,227,40879,6,0,P|259:240|291:242,2,77.0000023498536,6|2|8,0:0|0:0|0:0,0:0:0:0:
382,157,41352,2,0,P|391:234|395:322,1,154.000004699707,2|0,0:0|0:0,0:0:0:0:
277,148,41826,2,0,P|279:92|284:66,1,77.0000023498536,8|0,0:0|0:0,0:0:0:0:
315,260,42142,6,0,P|264:267|179:205,1,154.000004699707,6|8,0:0|0:0,0:0:0:0:
383,177,42615,2,0,P|417:240|388:335,1,154.000004699707,2|8,0:0|0:0,0:0:0:0:
315,104,43089,2,0,L|409:97,1,77.0000023498536,8|0,0:0|0:0,0:0:0:0:
185,224,43405,6,0,L|103:218,1,77.0000023498536,6|2,0:0|0:0,0:0:0:0:
198,51,43721,2,0,P|210:89|213:128,1,77.0000023498536,10|6,0:0|0:0,0:0:0:0:
11,219,44036,2,0,P|11:168|18:142,1,77.0000023498536,0|0,0:0|0:0,0:0:0:0:
155,317,44352,2,0,P|109:321|79:318,1,77.0000023498536,8|0,0:0|0:0,0:0:0:0:
240,226,44668,6,0,P|283:299|265:374,1,154.000004699707,2|8,0:0|0:0,0:0:0:0:
148,214,45142,1,0,0:0:0:0:
319,178,45300,1,8,0:0:0:0:
334,180,45379,1,8,0:0:0:0:
349,182,45458,1,8,0:0:0:0:
363,184,45536,1,8,0:0:0:0:
386,200,45615,1,8,0:0:0:0:
408,196,45694,1,8,0:0:0:0:
430,192,45773,1,8,0:0:0:0:
452,188,45852,1,8,0:0:0:0:
480,217,45931,6,0,P|491:258|495:308,1,83.9999974365235,6|0,0:0|0:0,0:0:0:0:
280,363,46247,2,0,P|284:321|295:280,1,83.9999974365235,8|0,0:0|0:0,0:0:0:0:
364,142,46563,1,2,0:0:0:0:
386,268,46721,1,0,0:0:0:0:
212,191,46879,1,8,0:0:0:0:
387,133,47036,6,0,P|468:156|513:238,1,167.999994873047,2|0,0:0|0:0,0:0:0:0:
291,171,47510,2,0,P|289:114|291:85,1,83.9999974365235,8|8,0:0|0:0,0:0:0:0:
410,285,47826,2,0,P|385:329|362:356,1,83.9999974365235,2|0,0:0|0:0,0:0:0:0:
176,266,48142,2,0,P|224:260|260:262,1,83.9999974365235,8|0,0:0|0:0,0:0:0:0:
475,169,48458,6,0,L|388:165,1,83.9999974365235,6|0,0:0|0:0,0:0:0:0:
182,69,48773,2,0,L|292:62,1,83.9999974365235,6|0,0:0|0:0,0:0:0:0:
225,267,49089,2,0,P|167:273|75:197,1,167.999994873047,6|8,0:0|0:0,0:0:0:0:
321,191,49563,6,0,P|324:345|323:367,1,167.999994873047,4|0,0:0|0:0,0:0:0:0:
183,152,50036,2,0,P|179:91|183:60,1,83.9999974365235,6|0,0:0|0:0,0:0:0:0:
333,56,50352,1,6,0:0:0:0:
333,56,50510,1,0,0:0:0:0:
232,254,50668,2,0,P|172:265|144:263,1,83.9999974365235,2|0,0:0|0:0,0:0:0:0:
390,181,50984,6,0,P|449:182|487:195,1,83.9999974365235,6|0,0:0|0:0,0:0:0:0:
312,331,51300,1,8,0:0:0:0:
277,163,51458,1,0,0:0:0:0:
424,284,51615,2,0,P|431:340|428:376,2,83.9999974365235,2|0|8,0:0|0:0|0:0,0:0:0:0:
277,163,52089,6,0,P|236:197|257:319,1,167.999994873047,2|0,0:0|0:0,0:0:0:0:
387,210,52563,2,0,P|392:156|388:123,1,83.9999974365235,8|8,0:0|0:0,0:0:0:0:
266,44,52879,1,2,0:0:0:0:
266,44,53036,1,0,0:0:0:0:
182,212,53194,2,0,L|184:303,1,83.9999974365235,8|0,0:0|0:0,0:0:0:0:
388,126,53510,6,0,P|322:118|297:119,1,83.9999974365235,6|0,0:0|0:0,0:0:0:0:
400,342,53826,2,0,P|441:341|483:334,1,83.9999974365235,6|0,0:0|0:0,0:0:0:0:
286,210,54142,2,0,P|227:281|225:363,1,167.999994873047,6|8,0:0|0:0,0:0:0:0:
409,225,54615,2,0,P|412:80|411:50,1,167.999994873047,6|0,0:0|0:0,0:0:0:0:
205,136,55089,2,0,P|205:200|208:227,1,83.9999974365235,6|0,0:0|0:0,0:0:0:0:
336,22,55405,2,0,P|276:35|251:47,1,83.9999974365235,6|0,0:0|0:0,0:0:0:0:
397,157,55721,1,2,0:0:0:0:
413,154,55800,1,0,0:0:0:0:
429,152,55879,1,0,0:0:0:0:
445,150,55958,1,0,0:0:0:0:
460,148,56036,6,0,L|454:47,1,90.9999958343508,2|0,0:0|0:0,0:0:0:0:
284,220,56352,2,0,L|294:120,1,90.9999958343508,8|0,0:0|0:0,0:0:0:0:
151,100,56668,2,0,L|140:-3,1,90.9999958343508,2|0,0:0|0:0,0:0:0:0:
371,166,56984,2,0,L|376:65,1,90.9999958343508,8|0,0:0|0:0,0:0:0:0:
161,251,57300,6,0,L|167:357,1,90.9999958343508,2|0,0:0|0:0,0:0:0:0:
364,270,57615,2,0,L|354:373,1,90.9999958343508,8|0,0:0|0:0,0:0:0:0:
247,190,57931,2,0,L|262:295,1,90.9999958343508,2|0,0:0|0:0,0:0:0:0:
362,86,58247,2,0,L|352:181,1,90.9999958343508,8|0,0:0|0:0,0:0:0:0:
178,112,58563,5,2,0:0:0:0:
178,112,58721,1,0,0:0:0:0:
262,37,58879,1,8,0:0:0:0:
262,37,59036,1,0,0:0:0:0:
273,166,59194,2,0,L|266:269,1,90.9999958343508,2|0,0:0|0:0,0:0:0:0:
73,172,59510,2,0,L|82:58,1,90.9999958343508,8|0,0:0|0:0,0:0:0:0:
158,302,59826,6,0,L|105:311,3,45.4999979171754,10|0|8|0,0:0|0:0|0:0|0:0,0:0:0:0:
240,343,60142,2,0,L|297:350,3,45.4999979171754,8|0|8|0,0:0|0:0|0:0|0:0,0:0:0:0:
263,262,60458,2,0,P|305:244|364:253,1,90.9999958343508,8|8,0:0|0:0,0:0:0:0:
423,274,60694,1,8,0:0:0:0:
423,274,60773,2,0,L|421:178,1,90.9999958343508,8|8,0:0|0:0,0:0:0:0:
416,60,61089,5,14,0:0:0:0:
256,192,61168,12,4,63536,3:0:0:0:
