osu file format v14

[General]
AudioFilename: audio.mp3
AudioLeadIn: 0
PreviewTime: 45931
Countdown: 0
SampleSet: Soft
StackLeniency: 0.7
Mode: 0
LetterboxInBreaks: 0
WidescreenStoryboard: 0

[Editor]
Bookmarks: 51931
DistanceSpacing: 1
BeatDivisor: 4
GridSize: 16
TimelineZoom: 1.6

[Metadata]
Title:Gohan wa Okazu
TitleUnicode:ごはんはおかず
Artist:HO-KAGO TEA TIME
ArtistUnicode:放課後ティータイム
Creator:MashaSG
Version:Tea Time!!
Source:けいおん!!
Tags:K-ON! Light Music Rice is a Dish J-Pop bice TheMefisto Pata-Mon Karen vanucik wajinshu Fanteer Momochikun Underforest Armin A_r_M_i_N
BeatmapID:1252078
BeatmapSetID:591709

[Difficulty]
HPDrainRate:6
CircleSize:4
OverallDifficulty:8.8
ApproachRate:9.2
SliderMultiplier:1.9
SliderTickRate:2

[Events]
//Background and Video events
0,0,"Waifu.jpg",0,0
//Break Periods
//Storyboard Layer 0 (Background)
//Storyboard Layer 1 (Fail)
//Storyboard Layer 2 (Pass)
//Storyboard Layer 3 (Foreground)
//Storyboard Sound Samples

[TimingPoints]
458,315.789473684211,4,2,1,80,1,0
10563,-111.111111111111,4,2,1,80,0,0
13958,-111.111111111111,4,2,1,5,0,0
14036,-111.111111111111,4,2,1,80,0,0
19010,-111.111111111111,4,2,1,5,0,0
19089,-111.111111111111,4,2,1,80,0,0
20352,-166.666666666667,4,2,1,80,0,0
20589,-166.666666666667,4,2,1,5,0,0
20668,-105.263157894737,4,2,1,80,0,0
25958,-105.263157894737,4,2,1,5,0,0
26036,-105.263157894737,4,2,1,80,0,0
27300,-117.64705882353,4,2,1,80,0,0
28484,-117.64705882353,4,2,1,5,0,0
28563,-117.64705882353,4,2,1,80,0,0
30773,-100,4,2,1,80,0,0
32273,-100,4,2,1,5,0,0
32352,-100,4,2,1,80,0,0
32747,-111.111111111111,4,2,1,5,0,0
32826,-100,4,2,1,80,0,0
35036,-90.9090909090909,4,2,1,80,0,0
35510,-111.111111111111,4,2,1,80,0,0
35747,-111.111111111111,4,2,1,5,0,0
35826,-100,4,2,1,80,0,0
40326,-100,4,2,1,5,0,0
40405,-100,4,2,1,80,0,0
40800,-100,4,2,1,5,0,0
40879,-100,4,2,1,80,0,0
41589,-100,4,2,1,5,0,0
41668,-100,4,2,1,80,0,0
42379,-100,4,2,1,5,0,0
42458,-100,4,2,1,80,0,0
43879,-83.3333333333333,4,2,1,80,0,0
44352,-100,4,2,1,80,0,0
45931,-83.3333333333333,4,2,1,80,0,1
50668,-100,4,2,1,80,0,0
50905,-100,4,2,1,5,0,0
50984,-83.3333333333333,4,2,1,80,0,1
55721,-100,4,2,1,80,0,0
55958,-100,4,2,1,5,0,0
56036,-100,4,2,1,80,0,0
59905,-100,4,2,1,40,0,0
60142,-100,4,2,1,80,0,0
60221,-100,4,2,1,40,0,0
60458,-100,4,2,1,80,0,0
60773,-100,4,2,1,80,0,0
63536,-100,4,2,1,40,0,0

[Colours]
Combo1 : 255,128,192
Combo2 : 113,184,255
Combo3 : 176,88,0
Combo4 : 0,128,192

[HitObjects]
295,28,458,6,0,B|319:87|319:87|295:220,1,190,6|8,0:0|0:0,0:0:0:0:
220,99,931,1,0,0:0:0:0:
395,107,1089,2,0,B|371:240,1,95,2|0,0:0|0:0,0:0:0:0:
197,223,1405,1,8,0:0:0:0:
373,31,1563,6,0,P|417:32|450:163,1,190,2|0,0:0|0:0,0:0:0:0:
220,99,2036,1,8,0:0:0:0:
347,277,2194,2,0,B|440:293,1,95,8|2,0:0|0:0,0:0:0:0:
319,88,2510,1,0,0:0:0:0:
256,302,2668,2,0,B|349:318,1,95,8|0,0:0|0:0,0:0:0:0:
101,141,2984,6,0,B|122:258,1,95,6|0,0:0|0:0,0:0:0:0:
260,8,3300,1,8,0:0:0:0:
226,194,3458,1,0,0:0:0:0:
46,64,3615,2,0,B|62:157,1,95,2|0,0:0|0:0,0:0:0:0:
133,327,3931,1,8,0:0:0:0:
220,99,4089,6,0,P|286:121|304:248,1,190,2|0,0:0|0:0,0:0:0:0:
70,264,4563,2,0,P|123:238|174:248,1,95,10|0,0:0|0:0,0:0:0:0:
398,274,4879,2,0,P|345:320|251:303,1,142.5,2|0,0:0|0:0,0:0:0:0:
238,290,5194,2,0,P|250:348|227:392,1,95,8|0,0:0|0:0,0:0:0:0:
109,166,5510,6,0,B|201:126|201:198|297:154,1,190,6|8,0:0|0:0,0:0:0:0:
179,13,5984,1,0,0:0:0:0:
157,241,6142,2,0,B|173:334,1,95,2|0,0:0|0:0,0:0:0:0:
236,84,6458,1,8,0:0:0:0:
20,166,6615,6,0,P|66:244|157:241,1,190,2|0,0:0|0:0,0:0:0:0:
326,71,7089,1,8,0:0:0:0:
398,274,7247,2,0,B|414:181,1,95,8|2,0:0|0:0,0:0:0:0:
236,84,7563,1,0,0:0:0:0:
343,349,7721,2,0,B|359:256,1,95,8|0,0:0|0:0,0:0:0:0:
146,97,8036,6,0,P|176:154|215:173,1,95,6|0,0:0|0:0,0:0:0:0:
180,13,8352,1,8,0:0:0:0:
19,171,8510,1,0,0:0:0:0:
236,84,8668,2,0,P|270:29|267:-13,1,95,2|0,0:0|0:0,0:0:0:0:
18,25,8984,1,8,0:0:0:0:
200,168,9142,6,0,P|149:174|152:301,1,190,2|0,0:0|0:0,0:0:0:0:
343,349,9615,2,0,P|285:335|237:356,1,95,8|0,0:0|0:0,0:0:0:0:
280,164,9931,1,2,0:0:0:0:
433,314,10090,5,8,0:0:0:0:
440,269,10168,1,8,0:0:0:0:
448,224,10247,1,8,0:0:0:0:
456,179,10326,1,8,0:0:0:0:
463,134,10405,1,8,0:0:0:0:
472,89,10484,1,8,0:0:0:0:
479,44,10563,6,0,P|413:52|375:36,1,85.4999973907472,6|0,0:0|0:0,0:0:0:0:
270,0,10879,1,8,0:0:0:0:
270,0,11036,2,0,B|295:53|295:53|279:172,1,170.999994781494,2|0,0:0|0:0,0:0:0:0:
188,252,11510,2,0,B|199:167,1,85.4999973907472,8|0,0:0|0:0,0:0:0:0:
232,347,11826,6,0,P|166:355|128:339,1,85.4999973907472,2|0,0:0|0:0,0:0:0:0:
84,266,12142,1,8,0:0:0:0:
84,266,12300,2,0,P|120:304|45:297,1,170.999994781494,2|0,0:0|0:0,0:0:0:0:
199,167,12773,2,0,L|92:171,1,85.4999973907472,8|0,0:0|0:0,0:0:0:0:
296,206,13089,6,0,P|304:164|294:123,1,85.4999973907472,2|0,0:0|0:0,0:0:0:0:
209,62,13405,1,8,0:0:0:0:
209,62,13563,1,0,0:0:0:0:
217,274,13721,2,0,P|295:310|361:288,1,128.249996086121,2|0,0:0|0:0,0:0:0:0:
369,279,14036,2,0,P|361:321|371:362,1,85.4999973907472,8|0,0:0|0:0,0:0:0:0:
296,206,14352,5,2,0:0:0:0:
441,177,14510,1,2,0:0:0:0:
279,197,14668,1,10,0:0:0:0:
512,252,14826,1,2,0:0:0:0:
309,22,15142,5,2,0:0:0:0:
309,22,15300,1,2,0:0:0:0:
108,231,15615,6,0,P|115:189|105:147,1,85.4999973907472,6|0,0:0|0:0,0:0:0:0:
35,304,15931,1,8,0:0:0:0:
35,304,16089,2,0,P|87:333|191:293,1,170.999994781494,2|0,0:0|0:0,0:0:0:0:
279,197,16563,2,0,B|290:282,1,85.4999973907472,8|0,0:0|0:0,0:0:0:0:
372,96,16879,6,0,P|362:138|370:180,1,85.4999973907472,2|0,0:0|0:0,0:0:0:0:
454,291,17194,1,8,0:0:0:0:
454,291,17352,2,0,B|401:266|401:266|282:282,1,170.999994781494,2|0,0:0|0:0,0:0:0:0:
169,384,17826,2,0,B|253:372,1,85.4999973907472,8|0,0:0|0:0,0:0:0:0:
133,293,18142,6,0,P|98:317|75:354,1,85.4999973907472,2|0,0:0|0:0,0:0:0:0:
13,209,18457,1,8,0:0:0:0:
13,209,18615,1,0,0:0:0:0:
146,148,18774,2,0,P|224:184|290:162,1,128.249996086121,2|0,0:0|0:0,0:0:0:0:
298,153,19089,2,0,P|290:195|300:236,1,85.4999973907472,8|0,0:0|0:0,0:0:0:0:
225,82,19405,5,2,0:0:0:0:
374,193,19563,1,2,0:0:0:0:
201,85,19721,1,8,0:0:0:0:
479,44,19879,1,2,0:0:0:0:
372,278,20194,5,2,0:0:0:0:
191,236,20352,2,0,B|294:221,1,85.4999973907472,8|0,0:0|0:0,0:0:0:0:
299,235,20668,6,0,B|120:260,1,180.49999518013,6|0,0:0|0:0,0:0:0:0:
146,148,21142,1,0,0:0:0:0:
165,347,21300,2,0,B|48:363,1,90.2499975900651,8|0,0:0|0:0,0:0:0:0:
149,135,21615,1,8,0:0:0:0:
254,334,21773,1,8,0:0:0:0:
368,32,22089,5,8,0:0:0:0:
368,32,22247,2,0,B|491:14,1,90.2499975900651,0|0,0:0|0:0,0:0:0:0:
269,5,22563,2,0,P|268:50|286:91,1,90.2499975900651,8|0,0:0|0:0,0:0:0:0:
394,217,22879,2,0,P|395:172|377:131,1,90.2499975900651,0|0,0:0|0:0,0:0:0:0:
184,84,23194,6,0,P|217:165|301:189,1,180.49999518013,6|0,0:0|0:0,0:0:0:0:
368,32,23668,1,0,0:0:0:0:
394,217,23826,2,0,B|410:334,1,90.2499975900651,8|0,0:0|0:0,0:0:0:0:
459,74,24142,1,8,0:0:0:0:
323,283,24300,1,8,0:0:0:0:
96,73,24615,5,8,0:0:0:0:
96,73,24773,2,0,B|218:91,1,90.2499975900651,0|0,0:0|0:0,0:0:0:0:
0,104,25089,2,0,P|-5:60|9:18,1,90.2499975900651,8|0,0:0|0:0,0:0:0:0:
75,172,25405,2,0,P|80:216|65:258,1,90.2499975900651,0|0,0:0|0:0,0:0:0:0:
93,55,25721,6,0,B|235:76,1,135.374996385098,6|0,0:0|0:0,0:0:0:0:
271,82,26036,1,8,0:0:0:0:
459,74,26194,2,0,B|336:92,1,90.2499975900651,0|0,0:0|0:0,0:0:0:0:
246,208,26510,5,10,0:0:0:0:
325,0,26668,1,10,0:0:0:0:
406,306,26826,2,0,B|417:216,1,90.2499975900651,2|0,0:0|0:0,0:0:0:0:
0,104,27300,6,0,P|-1:50|22:5,1,80.750001540184,2|0,0:0|0:0,0:0:0:0:
75,169,27615,2,0,P|28:197|-21:197,1,80.750001540184,2|0,0:0|0:0,0:0:0:0:
96,73,27931,2,0,P|142:98|168:142,1,80.750001540184,2|0,0:0|0:0,0:0:0:0:
170,330,28247,6,0,B|149:286|149:286|162:188,1,121.125002310276,6|0,0:0|0:0,0:0:0:0:
192,189,28563,2,0,B|181:268,1,80.750001540184,8|0,0:0|0:0,0:0:0:0:
79,173,28879,1,2,0:0:0:0:
79,173,29036,1,0,0:0:0:0:
271,82,29194,2,0,B|281:162,1,80.750001540184,8|0,0:0|0:0,0:0:0:0:
406,306,29510,5,2,0:0:0:0:
421,185,29668,1,2,0:0:0:0:
413,321,29826,1,10,0:0:0:0:
406,163,29984,1,2,0:0:0:0:
512,355,30142,1,10,0:0:0:0:
292,255,30300,5,8,0:0:0:0:
259,259,30378,1,8,0:0:0:0:
226,264,30457,1,8,0:0:0:0:
193,268,30536,1,8,0:0:0:0:
160,273,30615,1,8,0:0:0:0:
127,277,30694,1,8,0:0:0:0:
94,282,30773,5,6,0:0:0:0:
174,361,30931,1,0,0:0:0:0:
171,194,31089,1,8,0:0:0:0:
160,354,31247,1,0,0:0:0:0:
57,172,31405,5,6,0:0:0:0:
259,259,31563,1,0,0:0:0:0:
64,375,31721,1,8,0:0:0:0:
279,286,31879,1,0,0:0:0:0:
133,84,32036,6,0,B|180:100|180:100|300:76,1,142.5,6|0,0:0|0:0,0:0:0:0:
314,60,32352,1,8,0:0:0:0:
436,274,32510,2,0,P|368:238|284:276,1,142.5,2|0,0:0|0:0,0:0:0:0:
279,286,32826,1,0,0:0:0:0:
309,155,32984,1,8,0:0:0:0:
361,335,33142,1,0,0:0:0:0:
405,137,33300,6,0,B|521:122,1,95,6|0,0:0|0:0,0:0:0:0:
318,64,33615,1,8,0:0:0:0:
318,64,33773,1,0,0:0:0:0:
307,253,33931,6,0,B|423:238,1,95,6|0,0:0|0:0,0:0:0:0:
220,180,34246,1,8,0:0:0:0:
220,180,34404,1,0,0:0:0:0:
209,369,34563,5,6,0:0:0:0:
309,155,34721,1,2,0:0:0:0:
94,282,34879,1,10,0:0:0:0:
389,350,35036,2,0,B|409:312|392:262|392:262|401:240|401:240|376:193|404:140,1,209.000006378174,2|0,0:0|0:0,0:0:0:0:
444,15,35510,2,0,P|435:48|332:60,1,128.249996086121,8|0,0:0|0:0,0:0:0:0:
307,63,35826,6,0,P|318:108|308:154,1,95,6|0,0:0|0:0,0:0:0:0:
389,350,36142,2,0,P|377:304|387:258,1,95,8|0,0:0|0:0,0:0:0:0:
209,369,36458,2,0,P|163:379|117:367,1,95,6|0,0:0|0:0,0:0:0:0:
35,166,36773,1,8,0:0:0:0:
9,384,36931,1,0,0:0:0:0:
165,270,37089,6,0,B|150:154,1,95,6|0,0:0|0:0,0:0:0:0:
10,69,37405,1,8,0:0:0:0:
10,69,37563,2,0,P|75:78|125:54,1,95,2|0,0:0|0:0,0:0:0:0:
282,0,37879,2,0,B|269:49|269:49|286:190,1,190,2|0,0:0|0:0,0:0:0:0:
311,359,38352,5,6,0:0:0:0:
367,142,38510,1,0,0:0:0:0:
202,238,38668,1,8,0:0:0:0:
388,265,38826,1,0,0:0:0:0:
216,49,38984,5,6,0:0:0:0:
288,285,39142,1,0,0:0:0:0:
367,142,39300,1,8,0:0:0:0:
153,176,39458,1,0,0:0:0:0:
392,269,39615,5,6,0:0:0:0:
392,269,39773,2,0,P|382:315|394:360,1,95,0|8,0:0|0:0,0:0:0:0:
441,186,40089,2,0,P|388:225|303:199,1,142.5,2|0,0:0|0:0,0:0:0:0:
288,173,40405,1,0,0:0:0:0:
235,341,40563,2,0,P|167:355|110:315,1,142.5,8|0,0:0|0:0,0:0:0:0:
96,270,40879,5,6,0:0:0:0:
96,270,41036,2,0,P|106:316|94:361,1,95,2|8,0:0|0:0,0:0:0:0:
43,191,41352,2,0,P|96:230|181:204,1,142.5,2|0,0:0|0:0,0:0:0:0:
196,178,41668,1,0,0:0:0:0:
235,341,41826,1,8,0:0:0:0:
289,177,41984,1,0,0:0:0:0:
323,355,42142,6,0,L|475:375,1,142.5,6|0,0:0|0:0,0:0:0:0:
512,381,42458,1,8,0:0:0:0:
385,258,42615,2,0,L|270:273,1,95,2|0,0:0|0:0,0:0:0:0:
473,214,42931,1,8,0:0:0:0:
323,355,43089,1,8,0:0:0:0:
279,65,43405,5,6,0:0:0:0:
473,214,43563,1,2,0:0:0:0:
197,271,43721,1,10,0:0:0:0:
403,36,43879,6,0,B|416:82|389:134|389:134|390:158|390:158|367:208|386:263,1,227.999993041992,6|0,0:0|0:0,0:0:0:0:
480,122,44352,2,0,P|490:73|483:26,1,95,8|0,0:0|0:0,0:0:0:0:
302,158,44668,2,0,P|292:207|299:254,1,95,2|0,0:0|0:0,0:0:0:0:
403,36,44984,2,0,P|354:26|307:33,1,95,8|0,0:0|0:0,0:0:0:0:
384,257,45300,5,8,0:0:0:0:
429,267,45378,1,8,0:0:0:0:
471,248,45457,1,8,0:0:0:0:
493,207,45536,1,8,0:0:0:0:
486,161,45615,1,8,0:0:0:0:
452,129,45694,1,8,0:0:0:0:
405,125,45773,1,8,0:0:0:0:
366,149,45852,1,8,0:0:0:0:
350,194,45931,6,0,P|298:211|240:195,1,113.999996520996,6|0,0:0|0:0,0:0:0:0:
101,69,46247,2,0,L|111:184,1,113.999996520996,8|0,0:0|0:0,0:0:0:0:
129,384,46563,1,2,0:0:0:0:
242,196,46721,1,0,0:0:0:0:
0,296,46879,1,8,0:0:0:0:
335,327,47036,6,0,L|221:337,1,113.999996520996,2|0,0:0|0:0,0:0:0:0:
0,296,47352,1,0,0:0:0:0:
219,83,47510,1,8,0:0:0:0:
129,384,47668,2,0,P|120:312|143:268,1,113.999996520996,8|0,0:0|0:0,0:0:0:0:
350,194,47984,1,0,0:0:0:0:
105,92,48142,2,0,L|219:82,1,113.999996520996,8|0,0:0|0:0,0:0:0:0:
136,276,48458,5,6,0:0:0:0:
111,78,48615,1,0,0:0:0:0:
350,194,48773,5,6,0:0:0:0:
121,184,48931,1,0,0:0:0:0:
319,10,49088,5,6,0:0:0:0:
300,294,49247,1,0,0:0:0:0:
117,64,49405,1,8,0:0:0:0:
470,24,49563,6,0,B|452:67|473:116|473:116|457:137|457:137|483:195|458:248,1,227.999993041992,6|0,0:0|0:0,0:0:0:0:
337,384,50036,2,0,P|387:351|454:360,1,113.999996520996,6|0,0:0|0:0,0:0:0:0:
238,200,50352,2,0,P|247:267|165:352,1,170.999994781494,6|0,0:0|0:0,0:0:0:0:
79,364,50668,6,0,B|132:348|132:348|217:371,1,142.5,8|0,0:0|0:0,0:0:0:0:
139,246,50984,6,0,P|131:179|152:133,1,113.999996520996,6|0,0:0|0:0,0:0:0:0:
458,137,51300,2,0,L|344:127,1,113.999996520996,8|0,0:0|0:0,0:0:0:0:
157,28,51615,1,2,0:0:0:0:
238,200,51773,1,0,0:0:0:0:
318,0,51931,1,8,0:0:0:0:
35,127,52089,6,0,L|149:137,1,113.999996520996,2|0,0:0|0:0,0:0:0:0:
344,127,52405,1,0,0:0:0:0:
133,348,52563,1,8,0:0:0:0:
157,28,52721,2,0,P|208:45|245:93,1,113.999996520996,8|0,0:0|0:0,0:0:0:0:
185,274,53036,1,0,0:0:0:0:
452,243,53194,2,0,L|338:253,1,113.999996520996,8|0,0:0|0:0,0:0:0:0:
410,34,53510,5,6,0:0:0:0:
458,257,53668,1,0,0:0:0:0:
244,91,53826,5,6,0:0:0:0:
512,121,53984,1,0,0:0:0:0:
274,341,54142,5,6,0:0:0:0:
410,34,54300,1,0,0:0:0:0:
466,351,54458,1,8,0:0:0:0:
115,244,54615,6,0,B|192:224|192:224|343:253,1,227.999993041992,6|0,0:0|0:0,0:0:0:0:
34,306,55089,2,0,P|13:253|25:198,1,113.999996520996,6|0,0:0|0:0,0:0:0:0:
244,91,55405,2,0,P|176:113|88:47,1,170.999994781494,6|0,0:0|0:0,0:0:0:0:
75,0,55721,6,0,B|91:53|91:53|68:138,1,142.5,8|0,0:0|0:0,0:0:0:0:
182,14,56036,6,0,L|277:5,1,95,2|0,0:0|0:0,0:0:0:0:
512,121,56352,2,0,L|416:112,1,95,8|0,0:0|0:0,0:0:0:0:
191,224,56668,1,2,0:0:0:0:
293,129,56826,1,0,0:0:0:0:
391,322,56984,1,8,0:0:0:0:
289,227,57142,1,0,0:0:0:0:
107,384,57300,6,0,L|115:288,1,95,2|0,0:0|0:0,0:0:0:0:
182,14,57615,2,0,L|190:108,1,95,8|0,0:0|0:0,0:0:0:0:
281,321,57931,2,0,L|289:225,1,95,2|0,0:0|0:0,0:0:0:0:
335,38,58247,2,0,L|343:132,1,95,8|0,0:0|0:0,0:0:0:0:
95,116,58563,6,0,L|189:107,1,95,2|0,0:0|0:0,0:0:0:0:
383,235,58879,2,0,L|288:226,1,95,8|0,0:0|0:0,0:0:0:0:
95,352,59194,1,2,0:0:0:0:
179,215,59352,1,0,0:0:0:0:
277,369,59510,1,8,0:0:0:0:
68,241,59668,1,0,0:0:0:0:
306,70,59826,5,10,0:0:0:0:
306,70,59905,1,8,0:0:0:0:
306,70,59984,1,8,0:0:0:0:
306,70,60063,1,8,0:0:0:0:
306,70,60142,2,0,L|295:122,1,47.5,8|8,0:0|0:0,0:0:0:0:
188,261,60300,5,8,0:0:0:0:
188,261,60379,1,8,0:0:0:0:
188,261,60458,2,0,L|178:214,1,47.5,8|0,0:0|0:0,0:0:0:0:
383,235,60615,5,8,0:0:0:0:
357,231,60694,1,8,0:0:0:0:
331,227,60773,1,8,0:0:0:0:
512,121,60931,1,8,0:0:0:0:
448,384,61089,5,14,0:0:0:0:
256,192,61168,12,4,63536,3:0:0:0:
