osu file format v14

[General]
AudioFilename: audio.mp3
AudioLeadIn: 0
PreviewTime: 45931
Countdown: 0
SampleSet: Soft
StackLeniency: 0.6
Mode: 0
LetterboxInBreaks: 0
WidescreenStoryboard: 0

[Editor]
Bookmarks: 10563,20668,30773,45931
DistanceSpacing: 1.1
BeatDivisor: 4
GridSize: 32
TimelineZoom: 1.4

[Metadata]
Title:Gohan wa Okazu
TitleUnicode:ごはんはおかず
Artist:HO-KAGO TEA TIME
ArtistUnicode:放課後ティータイム
Creator:MashaSG
Version:Pata-Mon's Hyper!!
Source:けいおん!!
Tags:K-ON! Light Music Rice is a Dish J-Pop bice TheMefisto Pata-Mon Karen vanucik wajinshu Fanteer Momochikun Underforest Armin A_r_M_i_N
BeatmapID:1257532
BeatmapSetID:591709

[Difficulty]
HPDrainRate:5
CircleSize:3.8
OverallDifficulty:6.5
ApproachRate:8
SliderMultiplier:1.5
SliderTickRate:1

[Events]
//Background and Video events
0,0,"pata.jpg",0,0
//Break Periods
//Storyboard Layer 0 (Background)
//Storyboard Layer 1 (Fail)
//Storyboard Layer 2 (Pass)
//Storyboard Layer 3 (Foreground)
//Storyboard Sound Samples

[TimingPoints]
458,315.789473684211,4,2,23,80,1,0
10089,-100,4,2,23,60,0,0
10563,-125,4,2,23,55,0,0
20668,-125,4,2,23,80,0,0
25721,-100,4,2,23,80,0,0
30458,-100,4,2,23,60,0,0
30773,-100,4,2,23,80,0,0
45300,-100,4,2,23,50,0,0
45615,-100,4,2,23,60,0,0
45931,-100,4,2,23,80,0,1
56036,-100,4,2,23,80,0,0
59905,-100,4,2,23,40,0,0
60142,-100,4,2,23,80,0,0
60221,-100,4,2,23,40,0,0
60458,-100,4,2,23,80,0,0
60536,-100,4,2,23,40,0,0
60773,-100,4,2,23,80,0,0
63536,-100,4,2,23,40,0,0

[Colours]
Combo1 : 191,63,255
Combo2 : 255,127,159
Combo3 : 255,159,63

[HitObjects]
214,157,457,6,0,P|189:184|177:220,1,75,6|0,0:0|0:0,0:0:0:0:
219,292,773,2,0,P|255:299|292:292,1,75,8|0,0:0|0:0,0:0:0:0:
334,220,1089,2,0,P|322:185|297:157,1,75,2|0,0:0|0:0,0:0:0:0:
292,292,1405,1,8,0:0:0:0:
417,220,1563,6,0,P|391:141|326:77,1,150,6|0,0:0|0:0,0:0:0:0:
188,69,2036,1,8,0:0:0:0:
348,9,2194,1,8,0:0:0:0:
273,43,2352,2,0,L|261:141,1,75,2|0,0:0|0:0,0:0:0:0:
332,264,2668,2,0,L|320:166,1,75,8|0,0:0|0:0,0:0:0:0:
188,69,2984,6,0,L|164:265,1,150,6|8,0:0|0:0,0:0:0:0:
231,274,3458,1,2,0:0:0:0:
93,166,3615,2,0,L|69:362,1,150,6|8,0:0|0:0,0:0:0:0:
300,228,4089,6,0,P|252:194|170:218,1,150,6|0,0:0|0:0,0:0:0:0:
305,311,4563,2,0,L|394:309,1,75,8|0,0:0|0:0,0:0:0:0:
231,274,4879,1,2,0:0:0:0:
227,278,5036,1,2,0:0:0:0:
375,226,5194,2,0,L|286:228,1,75,8|0,0:0|0:0,0:0:0:0:
449,263,5510,6,0,P|454:202|412:152,1,75,6|0,0:0|0:0,0:0:0:0:
398,125,5826,2,0,P|389:88|398:52,1,75,8|0,0:0|0:0,0:0:0:0:
480,41,6142,2,0,P|489:78|480:114,1,75,2|0,0:0|0:0,0:0:0:0:
366,201,6458,1,8,0:0:0:0:
278,74,6615,6,0,P|338:66|398:125,1,150,6|0,0:0|0:0,0:0:0:0:
310,267,7089,1,8,0:0:0:0:
448,191,7247,1,8,0:0:0:0:
366,201,7405,2,0,P|323:160|323:91,1,75,2|0,0:0|0:0,0:0:0:0:
481,126,7721,2,0,P|474:158|448:191,1,75,8|0,0:0|0:0,0:0:0:0:
278,74,8036,6,0,P|338:66|398:125,1,150,6|8,0:0|0:0,0:0:0:0:
318,147,8510,1,2,0:0:0:0:
174,152,8668,2,0,L|209:-11,1,150,6|8,0:0|0:0,0:0:0:0:
318,147,9142,6,0,L|283:310,1,150,6|0,0:0|0:0,0:0:0:0:
137,281,9615,2,0,P|171:267|209:265,1,75,8|0,0:0|0:0,0:0:0:0:
85,345,9931,1,2,0:0:0:0:
55,268,10089,1,8,0:0:0:0:
59,264,10168,1,8,0:0:0:0:
63,260,10247,2,0,L|71:218,3,37.5,8|8|8|8,0:0|0:0|0:0|0:0,0:0:0:0:
39,198,10563,6,0,P|29:157|32:78,1,120,6|0,0:0|0:0,0:0:0:0:
78,17,11036,2,0,L|137:21,1,60,2|0,0:0|0:0,0:0:0:0:
202,66,11352,1,2,0:0:0:0:
266,21,11510,2,0,L|325:17,1,60,2|0,0:0|0:0,0:0:0:0:
367,122,11826,6,0,L|234:131,1,120,2|0,0:0|0:0,0:0:0:0:
202,66,12300,2,0,L|143:62,1,60,2|0,0:0|0:0,0:0:0:0:
64,60,12615,1,2,0:0:0:0:
29,130,12773,2,0,P|32:168|46:209,1,60,2|0,0:0|0:0,0:0:0:0:
53,307,13089,6,0,P|82:258|146:236,1,120,2|0,0:0|0:0,0:0:0:0:
213,259,13563,1,2,0:0:0:0:
291,255,13721,2,0,L|401:249,1,60,2|0,0:0|0:0,0:0:0:0:
408,198,14036,1,2,0:0:0:0:
412,202,14194,1,0,0:0:0:0:
405,317,14352,5,2,0:0:0:0:
355,256,14510,1,2,0:0:0:0:
416,206,14668,1,2,0:0:0:0:
466,267,14826,1,2,0:0:0:0:
470,271,15142,5,2,0:0:0:0:
359,260,15300,1,2,0:0:0:0:
475,59,15615,6,0,P|444:35|342:28,1,120,6|0,0:0|0:0,0:0:0:0:
299,63,16089,2,0,L|240:67,1,60,2|0,0:0|0:0,0:0:0:0:
175,22,16405,1,2,0:0:0:0:
111,67,16563,2,0,L|52:63,1,60,2|0,0:0|0:0,0:0:0:0:
175,22,16879,6,0,P|174:113|97:144,1,120,2|0,0:0|0:0,0:0:0:0:
90,169,17352,2,0,L|95:271,1,60,2|0,0:0|0:0,0:0:0:0:
101,307,17668,1,2,0:0:0:0:
162,354,17826,2,0,P|189:359|232:352,1,60,2|0,0:0|0:0,0:0:0:0:
283,284,18142,6,0,P|339:362|414:344,1,120,2|0,0:0|0:0,0:0:0:0:
426,331,18615,1,2,0:0:0:0:
361,287,18773,2,0,L|368:206,1,60,2|0,0:0|0:0,0:0:0:0:
402,156,19089,1,2,0:0:0:0:
406,160,19247,1,0,0:0:0:0:
437,271,19405,5,6,0:0:0:0:
370,231,19563,1,2,0:0:0:0:
410,164,19721,1,2,0:0:0:0:
477,204,19879,1,2,0:0:0:0:
481,208,20194,5,2,0:0:0:0:
374,235,20352,1,8,0:0:0:0:
203,208,20668,6,0,P|286:243|373:235,1,180,6|0,0:0|0:0,0:0:0:0:
435,122,21300,2,0,L|429:223,1,60,8|0,0:0|0:0,0:0:0:0:
374,235,21615,2,0,L|380:336,1,60,8|0,0:0|0:0,0:0:0:0:
374,299,22089,5,8,0:0:0:0:
299,278,22247,2,0,L|198:284,1,60,2|0,0:0|0:0,0:0:0:0:
185,337,22563,2,0,L|34:328,1,120,8|0,0:0|0:0,0:0:0:0:
52,133,23194,6,0,L|254:145,1,180,6|0,0:0|0:0,0:0:0:0:
263,10,23826,2,0,P|253:38|254:67,1,60,8|0,0:0|0:0,0:0:0:0:
308,125,24142,2,0,P|301:180|263:216,1,60,8|0,0:0|0:0,0:0:0:0:
303,187,24615,5,8,0:0:0:0:
373,220,24773,2,0,L|452:218,1,60,2|0,0:0|0:0,0:0:0:0:
497,173,25089,2,0,P|512:107|483:35,1,120,8|0,0:0|0:0,0:0:0:0:
238,97,25721,6,0,L|387:113,1,150,6|8,0:0|0:0,0:0:0:0:
419,189,26194,2,0,P|423:229|411:280,1,75,2|0,0:0|0:0,0:0:0:0:
288,324,26510,1,8,0:0:0:0:
300,181,26668,1,2,0:0:0:0:
417,263,26826,1,8,0:0:0:0:
335,256,26984,5,2,0:0:0:0:
331,260,27300,2,0,L|236:270,1,75,8|0,0:0|0:0,0:0:0:0:
203,205,27615,2,0,L|108:195,1,75,2|0,0:0|0:0,0:0:0:0:
75,134,27931,2,0,L|-20:144,1,75,8|0,0:0|0:0,0:0:0:0:
119,64,28247,6,0,P|166:40|286:57,1,150,2|8,0:0|0:0,0:0:0:0:
346,226,28879,2,0,L|271:219,1,75,2|0,0:0|0:0,0:0:0:0:
205,170,29194,1,8,0:0:0:0:
433,230,29510,6,0,L|440:305,1,75,2|0,0:0|0:0,0:0:0:0:
353,151,29826,2,0,L|346:226,1,75,12|0,0:0|0:0,0:0:0:0:
433,72,30142,2,0,L|440:147,1,75,2|0,0:0|0:0,0:0:0:0:
353,7,30458,2,0,L|349:44,3,37.5,8|8|8|8,0:0|0:0|0:0|0:0,0:0:0:0:
320,74,30773,6,0,P|243:71|150:108,1,150,6|8,0:0|0:0,0:0:0:0:
114,150,31247,1,0,0:0:0:0:
213,244,31405,2,0,P|213:214|193:175,1,75,2|0,0:0|0:0,0:0:0:0:
80,295,31721,1,8,0:0:0:0:
161,308,31879,1,0,0:0:0:0:
294,257,32036,6,0,P|278:157|177:73,1,150,2|8,0:0|0:0,0:0:0:0:
118,170,32510,2,0,P|134:270|235:354,1,150,2|0,0:0|0:0,0:0:0:0:
169,105,32984,1,8,0:0:0:0:
87,94,33142,1,0,0:0:0:0:
251,118,33300,6,0,L|353:113,1,75,2|0,0:0|0:0,0:0:0:0:
491,184,33615,2,0,L|389:189,1,75,8|0,0:0|0:0,0:0:0:0:
404,31,33931,2,0,L|409:133,1,75,2|0,0:0|0:0,0:0:0:0:
338,271,34247,2,0,L|333:169,1,75,8|0,0:0|0:0,0:0:0:0:
416,300,34563,5,2,0:0:0:0:
420,304,34721,1,2,0:0:0:0:
255,235,34879,1,8,0:0:0:0:
413,154,35036,2,0,L|423:358,1,150,2|0,0:0|0:0,0:0:0:0:
255,235,35510,2,0,L|250:133,1,75,8|0,0:0|0:0,0:0:0:0:
117,88,35826,6,0,P|149:101|204:104,1,75,6|0,0:0|0:0,0:0:0:0:
319,25,36142,2,0,P|292:46|262:93,1,75,8|0,0:0|0:0,0:0:0:0:
272,231,36458,2,0,P|267:197|242:147,1,75,2|0,0:0|0:0,0:0:0:0:
112,172,36773,1,8,0:0:0:0:
116,176,36931,1,0,0:0:0:0:
178,46,37089,6,0,L|178:139,1,75,2|0,0:0|0:0,0:0:0:0:
178,231,37405,1,8,0:0:0:0:
116,176,37563,2,0,L|26:167,1,75,2|0,0:0|0:0,0:0:0:0:
178,231,37879,1,2,0:0:0:0:
100,93,38036,2,0,L|10:84,1,75,8|0,0:0|0:0,0:0:0:0:
240,176,38352,6,0,L|330:167,1,75,2|0,0:0|0:0,0:0:0:0:
431,85,38668,1,8,0:0:0:0:
349,93,38826,1,0,0:0:0:0:
373,228,38984,2,0,P|391:201|397:160,1,75,2|0,0:0|0:0,0:0:0:0:
383,18,39300,1,8,0:0:0:0:
349,93,39458,1,0,0:0:0:0:
465,10,39615,5,2,0:0:0:0:
301,26,39773,2,0,P|268:78|288:149,1,75,2|0,0:0|0:0,0:0:0:0:
397,160,40089,2,0,P|430:108|410:37,1,75,2|0,0:0|0:0,0:0:0:0:
349,93,40405,1,2,0:0:0:0:
363,235,40563,2,0,P|429:236|473:193,1,75,8|0,0:0|0:0,0:0:0:0:
315,168,40879,5,2,0:0:0:0:
312,31,41036,2,0,P|331:49|349:93,1,75,2|0,0:0|0:0,0:0:0:0:
262,231,41352,2,0,P|233:178|267:101,1,150,2|2,0:0|0:0,0:0:0:0:
343,246,41826,2,0,P|274:313|237:310,1,75,8|0,0:0|0:0,0:0:0:0:
315,168,42142,6,0,L|509:160,1,150,2|8,0:0|0:0,0:0:0:0:
262,231,42615,2,0,L|67:223,1,150,2|0,0:0|0:0,0:0:0:0:
287,90,43089,2,0,L|416:85,1,75,8|0,0:0|0:0,0:0:0:0:
234,153,43405,6,0,P|213:122|214:60,1,75,2|0,0:0|0:0,0:0:0:0:
287,90,43721,1,8,0:0:0:0:
133,138,43879,1,8,0:0:0:0:
259,12,44036,2,0,L|388:7,1,75,2|0,0:0|0:0,0:0:0:0:
129,57,44352,2,0,L|0:62,1,75,8|0,0:0|0:0,0:0:0:0:
287,90,44668,6,0,L|416:85,1,75,2|0,0:0|0:0,0:0:0:0:
493,16,44984,1,8,0:0:0:0:
410,19,45141,1,0,0:0:0:0:
418,147,45300,2,0,L|419:199,3,37.5,8|8|8|8,0:0|0:0|0:0|0:0,0:0:0:0:
451,211,45615,2,0,L|452:263,3,37.5,8|8|8|8,0:0|0:0|0:0|0:0,0:0:0:0:
427,282,45931,6,0,P|369:300|309:268,1,75,6|0,0:0|0:0,0:0:0:0:
305,233,46247,2,0,P|247:215|187:247,1,75,8|0,0:0|0:0,0:0:0:0:
183,282,46563,2,0,P|125:300|65:268,1,75,2|0,0:0|0:0,0:0:0:0:
234,217,46878,1,8,0:0:0:0:
235,346,47036,6,0,P|133:383|44:358,1,150,6|0,0:0|0:0,0:0:0:0:
131,218,47510,1,8,0:0:0:0:
33,322,47668,1,8,0:0:0:0:
112,298,47826,2,0,P|149:298|183:282,1,75,2|0,0:0|0:0,0:0:0:0:
131,143,48142,2,0,L|131:218,1,75,8|0,0:0|0:0,0:0:0:0:
171,71,48458,6,0,P|112:63|61:99,1,112.5,6|0,0:0|0:0,0:0:0:0:
50,126,48773,2,0,L|50:201,1,75,8|0,0:0|0:0,0:0:0:0:
212,235,49089,2,0,L|212:160,1,75,2|0,0:0|0:0,0:0:0:0:
131,143,49405,1,8,0:0:0:0:
156,296,49563,6,0,P|272:292|288:203,1,150,6|0,0:0|0:0,0:0:0:0:
212,160,50036,2,0,L|212:235,1,75,8|0,0:0|0:0,0:0:0:0:
263,94,50352,1,2,0:0:0:0:
267,98,50510,1,2,0:0:0:0:
131,143,50668,2,0,L|131:218,1,75,8|0,0:0|0:0,0:0:0:0:
293,252,50984,6,0,L|293:177,1,75,6|0,0:0|0:0,0:0:0:0:
267,98,51300,2,0,L|267:23,1,75,8|0,0:0|0:0,0:0:0:0:
348,40,51615,2,0,L|348:115,1,75,2|0,0:0|0:0,0:0:0:0:
212,160,51931,1,8,0:0:0:0:
125,40,52089,6,0,P|195:13|267:23,1,150,6|0,0:0|0:0,0:0:0:0:
212,160,52562,1,8,0:0:0:0:
74,105,52720,1,8,0:0:0:0:
129,165,52878,2,0,P|137:207|133:298,1,75,2|0,0:0|0:0,0:0:0:0:
58,356,53194,2,0,P|60:318|68:282,1,75,8|0,0:0|0:0,0:0:0:0:
288,268,53510,6,0,P|220:265|154:253,1,112.5,6|0,0:0|0:0,0:0:0:0:
139,239,53826,2,0,P|141:201|149:165,1,75,8|0,0:0|0:0,0:0:0:0:
303,59,54142,2,0,P|301:97|293:133,1,75,2|0,0:0|0:0,0:0:0:0:
228,185,54458,1,8,0:0:0:0:
385,30,54615,6,0,P|381:106|365:178,1,150,6|0,0:0|0:0,0:0:0:0:
289,302,55089,2,0,P|291:264|299:228,1,75,8|0,0:0|0:0,0:0:0:0:
426,233,55405,2,0,P|424:271|416:307,1,75,2|0,0:0|0:0,0:0:0:0:
365,178,55721,1,8,0:0:0:0:
369,182,56036,6,0,P|360:145|359:108,1,75,10|0,0:0|0:0,0:0:0:0:
273,176,56352,2,0,P|270:137|276:101,1,75,8|0,0:0|0:0,0:0:0:0:
180,154,56668,2,0,P|184:116|195:81,1,75,8|0,0:0|0:0,0:0:0:0:
91,115,56984,2,0,P|101:78|119:45,1,75,8|0,0:0|0:0,0:0:0:0:
269,71,57300,6,0,P|232:80|195:81,1,75,10|0,0:0|0:0,0:0:0:0:
263,167,57616,2,0,P|224:170|188:164,1,75,8|0,0:0|0:0,0:0:0:0:
241,260,57932,2,0,P|203:256|168:245,1,75,8|0,0:0|0:0,0:0:0:0:
202,349,58248,2,0,P|165:339|132:321,1,75,8|0,0:0|0:0,0:0:0:0:
158,171,58563,6,0,P|167:208|168:245,1,75,10|0,0:0|0:0,0:0:0:0:
98,114,58879,1,8,0:0:0:0:
117,34,59036,1,0,0:0:0:0:
79,194,59194,2,0,P|51:220|19:239,1,75,8|0,0:0|0:0,0:0:0:0:
98,114,59510,1,8,0:0:0:0:
177,91,59668,1,0,0:0:0:0:
19,137,59826,6,0,L|15:68,3,37.5,10|10|2|2,0:0|0:0|0:0|0:0,0:0:0:0:
34,62,60142,2,0,L|90:17,3,37.5,10|10|2|2,0:0|0:0|0:0|0:0,0:0:0:0:
105,32,60458,2,0,L|170:53,3,37.5,10|10|2|2,0:0|0:0|0:0|0:0,0:0:0:0:
170,73,60773,1,8,0:0:0:0:
97,197,60931,1,8,0:0:0:0:
98,114,61089,5,6,0:0:0:0:
256,192,61168,12,4,63536,3:0:0:0:
