osu file format v14

[General]
AudioFilename: audio.mp3
AudioLeadIn: 0
PreviewTime: 45931
Countdown: 0
SampleSet: Soft
StackLeniency: 0.7
Mode: 0
LetterboxInBreaks: 0
WidescreenStoryboard: 0

[Editor]
Bookmarks: 25405
DistanceSpacing: 0.1
BeatDivisor: 4
GridSize: 32
TimelineZoom: 1.6

[Metadata]
Title:Gohan wa Okazu
TitleUnicode:ごはんはおかず
Artist:HO-KAGO TEA TIME
ArtistUnicode:放課後ティータイム
Creator:MashaSG
Version:Karen's Insane!!
Source:けいおん!!
Tags:K-ON! Light Music Rice is a Dish J-Pop bice TheMefisto Pata-Mon Karen vanucik wajinshu Fanteer Momochikun Underforest Armin A_r_M_i_N
BeatmapID:1253369
BeatmapSetID:591709

[Difficulty]
HPDrainRate:6
CircleSize:3.8
OverallDifficulty:7
ApproachRate:9
SliderMultiplier:1.8
SliderTickRate:1

[Events]
//Background and Video events
0,0,"Karen.jpg",0,0
//Break Periods
//Storyboard Layer 0 (Background)
//Storyboard Layer 1 (Fail)
//Storyboard Layer 2 (Pass)
//Storyboard Layer 3 (Foreground)
//Storyboard Sound Samples

[TimingPoints]
458,315.789473684211,4,2,1,80,1,0
10563,-111.111111111111,4,2,1,80,0,0
19879,-100,4,2,1,80,0,0
20668,-133.333333333333,4,2,1,80,0,0
25721,-111.111111111111,4,2,1,80,0,0
26826,-100,4,2,1,80,0,0
27300,-117.647058823529,4,2,1,80,0,0
28247,-105.263157894737,4,2,1,80,0,0
30458,-66.6666666666667,4,2,1,80,0,0
30773,-100,4,2,1,80,0,0
38352,-100,4,2,1,80,0,0
44352,-100,4,2,1,80,0,0
63536,-100,4,2,1,40,0,0

[Colours]
Combo1 : 192,129,129
Combo2 : 234,218,185
Combo3 : 98,98,255
Combo4 : 255,119,119

[HitObjects]
94,326,458,6,0,L|196:319,1,90,4|0,0:0|0:0,0:0:0:0:
279,211,773,1,8,0:0:0:0:
363,180,931,1,0,0:0:0:0:
433,236,1089,1,2,0:0:0:0:
431,326,1247,1,0,0:0:0:0:
355,374,1405,1,8,0:0:0:0:
279,211,1563,6,0,P|304:134|248:36,1,180,4|0,0:0|0:0,0:0:0:0:
90,44,2036,1,8,0:0:0:0:
90,44,2194,1,8,0:0:0:0:
118,129,2352,1,2,0:0:0:0:
118,129,2510,1,0,0:0:0:0:
176,60,2668,1,8,0:0:0:0:
176,60,2826,1,0,0:0:0:0:
33,155,2984,6,0,L|241:138,1,180,4|8,0:0|0:0,0:0:0:0:
90,44,3458,1,0,0:0:0:0:
80,169,3615,2,0,L|169:161,1,90,2|0,0:0|0:0,0:0:0:0:
90,44,3931,1,8,0:0:0:0:
38,258,4089,6,0,L|243:240,1,180,4|0,0:0|0:0,0:0:0:0:
355,173,4563,2,0,P|309:155|259:158,1,90,8|0,0:0|0:0,0:0:0:0:
141,35,4879,2,0,P|219:68|317:29,1,180,2|8,0:0|0:0,0:0:0:0:
305,39,5510,6,0,L|302:133,1,90,4|0,0:0|0:0,0:0:0:0:
375,255,5826,1,8,0:0:0:0:
360,343,5984,1,0,0:0:0:0:
274,370,6142,1,2,0:0:0:0:
190,337,6300,1,0,0:0:0:0:
176,247,6458,1,8,0:0:0:0:
375,255,6615,6,0,B|432:246|473:216|473:216|455:254|448:291,1,180,4|0,0:0|0:0,0:0:0:0:
393,160,7089,1,8,0:0:0:0:
393,160,7247,1,8,0:0:0:0:
376,71,7405,1,2,0:0:0:0:
376,71,7563,1,0,0:0:0:0:
443,11,7721,1,8,0:0:0:0:
443,11,7879,1,0,0:0:0:0:
302,132,8036,6,0,P|215:159|120:116,1,180,4|8,0:0|0:0,0:0:0:0:
218,47,8510,1,0,0:0:0:0:
260,164,8668,2,0,P|214:173|151:151,1,90,2|0,0:0|0:0,0:0:0:0:
218,47,8984,1,8,0:0:0:0:
298,234,9142,6,0,P|207:205|119:243,1,180,4|0,0:0|0:0,0:0:0:0:
202,384,9615,2,0,P|204:323|213:283,1,90,8|0,0:0|0:0,0:0:0:0:
31,187,9931,2,0,P|48:233|42:288,1,90,2|8,0:0|0:0,0:0:0:0:
165,203,10247,1,8,0:0:0:0:
196,204,10326,1,8,0:0:0:0:
227,205,10405,1,8,0:0:0:0:
258,205,10484,1,8,0:0:0:0:
286,205,10563,6,0,P|281:155|291:106,1,80.9999975280763,4|0,0:0|0:0,0:0:0:0:
307,29,10879,1,8,0:0:0:0:
307,29,11036,2,0,P|226:55|146:50,1,161.999995056153,0|0,0:0|0:0,0:0:0:0:
58,16,11510,1,8,0:0:0:0:
58,16,11826,6,0,L|66:106,1,80.9999975280763,2|0,0:0|0:0,0:0:0:0:
154,55,12142,1,8,0:0:0:0:
154,55,12300,2,0,L|148:216,1,161.999995056153,0|0,0:0|0:0,0:0:0:0:
186,299,12773,1,8,0:0:0:0:
186,299,13089,6,0,P|253:271|350:322,1,161.999995056153,2|8,0:0|0:0,0:0:0:0:
425,332,13563,1,0,0:0:0:0:
425,332,13721,2,0,L|411:246,1,80.9999975280763,2|0,0:0|0:0,0:0:0:0:
509,257,14036,2,0,L|514:164,1,80.9999975280763,8|0,0:0|0:0,0:0:0:0:
418,61,14352,5,2,0:0:0:0:
424,158,14510,1,2,0:0:0:0:
418,61,14668,1,2,0:0:0:0:
424,158,14826,1,2,0:0:0:0:
424,158,15142,1,0,0:0:0:0:
336,115,15300,2,0,P|294:108|252:117,1,80.9999975280763,8|0,0:0|0:0,0:0:0:0:
146,34,15615,6,0,P|188:41|230:32,1,80.9999975280763,4|0,0:0|0:0,0:0:0:0:
168,132,15931,1,8,0:0:0:0:
168,132,16089,2,0,L|158:299,1,161.999995056153,0|0,0:0|0:0,0:0:0:0:
218,370,16563,1,8,0:0:0:0:
218,370,16879,6,0,P|272:375|306:357,1,80.9999975280763,2|0,0:0|0:0,0:0:0:0:
255,276,17194,1,8,0:0:0:0:
255,276,17352,2,0,P|314:218|312:132,1,161.999995056153,0|0,0:0|0:0,0:0:0:0:
250,69,17826,1,8,0:0:0:0:
250,69,18142,6,0,B|192:71|192:71|145:49|145:49|77:50,1,161.999995056153,2|8,0:0|0:0,0:0:0:0:
124,141,18615,1,0,0:0:0:0:
124,141,18773,2,0,P|129:196|117:231,1,80.9999975280763,2|0,0:0|0:0,0:0:0:0:
208,256,19089,2,0,P|187:291|141:312,1,80.9999975280763,8|0,0:0|0:0,0:0:0:0:
37,186,19405,5,2,0:0:0:0:
130,228,19563,1,2,0:0:0:0:
37,186,19721,1,2,0:0:0:0:
130,228,19879,1,2,0:0:0:0:
130,228,20194,1,0,0:0:0:0:
253,172,20352,6,0,P|303:168|354:234,1,135,8|0,0:0|0:0,0:0:0:0:
353,228,20668,6,0,L|509:217,1,135.000005149842,4|8,0:0|0:0,0:0:0:0:
394,138,21142,1,0,0:0:0:0:
394,138,21300,2,0,L|479:123,1,67.5000025749208,2|0,0:0|0:0,0:0:0:0:
464,319,21615,2,0,L|379:304,1,67.5000025749208,8|8,0:0|0:0,0:0:0:0:
194,351,22089,5,0,0:0:0:0:
194,351,22247,2,0,L|192:262,1,67.5000025749208,8|0,0:0|0:0,0:0:0:0:
146,215,22563,2,0,P|146:146|203:89,1,135.000005149842,2|8,0:0|0:0,0:0:0:0:
362,185,23194,6,0,L|205:176,1,135.000005149842,4|8,0:0|0:0,0:0:0:0:
308,100,23668,1,0,0:0:0:0:
308,100,23826,2,0,P|315:52|302:18,1,67.5000025749208,2|0,0:0|0:0,0:0:0:0:
456,124,24142,2,0,P|449:172|462:206,1,67.5000025749208,8|8,0:0|0:0,0:0:0:0:
349,344,24615,5,0,0:0:0:0:
349,344,24773,2,0,L|341:258,1,67.5000025749208,8|0,0:0|0:0,0:0:0:0:
307,203,25089,2,0,P|250:190|168:238,1,135.000005149842,2|8,0:0|0:0,0:0:0:0:
12,339,25721,6,0,L|181:328,1,161.999995056153,2|8,0:0|0:0,0:0:0:0:
99,251,26194,2,0,P|95:212|112:164,1,80.9999975280763,0|0,0:0|0:0,0:0:0:0:
256,281,26510,1,2,0:0:0:0:
256,281,26668,1,10,0:0:0:0:
162,108,26826,1,2,0:0:0:0:
25,223,26984,5,2,0:0:0:0:
25,223,27300,2,0,L|185:204,1,153.000002918243,8|2,0:0|0:0,0:0:0:0:
256,111,27773,1,0,0:0:0:0:
256,111,27931,2,0,L|345:121,1,76.5000014591217,8|0,0:0|0:0,0:0:0:0:
442,203,28247,6,0,P|369:191|305:260,1,170.999995433807,2|8,0:0|0:0,0:0:0:0:
383,368,28721,1,0,0:0:0:0:
383,368,28879,2,0,L|392:278,1,85.4999977169037,2|0,0:0|0:0,0:0:0:0:
332,119,29194,1,8,0:0:0:0:
332,119,29510,5,2,0:0:0:0:
408,50,29668,1,0,0:0:0:0:
332,119,29826,1,8,0:0:0:0:
408,50,29984,1,0,0:0:0:0:
282,42,30142,1,8,0:0:0:0:
462,128,30300,1,8,0:0:0:0:
282,42,30458,1,8,0:0:0:0:
244,28,30536,1,8,0:0:0:0:
203,33,30615,1,8,0:0:0:0:
169,55,30694,1,8,0:0:0:0:
160,93,30773,6,0,L|175:189,1,90,4|0,0:0|0:0,0:0:0:0:
227,377,31089,2,0,L|240:288,1,90,8|0,0:0|0:0,0:0:0:0:
352,190,31405,2,0,L|256:205,1,90,4|0,0:0|0:0,0:0:0:0:
61,260,31721,2,0,L|149:273,1,90,8|0,0:0|0:0,0:0:0:0:
336,307,32036,6,0,P|394:265|492:292,1,180,4|8,0:0|0:0,0:0:0:0:
457,176,32510,1,0,0:0:0:0:
457,176,32668,1,0,0:0:0:0:
417,356,32826,1,0,0:0:0:0:
354,176,32984,1,8,0:0:0:0:
492,292,33142,1,0,0:0:0:0:
336,307,33300,6,0,L|233:310,1,90,4|0,0:0|0:0,0:0:0:0:
90,221,33615,2,0,L|179:218,1,90,8|0,0:0|0:0,0:0:0:0:
235,136,33931,1,4,0:0:0:0:
235,136,34089,1,0,0:0:0:0:
141,310,34247,1,8,0:0:0:0:
141,310,34405,1,0,0:0:0:0:
134,123,34563,5,4,0:0:0:0:
245,295,34721,1,0,0:0:0:0:
305,51,34879,1,8,0:0:0:0:
179,217,35036,2,0,L|370:205,1,180,0|0,0:0|0:0,0:0:0:0:
436,374,35510,2,0,L|331:341,1,90,8|0,0:0|0:0,0:0:0:0:
414,127,35826,6,0,P|454:193|408:288,2,180,4|8|4,0:0|0:0|0:0,0:0:0:0:
219,313,36773,1,8,0:0:0:0:
219,313,36931,1,0,0:0:0:0:
159,218,37089,6,0,L|261:207,1,90,4|0,0:0|0:0,0:0:0:0:
317,343,37405,1,8,0:0:0:0:
317,343,37563,2,0,P|235:331|150:382,1,180,0|0,0:0|0:0,0:0:0:0:
81,280,38036,1,8,0:0:0:0:
81,280,38352,6,0,P|88:226|73:178,1,90,4|0,0:0|0:0,0:0:0:0:
12,28,38668,2,0,P|5:82|20:130,1,90,8|0,0:0|0:0,0:0:0:0:
174,172,38984,1,4,0:0:0:0:
288,160,39142,1,0,0:0:0:0:
271,44,39300,1,8,0:0:0:0:
163,54,39458,1,0,0:0:0:0:
243,249,39615,5,4,0:0:0:0:
243,249,39773,2,0,P|243:302|225:340,1,90,0|8,0:0|0:0,0:0:0:0:
366,384,40089,2,0,P|347:304|393:189,1,180
303,84,40563,1,8,0:0:0:0:
303,84,40879,5,2,0:0:0:0:
380,9,41036,2,0,L|484:14,1,90,0|8,0:0|0:0,0:0:0:0:
393,123,41352,2,0,L|204:114,1,180,0|0,0:0|0:0,0:0:0:0:
110,38,41826,1,8,0:0:0:0:
110,38,41984,1,0,0:0:0:0:
33,151,42142,6,0,L|145:130,1,90,2|0,0:0|0:0,0:0:0:0:
206,19,42458,1,8,0:0:0:0:
185,209,42615,1,0,0:0:0:0:
185,209,42931,1,0,0:0:0:0:
101,278,43089,2,0,P|98:333|115:367,1,90,8|0,0:0|0:0,0:0:0:0:
281,317,43405,6,0,L|181:306,1,90,6|2,0:0|0:0,0:0:0:0:
90,177,43721,1,10,0:0:0:0:
283,219,43879,2,0,P|331:146|311:53,1,180,4|0,0:0|0:0,0:0:0:0:
129,82,44352,1,8,0:0:0:0:
129,82,44510,1,0,0:0:0:0:
191,307,44668,6,0,L|384:302,1,180,2|8,0:0|0:0,0:0:0:0:
440,214,45142,1,8,0:0:0:0:
440,214,45221,1,8,0:0:0:0:
440,214,45300,2,0,P|433:161|446:122,1,90,8|8,0:0|0:0,0:0:0:0:
277,210,45615,1,8,0:0:0:0:
282,250,45694,1,8,0:0:0:0:
287,290,45773,1,8,0:0:0:0:
289,330,45852,1,8,0:0:0:0:
293,370,45931,6,0,L|179:360,1,90,4|0,0:0|0:0,0:0:0:0:
55,261,46247,1,8,0:0:0:0:
19,178,46405,1,0,0:0:0:0:
63,99,46563,1,2,0:0:0:0:
151,84,46721,1,0,0:0:0:0:
213,149,46879,1,8,0:0:0:0:
55,261,47036,6,0,P|139:237|228:265,1,180,4|0,0:0|0:0,0:0:0:0:
328,354,47510,1,8,0:0:0:0:
328,354,47668,1,8,0:0:0:0:
403,305,47826,1,2,0:0:0:0:
403,305,47984,1,0,0:0:0:0:
481,349,48142,1,8,0:0:0:0:
481,349,48300,1,0,0:0:0:0:
390,211,48458,6,0,L|383:118,1,90,8|0,0:0|0:0,0:0:0:0:
487,21,48773,2,0,L|474:130,1,90,8|0,0:0|0:0,0:0:0:0:
339,36,49089,2,0,P|254:20|190:87,1,180,8|8,0:0|0:0,0:0:0:0:
268,289,49563,6,0,L|279:97,1,180,4|0,0:0|0:0,0:0:0:0:
103,183,50036,2,0,L|192:177,1,90,8|0,0:0|0:0,0:0:0:0:
361,177,50352,1,2,0:0:0:0:
361,177,50510,1,0,0:0:0:0:
268,289,50668,1,8,0:0:0:0:
268,289,50984,6,0,L|261:382,1,90,4|0,0:0|0:0,0:0:0:0:
100,337,51300,1,8,0:0:0:0:
163,273,51458,1,0,0:0:0:0:
160,183,51615,1,2,0:0:0:0:
82,136,51773,1,0,0:0:0:0:
0,170,51931,1,8,0:0:0:0:
100,337,52089,6,0,L|303:318,1,180,4|0,0:0|0:0,0:0:0:0:
385,236,52563,1,8,0:0:0:0:
385,236,52721,1,8,0:0:0:0:
349,153,52879,1,2,0:0:0:0:
349,153,53036,1,0,0:0:0:0:
388,71,53194,1,8,0:0:0:0:
388,71,53352,1,0,0:0:0:0:
477,206,53510,6,0,L|462:315,1,90,8|0,0:0|0:0,0:0:0:0:
313,371,53826,2,0,L|297:254,1,90,8|0,0:0|0:0,0:0:0:0:
271,96,54142,2,0,P|201:146|100:132,1,180,8|8,0:0|0:0,0:0:0:0:
19,273,54615,6,0,P|83:300|25:377,1,180,4|0,0:0|0:0,0:0:0:0:
171,286,55089,1,8,0:0:0:0:
171,286,55247,1,0,0:0:0:0:
99,55,55405,1,2,0:0:0:0:
99,55,55563,1,0,0:0:0:0:
67,275,55721,1,8,0:0:0:0:
67,275,56036,5,8,0:0:0:0:
47,150,56194,1,0,0:0:0:0:
171,130,56352,1,8,0:0:0:0:
191,255,56510,1,0,0:0:0:0:
127,382,56668,6,0,L|27:367,1,90,8|0,0:0|0:0,0:0:0:0:
0,255,56984,2,0,L|100:240,1,90,8|0,0:0|0:0,0:0:0:0:
283,207,57300,5,8,0:0:0:0:
263,332,57458,1,0,0:0:0:0:
387,352,57616,1,8,0:0:0:0:
407,227,57774,1,0,0:0:0:0:
349,89,57931,6,0,L|254:94,1,90,8|0,0:0|0:0,0:0:0:0:
214,234,58247,2,0,L|309:239,1,90,8|0,0:0|0:0,0:0:0:0:
139,160,58563,5,8,0:0:0:0:
159,35,58721,1,0,0:0:0:0:
35,15,58879,1,8,0:0:0:0:
15,140,59037,1,0,0:0:0:0:
106,255,59194,6,0,L|212:248,1,90,8|0,0:0|0:0,0:0:0:0:
324,350,59510,2,0,L|218:343,1,90,8|0,0:0|0:0,0:0:0:0:
139,160,59826,5,8,0:0:0:0:
129,129,59905,1,8,0:0:0:0:
135,98,59984,1,8,0:0:0:0:
151,71,60063,1,8,0:0:0:0:
180,58,60142,2,0,L|283:58,1,90,8|0,0:0|0:0,0:0:0:0:
350,154,60379,1,8,0:0:0:0:
350,154,60458,6,0,L|260:154,1,90,8|0,0:0|0:0,0:0:0:0:
213,246,60694,1,8,0:0:0:0:
213,246,60773,2,0,L|219:296,1,45,8|0,0:0|0:0,0:0:0:0:
107,235,60931,2,0,L|112:190,1,45,8|0,0:0|0:0,0:0:0:0:
314,249,61089,5,4,1:0:0:0:
256,192,61168,12,4,63536,3:0:0:0:
