osu file format v14

[General]
AudioFilename: audio.mp3
AudioLeadIn: 0
PreviewTime: 45931
Countdown: 0
SampleSet: Soft
StackLeniency: 0.4
Mode: 0
LetterboxInBreaks: 0
WidescreenStoryboard: 0

[Editor]
Bookmarks: 10563,20668,29273,30773,45931
DistanceSpacing: 1.6
BeatDivisor: 4
GridSize: 4
TimelineZoom: 1.9

[Metadata]
Title:Gohan wa Okazu
TitleUnicode:ごはんはおかず
Artist:HO-KAGO TEA TIME
ArtistUnicode:放課後ティータイム
Creator:MashaSG
Version:Forest's Hard!!
Source:けいおん!!
Tags:K-ON! Light Music Rice is a Dish J-Pop bice TheMefisto Pata-Mon Karen vanucik wajinshu Fanteer Momochikun Underforest Armin A_r_M_i_N
BeatmapID:1261444
BeatmapSetID:591709

[Difficulty]
HPDrainRate:5
CircleSize:4
OverallDifficulty:6
ApproachRate:8
SliderMultiplier:1.5
SliderTickRate:1

[Events]
//Background and Video events
0,0,"forest.jpg",0,0
//Break Periods
//Storyboard Layer 0 (Background)
//Storyboard Layer 1 (Fail)
//Storyboard Layer 2 (Pass)
//Storyboard Layer 3 (Foreground)
//Storyboard Sound Samples

[TimingPoints]
458,315.789473684211,4,2,23,80,1,0
10089,-100,4,2,23,60,0,0
10563,-125,4,2,23,55,0,0
20668,-125,4,2,23,80,0,0
25721,-100,4,2,23,80,0,0
30458,-100,4,2,23,60,0,0
30773,-100,4,2,23,80,0,0
45300,-100,4,2,23,50,0,0
45615,-100,4,2,23,60,0,0
45931,-100,4,2,23,80,0,1
55405,-100,4,2,23,80,0,0
56036,-100,4,2,23,80,0,0
59905,-100,4,2,23,40,0,0
60142,-100,4,2,23,80,0,0
60221,-100,4,2,23,40,0,0
60458,-100,4,2,23,80,0,0
60536,-100,4,2,23,40,0,0
60773,-100,4,2,23,80,0,0
63536,-100,4,2,23,40,0,0

[Colours]
Combo1 : 0,255,128
Combo2 : 254,75,98
Combo3 : 232,124,41
Combo4 : 113,127,225
Combo5 : 128,113,154
Combo6 : 255,255,128

[HitObjects]
47,46,458,6,0,L|33:144,1,75,6|0,0:0|0:0,0:0:0:0:
77,208,773,2,0,L|87:282,1,75,8|0,0:0|0:0,0:0:0:0:
167,338,1089,2,0,P|207:354|272:336,1,75,2|0,0:0|0:0,0:0:0:0:
335,337,1405,1,8,0:0:0:0:
335,337,1563,6,0,B|338:245|338:245|311:182,1,150,2|0,0:0|0:0,0:0:0:0:
385,123,2036,2,0,L|424:199,1,75,8|8,0:0|0:0,0:0:0:0:
503,138,2352,2,0,L|468:71,1,75,2|0,0:0|0:0,0:0:0:0:
379,28,2668,1,8,0:0:0:0:
204,114,2984,6,0,P|184:151|208:260,1,150,6|8,0:0|0:0,0:0:0:0:
257,334,3458,1,0,0:0:0:0:
309,253,3615,2,0,P|333:183|308:114,1,150,2|8,0:0|0:0,0:0:0:0:
255,31,4089,6,0,L|97:21,1,150,2|0,0:0|0:0,0:0:0:0:
49,102,4563,2,0,P|38:147|50:192,1,75,10|0,0:0|0:0,0:0:0:0:
131,299,4879,2,0,P|135:262|125:227,1,75,2|0,0:0|0:0,0:0:0:0:
38,272,5194,1,8,0:0:0:0:
231,245,5510,6,0,L|332:235,1,75,6|0,0:0|0:0,0:0:0:0:
395,277,5826,2,0,L|469:284,1,75,8|0,0:0|0:0,0:0:0:0:
484,187,6142,2,0,P|494:123|480:79,1,75,2|0,0:0|0:0,0:0:0:0:
412,56,6458,1,8,0:0:0:0:
412,56,6615,6,0,B|334:31|341:92|235:45,1,150,2|0,0:0|0:0,0:0:0:0:
176,13,7089,2,0,P|163:54|175:104,1,75,8|8,0:0|0:0,0:0:0:0:
143,180,7405,2,0,P|154:238|133:286,1,75,2|0,0:0|0:0,0:0:0:0:
124,347,7721,1,8,0:0:0:0:
318,347,8036,6,0,L|333:186,1,150,6|8,0:0|0:0,0:0:0:0:
256,134,8510,1,0,0:0:0:0:
181,196,8668,2,0,L|194:345,1,150,2|8,0:0|0:0,0:0:0:0:
318,347,9142,6,0,P|386:334|465:366,1,150,2|0,0:0|0:0,0:0:0:0:
483,267,9615,2,0,P|489:206|465:152,1,75,8|0,0:0|0:0,0:0:0:0:
433,110,9931,1,2,0:0:0:0:
340,79,10089,1,8,0:0:0:0:
340,79,10168,1,8,0:0:0:0:
340,79,10247,2,0,L|288:87,3,37.5,8|8|8|8,0:0|0:0|0:0|0:0,0:0:0:0:
256,99,10563,6,0,L|128:92,1,120,6|8,0:0|0:0,0:0:0:0:
44,122,11036,1,2,0:0:0:0:
32,218,11194,2,0,P|14:278|19:308,1,60,0|0,0:0|0:0,0:0:0:0:
92,330,11510,2,0,P|109:289|105:262,1,60,8|0,0:0|0:0,0:0:0:0:
196,234,11826,6,0,B|237:230|237:230|272:246|272:246|333:239,1,120,2|8,0:0|0:0,0:0:0:0:
398,285,12300,1,2,0:0:0:0:
440,199,12458,2,0,L|444:120,1,60,0|0,0:0|0:0,0:0:0:0:
356,97,12773,2,0,L|359:156,1,60,8|0,0:0|0:0,0:0:0:0:
267,186,13089,6,0,P|247:260|286:346,1,120,2|8,0:0|0:0,0:0:0:0:
174,353,13563,1,0,0:0:0:0:
174,353,13721,2,0,L|74:345,1,60,2|0,0:0|0:0,0:0:0:0:
66,264,14036,2,0,L|156:271,1,60,8|0,0:0|0:0,0:0:0:0:
197,203,14352,5,2,0:0:0:0:
122,142,14510,1,2,0:0:0:0:
178,63,14668,1,10,0:0:0:0:
197,203,14826,2,0,P|254:166|321:171,1,120,2|2,0:0|0:0,0:0:0:0:
400,157,15300,1,2,0:0:0:0:
368,345,15615,6,0,P|316:365|222:317,1,120,6|8,0:0|0:0,0:0:0:0:
159,337,16089,1,2,0:0:0:0:
159,337,16247,2,0,L|151:268,1,60,0|0,0:0|0:0,0:0:0:0:
124,185,16563,2,0,L|130:125,1,60,8|0,0:0|0:0,0:0:0:0:
53,66,16879,6,0,P|144:65|172:31,1,120,2|8,0:0|0:0,0:0:0:0:
257,35,17352,1,2,0:0:0:0:
350,56,17510,2,0,L|452:61,1,60,0|0,0:0|0:0,0:0:0:0:
467,136,17826,2,0,P|472:163|465:206,1,60,8|0,0:0|0:0,0:0:0:0:
494,291,18142,6,0,P|446:249|387:251,1,120,2|8,0:0|0:0,0:0:0:0:
295,254,18615,1,0,0:0:0:0:
362,321,18773,2,0,P|426:321|441:309,2,60,2|0|8,0:0|0:0|0:0,0:0:0:0:
271,350,19247,1,0,0:0:0:0:
184,320,19405,5,2,0:0:0:0:
204,227,19563,1,2,0:0:0:0:
295,254,19721,1,8,0:0:0:0:
184,320,19879,2,0,P|123:325|65:286,1,120,2|2,0:0|0:0,0:0:0:0:
18,217,20352,1,8,0:0:0:0:
162,90,20668,6,0,L|291:85,1,120,6|0,0:0|0:0,0:0:0:0:
376,103,21142,1,0,0:0:0:0:
376,103,21300,2,0,B|374:137|394:160|394:160|373:184|375:227,1,120,8|8,0:0|0:0,0:0:0:0:
356,308,21773,5,8,0:0:0:0:
167,321,22089,1,8,0:0:0:0:
167,321,22247,2,0,P|162:269|175:243,1,60,0|0,0:0|0:0,0:0:0:0:
184,168,22563,2,0,P|190:137|178:95,2,60,8|0|0,0:0|0:0|0:0,0:0:0:0:
374,190,23194,6,0,L|493:185,1,120,6|0,0:0|0:0,0:0:0:0:
477,280,23668,1,0,0:0:0:0:
477,280,23826,2,0,L|358:285,1,120,8|8,0:0|0:0,0:0:0:0:
262,272,24300,5,8,0:0:0:0:
88,190,24615,1,8,0:0:0:0:
88,190,24773,2,0,L|97:123,1,60,0|0,0:0|0:0,0:0:0:0:
126,38,25089,5,8,0:0:0:0:
126,38,25405,1,0,0:0:0:0:
322,38,25721,6,0,P|397:20|463:52,1,150,6|8,0:0|0:0,0:0:0:0:
488,142,26194,2,0,L|489:216,1,75,0|0,0:0|0:0,0:0:0:0:
455,309,26510,2,0,P|400:316|372:310,1,75,10|10,0:0|0:0,0:0:0:0:
293,269,26826,2,0,P|257:262|220:266,1,75,2|0,0:0|0:0,0:0:0:0:
154,340,27142,5,0,0:0:0:0:
97,264,27300,2,0,L|87:169,1,75,2|0,0:0|0:0,0:0:0:0:
131,101,27615,2,0,L|141:6,1,75,2|0,0:0|0:0,0:0:0:0:
235,45,27931,2,0,L|245:140,1,75,2|0,0:0|0:0,0:0:0:0:
260,216,28247,6,0,P|334:228|378:287,1,150,6|8,0:0|0:0,0:0:0:0:
281,314,28721,1,0,0:0:0:0:
192,355,28879,2,0,B|101:358,1,75,2|0,0:0|0:0,0:0:0:0:
96,262,29194,2,0,B|185:260,1,75,8|0,0:0|0:0,0:0:0:0:
260,216,29510,6,0,P|303:211|332:188,1,75,2|2,0:0|0:0,0:0:0:0:
412,242,29826,2,0,P|425:200|414:158,1,75,10|2,0:0|0:0,0:0:0:0:
432,72,30142,1,10,0:0:0:0:
342,64,30300,1,8,0:0:0:0:
342,64,30379,1,8,0:0:0:0:
342,64,30458,2,0,L|297:70,3,37.5,8|8|8|8,0:0|0:0|0:0|0:0,0:0:0:0:
256,70,30773,6,0,P|210:59|167:66,1,75,6|0,0:0|0:0,0:0:0:0:
106,122,31089,2,0,P|91:168|97:202,1,75,8|0,0:0|0:0,0:0:0:0:
178,244,31406,2,0,P|193:198|186:164,1,75,6|0,0:0|0:0,0:0:0:0:
285,156,31721,1,8,0:0:0:0:
372,198,31879,1,0,0:0:0:0:
442,130,32036,6,0,L|447:30,2,75,6|0|8,0:0|0:0|0:0,0:0:0:0:
372,198,32510,2,0,L|384:360,1,150,2|0,0:0|0:0,0:0:0:0:
286,364,32984,2,0,P|220:378|187:366,1,75,8|0,0:0|0:0,0:0:0:0:
126,333,33300,6,0,P|71:328|47:336,1,75,6|0,0:0|0:0,0:0:0:0:
17,242,33615,2,0,P|14:188|27:161,1,75,8|0,0:0|0:0,0:0:0:0:
98,108,33931,2,0,P|101:54|88:27,1,75,6|0,0:0|0:0,0:0:0:0:
191,27,34247,1,8,0:0:0:0:
277,72,34405,1,0,0:0:0:0:
370,45,34563,6,0,L|463:32,2,75,6|2|10,0:0|0:0|0:0,0:0:0:0:
277,72,35036,2,0,P|302:115|396:139,1,150,2|0,0:0|0:0,0:0:0:0:
460,211,35510,2,0,P|466:255|458:292,1,75,8|0,0:0|0:0,0:0:0:0:
391,354,35826,6,0,L|215:348,1,150,6|8,0:0|0:0,0:0:0:0:
143,340,36300,1,0,0:0:0:0:
74,270,36458,2,0,P|58:213|67:181,1,75,6|0,0:0|0:0,0:0:0:0:
130,131,36773,2,0,P|144:96|143:59,1,75,8|0,0:0|0:0,0:0:0:0:
242,51,37089,6,0,B|286:35|286:35|404:63,1,150,6|8,0:0|0:0,0:0:0:0:
437,142,37563,2,0,B|393:158|393:158|275:130,1,150,2|2,0:0|0:0,0:0:0:0:
215,193,38036,2,0,P|209:251|233:293,1,75,8|0,0:0|0:0,0:0:0:0:
278,338,38352,6,0,P|245:357|199:363,1,75,6|0,0:0|0:0,0:0:0:0:
117,325,38668,2,0,P|84:306|47:299,1,75,8|0,0:0|0:0,0:0:0:0:
5,210,38984,2,0,L|25:126,1,75,6|0,0:0|0:0,0:0:0:0:
106,86,39300,2,0,L|126:170,1,75,8|0,0:0|0:0,0:0:0:0:
215,193,39615,6,0,P|270:181|317:188,1,75,6|0,0:0|0:0,0:0:0:0:
386,191,39931,1,8,0:0:0:0:
386,191,40089,2,0,L|374:349,1,150,2|0,0:0|0:0,0:0:0:0:
469,317,40563,2,0,L|474:228,1,75,8|0,0:0|0:0,0:0:0:0:
462,144,40879,6,0,P|423:108|391:104,1,75,6|2,0:0|0:0,0:0:0:0:
309,74,41194,1,8,0:0:0:0:
309,74,41352,2,0,L|143:82,1,150,2|0,0:0|0:0,0:0:0:0:
94,154,41826,2,0,P|74:217|82:247,1,75,8|0,0:0|0:0,0:0:0:0:
29,311,42142,6,0,P|54:275|156:286,1,150,6|8,0:0|0:0,0:0:0:0:
244,307,42615,2,0,P|313:325|365:276,1,150,2|8,0:0|0:0,0:0:0:0:
391,181,43089,2,0,L|390:99,1,75,8|0,0:0|0:0,0:0:0:0:
293,90,43405,6,0,P|240:84|193:105,1,75,6|2,0:0|0:0,0:0:0:0:
125,63,43721,1,10,0:0:0:0:
48,123,43879,2,0,P|83:187|174:189,1,150,6|0,0:0|0:0,0:0:0:0:
249,176,44352,1,8,0:0:0:0:
249,176,44510,1,0,0:0:0:0:
346,166,44668,6,0,P|386:203|388:305,1,150,2|8,0:0|0:0,0:0:0:0:
316,355,45142,1,0,0:0:0:0:
219,352,45300,2,0,L|178:347,3,37.5,8|0|8|8,0:0|0:0|0:0|0:0,0:0:0:0:
133,342,45615,2,0,L|95:346,3,37.5,8|8|8|8,0:0|0:0|0:0|0:0,0:0:0:0:
47,338,45931,6,0,L|33:240,1,75,6|0,0:0|0:0,0:0:0:0:
77,176,46247,2,0,L|87:102,1,75,8|0,0:0|0:0,0:0:0:0:
167,46,46563,2,0,P|207:30|272:48,1,75,2|0,0:0|0:0,0:0:0:0:
335,47,46879,1,8,0:0:0:0:
335,47,47036,6,0,B|436:173,1,150,2|0,0:0|0:0,0:0:0:0:
499,232,47510,2,0,P|511:275|505:311,1,75,8|8,0:0|0:0,0:0:0:0:
416,343,47826,2,0,P|375:354|340:343,1,75,2|0,0:0|0:0,0:0:0:0:
267,284,48142,1,8,0:0:0:0:
230,92,48458,6,0,P|268:94|301:112,1,75,6|0,0:0|0:0,0:0:0:0:
146,142,48773,2,0,P|134:107|136:70,1,75,6|0,0:0|0:0,0:0:0:0:
239,178,49089,2,0,P|213:216|171:235,1,75,6|0,0:0|0:0,0:0:0:0:
254,303,49405,1,8,0:0:0:0:
170,354,49563,6,0,L|12:364,1,150,4|0,0:0|0:0,0:0:0:0:
33,266,50036,2,0,P|22:221|34:176,1,75,6|0,0:0|0:0,0:0:0:0:
115,64,50352,2,0,P|119:101|109:137,1,75,6|0,0:0|0:0,0:0:0:0:
20,95,50668,1,2,0:0:0:0:
215,134,50984,6,0,L|316:144,1,75,6|0,0:0|0:0,0:0:0:0:
382,110,51300,2,0,L|456:103,1,75,8|0,0:0|0:0,0:0:0:0:
484,197,51615,2,0,P|494:261|480:305,1,75,2|0,0:0|0:0,0:0:0:0:
412,328,51931,1,8,0:0:0:0:
412,328,52089,6,0,B|334:353|341:292|235:339,1,150,2|0,0:0|0:0,0:0:0:0:
176,371,52563,2,0,P|163:330|175:280,1,75,8|8,0:0|0:0,0:0:0:0:
143,204,52879,2,0,P|154:146|133:98,1,75,2|0,0:0|0:0,0:0:0:0:
118,39,53194,1,8,0:0:0:0:
318,37,53510,6,0,L|336:122,1,75,6|0,0:0|0:0,0:0:0:0:
406,224,53826,2,0,L|422:151,1,75,6|0,0:0|0:0,0:0:0:0:
310,247,54142,2,0,P|259:242|218:201,1,75,6|0,0:0|0:0,0:0:0:0:
144,254,54458,1,8,0:0:0:0:
88,174,54615,6,0,P|81:112|165:132,1,150,6|0,0:0|0:0,0:0:0:0:
250,97,55089,2,0,L|336:85,1,75,6|0,0:0|0:0,0:0:0:0:
452,178,55405,2,0,L|378:168,1,75,6|0,0:0|0:0,0:0:0:0:
280,179,55721,1,2,0:0:0:0:
177,344,56036,6,0,P|137:319|117:284,1,75,2|0,0:0|0:0,0:0:0:0:
213,262,56352,2,0,P|191:234|198:165,1,75,8|0,0:0|0:0,0:0:0:0:
283,199,56668,2,0,P|276:172|297:101,1,75,2|0,0:0|0:0,0:0:0:0:
374,91,56984,1,8,0:0:0:0:
456,142,57142,1,0,0:0:0:0:
374,91,57300,6,0,L|355:12,1,75,2|0,0:0|0:0,0:0:0:0:
282,125,57615,2,0,L|264:35,1,75,8|0,0:0|0:0,0:0:0:0:
192,169,57931,2,0,L|173:90,1,75,2|0,0:0|0:0,0:0:0:0:
100,203,58247,2,0,L|82:113,1,75,8|0,0:0|0:0,0:0:0:0:
42,266,58563,6,0,P|72:283|128:285,1,75,2|0,0:0|0:0,0:0:0:0:
204,256,58879,1,8,0:0:0:0:
286,306,59036,1,0,0:0:0:0:
359,242,59194,2,0,P|399:230|449:244,1,75,2|0,0:0|0:0,0:0:0:0:
470,145,59510,2,0,L|463:53,1,75,8|0,0:0|0:0,0:0:0:0:
366,59,59826,6,0,L|327:53,3,37.5,10|8|8|8,0:0|0:0|0:0|0:0,0:0:0:0:
280,62,60142,2,0,L|241:68,3,37.5,8|8|8|8,0:0|0:0|0:0|0:0,0:0:0:0:
193,68,60458,2,0,L|155:62,3,37.5,8|0|8|8,0:0|0:0|0:0|0:0,0:0:0:0:
107,66,60773,1,8,0:0:0:0:
97,163,60931,1,8,0:0:0:0:
86,260,61089,5,14,0:0:0:0:
256,192,61168,12,4,63536,3:0:0:0:
