osu file format v14

[General]
AudioFilename: audio.mp3
AudioLeadIn: 0
PreviewTime: 45931
Countdown: 0
SampleSet: Soft
StackLeniency: 0.7
Mode: 0
LetterboxInBreaks: 0
WidescreenStoryboard: 0

[Editor]
Bookmarks: 20668
DistanceSpacing: 1.9
BeatDivisor: 4
GridSize: 4
TimelineZoom: 1.6

[Metadata]
Title:Gohan wa Okazu
TitleUnicode:ごはんはおかず
Artist:HO-KAGO TEA TIME
ArtistUnicode:放課後ティータイム
Creator:MashaSG
Version:Fanteer's Extra!!
Source:けいおん!!
Tags:K-ON! Light Music Rice is a Dish J-Pop bice TheMefisto Pata-Mon Karen vanucik wajinshu Fanteer Momochikun Underforest Armin A_r_M_i_N
BeatmapID:1257656
BeatmapSetID:591709

[Difficulty]
HPDrainRate:6
CircleSize:4.5
OverallDifficulty:8.5
ApproachRate:9.2
SliderMultiplier:1.9
SliderTickRate:2

[Events]
//Background and Video events
0,0,"Fanteer.jpg",0,0
//Break Periods
//Storyboard Layer 0 (Background)
//Storyboard Layer 1 (Fail)
//Storyboard Layer 2 (Pass)
//Storyboard Layer 3 (Foreground)
//Storyboard Sound Samples

[TimingPoints]
458,315.789473684211,4,2,1,80,1,0
458,-111.111111111111,4,2,1,80,0,0
10563,-133.333333333333,4,2,1,80,0,0
13010,-133.333333333333,4,2,1,80,0,0
13089,-133.333333333333,4,2,1,80,0,0
13958,-133.333333333333,4,2,1,5,0,0
14036,-133.333333333333,4,2,1,80,0,0
18379,-133.333333333333,4,2,1,80,0,0
18458,-133.333333333333,4,2,1,80,0,0
19010,-133.333333333333,4,2,1,5,0,0
19089,-133.333333333333,4,2,1,80,0,0
19879,-100,4,2,1,80,0,0
20352,-133.333333333333,4,2,1,80,0,0
20589,-133.333333333333,4,2,1,5,0,0
20668,-133.333333333333,4,2,1,80,0,0
25958,-133.333333333333,4,2,1,5,0,0
26036,-133.333333333333,4,2,1,80,0,0
26826,-133.333333333333,4,2,1,80,0,0
27300,-133.333333333333,4,2,1,80,0,0
27536,-133.333333333333,4,2,1,80,0,0
27615,-133.333333333333,4,2,1,80,0,0
27852,-133.333333333333,4,2,1,80,0,0
27931,-133.333333333333,4,2,1,80,0,0
28168,-133.333333333333,4,2,1,80,0,0
28247,-133.333333333333,4,2,1,80,0,0
28484,-133.333333333333,4,2,1,5,0,0
28563,-133.333333333333,4,2,1,80,0,0
30773,-111.111111111111,4,2,1,80,0,0
32273,-111.111111111111,4,2,1,5,0,0
32352,-111.111111111111,4,2,1,80,0,0
32747,-111.111111111111,4,2,1,5,0,0
32826,-111.111111111111,4,2,1,80,0,0
35747,-111.111111111111,4,2,1,5,0,0
35826,-111.111111111111,4,2,1,80,0,0
40326,-111.111111111111,4,2,1,5,0,0
40405,-111.111111111111,4,2,1,80,0,0
40800,-111.111111111111,4,2,1,5,0,0
40879,-111.111111111111,4,2,1,80,0,0
41589,-111.111111111111,4,2,1,5,0,0
41668,-111.111111111111,4,2,1,80,0,0
42379,-111.111111111111,4,2,1,5,0,0
42458,-111.111111111111,4,2,1,80,0,0
45931,-100,4,2,1,80,0,1
50905,-100,4,2,1,5,0,1
50984,-100,4,2,1,80,0,1
55405,-100,4,2,1,80,0,0
55958,-100,4,2,1,5,0,0
56036,-100,4,2,1,80,0,0
59905,-100,4,2,1,40,0,0
60142,-100,4,2,1,80,0,0
60221,-100,4,2,1,40,0,0
60458,-100,4,2,1,80,0,0
63536,-100,4,2,1,40,0,0

[Colours]
Combo1 : 0,0,255
Combo2 : 255,100,150
Combo3 : 255,136,255
Combo4 : 0,202,202

[HitObjects]
89,95,458,6,0,P|128:111|170:110,1,85.4999973907472,6|0,0:0|0:0,0:0:0:0:
343,57,773,1,8,0:0:0:0:
312,223,931,1,0,0:0:0:0:
257,83,1089,2,0,P|256:40|275:-2,1,85.4999973907472,2|0,0:0|0:0,0:0:0:0:
429,31,1405,2,0,L|438:72,1,42.7499986953736,8|0,0:0|0:0,0:0:0:0:
477,221,1563,6,0,B|425:189|365:253|309:221,1,170.999994781494,2|0,0:0|0:0,0:0:0:0:
170,109,2036,1,8,0:0:0:0:
302,307,2194,1,8,0:0:0:0:
349,142,2352,2,0,L|342:56,1,85.4999973907472,2|0,0:0|0:0,0:0:0:0:
233,257,2668,2,0,L|225:342,1,85.4999973907472,8|0,0:0|0:0,0:0:0:0:
84,100,2984,6,0,L|169:108,1,85.4999973907472,6|0,0:0|0:0,0:0:0:0:
349,142,3300,1,8,0:0:0:0:
233,257,3458,1,0,0:0:0:0:
190,20,3615,1,2,0:0:0:0:
345,159,3773,1,0,0:0:0:0:
164,207,3931,1,8,0:0:0:0:
342,56,4089,6,0,L|529:73,1,170.999994781494,2|0,0:0|0:0,0:0:0:0:
272,106,4563,2,0,P|258:65|262:23,1,85.4999973907472,10|0,0:0|0:0,0:0:0:0:
437,176,4879,2,0,P|441:218|427:258,1,85.4999973907472,2|0,0:0|0:0,0:0:0:0:
224,342,5194,2,0,P|264:328|306:332,1,85.4999973907472,8|0,0:0|0:0,0:0:0:0:
78,229,5510,6,0,L|86:314,1,85.4999973907472,6|0,0:0|0:0,0:0:0:0:
195,104,5825,1,8,0:0:0:0:
0,91,5983,1,0,0:0:0:0:
164,207,6142,2,0,P|206:211|246:197,1,85.4999973907472,2|0,0:0|0:0,0:0:0:0:
133,0,6458,2,0,L|124:41,1,42.7499986953736,8|0,0:0|0:0,0:0:0:0:
28,155,6615,6,0,P|110:145|164:208,1,170.999994781494,2|0,0:0|0:0,0:0:0:0:
170,384,7088,1,8,0:0:0:0:
246,196,7246,1,8,0:0:0:0:
78,229,7405,2,0,L|86:314,1,85.4999973907472,2|0,0:0|0:0,0:0:0:0:
196,129,7721,2,0,L|204:44,1,85.4999973907472,8|0,0:0|0:0,0:0:0:0:
296,280,8036,6,0,L|211:272,1,85.4999973907472,6|0,0:0|0:0,0:0:0:0:
78,229,8352,1,8,0:0:0:0:
170,384,8510,1,0,0:0:0:0:
196,129,8668,1,2,0:0:0:0:
59,237,8826,1,0,0:0:0:0:
248,351,8984,1,8,0:0:0:0:
196,129,9142,6,0,L|25:113,1,170.999994781494,2|0,0:0|0:0,0:0:0:0:
242,198,9615,2,0,L|327:190,1,85.4999973907472,8|0,0:0|0:0,0:0:0:0:
512,128,9931,1,2,0:0:0:0:
330,68,10089,5,8,0:0:0:0:
308,81,10167,1,8,0:0:0:0:
294,102,10246,1,8,0:0:0:0:
290,127,10325,1,8,0:0:0:0:
294,152,10404,1,8,0:0:0:0:
307,173,10483,1,8,0:0:0:0:
327,190,10563,6,0,L|242:198,1,71.2500027179719,6|0,0:0|0:0,0:0:0:0:
162,205,10879,1,8,0:0:0:0:
167,76,11036,2,0,P|190:141|162:205,1,142.500005435944,2|0,0:0|0:0,0:0:0:0:
29,145,11510,2,0,L|99:138,1,71.2500027179719,8|0,0:0|0:0,0:0:0:0:
217,282,11826,6,0,L|146:275,1,71.2500027179719,2|0,0:0|0:0,0:0:0:0:
53,263,12142,1,8,0:0:0:0:
130,372,12300,2,0,L|281:357,1,142.500005435944,2|0,0:0|0:0,0:0:0:0:
401,326,12773,2,0,P|376:354|360:394,1,71.2500027179719,8|0,0:0|0:0,0:0:0:0:
327,190,13089,6,0,P|352:218|368:258,1,71.2500027179719,2|0,0:0|0:0,0:0:0:0:
401,54,13405,1,8,0:0:0:0:
290,127,13563,1,0,0:0:0:0:
443,164,13721,2,0,P|480:161|520:144,1,71.2500027179719,2|0,0:0|0:0,0:0:0:0:
365,248,14036,2,0,P|327:245|287:228,1,71.2500027179719,8|0,0:0|0:0,0:0:0:0:
199,99,14352,5,2,0:0:0:0:
217,282,14510,1,2,0:0:0:0:
270,34,14668,1,10,0:0:0:0:
38,150,14826,1,2,0:0:0:0:
290,127,15142,5,2,0:0:0:0:
8,64,15300,1,2,0:0:0:0:
217,282,15615,6,0,L|146:289,1,71.2500027179719,6|0,0:0|0:0,0:0:0:0:
53,263,15931,1,8,0:0:0:0:
215,190,16089,2,0,P|271:208|305:302,1,142.500005435944,2|0,0:0|0:0,0:0:0:0:
443,164,16563,2,0,P|426:197|420:240,1,71.2500027179719,8|0,0:0|0:0,0:0:0:0:
290,127,16879,6,0,P|327:124|367:107,1,71.2500027179719,2|0,0:0|0:0,0:0:0:0:
303,17,17194,1,8,0:0:0:0:
215,190,17352,2,0,L|199:31,1,142.500005435944,2|0,0:0|0:0,0:0:0:0:
307,223,17826,2,0,L|296:326,1,71.2500027179719,8|0,0:0|0:0,0:0:0:0:
146,203,18142,6,0,P|179:190|214:189,1,71.2500027179719,2|0,0:0|0:0,0:0:0:0:
146,288,18458,1,8,0:0:0:0:
38,150,18615,1,0,0:0:0:0:
58,314,18773,2,0,L|64:384,1,71.2500027179719,2|0,0:0|0:0,0:0:0:0:
150,206,19089,1,8,0:0:0:0:
150,206,19247,1,0,0:0:0:0:
9,231,19404,5,2,0:0:0:0:
252,115,19562,1,2,0:0:0:0:
37,28,19720,1,8,0:0:0:0:
134,289,19878,1,2,0:0:0:0:
155,49,20194,5,2,0:0:0:0:
64,384,20352,1,8,0:0:0:0:
210,209,20668,6,0,P|276:202|353:190,1,142.500005435944,6|0,0:0|0:0,0:0:0:0:
447,224,21142,1,0,0:0:0:0:
447,224,21300,2,0,P|458:263|465:305,1,71.2500027179719,8|0,0:0|0:0,0:0:0:0:
288,335,21615,1,8,0:0:0:0:
332,86,21773,1,8,0:0:0:0:
347,102,22089,5,8,0:0:0:0:
280,217,22247,2,0,L|201:208,1,71.2500027179719,0|0,0:0|0:0,0:0:0:0:
221,51,22563,2,0,P|226:86|228:121,1,71.2500027179719,8|0,0:0|0:0,0:0:0:0:
68,228,22879,2,0,P|69:192|75:157,1,71.2500027179719,0|0,0:0|0:0,0:0:0:0:
151,270,23194,6,0,P|121:303|19:308,1,142.500005435944,6|0,0:0|0:0,0:0:0:0:
4,164,23668,1,0,0:0:0:0:
4,164,23826,2,0,P|40:159|76:157,1,71.2500027179719,8|0,0:0|0:0,0:0:0:0:
288,335,24142,1,8,0:0:0:0:
221,51,24300,1,8,0:0:0:0:
205,65,24615,5,8,0:0:0:0:
289,135,24773,2,0,P|297:172|301:211,1,71.2500027179719,0|0,0:0|0:0,0:0:0:0:
116,266,25089,2,0,P|120:230|127:195,1,71.2500027179719,8|0,0:0|0:0,0:0:0:0:
269,347,25405,2,0,P|234:342|199:341,1,71.2500027179719,0|0,0:0|0:0,0:0:0:0:
300,205,25721,6,0,B|335:203|370:199,1,71.2500027179719,6|0,0:0|0:0,0:0:0:0:
465,61,26036,1,8,0:0:0:0:
432,275,26194,2,0,B|430:310|426:345,1,71.2500027179719,0|0,0:0|0:0,0:0:0:0:
299,73,26510,1,10,0:0:0:0:
512,189,26668,1,10,0:0:0:0:
277,276,26826,2,0,P|313:280|348:286,1,71.2500027179719,2|0,0:0|0:0,0:0:0:0:
299,73,27300,6,0,P|302:37|308:2,1,71.2500027179719,2|0,0:0|0:0,0:0:0:0:
277,276,27615,2,0,P|241:272|206:266,1,71.2500027179719,2|0,0:0|0:0,0:0:0:0:
401,120,27931,2,0,P|436:114|471:110,1,71.2500027179719,2|0,0:0|0:0,0:0:0:0:
230,37,28247,6,0,P|158:36|69:44,1,142.500005435944,6|8,0:0|0:0,0:0:0:0:
30,120,28721,1,0,0:0:0:0:
191,260,28879,2,0,L|184:178,1,71.2500027179719,2|0,0:0|0:0,0:0:0:0:
48,274,29194,2,0,L|41:344,1,71.2500027179719,8|0,0:0|0:0,0:0:0:0:
305,249,29510,5,2,0:0:0:0:
99,205,29668,1,2,0:0:0:0:
356,178,29826,1,10,0:0:0:0:
48,274,29984,1,2,0:0:0:0:
310,53,30142,5,10,0:0:0:0:
253,329,30300,2,0,L|255:373,1,35.625001358986,8|8,0:0|0:0,0:0:0:0:
161,296,30458,1,8,0:0:0:0:
185,261,30536,1,8,0:0:0:0:
222,240,30615,1,8,0:0:0:0:
264,236,30694,1,8,0:0:0:0:
305,249,30773,6,0,P|346:245|392:234,1,85.4999973907472,6|0,0:0|0:0,0:0:0:0:
222,60,31089,2,0,P|180:49|138:45,1,85.4999973907472,8|0,0:0|0:0,0:0:0:0:
161,296,31405,1,6,0:0:0:0:
177,140,31563,1,0,0:0:0:0:
62,285,31721,1,8,0:0:0:0:
250,368,31879,1,0,0:0:0:0:
82,183,32036,6,0,P|41:185|-1:203,1,85.4999973907472,6|0,0:0|0:0,0:0:0:0:
153,72,32352,1,8,0:0:0:0:
62,285,32510,2,0,P|55:337|55:373,1,85.4999973907472,2|0,0:0|0:0,0:0:0:0:
257,130,32826,1,0,0:0:0:0:
0,202,32984,1,8,0:0:0:0:
188,365,33142,1,0,0:0:0:0:
365,140,33300,6,0,P|360:96|349:42,1,85.4999973907472,6|0,0:0|0:0,0:0:0:0:
184,201,33615,2,0,P|175:242|171:285,1,85.4999973907472,8|0,0:0|0:0,0:0:0:0:
212,51,33931,2,0,P|170:42|127:38,1,85.4999973907472,6|0,0:0|0:0,0:0:0:0:
403,237,34247,2,0,P|445:232|487:224,1,85.4999973907472,8|0,0:0|0:0,0:0:0:0:
276,177,34563,5,6,0:0:0:0:
356,353,34721,1,2,0:0:0:0:
394,98,34879,1,10,0:0:0:0:
154,272,35036,2,0,B|199:254|240:269|240:269|284:284|336:255,1,170.999994781494,2|0,0:0|0:0,0:0:0:0:
192,363,35510,2,0,P|151:362|104:348,1,85.4999973907472,8|0,0:0|0:0,0:0:0:0:
254,100,35826,6,0,P|264:137|274:195,1,85.4999973907472,6|0,0:0|0:0,0:0:0:0:
24,257,36142,2,0,P|31:214|42:173,1,85.4999973907472,8|0,0:0|0:0,0:0:0:0:
281,311,36458,2,0,P|321:299|379:289,1,85.4999973907472,6|0,0:0|0:0,0:0:0:0:
123,223,36773,1,8,0:0:0:0:
290,211,36931,1,0,0:0:0:0:
77,318,37089,5,6,0:0:0:0:
49,81,37247,1,0,0:0:0:0:
24,257,37405,1,8,0:0:0:0:
155,99,37563,2,0,P|152:59|131:10,1,85.4999973907472,2|0,0:0|0:0,0:0:0:0:
123,223,37879,2,0,B|167:201|209:213|209:213|245:225|301:208,1,170.999994781494,2|0,0:0|0:0,0:0:0:0:
433,270,38352,6,0,P|444:312|452:359,1,85.4999973907472,6|0,0:0|0:0,0:0:0:0:
272,294,38668,2,0,P|279:251|290:210,1,85.4999973907472,8|0,0:0|0:0,0:0:0:0:
416,152,38984,2,0,P|461:152|505:158,1,85.4999973907472,6|0,0:0|0:0,0:0:0:0:
318,44,39300,2,0,P|275:48|232:49,1,85.4999973907472,8|0,0:0|0:0,0:0:0:0:
28,53,39615,5,6,0:0:0:0:
123,223,39773,2,0,P|136:264|143:313,1,85.4999973907472,0|8,0:0|0:0,0:0:0:0:
22,159,40089,2,0,L|112:148,1,85.4999973907472,2|0,0:0|0:0,0:0:0:0:
296,192,40405,1,0,0:0:0:0:
142,305,40563,2,0,P|105:295|55:289,1,85.4999973907472,8|0,0:0|0:0,0:0:0:0:
106,148,40879,5,6,0:0:0:0:
246,252,41036,2,0,P|255:293|258:336,1,85.4999973907472,2|8,0:0|0:0,0:0:0:0:
209,109,41352,2,0,P|206:66|196:24,1,85.4999973907472,2|0,0:0|0:0,0:0:0:0:
123,223,41668,1,0,0:0:0:0:
339,93,41826,1,8,0:0:0:0:
77,13,41984,1,0,0:0:0:0:
246,252,42142,6,0,P|284:250|337:240,1,85.4999973907472,6|0,0:0|0:0,0:0:0:0:
418,68,42458,1,8,0:0:0:0:
498,269,42615,2,8,P|503:305|507:360,1,85.4999973907472,2|0,0:0|0:0,0:0:0:0:
330,241,42931,1,8,0:0:0:0:
418,68,43089,2,8,P|460:71|502:76,1,85.4999973907472,8|0,0:0|0:0,0:0:0:0:
236,172,43405,6,8,P|193:168|151:163,1,85.4999973907472,6|2,0:0|0:0,0:0:0:0:
355,17,43721,1,10,0:0:0:0:
419,287,43879,1,6,0:0:0:0:
236,172,44036,2,0,P|241:127|252:83,1,85.4999973907472,0|0,0:0|0:0,0:0:0:0:
406,202,44352,2,0,P|415:243|419:287,1,85.4999973907472,8|0,0:0|0:0,0:0:0:0:
220,352,44668,6,0,L|128:347,1,85.4999973907472,2|0,0:0|0:0,0:0:0:0:
94,74,44984,1,8,0:0:0:0:
217,269,45142,1,0,0:0:0:0:
10,188,45300,1,8,0:0:0:0:
236,93,45458,1,8,0:0:0:0:
261,94,45536,1,8,0:0:0:0:
287,95,45615,1,8,0:0:0:0:
312,96,45694,1,8,0:0:0:0:
338,98,45773,1,8,0:0:0:0:
364,99,45852,1,8,0:0:0:0:
390,104,45931,6,0,P|401:152|405:202,1,95,6|0,0:0|0:0,0:0:0:0:
210,333,46247,1,8,0:0:0:0:
475,281,46405,1,0,0:0:0:0:
198,344,46563,2,0,L|104:337,1,95,2|0,0:0|0:0,0:0:0:0:
398,212,46879,2,0,L|477:206,1,47.5,8|0,0:0|0:0,0:0:0:0:
288,72,47036,6,0,B|311:116|294:165|294:165|274:220|298:266,1,190,2|0,0:0|0:0,0:0:0:0:
174,126,47510,1,8,0:0:0:0:
432,219,47668,1,8,0:0:0:0:
174,356,47826,2,0,L|77:347,1,95,2|0,0:0|0:0,0:0:0:0:
418,236,48142,2,0,L|514:227,1,95,8|0,0:0|0:0,0:0:0:0:
174,126,48458,6,0,L|79:121,1,95,6|0,0:0|0:0,0:0:0:0:
349,48,48774,1,6,0:0:0:0:
177,261,48932,1,0,0:0:0:0:
373,39,49089,1,6,0:0:0:0:
174,126,49247,1,0,0:0:0:0:
409,238,49405,1,8,0:0:0:0:
208,362,49563,6,0,B|155:369|115:350|115:350|72:327|9:338,1,190,4|0,0:0|0:0,0:0:0:0:
174,126,50037,2,0,P|187:171|192:223,1,95,6|0,0:0|0:0,0:0:0:0:
23,115,50352,2,0,P|27:67|41:22,1,95,6|0,0:0|0:0,0:0:0:0:
296,100,50668,1,2,0:0:0:0:
89,203,50826,1,0,0:0:0:0:
319,297,50984,6,0,L|419:290,1,95,6|0,0:0|0:0,0:0:0:0:
229,166,51299,1,8,0:0:0:0:
269,369,51457,1,0,0:0:0:0:
206,148,51616,2,0,L|214:49,1,95,2|0,0:0|0:0,0:0:0:0:
374,123,51932,2,0,L|381:169,1,47.5,8|0,0:0|0:0,0:0:0:0:
325,26,52089,6,0,P|408:17|481:98,1,190,2|0,0:0|0:0,0:0:0:0:
304,277,52562,1,8,0:0:0:0:
374,123,52720,1,8,0:0:0:0:
312,289,52879,2,0,L|321:389,1,95,2|0,0:0|0:0,0:0:0:0:
164,145,53194,2,0,L|172:50,1,95,8|0,0:0|0:0,0:0:0:0:
407,297,53510,6,0,P|359:289|309:290,1,95,6|0,0:0|0:0,0:0:0:0:
41,223,53826,1,6,0:0:0:0:
293,157,53984,1,0,0:0:0:0:
21,200,54141,1,6,0:0:0:0:
184,360,54299,1,0,0:0:0:0:
136,84,54457,1,8,0:0:0:0:
386,161,54615,6,0,P|403:244|408:354,1,190,6|0,0:0|0:0,0:0:0:0:
293,157,55089,2,0,P|305:116|342:80,1,95,6|0,0:0|0:0,0:0:0:0:
216,260,55405,2,0,P|168:248|116:244,1,95,6|0,0:0|0:0,0:0:0:0:
324,360,55721,1,2,0:0:0:0:
386,161,55879,1,0,0:0:0:0:
216,260,56036,6,0,P|200:304|192:352,1,95,2|0,0:0|0:0,0:0:0:0:
409,252,56352,2,0,P|401:205|385:160,1,95,8|0,0:0|0:0,0:0:0:0:
284,328,56668,1,2,0:0:0:0:
448,364,56826,1,0,0:0:0:0:
268,184,56984,1,8,0:0:0:0:
296,348,57142,1,0,0:0:0:0:
168,200,57300,6,0,P|172:152|200:108,1,95,2|0,0:0|0:0,0:0:0:0:
385,160,57615,2,0,P|433:148|481:140,1,95,8|0,0:0|0:0,0:0:0:0:
364,320,57931,1,2,0:0:0:0:
268,184,58089,1,0,0:0:0:0:
432,244,58247,1,8,0:0:0:0:
280,376,58405,1,0,0:0:0:0:
168,200,58563,6,0,L|176:104,1,95,2|0,0:0|0:0,0:0:0:0:
32,252,58879,2,0,L|39:346,1,95,8|0,0:0|0:0,0:0:0:0:
192,276,59194,1,2,0:0:0:0:
64,144,59352,1,0,0:0:0:0:
240,188,59510,1,8,0:0:0:0:
128,348,59668,1,0,0:0:0:0:
160,148,59826,5,10,0:0:0:0:
183,118,59904,1,8,0:0:0:0:
217,102,59983,1,8,0:0:0:0:
255,100,60062,1,8,0:0:0:0:
290,114,60141,1,8,0:0:0:0:
316,141,60220,1,8,0:0:0:0:
329,177,60299,1,8,0:0:0:0:
326,214,60378,1,8,0:0:0:0:
308,248,60458,6,0,P|256:256|212:240,1,95,8|8,0:0|0:0,0:0:0:0:
193,216,60694,1,8,0:0:0:0:
180,184,60773,2,0,L|187:83,1,95,8|8,0:0|0:0,0:0:0:0:
341,43,61089,5,14,0:0:0:0:
256,192,61168,12,4,63536,3:0:0:0:
