osu file format v14

[General]
AudioFilename: audio.mp3
AudioLeadIn: 0
PreviewTime: 45931
Countdown: 0
SampleSet: Soft
StackLeniency: 0.7
Mode: 0
LetterboxInBreaks: 0
WidescreenStoryboard: 0

[Editor]
DistanceSpacing: 1.1
BeatDivisor: 4
GridSize: 4
TimelineZoom: 1.4

[Metadata]
Title:Gohan wa Okazu
TitleUnicode:ごはんはおかず
Artist:HO-KAGO TEA TIME
ArtistUnicode:放課後ティータイム
Creator:MashaSG
Version:Easy!!
Source:けいおん!!
Tags:K-ON! Light Music Rice is a Dish J-Pop bice TheMefisto Pata-Mon Karen vanucik wajinshu Fanteer Momochikun Underforest Armin A_r_M_i_N
BeatmapID:1252077
BeatmapSetID:591709

[Difficulty]
HPDrainRate:3
CircleSize:3
OverallDifficulty:3
ApproachRate:3
SliderMultiplier:0.899999999999999
SliderTickRate:1

[Events]
//Background and Video events
0,0,"Waifu.jpg",0,0
//Break Periods
//Storyboard Layer 0 (Background)
//Storyboard Layer 1 (Fail)
//Storyboard Layer 2 (Pass)
//Storyboard Layer 3 (Foreground)
//Storyboard Sound Samples

[TimingPoints]
458,315.789473684211,4,2,1,80,1,0
10563,-111.111111111111,4,2,1,80,0,0
45931,-100,4,2,1,80,0,1
50036,-100,4,2,1,80,0,1
50668,-100,4,2,1,80,0,0
50984,-100,4,2,1,80,0,1
55089,-100,4,2,1,80,0,1
55721,-100,4,2,1,80,0,0
63536,-100,4,2,1,40,0,0

[Colours]
Combo1 : 255,128,192
Combo2 : 113,184,255
Combo3 : 91,46,0
Combo4 : 0,128,192

[HitObjects]
163,23,458,6,0,B|194:108|194:108|157:290,1,270,6|8,0:0|0:0,0:0:0:0:
145,331,1563,2,0,P|215:288|348:343,1,225,2|2,0:0|0:0,0:0:0:0:
440,317,2668,1,8,0:0:0:0:
376,241,2984,6,0,L|388:136,1,89.9999999999999,6|8,0:0|0:0,0:0:0:0:
294,188,3615,2,0,L|306:83,1,89.9999999999999,2|8,0:0|0:0,0:0:0:0:
315,50,4089,2,0,P|270:75|186:52,1,135,2|10,0:0|0:0,0:0:0:0:
111,115,4879,2,0,L|121:204,1,89.9999999999999,2|8,0:0|0:0,0:0:0:0:
96,300,5510,6,0,B|152:268|224:300|224:300|296:332|360:300,1,270,6|8,0:0|0:0,0:0:0:0:
393,269,6615,2,0,P|393:311|484:251,1,225,2|2,0:0|0:0,0:0:0:0:
436,179,7721,1,8,0:0:0:0:
380,96,8036,6,0,L|469:85,1,89.9999999999999,6|8,0:0|0:0,0:0:0:0:
414,1,8668,2,0,L|325:12,1,89.9999999999999,2|8,0:0|0:0,0:0:0:0:
274,11,9142,2,0,P|299:56|276:140,1,135,2|8,0:0|0:0,0:0:0:0:
191,177,9931,2,0,P|235:203|257:287,1,135,2|8,0:0|0:0,0:0:0:0:
234,318,10563,6,0,P|349:274|453:331,1,242.999992584228,6|8,0:0|0:0,0:0:0:0:
503,255,11826,2,0,L|471:0,1,242.999992584228,2|8,0:0|0:0,0:0:0:0:
384,0,13089,2,0,L|413:241,1,242.999992584228,2|8,0:0|0:0,0:0:0:0:
359,312,14352,2,0,P|324:297|240:316,2,121.499996292114,2|2|2,0:0|0:0|0:0,0:0:0:0:
413,241,15615,6,0,P|300:204|177:252,1,242.999992584228,6|8,0:0|0:0,0:0:0:0:
98,258,16879,2,0,L|130:3,1,242.999992584228,2|8,0:0|0:0,0:0:0:0:
215,2,18142,2,0,L|186:243,1,242.999992584228,2|8,0:0|0:0,0:0:0:0:
242,315,19405,2,0,B|323:305|323:305|372:324,2,121.499996292114,2|2|8,0:0|0:0|0:0,0:0:0:0:
152,329,20668,6,0,L|71:339,1,80.9999975280762,6|0,0:0|0:0,0:0:0:0:
65,250,21300,2,0,B|146:240|146:240|195:244,1,121.499996292114,8|8,0:0|0:0,0:0:0:0:
276,230,22089,2,0,L|266:149,1,80.9999975280762,8|0,0:0|0:0,0:0:0:0:
239,113,22563,2,0,L|229:32,1,80.9999975280762,8|0,0:0|0:0,0:0:0:0:
317,43,23194,6,0,P|359:50|405:43,1,80.9999975280762,6|0,0:0|0:0,0:0:0:0:
481,16,23826,2,0,B|471:97|471:97|475:146,1,121.499996292114,8|8,0:0|0:0,0:0:0:0:
443,220,24615,2,0,P|400:212|355:220,1,80.9999975280762,8|0,0:0|0:0,0:0:0:0:
324,239,25089,2,0,P|283:243|244:236,1,80.9999975280762,8|0,0:0|0:0,0:0:0:0:
197,159,25721,6,0,P|219:204|148:290,1,161.999995056152,6|0,0:0|0:0,0:0:0:0:
118,298,26510,2,0,L|122:347,2,40.4999987640381,10|10|10,0:0|0:0|0:0,0:0:0:0:
34,193,27300,2,0,L|27:103,2,80.9999975280762,2|2|2,0:0|0:0|0:0,0:0:0:0:
117,162,28247,6,0,P|156:168|196:159,1,80.9999975280762,6|8,0:0|0:0,0:0:0:0:
260,95,28879,2,0,P|299:88|339:97,1,80.9999975280762,2|8,0:0|0:0,0:0:0:0:
419,135,29510,2,0,L|426:45,1,80.9999975280762,2|10,0:0|0:0,0:0:0:0:
506,93,30142,2,0,L|495:221,1,121.499996292114,10|8,0:0|0:0,0:0:0:0:
498,258,30773,6,0,P|458:249|418:255,1,80.9999975280762,6|8,0:0|0:0,0:0:0:0:
355,318,31405,2,0,P|315:326|275:320,1,80.9999975280762,6|8,0:0|0:0,0:0:0:0:
225,246,32036,2,0,P|225:282|144:217,1,242.999992584228,6|8,0:0|0:0,0:0:0:0:
205,158,33300,6,0,P|245:160|281:176,1,80.9999975280762,6|8,0:0|0:0,0:0:0:0:
371,190,33931,2,0,P|411:187|447:171,1,80.9999975280762,6|8,0:0|0:0,0:0:0:0:
507,104,34563,2,0,L|486:352,1,242.999992584228,6|8,0:0|0:0,0:0:0:0:
397,349,35826,6,0,L|403:268,1,80.9999975280762,6|8,0:0|0:0,0:0:0:0:
313,271,36458,2,0,L|307:352,1,80.9999975280762,6|8,0:0|0:0,0:0:0:0:
229,308,37089,2,0,P|231:228|373:200,1,242.999992584228,6|8,0:0|0:0,0:0:0:0:
457,196,38352,6,0,L|463:115,1,80.9999975280762,6|8,0:0|0:0,0:0:0:0:
373,108,38984,2,0,L|379:27,1,80.9999975280762,6|8,0:0|0:0,0:0:0:0:
289,20,39615,6,0,P|238:32|178:2,2,121.499996292114,6|2|8,0:0|0:0|0:0,0:0:0:0:
334,96,40879,2,0,P|385:108|445:78,2,121.499996292114,6|2|8,0:0|0:0|0:0,0:0:0:0:
289,173,42142,2,0,P|238:185|178:155,2,121.499996292114,6|2|8,0:0|0:0|0:0,0:0:0:0:
334,249,43405,6,0,B|344:330|344:330|331:372,2,121.499996292114,6|6|8,0:0|0:0|0:0,0:0:0:0:
246,250,44668,2,0,B|256:331,1,80.9999975280762,2|8,0:0|0:0,0:0:0:0:
173,366,45300,2,0,P|148:317|73:301,1,121.499996292114,8|8,0:0|0:0,0:0:0:0:
38,302,45931,6,0,P|86:282|63:93,1,270,6|8,0:0|0:0,0:0:0:0:
29,80,47036,2,0,B|103:107|103:107|263:74,1,225,2|2,0:0|0:0,0:0:0:0:
343,56,48142,1,8,0:0:0:0:
399,138,48458,6,0,P|357:155|313:151,1,89.9999999999999,6|6,0:0|0:0,0:0:0:0:
255,231,49089,2,0,P|296:248|340:244,1,89.9999999999999,6|8,0:0|0:0,0:0:0:0:
389,237,49563,2,0,L|378:298,1,45,4|0,0:0|0:0,0:0:0:0:
423,371,50036,2,0,L|511:355,2,89.9999999999999,6|6|2,0:0|0:0|0:0,0:0:0:0:
327,343,50984,6,0,B|271:375|199:343|199:343|127:311|63:343,1,270,6|8,0:0|0:0,0:0:0:0:
31,375,52089,2,0,P|75:305|-5:188,1,225,2|2,0:0|0:0,0:0:0:0:
63,109,53194,1,8,0:0:0:0:
160,101,53510,6,0,P|153:145|127:181,1,89.9999999999999,6|6,0:0|0:0,0:0:0:0:
200,249,54142,2,0,P|241:232|285:236,1,89.9999999999999,6|8,0:0|0:0,0:0:0:0:
332,243,54615,2,0,L|322:181,1,45,6|0,0:0|0:0,0:0:0:0:
417,162,55089,2,0,L|401:65,2,89.9999999999999,6|6|2,0:0|0:0|0:0,0:0:0:0:
436,259,56036,6,0,P|471:273|370:334,1,270,2|8,0:0|0:0,0:0:0:0:
272,341,57300,2,0,P|163:359|207:258,1,270,2|8,0:0|0:0,0:0:0:0:
274,185,58563,6,0,P|177:171|61:283,1,270,2|8,0:0|0:0,0:0:0:0:
35,378,59826,2,0,B|59:291|59:291|35:204|35:204|52:163|52:163|36:120|36:120|54:67,1,315,10|8,0:0|0:0,0:0:0:0:
67,31,61089,1,14,0:0:0:0:
256,192,61247,12,4,63536,3:0:0:0:
