osu file format v14

[General]
AudioFilename: audio.mp3
AudioLeadIn: 0
PreviewTime: 45931
Countdown: 0
SampleSet: Soft
StackLeniency: 0.7
Mode: 0
LetterboxInBreaks: 0
WidescreenStoryboard: 0

[Editor]
DistanceSpacing: 0.5
BeatDivisor: 4
GridSize: 4
TimelineZoom: 1.6

[Metadata]
Title:Gohan wa Okazu
TitleUnicode:ごはんはおかず
Artist:HO-KAGO TEA TIME
ArtistUnicode:放課後ティータイム
Creator:MashaSG
Version:A r M i N's Extra!!
Source:けいおん!!
Tags:K-ON! Light Music Rice is a Dish J-Pop bice TheMefisto Pata-Mon Karen vanucik wajinshu Fanteer Momochikun Underforest Armin A_r_M_i_N
BeatmapID:1270113
BeatmapSetID:591709

[Difficulty]
HPDrainRate:6
CircleSize:3
OverallDifficulty:8.6
ApproachRate:9.2
SliderMultiplier:1.8
SliderTickRate:2

[Events]
//Background and Video events
0,0,"A R M I N.jpg",0,0
//Break Periods
//Storyboard Layer 0 (Background)
//Storyboard Layer 1 (Fail)
//Storyboard Layer 2 (Pass)
//Storyboard Layer 3 (Foreground)
//Storyboard Sound Samples

[TimingPoints]
458,315.789473684211,4,2,1,80,1,0
10563,-133.333333333333,4,2,1,80,0,0
20352,-166.666666666667,4,2,1,80,0,0
20589,-133.333333333333,4,2,1,5,0,0
20668,-117.647058823529,4,2,1,80,0,0
25958,-117.647058823529,4,2,1,5,0,0
26036,-117.647058823529,4,2,1,80,0,0
27300,-125,4,2,1,80,0,0
27536,-125,4,2,1,80,0,0
27615,-90.9090909090909,4,2,1,80,0,0
27852,-133.333333333333,4,2,1,80,0,0
27931,-66.6666666666667,4,2,1,80,0,0
28168,-133.333333333333,4,2,1,80,0,0
28247,-83.3333333333333,4,2,1,80,0,0
28563,-100,4,2,1,80,0,0
30773,-100,4,2,1,80,0,0
42379,-100,4,2,1,5,0,0
42458,-100,4,2,1,80,0,0
43879,-83.3333333333333,4,2,1,80,0,0
44352,-100,4,2,1,80,0,0
45931,-83.3333333333333,4,2,1,80,0,1
50905,-83.3333333333333,4,2,1,5,0,1
50984,-83.3333333333333,4,2,1,80,0,1
55958,-83.3333333333333,4,2,1,5,0,0
56036,-83.3333333333333,4,2,1,80,0,0
59905,-83.3333333333333,4,2,1,40,0,0
60142,-83.3333333333333,4,2,1,80,0,0
60221,-83.3333333333333,4,2,1,40,0,0
60458,-83.3333333333333,4,2,1,80,0,0
63536,-83.3333333333333,4,2,1,40,0,0

[Colours]
Combo1 : 244,0,0
Combo2 : 113,184,255
Combo3 : 91,46,0
Combo4 : 255,143,32

[HitObjects]
176,9,458,6,0,L|164:98,1,90,6|0,0:0|0:0,0:0:0:0:
290,288,773,1,8,0:0:0:0:
257,113,931,1,0,0:0:0:0:
100,285,1089,1,2,0:0:0:0:
163,98,1247,1,0,0:0:0:0:
209,337,1405,1,8,0:0:0:0:
9,261,1563,6,0,B|19:216|65:185|112:190|112:190|153:206,1,180,2|0,0:0|0:0,0:0:0:0:
291,383,2036,1,8,0:0:0:0:
100,285,2194,1,8,0:0:0:0:
304,195,2352,1,2,0:0:0:0:
209,337,2510,1,0,0:0:0:0:
394,225,2668,1,8,0:0:0:0:
223,243,2826,1,0,0:0:0:0:
467,310,2984,6,0,B|492:221|492:221|474:172,1,135,6|0,0:0|0:0,0:0:0:0:
466,161,3300,1,8,0:0:0:0:
324,288,3458,1,0,0:0:0:0:
235,59,3615,2,0,L|223:148,1,90,2|0,0:0|0:0,0:0:0:0:
135,278,3931,1,8,0:0:0:0:
324,105,4089,6,0,L|336:194,1,90,2|0,0:0|0:0,0:0:0:0:
135,183,4405,1,0,0:0:0:0:
317,11,4563,2,0,P|367:21|402:54,1,90,10|0,0:0|0:0,0:0:0:0:
222,148,4879,2,0,L|210:59,1,90,2|0,0:0|0:0,0:0:0:0:
433,133,5194,2,0,L|415:266,1,135,8|0,0:0|0:0,0:0:0:0:
411,289,5510,5,6,0:0:0:0:
324,105,5668,1,0,0:0:0:0:
229,339,5826,1,8,0:0:0:0:
222,148,5984,1,0,0:0:0:0:
320,314,6142,1,2,0:0:0:0:
138,364,6300,1,0,0:0:0:0:
303,198,6458,1,8,0:0:0:0:
72,132,6615,6,0,B|60:176|60:176|71:218,1,90,2|0,0:0|0:0,0:0:0:0:
229,339,6931,1,0,0:0:0:0:
324,105,7089,1,8,0:0:0:0:
163,272,7247,1,8,0:0:0:0:
385,245,7405,1,2,0:0:0:0:
222,148,7563,1,0,0:0:0:0:
464,193,7721,1,8,0:0:0:0:
303,198,7879,1,0,0:0:0:0:
442,37,8036,6,0,L|460:170,1,135,6|0,0:0|0:0,0:0:0:0:
464,193,8352,1,8,0:0:0:0:
303,198,8510,1,0,0:0:0:0:
271,368,8668,2,0,P|315:360|350:334,1,90,2|0,0:0|0:0,0:0:0:0:
324,105,8984,1,8,0:0:0:0:
161,288,9142,6,0,L|250:276,1,90,2|0,0:0|0:0,0:0:0:0:
393,170,9458,1,0,0:0:0:0:
439,346,9615,2,0,L|350:334,1,90,8|0,0:0|0:0,0:0:0:0:
195,199,9931,1,2,0:0:0:0:
88,349,10090,1,8,0:0:0:0:
68,308,10168,1,8,0:0:0:0:
68,264,10247,1,8,0:0:0:0:
89,224,10326,1,8,0:0:0:0:
110,185,10405,1,8,0:0:0:0:
110,140,10484,1,8,0:0:0:0:
91,100,10563,6,0,P|92:47|164:33,1,135.000005149842,6|8,0:0|0:0,0:0:0:0:
235,109,11036,2,0,P|305:117|357:81,1,135.000005149842,2|0,0:0|0:0,0:0:0:0:
434,9,11510,2,0,P|455:41|463:84,1,67.5000025749208,8|0,0:0|0:0,0:0:0:0:
376,188,11826,6,0,B|360:256|360:256|376:324,1,135.000005149842,2|8,0:0|0:0,0:0:0:0:
479,341,12300,2,0,P|509:288|459:254,1,135.000005149842,2|0,0:0|0:0,0:0:0:0:
374,319,12773,2,0,P|341:309|314:290,1,67.5000025749208,8|0,0:0|0:0,0:0:0:0:
237,141,13089,6,0,P|246:206|210:262,1,135.000005149842,2|8,0:0|0:0,0:0:0:0:
107,241,13563,1,0,0:0:0:0:
118,347,13721,2,0,B|180:325|180:325|211:262,1,135.000005149842,2|8,0:0|0:0,0:0:0:0:
131,136,14194,1,0,0:0:0:0:
107,241,14352,5,2,0:0:0:0:
237,141,14510,1,2,0:0:0:0:
399,168,14668,1,10,0:0:0:0:
499,298,14826,1,2,0:0:0:0:
499,298,15142,5,2,0:0:0:0:
390,275,15300,1,2,0:0:0:0:
390,275,15615,6,0,L|256:293,1,135.000005149842,6|8,0:0|0:0,0:0:0:0:
152,271,16089,2,0,P|121:324|172:358,1,135.000005149842,2|0,0:0|0:0,0:0:0:0:
256,293,16563,2,0,P|257:257|248:225,1,67.5000025749208,8|0,0:0|0:0,0:0:0:0:
149,95,16879,6,0,P|205:131|271:122,1,135.000005149842,2|8,0:0|0:0,0:0:0:0:
318,26,17352,2,0,B|375:30|375:30|393:39|393:39|454:43,1,135.000005149842,2|0,0:0|0:0,0:0:0:0:
512,130,17826,2,0,P|513:166|504:198,1,67.5000025749208,8|0,0:0|0:0,0:0:0:0:
379,313,18142,6,0,B|353:333|353:333|325:286|341:229,1,135.000005149842,2|8,0:0|0:0,0:0:0:0:
408,152,18615,1,0,0:0:0:0:
331,78,18773,2,0,P|265:68|209:104,1,135.000005149842,2|8,0:0|0:0,0:0:0:0:
176,206,19247,1,0,0:0:0:0:
72,193,19405,5,2,0:0:0:0:
209,104,19563,1,2,0:0:0:0:
369,144,19721,1,8,0:0:0:0:
457,283,19879,1,2,0:0:0:0:
457,283,20194,6,0,P|440:284|423:287,1,33.7500012874604,2|0,0:0|0:0,0:0:0:0:
354,352,20352,6,0,P|328:332|271:318,1,80.9999975280763,8|0,0:0|0:0,0:0:0:0:
199,363,20668,6,0,P|132:358|80:296,1,153.000002918243,6|0,0:0|0:0,0:0:0:0:
130,201,21142,1,0,0:0:0:0:
65,115,21300,2,0,P|0:138|23:203,1,153.000002918243,8|8,0:0|0:0,0:0:0:0:
130,201,21773,2,0,L|205:190,1,76.5000014591217,8|0,0:0|0:0,0:0:0:0:
359,128,22089,5,8,0:0:0:0:
307,222,22247,1,0,0:0:0:0:
257,95,22405,1,0,0:0:0:0:
205,190,22563,2,0,L|130:201,1,76.5000014591217,8|0,0:0|0:0,0:0:0:0:
76,109,22879,2,0,L|151:98,1,76.5000014591217,0|0,0:0|0:0,0:0:0:0:
229,295,23194,6,0,L|77:317,1,153.000002918243,6|0,0:0|0:0,0:0:0:0:
0,244,23668,1,0,0:0:0:0:
79,172,23826,2,0,B|103:245|103:245|77:317,1,153.000002918243,8|8,0:0|0:0,0:0:0:0:
160,384,24300,2,0,L|235:373,1,76.5000014591217,8|0,0:0|0:0,0:0:0:0:
351,250,24615,5,8,0:0:0:0:
246,266,24773,1,0,0:0:0:0:
341,357,24931,1,0,0:0:0:0:
438,313,25089,2,0,P|456:271|456:232,1,76.5000014591217,8|0,0:0|0:0,0:0:0:0:
304,93,25405,2,0,P|287:128|285:166,1,76.5000014591217,0|0,0:0|0:0,0:0:0:0:
465,144,25721,6,0,L|390:155,1,76.5000014591217,6|0,0:0|0:0,0:0:0:0:
246,266,26036,1,8,0:0:0:0:
209,153,26194,2,0,L|284:164,1,76.5000014591217,0|0,0:0|0:0,0:0:0:0:
341,357,26510,1,10,0:0:0:0:
389,155,26668,1,10,0:0:0:0:
171,255,26826,2,0,L|246:266,1,76.5000014591217,2|0,0:0|0:0,0:0:0:0:
404,53,27300,6,0,P|411:100|384:160,1,108,2|0,0:0|0:0,0:0:0:0:
304,207,27615,6,0,B|279:211|252:198|252:198|214:209|214:209|188:196|159:200,1,148.50000453186,2|0,0:0|0:0,0:0:0:0:
75,100,27931,6,0,P|147:93|154:204,1,202.500007724762,2|0,0:0|0:0,0:0:0:0:
56,326,28247,6,0,B|107:350|107:350|278:323,1,215.999993408203,6|8,0:0|0:0,0:0:0:0:
164,109,28721,1,0,0:0:0:0:
56,326,28879,1,2,0:0:0:0:
225,226,29036,1,0,0:0:0:0:
67,68,29194,2,0,P|58:113|70:157,1,90,8|0,0:0|0:0,0:0:0:0:
330,242,29510,5,2,0:0:0:0:
244,38,29668,1,2,0:0:0:0:
264,325,29826,5,10,0:0:0:0:
345,74,29984,1,2,0:0:0:0:
369,342,30142,5,10,0:0:0:0:
231,181,30300,2,0,L|220:256,1,45,8|8,0:0|0:0,0:0:0:0:
336,197,30458,2,0,L|325:272,1,45,8|8,0:0|0:0,0:0:0:0:
441,213,30615,2,0,L|430:288,1,45,8|8,0:0|0:0,0:0:0:0:
264,325,30773,5,6,0:0:0:0:
403,113,30931,1,0,0:0:0:0:
369,342,31089,5,8,0:0:0:0:
297,97,31247,1,0,0:0:0:0:
159,308,31405,5,6,0:0:0:0:
329,241,31563,1,0,0:0:0:0:
72,247,31721,5,8,0:0:0:0:
264,325,31879,1,0,0:0:0:0:
19,340,32036,5,6,0:0:0:0:
155,112,32194,2,0,L|169:202,1,90,0|8,0:0|0:0,0:0:0:0:
264,325,32510,2,0,B|392:351|392:351|432:324,1,180,2|0,0:0|0:0,0:0:0:0:
478,107,32984,1,8,0:0:0:0:
370,238,33142,1,0,0:0:0:0:
265,22,33300,5,6,0:0:0:0:
375,131,33458,1,0,0:0:0:0:
155,112,33615,1,8,0:0:0:0:
265,221,33773,1,0,0:0:0:0:
371,24,33931,2,0,B|413:13|413:13|457:25,1,90,6|0,0:0|0:0,0:0:0:0:
512,208,34247,1,8,0:0:0:0:
375,131,34405,1,0,0:0:0:0:
383,326,34563,6,0,L|369:237,1,90,6|2,0:0|0:0,0:0:0:0:
265,22,34879,1,10,0:0:0:0:
113,149,35036,2,0,B|239:171|239:171|265:154|269:129,1,180,2|0,0:0|0:0,0:0:0:0:
159,17,35510,2,0,L|70:30,1,90,8|0,0:0|0:0,0:0:0:0:
70,248,35826,6,0,L|158:263,1,90,6|0,0:0|0:0,0:0:0:0:
369,237,36142,1,8,0:0:0:0:
268,129,36300,1,0,0:0:0:0:
239,334,36458,2,0,B|283:346|283:346|325:335,1,90,6|0,0:0|0:0,0:0:0:0:
374,130,36773,1,8,0:0:0:0:
446,310,36931,1,0,0:0:0:0:
268,129,37089,5,6,0:0:0:0:
476,101,37247,2,0,P|479:145|464:188,1,90,0|8,0:0|0:0,0:0:0:0:
313,41,37563,2,0,L|401:26,1,90,2|0,0:0|0:0,0:0:0:0:
321,222,37879,2,0,B|257:230|257:230|209:214|209:214|145:222,1,180,2|0,0:0|0:0,0:0:0:0:
31,41,38352,5,6,0:0:0:0:
168,117,38510,1,0,0:0:0:0:
58,284,38668,2,0,P|39:237|41:198,1,90,8|0,0:0|0:0,0:0:0:0:
135,15,38984,1,6,0:0:0:0:
144,222,39142,1,0,0:0:0:0:
360,156,39300,2,0,L|272:141,1,90,8|0,0:0|0:0,0:0:0:0:
155,329,39615,5,6,0:0:0:0:
79,132,39773,2,0,L|167:117,1,90,0|8,0:0|0:0,0:0:0:0:
37,316,40089,2,0,B|26:274|26:274|38:230,1,90,2|0,0:0|0:0,0:0:0:0:
241,265,40405,1,0,0:0:0:0:
167,116,40563,2,0,L|152:204,1,90,8|0,0:0|0:0,0:0:0:0:
302,353,40879,5,6,0:0:0:0:
333,168,41036,2,0,L|348:256,1,90,2|8,0:0|0:0,0:0:0:0:
137,290,41352,2,0,P|135:246|152:205,1,90,2|0,0:0|0:0,0:0:0:0:
241,265,41668,1,0,0:0:0:0:
45,344,41826,1,8,0:0:0:0:
211,368,41984,1,0,0:0:0:0:
110,105,42142,6,0,P|59:149|45:214,1,135,6|0,0:0|0:0,0:0:0:0:
50,237,42458,1,8,0:0:0:0:
241,265,42615,2,0,B|283:162|283:162|238:103,1,180,2|2,0:0|0:0,0:0:0:0:
94,17,43089,2,0,L|109:105,1,90,8|0,0:0|0:0,0:0:0:0:
45,344,43405,5,6,0:0:0:0:
152,204,43563,1,2,0:0:0:0:
0,67,43721,1,10,0:0:0:0:
147,311,43879,2,0,B|307:297|307:297|259:267,1,215.999993408203,6|0,0:0|0:0,0:0:0:0:
167,117,44352,2,0,P|150:159|152:204,1,90,8|0,0:0|0:0,0:0:0:0:
260,267,44668,5,2,0:0:0:0:
255,178,44826,1,0,0:0:0:0:
167,117,44984,1,8,0:0:0:0:
57,179,45142,1,0,0:0:0:0:
93,318,45300,1,8,0:0:0:0:
260,267,45458,5,8,0:0:0:0:
300,248,45537,1,8,0:0:0:0:
345,248,45616,1,8,0:0:0:0:
384,269,45695,1,8,0:0:0:0:
424,290,45774,1,8,0:0:0:0:
468,290,45853,1,8,0:0:0:0:
509,270,45931,6,0,P|528:221|521:166,1,107.999996704102,6|0,0:0|0:0,0:0:0:0:
300,248,46247,1,8,0:0:0:0:
474,371,46405,1,0,0:0:0:0:
371,167,46563,1,2,0:0:0:0:
287,355,46721,1,0,0:0:0:0:
184,151,46879,1,8,0:0:0:0:
34,332,47036,6,0,B|49:281|49:281|134:238|202:290,1,215.999993408203,2|0,0:0|0:0,0:0:0:0:
371,167,47510,1,8,0:0:0:0:
198,44,47668,1,8,0:0:0:0:
300,248,47826,1,0,0:0:0:0:
442,86,47984,1,0,0:0:0:0:
371,329,48142,1,8,0:0:0:0:
266,146,48300,1,0,0:0:0:0:
167,367,48458,6,0,B|221:378|221:378|272:367,1,107.999996704102,6|0,0:0|0:0,0:0:0:0:
160,146,48773,2,0,B|105:134|105:134|55:146,1,107.999996704102,6|0,0:0|0:0,0:0:0:0:
193,264,49089,2,0,L|301:247,1,107.999996704102,6|0,0:0|0:0,0:0:0:0:
337,66,49405,1,8,0:0:0:0:
483,237,49563,6,0,B|485:337|409:367|409:367|383:354|363:316,1,215.999993408203,6|0,0:0|0:0,0:0:0:0:
209,157,50036,2,0,L|192:265,1,107.999996704102,6|0,0:0|0:0,0:0:0:0:
353,172,50352,2,0,L|336:65,1,107.999996704102,6|0,0:0|0:0,0:0:0:0:
103,157,50668,2,0,L|77:318,1,161.999995056153,8|0,0:0|0:0,0:0:0:0:
73,344,50984,6,0,P|122:325|177:332,1,107.999996704102,6|0,0:0|0:0,0:0:0:0:
353,172,51300,1,8,0:0:0:0:
157,64,51458,1,0,0:0:0:0:
294,261,51615,1,2,0:0:0:0:
336,65,51773,1,0,0:0:0:0:
473,262,51931,1,8,0:0:0:0:
247,165,52089,6,0,B|197:192|188:249|188:249|146:294|82:276,1,215.999993408203,2|0,0:0|0:0,0:0:0:0:
157,64,52563,1,8,0:0:0:0:
294,261,52721,1,8,0:0:0:0:
60,175,52879,1,0,0:0:0:0:
263,59,53036,1,0,0:0:0:0:
52,69,53194,1,8,0:0:0:0:
247,165,53352,1,0,0:0:0:0:
88,382,53510,6,0,B|76:332|76:332|88:277,1,107.999996704102,6|0,0:0|0:0,0:0:0:0:
294,261,53826,2,0,B|306:316|306:316|294:366,1,107.999996704102,6|0,0:0|0:0,0:0:0:0:
142,184,54142,2,0,L|158:77,1,107.999996704102,6|0,0:0|0:0,0:0:0:0:
347,168,54458,1,8,0:0:0:0:
88,276,54615,6,0,B|192:328|192:224|293:274,1,215.999993408203,6|0,0:0|0:0,0:0:0:0:
480,384,55089,2,0,P|499:335|492:280,1,107.999996704102,6|0,0:0|0:0,0:0:0:0:
359,65,55405,2,0,P|339:114|346:167,1,107.999996704102,6|0,0:0|0:0,0:0:0:0:
393,322,55721,2,0,B|355:316|327:299|327:299|279:308|251:348,1,161.999995056153,8|0,0:0|0:0,0:0:0:0:
240,371,56036,5,2,0:0:0:0:
179,202,56194,1,0,0:0:0:0:
79,374,56352,2,0,L|95:267,1,107.999996704102,8|0,0:0|0:0,0:0:0:0:
272,151,56668,1,2,0:0:0:0:
346,356,56826,1,0,0:0:0:0:
179,202,56984,2,0,L|163:95,1,107.999996704102,8|0,0:0|0:0,0:0:0:0:
361,92,57300,5,2,0:0:0:0:
269,258,57458,1,0,0:0:0:0:
79,160,57615,2,0,L|95:267,1,107.999996704102,8|0,0:0|0:0,0:0:0:0:
272,151,57931,1,2,0:0:0:0:
185,324,58089,1,0,0:0:0:0:
363,207,58247,2,0,L|347:314,1,107.999996704102,8|0,0:0|0:0,0:0:0:0:
179,202,58563,5,2,0:0:0:0:
361,92,58721,1,0,0:0:0:0:
468,254,58879,2,0,L|452:147,1,107.999996704102,8|0,0:0|0:0,0:0:0:0:
266,44,59194,1,2,0:0:0:0:
363,207,59352,1,0,0:0:0:0:
163,308,59510,2,0,L|179:201,1,107.999996704102,8|0,0:0|0:0,0:0:0:0:
83,87,59826,6,0,L|91:141,1,53.9999983520508,10|8,0:0|0:0,0:0:0:0:
179,40,59984,2,0,L|187:94,1,53.9999983520508,8|8,0:0|0:0,0:0:0:0:
267,208,60142,2,0,L|275:155,1,53.9999983520508,8|8,0:0|0:0,0:0:0:0:
363,255,60300,2,0,L|371:202,1,53.9999983520508,8|8,0:0|0:0,0:0:0:0:
363,95,60458,5,8,0:0:0:0:
178,201,60615,1,8,0:0:0:0:
174,227,60694,1,8,0:0:0:0:
170,254,60772,1,8,0:0:0:0:
370,202,60931,1,8,0:0:0:0:
179,40,61089,1,14,0:0:0:0:
256,192,61168,12,4,63536,3:0:0:0:
