osu file format v14

[General]
AudioFilename: audio.mp3
AudioLeadIn: 0
PreviewTime: 45931
Countdown: 0
SampleSet: Soft
StackLeniency: 0.7
Mode: 0
LetterboxInBreaks: 0
WidescreenStoryboard: 0

[Editor]
Bookmarks: 20668,25405
DistanceSpacing: 0.8
BeatDivisor: 4
GridSize: 32
TimelineZoom: 1.6

[Metadata]
Title:Gohan wa Okazu
TitleUnicode:ごはんはおかず
Artist:HO-KAGO TEA TIME
ArtistUnicode:放課後ティータイム
Creator:MashaSG
Version:wajinshu's Insane!!
Source:けいおん!!
Tags:K-ON! Light Music Rice is a Dish J-Pop bice TheMefisto Pata-Mon Karen vanucik wajinshu Fanteer Momochikun Underforest Armin A_r_M_i_N
BeatmapID:1260642
BeatmapSetID:591709

[Difficulty]
HPDrainRate:5.4
CircleSize:3.8
OverallDifficulty:7
ApproachRate:8.7
SliderMultiplier:1.6
SliderTickRate:1

[Events]
//Background and Video events
0,0,"wajinshu.jpg",0,0
//Break Periods
//Storyboard Layer 0 (Background)
//Storyboard Layer 1 (Fail)
//Storyboard Layer 2 (Pass)
//Storyboard Layer 3 (Foreground)
//Storyboard Sound Samples

[TimingPoints]
458,315.789473684211,4,2,1,80,1,0
1800,-100,4,2,1,5,0,0
1879,-100,4,2,1,80,0,0
6852,-100,4,2,1,5,0,0
6931,-100,4,2,1,80,0,0
10563,-111.111111111111,4,2,1,80,0,0
13010,-111.111111111111,4,2,1,10,0,0
13089,-111.111111111111,4,2,1,80,0,0
18379,-111.111111111111,4,2,1,10,0,0
18458,-111.111111111111,4,2,1,80,0,0
19879,-142.857142857143,4,2,1,80,0,0
20352,-100,4,2,1,80,0,0
20668,-117.647058823529,4,2,1,80,0,0
25721,-111.111111111111,4,2,1,80,0,0
25958,-111.111111111111,4,2,1,10,0,0
26036,-111.111111111111,4,2,1,80,0,0
26826,-100,4,2,1,80,0,0
27300,-100,4,2,1,80,0,0
27536,-100,4,2,1,10,0,0
27615,-100,4,2,1,80,0,0
27852,-100,4,2,1,10,0,0
27931,-100,4,2,1,80,0,0
28168,-100,4,2,1,10,0,0
28247,-100,4,2,1,80,0,0
30458,-100,4,2,1,80,0,0
30773,-100,4,2,1,80,0,0
32747,-100,4,2,1,10,0,0
32826,-100,4,2,1,80,0,0
35510,-83.3333333333333,4,2,1,80,0,0
35747,-83.3333333333333,4,2,1,5,0,0
35826,-100,4,2,1,80,0,0
37879,-100,4,2,1,80,0,0
38352,-100,4,2,1,80,0,0
39615,-100,4,2,1,80,0,0
40326,-100,4,2,1,5,0,0
40405,-100,4,2,1,80,0,0
40800,-100,4,2,1,10,0,0
40879,-100,4,2,1,80,0,0
41589,-100,4,2,1,5,0,0
41668,-100,4,2,1,80,0,0
42379,-100,4,2,1,10,0,0
42458,-100,4,2,1,80,0,0
42852,-100,4,2,1,5,0,0
42931,-100,4,2,1,80,0,0
43405,-100,4,2,1,80,0,0
43642,-100,4,2,1,5,0,0
43721,-100,4,2,1,80,0,0
43879,-100,4,2,1,80,0,0
44352,-100,4,2,1,80,0,0
45300,-100,4,2,1,80,0,0
45931,-100,4,2,1,80,0,1
47273,-100,4,2,1,5,0,1
47352,-100,4,2,1,80,0,1
48458,-100,4,2,1,80,0,1
52089,-100,4,2,1,80,0,1
52326,-100,4,2,1,5,0,1
52405,-100,4,2,1,80,0,1
53510,-100,4,2,1,80,0,1
56036,-83.3333333333333,4,2,1,80,0,0
63536,-83.3333333333333,4,2,1,40,0,0

[Colours]
Combo1 : 192,129,129
Combo2 : 234,218,185
Combo3 : 98,98,255
Combo4 : 255,119,119

[HitObjects]
285,93,458,6,0,L|380:83,2,80,4|0|8,0:0|0:0|0:0,0:0:0:0:
204,163,932,1,0,0:0:0:0:
130,240,1089,2,0,L|35:230,1,80,2|0,0:0|0:0,0:0:0:0:
32,114,1406,1,8,0:0:0:0:
189,43,1563,6,0,P|201:136|204:179,1,120,4|0,0:0|0:0,0:0:0:0:
199,189,1879,1,0,0:0:0:0:
73,94,2037,1,8,0:0:0:0:
205,24,2195,1,8,0:0:0:0:
317,102,2352,2,0,P|366:129|399:142,1,80,2|0,0:0|0:0,0:0:0:0:
480,0,2668,2,0,P|443:16|408:36,1,80,8|0,0:0|0:0,0:0:0:0:
277,135,2984,6,0,L|302:322,1,160,4|8,0:0|0:0,0:0:0:0:
215,349,3458,1,0,0:0:0:0:
132,289,3615,2,0,L|143:194,1,80,2|0,0:0|0:0,0:0:0:0:
219,155,3931,1,8,0:0:0:0:
215,349,4089,6,0,P|119:321|49:303,1,160,4|0,0:0|0:0,0:0:0:0:
203,165,4563,2,0,P|299:137|369:119,1,160,8|2,0:0|0:0,0:0:0:0:
436,199,5037,1,0,0:0:0:0:
307,340,5195,1,8,0:0:0:0:
307,340,5510,6,0,L|310:255,2,80,4|0|8,0:0|0:0|0:0,0:0:0:0:
213,275,5985,1,0,0:0:0:0:
273,164,6142,2,0,L|360:144,1,80,2|0,0:0|0:0,0:0:0:0:
480,126,6458,1,8,0:0:0:0:
367,28,6616,6,0,L|350:158,1,120,4|0,0:0|0:0,0:0:0:0:
355,181,6932,1,0,0:0:0:0:
442,280,7090,1,8,0:0:0:0:
342,359,7248,1,8,0:0:0:0:
276,255,7405,2,0,P|236:250|196:243,1,80,2|0,0:0|0:0,0:0:0:0:
51,345,7721,2,0,P|90:340|130:333,1,80,8|0,0:0|0:0,0:0:0:0:
220,84,8036,6,0,L|196:247,1,160,4|8,0:0|0:0,0:0:0:0:
251,352,8510,1,0,0:0:0:0:
369,250,8668,2,0,P|423:229|467:219,1,80,2|0,0:0|0:0,0:0:0:0:
420,328,8984,1,8,0:0:0:0:
273,267,9142,6,0,P|197:263|107:266,1,160,4|0,0:0|0:0,0:0:0:0:
30,156,9615,2,0,P|10:105|-1:65,1,80,8|0,0:0|0:0,0:0:0:0:
218,56,9931,1,8,0:0:0:0:
233,53,10010,1,0,0:0:0:0:
248,53,10089,1,8,0:0:0:0:
263,56,10168,1,0,0:0:0:0:
276,65,10247,1,8,0:0:0:0:
269,100,10325,1,0,0:0:0:0:
262,136,10404,1,8,0:0:0:0:
256,171,10483,1,0,0:0:0:0:
250,207,10563,6,0,L|395:196,1,143.999995605469,4|8,0:0|0:0,0:0:0:0:
305,334,11036,2,0,L|161:323,1,143.999995605469,0|0,0:0|0:0,0:0:0:0:
72,232,11510,2,0,P|64:182|62:150,1,71.9999978027344,8|0,0:0|0:0,0:0:0:0:
254,85,11826,6,0,P|211:143|147:188,1,143.999995605469,2|8,0:0|0:0,0:0:0:0:
347,62,12300,2,0,P|327:131|284:196,1,143.999995605469,0|0,0:0|0:0,0:0:0:0:
96,75,12773,2,0,L|190:53,1,71.9999978027344,8|0,0:0|0:0,0:0:0:0:
288,191,13089,6,0,L|194:169,1,71.9999978027344,2|0,0:0|0:0,0:0:0:0:
370,98,13405,1,8,0:0:0:0:
409,214,13563,1,0,0:0:0:0:
329,318,13721,2,0,L|235:340,1,71.9999978027344,2|0,0:0|0:0,0:0:0:0:
108,240,14036,1,8,0:0:0:0:
233,224,14194,1,0,0:0:0:0:
128,374,14352,5,2,0:0:0:0:
23,234,14510,1,2,0:0:0:0:
169,154,14668,1,2,0:0:0:0:
144,383,14826,1,2,0:0:0:0:
77,135,15142,1,0,0:0:0:0:
77,135,15300,2,0,L|151:119,1,71.9999978027344,8|0,0:0|0:0,0:0:0:0:
286,89,15615,6,0,P|306:151|325:231,1,143.999995605469,4|8,0:0|0:0,0:0:0:0:
439,41,16089,2,0,P|419:103|400:183,1,143.999995605469,0|0,0:0|0:0,0:0:0:0:
473,318,16563,2,0,P|444:295|413:278,1,71.9999978027344,8|0,0:0|0:0,0:0:0:0:
250,364,16879,6,0,B|294:383|294:383|396:363,1,143.999995605469,2|8,0:0|0:0,0:0:0:0:
304,256,17352,2,0,B|260:237|260:237|158:257,1,143.999995605469,0|0,0:0|0:0,0:0:0:0:
56,315,17826,2,0,L|66:209,1,71.9999978027344,8|0,0:0|0:0,0:0:0:0:
149,106,18142,6,0,L|155:177,1,71.9999978027344,2|0,0:0|0:0,0:0:0:0:
52,86,18458,1,8,0:0:0:0:
154,19,18615,1,0,0:0:0:0:
240,132,18773,2,0,L|246:203,1,71.9999978027344,2|0,0:0|0:0,0:0:0:0:
218,327,19089,1,8,0:0:0:0:
388,279,19247,1,0,0:0:0:0:
230,136,19405,5,2,0:0:0:0:
225,332,19563,1,2,0:0:0:0:
390,269,19721,1,2,0:0:0:0:
317,82,19879,6,0,L|312:215,1,111.999996582031,2|0,0:0|0:0,0:0:0:0:
307,330,20352,1,8,0:0:0:0:
307,330,20668,6,0,L|315:170,1,136.000002593994,4|0,0:0|0:0,0:0:0:0:
259,52,21142,1,0,0:0:0:0:
386,126,21300,2,0,L|241:157,1,136.000002593994,2|8,0:0|0:0,0:0:0:0:
126,23,21773,6,0,L|271:54,1,136.000002593994,8|0,0:0|0:0,0:0:0:0:
253,154,22247,1,8,0:0:0:0:
183,110,22405,1,0,0:0:0:0:
258,51,22563,2,0,L|338:64,1,68.0000012969971,2|0,0:0|0:0,0:0:0:0:
398,143,22879,2,0,L|318:156,1,68.0000012969971,8|0,0:0|0:0,0:0:0:0:
218,172,23194,6,0,L|245:331,1,136.000002593994,4|0,0:0|0:0,0:0:0:0:
143,239,23668,1,0,0:0:0:0:
209,152,23826,2,0,P|319:131|368:125,1,136.000002593994,2|8,0:0|0:0,0:0:0:0:
468,263,24300,6,0,P|358:242|309:236,1,136.000002593994,8|0,0:0|0:0,0:0:0:0:
236,230,24773,1,8,0:0:0:0:
209,152,24931,1,0,0:0:0:0:
144,239,25089,2,0,P|141:274|138:326,1,68.0000012969971,2|0,0:0|0:0,0:0:0:0:
53,238,25405,2,0,P|50:198|48:170,1,68.0000012969971,8|0,0:0|0:0,0:0:0:0:
134,53,25721,6,0,P|131:86|130:135,1,71.9999978027344,2|0,0:0|0:0,0:0:0:0:
186,209,26036,1,8,0:0:0:0:
310,116,26194,2,0,P|270:111|234:110,1,71.9999978027344,0|0,0:0|0:0,0:0:0:0:
93,186,26510,1,2,0:0:0:0:
224,268,26668,1,10,0:0:0:0:
238,109,26826,1,2,0:0:0:0:
238,109,27300,6,0,L|223:286,2,160,8|2|8,0:0|0:0|0:0,0:0:0:0:
386,113,28247,6,0,L|401:290,1,160,2|8,0:0|0:0,0:0:0:0:
328,336,28721,1,0,0:0:0:0:
231,269,28879,2,0,P|183:243|75:280,1,160,2|8,0:0|0:0,0:0:0:0:
383,190,29510,6,0,L|391:277,1,80,2|0,0:0|0:0,0:0:0:0:
189,200,29826,2,0,L|196:120,1,80,8|0,0:0|0:0,0:0:0:0:
163,338,30142,1,2,0:0:0:0:
163,338,30300,1,0,0:0:0:0:
196,120,30458,5,8,0:0:0:0:
230,100,30536,1,0,0:0:0:0:
269,92,30615,1,8,0:0:0:0:
309,97,30694,1,0,0:0:0:0:
345,114,30773,5,4,0:0:0:0:
397,248,30931,1,0,0:0:0:0:
258,226,31089,1,8,0:0:0:0:
361,105,31247,1,0,0:0:0:0:
407,244,31405,2,0,P|418:292|429:354,1,80,4|0,0:0|0:0,0:0:0:0:
258,226,31721,1,8,0:0:0:0:
357,136,31879,1,0,0:0:0:0:
236,54,32036,6,0,L|148:48,1,80,4|0,0:0|0:0,0:0:0:0:
49,129,32352,1,8,0:0:0:0:
206,222,32510,2,0,P|216:183|216:130,1,80,0|0,0:0|0:0,0:0:0:0:
130,162,32826,1,0,0:0:0:0:
150,306,32984,2,0,P|196:320|257:318,1,80,8|0,0:0|0:0,0:0:0:0:
343,126,33300,5,4,0:0:0:0:
206,222,33458,1,0,0:0:0:0:
397,351,33615,1,8,0:0:0:0:
310,236,33773,1,0,0:0:0:0:
160,294,33931,2,0,L|173:398,1,80,4|0,0:0|0:0,0:0:0:0:
222,147,34247,1,8,0:0:0:0:
222,147,34405,1,0,0:0:0:0:
52,88,34563,6,0,L|45:-17,1,80,4|0,0:0|0:0,0:0:0:0:
134,190,34879,1,8,0:0:0:0:
79,319,35036,2,0,L|-24:303,1,80,2|0,0:0|0:0,0:0:0:0:
134,190,35352,1,0,0:0:0:0:
277,244,35510,6,0,L|299:65,1,143.999995605469,8|0,0:0|0:0,0:0:0:0:
315,80,35826,6,0,P|370:71|411:61,1,80,4|0,0:0|0:0,0:0:0:0:
277,244,36142,2,0,P|222:235|181:225,1,80,8|0,0:0|0:0,0:0:0:0:
393,65,36458,2,0,P|401:104|407:143,1,80,4|0,0:0|0:0,0:0:0:0:
385,302,36773,1,8,0:0:0:0:
307,160,36931,1,0,0:0:0:0:
461,197,37089,6,0,L|497:364,1,160,4|8,0:0|0:0,0:0:0:0:
333,295,37563,2,0,L|366:138,2,160,0|0|0,0:0|0:0|0:0,0:0:0:0:
188,331,38352,5,4,0:0:0:0:
130,211,38510,1,0,0:0:0:0:
257,183,38668,1,8,0:0:0:0:
159,336,38826,1,0,0:0:0:0:
95,186,38984,2,0,P|83:135|79:88,1,80,4|0,0:0|0:0,0:0:0:0:
241,14,39300,1,8,0:0:0:0:
184,139,39458,1,0,0:0:0:0:
118,11,39615,5,4,0:0:0:0:
276,137,39773,2,0,L|286:226,1,80,0|8,0:0|0:0,0:0:0:0:
390,338,40089,2,0,L|397:196,1,120,0|0,0:0|0:0,0:0:0:0:
397,195,40405,1,0,0:0:0:0:
456,49,40563,1,8,0:0:0:0:
456,49,40879,5,2,0:0:0:0:
276,137,41036,2,0,L|179:133,1,80,0|8,0:0|0:0,0:0:0:0:
78,264,41352,2,0,L|230:249,1,120
225,251,41668,1,0,0:0:0:0:
137,356,41826,1,8,0:0:0:0:
80,182,41984,1,0,0:0:0:0:
256,59,42142,6,0,L|279:151,1,80,2|0,0:0|0:0,0:0:0:0:
146,48,42458,1,8,0:0:0:0:
341,57,42615,2,0,L|379:198,1,120
370,191,42931,1,0,0:0:0:0:
258,319,43089,1,8,0:0:0:0:
235,313,43405,6,0,L|266:197,1,120,6|0,0:0|0:0,0:0:0:0:
272,174,43721,1,10,0:0:0:0:
393,292,43879,2,0,L|233:313,1,160,4|0,0:0|0:0,0:0:0:0:
83,191,44352,1,8,0:0:0:0:
83,191,44668,5,2,0:0:0:0:
171,152,44826,1,0,0:0:0:0:
274,194,44984,1,8,0:0:0:0:
380,158,45142,1,0,0:0:0:0:
243,197,45300,5,8,0:0:0:0:
239,224,45378,1,0,0:0:0:0:
236,252,45457,1,8,0:0:0:0:
232,280,45536,1,0,0:0:0:0:
229,308,45615,1,8,0:0:0:0:
200,296,45694,1,0,0:0:0:0:
166,283,45772,1,8,0:0:0:0:
132,270,45851,1,0,0:0:0:0:
95,254,45931,6,0,L|85:159,2,80,4|0|8,0:0|0:0|0:0,0:0:0:0:
185,168,46405,1,0,0:0:0:0:
123,67,46563,2,0,L|38:53,1,80,2|0,0:0|0:0,0:0:0:0:
185,168,46879,1,8,0:0:0:0:
331,124,47036,6,0,L|355:6,1,120,4|0,0:0|0:0,0:0:0:0:
396,3,47352,1,0,0:0:0:0:
447,117,47510,1,8,0:0:0:0:
363,280,47668,1,8,0:0:0:0:
439,220,47826,2,0,L|521:212,1,80,2|0,0:0|0:0,0:0:0:0:
331,124,48142,2,0,L|249:116,1,80,8|0,0:0|0:0,0:0:0:0:
101,102,48458,6,0,L|122:274,2,160,8|8|8,0:0|0:0|0:0,0:0:0:0:
88,83,49405,1,8,0:0:0:0:
247,65,49563,6,0,L|71:84,1,160,4|0,0:0|0:0,0:0:0:0:
306,146,50036,2,0,P|337:112|346:73,1,80,8|0,0:0|0:0,0:0:0:0:
206,156,50352,1,2,0:0:0:0:
399,185,50510,1,0,0:0:0:0:
190,296,50668,1,8,0:0:0:0:
202,304,50984,6,0,L|288:282,2,80,4|0|8,0:0|0:0|0:0,0:0:0:0:
206,156,51458,1,0,0:0:0:0:
323,362,51615,2,0,L|409:340,1,80,2|0,0:0|0:0,0:0:0:0:
479,239,51931,1,8,0:0:0:0:
345,79,52089,6,0,L|214:70,1,120,4|0,0:0|0:0,0:0:0:0:
192,61,52405,1,0,0:0:0:0:
98,214,52563,1,8,0:0:0:0:
246,306,52721,1,8,0:0:0:0:
237,149,52879,2,0,L|224:63,1,80,2|0,0:0|0:0,0:0:0:0:
376,22,53194,2,0,L|364:101,1,80,8|0,0:0|0:0,0:0:0:0:
474,257,53510,6,0,L|460:84,2,160,8|8|8,0:0|0:0|0:0,0:0:0:0:
484,274,54458,1,8,0:0:0:0:
328,313,54615,6,0,L|486:273,1,160,4|0,0:0|0:0,0:0:0:0:
292,216,55089,2,0,P|256:236|228:298,1,80,8|0,0:0|0:0,0:0:0:0:
389,180,55405,1,2,0:0:0:0:
160,182,55563,1,0,0:0:0:0:
366,4,55721,1,8,0:0:0:0:
258,360,56036,6,0,L|233:265,1,95.9999970703126,6|0,0:0|0:0,0:0:0:0:
375,384,56352,2,0,L|350:289,1,95.9999970703126,8|0,0:0|0:0,0:0:0:0:
249,28,56668,6,0,L|224:120,1,95.9999970703126,2|0,0:0|0:0,0:0:0:0:
366,4,56984,2,0,L|341:96,1,95.9999970703126,8|0,0:0|0:0,0:0:0:0:
499,226,57300,6,0,P|451:220|403:226,1,95.9999970703126,2|0,0:0|0:0,0:0:0:0:
258,360,57615,2,0,P|302:366|356:360,1,95.9999970703126,8|0,0:0|0:0,0:0:0:0:
319,121,57931,6,0,P|271:115|223:121,1,95.9999970703126,2|0,0:0|0:0,0:0:0:0:
78,255,58247,2,0,P|122:261|176:255,1,95.9999970703126,8|0,0:0|0:0,0:0:0:0:
394,168,58563,6,0,B|405:122|405:122|387:50,1,95.9999970703126,6|0,0:0|0:0,0:0:0:0:
258,266,58879,2,0,B|246:313|246:313|257:359,1,95.9999970703126,8|0,0:0|0:0,0:0:0:0:
223,120,59194,6,0,B|234:74|234:74|216:2,1,95.9999970703126,2|0,0:0|0:0,0:0:0:0:
87,218,59510,2,0,B|75:265|75:265|86:311,1,95.9999970703126,8|0,0:0|0:0,0:0:0:0:
345,330,59826,5,8,0:0:0:0:
345,330,59905,1,0,0:0:0:0:
345,330,59984,1,0,0:0:0:0:
345,330,60063,1,0,0:0:0:0:
345,330,60142,2,0,P|387:323|409:320,1,47.9999985351563,8|0,0:0|0:0,0:0:0:0:
469,235,60300,2,0,P|445:230|421:227,1,47.9999985351563
288,203,60458,5,8,0:0:0:0:
288,203,60536,1,8,0:0:0:0:
288,203,60615,1,8,0:0:0:0:
288,203,60694,1,8,0:0:0:0:
288,203,60773,2,0,L|276:103,1,95.9999970703126,8|0,0:0|0:0,0:0:0:0:
174,354,61089,5,12,0:0:0:0:
256,192,61168,12,4,63536,3:0:0:0:
