osu file format v14

[General]
AudioFilename: audio.mp3
AudioLeadIn: 0
PreviewTime: 45931
Countdown: 0
SampleSet: Soft
StackLeniency: 0.7
Mode: 0
LetterboxInBreaks: 0
WidescreenStoryboard: 0

[Editor]
DistanceSpacing: 0.7
BeatDivisor: 4
GridSize: 32
TimelineZoom: 1.6

[Metadata]
Title:Gohan wa Okazu
TitleUnicode:ごはんはおかず
Artist:HO-KAGO TEA TIME
ArtistUnicode:放課後ティータイム
Creator:MashaSG
Version:vanucik's Expert!!
Source:けいおん!!
Tags:K-ON! Light Music Rice is a Dish J-Pop bice TheMefisto Pata-Mon Karen vanucik wajinshu Fanteer Momochikun Underforest Armin A_r_M_i_N
BeatmapID:1253483
BeatmapSetID:591709

[Difficulty]
HPDrainRate:6
CircleSize:4
OverallDifficulty:8
ApproachRate:9.3
SliderMultiplier:1.5
SliderTickRate:1

[Events]
//Background and Video events
0,0,"vanucik2.jpg",0,0
//Break Periods
//Storyboard Layer 0 (Background)
//Storyboard Layer 1 (Fail)
//Storyboard Layer 2 (Pass)
//Storyboard Layer 3 (Foreground)
//Storyboard Sound Samples

[TimingPoints]
458,315.789473684211,4,2,1,80,1,0
458,-76.9230769230769,4,2,1,80,0,0
10563,-111.111111111111,4,2,1,80,0,0
13010,-111.111111111111,4,2,1,80,0,0
13089,-111.111111111111,4,2,1,80,0,0
13958,-111.111111111111,4,2,1,5,0,0
14036,-111.111111111111,4,2,1,80,0,0
18379,-111.111111111111,4,2,1,80,0,0
18458,-111.111111111111,4,2,1,80,0,0
19010,-111.111111111111,4,2,1,5,0,0
19089,-111.111111111111,4,2,1,80,0,0
20352,-125,4,2,1,80,0,0
20589,-142.857142857143,4,2,1,5,0,0
20668,-125,4,2,1,80,0,0
21931,-99.9999999999999,4,2,1,80,0,0
23194,-125,4,2,1,80,0,0
24458,-99.9999999999999,4,2,1,80,0,0
25721,-90.9090909090909,4,2,1,80,0,0
25958,-90.9090909090909,4,2,1,5,0,0
26036,-90.9090909090909,4,2,1,80,0,0
26984,-111.111111111111,4,2,1,80,0,0
27536,-111.111111111111,4,2,1,80,0,0
27615,-111.111111111111,4,2,1,80,0,0
27852,-111.111111111111,4,2,1,80,0,0
27931,-111.111111111111,4,2,1,80,0,0
28168,-111.111111111111,4,2,1,80,0,0
28247,-111.111111111111,4,2,1,80,0,0
28484,-111.111111111111,4,2,1,5,0,0
28563,-111.111111111111,4,2,1,80,0,0
29510,-99.9999999999999,4,2,1,80,0,0
30142,-83.3333333333333,4,2,1,80,0,0
30773,-83.3333333333333,4,2,1,80,0,0
32036,-90.9090909090909,4,2,1,80,0,0
32273,-90.9090909090909,4,2,1,5,0,0
32352,-90.9090909090909,4,2,1,80,0,0
32747,-90.9090909090909,4,2,1,5,0,0
32826,-90.9090909090909,4,2,1,80,0,0
35747,-90.9090909090909,4,2,1,5,0,0
35826,-83.3333333333333,4,2,1,80,0,0
37089,-90.9090909090909,4,2,1,80,0,0
40326,-90.9090909090909,4,2,1,5,0,0
40405,-90.9090909090909,4,2,1,80,0,0
40800,-90.9090909090909,4,2,1,5,0,0
40879,-90.9090909090909,4,2,1,80,0,0
41589,-90.9090909090909,4,2,1,5,0,0
41668,-90.9090909090909,4,2,1,80,0,0
42379,-90.9090909090909,4,2,1,5,0,0
42458,-90.9090909090909,4,2,1,80,0,0
44905,-90.9090909090909,4,2,1,80,0,0
44984,-90.9090909090909,4,2,1,80,0,0
45931,-76.9230769230769,4,2,1,80,0,1
48458,-71.4285714285714,4,2,1,80,0,1
50905,-76.9230769230769,4,2,1,5,0,1
50984,-76.9230769230769,4,2,1,80,0,1
53510,-71.4285714285714,4,2,1,80,0,1
56036,-71.4285714285714,4,2,1,80,0,0
59905,-71.4285714285714,4,2,1,40,0,0
60142,-71.4285714285714,4,2,1,80,0,0
60221,-71.4285714285714,4,2,1,40,0,0
60458,-71.4285714285714,4,2,1,80,0,0
63536,-71.4285714285714,4,2,1,40,0,0

[Colours]
Combo1 : 204,0,204
Combo2 : 255,164,28
Combo3 : 0,155,230
Combo4 : 201,63,29

[HitObjects]
274,291,458,6,0,P|280:249|269:184,1,97.4999955368044,6|0,0:0|0:0,0:0:0:0:
238,81,773,1,8,0:0:0:0:
159,169,931,1,0,0:0:0:0:
357,119,1089,1,2,0:0:0:0:
128,74,1247,1,0,0:0:0:0:
381,126,1405,1,8,0:0:0:0:
146,271,1563,6,0,P|101:260|51:131,1,194.999991073609,2|0,0:0|0:0,0:0:0:0:
285,240,2036,2,0,P|291:289|283:344,1,97.4999955368044,8|8,0:0|0:0,0:0:0:0:
213,116,2352,1,2,0:0:0:0:
386,185,2510,1,0,0:0:0:0:
173,214,2668,1,8,0:0:0:0:
324,103,2826,1,0,0:0:0:0:
390,288,2984,6,0,P|399:336|396:388,1,97.4999955368044,6|0,0:0|0:0,0:0:0:0:
173,214,3300,2,0,P|175:158|186:116,1,97.4999955368044,8|0,0:0|0:0,0:0:0:0:
282,331,3615,1,2,0:0:0:0:
282,331,3773,1,0,0:0:0:0:
149,305,3931,1,8,0:0:0:0:
326,202,4089,6,0,B|373:184|419:215|419:215|468:195|515:223,1,194.999991073609,2|0,0:0|0:0,0:0:0:0:
248,261,4563,2,0,P|232:197|242:160,1,97.4999955368044,10|0,0:0|0:0,0:0:0:0:
365,16,4879,2,0,P|372:72|357:111,1,97.4999955368044,2|0,0:0|0:0,0:0:0:0:
166,105,5194,1,8,0:0:0:0:
204,4,5352,1,0,0:0:0:0:
277,203,5510,6,0,P|282:272|274:315,1,97.4999955368044,6|0,0:0|0:0,0:0:0:0:
95,223,5826,1,8,0:0:0:0:
166,105,5984,1,0,0:0:0:0:
191,271,6142,1,2,0:0:0:0:
162,87,6300,1,0,0:0:0:0:
4,169,6458,1,8,0:0:0:0:
264,176,6615,6,0,B|326:197|394:159|394:159|359:141|320:141,1,194.999991073609,2|0,0:0|0:0,0:0:0:0:
162,87,7089,1,8,0:0:0:0:
232,248,7247,1,8,0:0:0:0:
332,49,7405,2,0,P|286:44|231:48,1,97.4999955368044,2|0,0:0|0:0,0:0:0:0:
57,185,7721,2,0,P|103:192|164:182,1,97.4999955368044,8|0,0:0|0:0,0:0:0:0:
307,270,8036,6,0,P|250:326|144:288,1,194.999991073609,6|8,0:0|0:0,0:0:0:0:
288,156,8510,1,0,0:0:0:0:
399,281,8668,2,0,L|392:386,1,97.4999955368044,2|0,0:0|0:0,0:0:0:0:
204,222,8984,1,8,0:0:0:0:
426,186,9142,6,0,P|485:230|478:350,1,194.999991073609,2|0,0:0|0:0,0:0:0:0:
204,222,9615,2,0,P|194:159|197:113,1,97.4999955368044,8|0,0:0|0:0,0:0:0:0:
360,41,9931,1,2,0:0:0:0:
402,210,10089,1,8,0:0:0:0:
402,210,10168,1,8,0:0:0:0:
402,210,10247,1,8,0:0:0:0:
363,223,10326,1,8,0:0:0:0:
321,221,10405,1,8,0:0:0:0:
287,197,10484,1,8,0:0:0:0:
273,154,10563,6,0,P|319:132|404:125,1,134.999995880127,6|8,0:0|0:0,0:0:0:0:
319,327,11036,2,0,P|262:331|177:297,1,134.999995880127,2|0,0:0|0:0,0:0:0:0:
422,258,11510,2,0,L|426:339,1,67.4999979400635,8|0,0:0|0:0,0:0:0:0:
249,170,11826,6,0,P|282:164|318:163,1,67.4999979400635,2|0,0:0|0:0,0:0:0:0:
427,179,12142,1,8,0:0:0:0:
279,77,12300,2,0,P|217:75|152:135,1,134.999995880127,2|0,0:0|0:0,0:0:0:0:
374,101,12773,2,0,P|382:45|383:27,1,67.4999979400635,8|0,0:0|0:0,0:0:0:0:
311,231,13089,6,0,B|362:248|409:238|409:238|370:215,1,134.999995880127,2|8,0:0|0:0,0:0:0:0:
202,157,13563,1,0,0:0:0:0:
202,157,13721,2,0,B|147:154|106:182|106:182|141:189,1,134.999995880127,2|8,0:0|0:0,0:0:0:0:
294,221,14194,1,0,0:0:0:0:
153,56,14352,5,2,0:0:0:0:
184,256,14510,1,2,0:0:0:0:
312,105,14668,1,10,0:0:0:0:
31,146,14826,1,2,0:0:0:0:
339,100,15142,1,2,0:0:0:0:
262,259,15300,2,0,P|250:212|254:176,1,67.4999979400635,2|0,0:0|0:0,0:0:0:0:
454,213,15615,6,0,P|467:264|424:347,1,134.999995880127,6|8,0:0|0:0,0:0:0:0:
363,148,16089,2,0,P|410:110|497:116,1,134.999995880127,2|0,0:0|0:0,0:0:0:0:
329,260,16563,2,0,L|261:258,1,67.4999979400635,8|0,0:0|0:0,0:0:0:0:
84,130,16879,6,0,L|155:124,1,67.4999979400635,2|0,0:0|0:0,0:0:0:0:
247,80,17194,1,8,0:0:0:0:
129,234,17352,2,0,P|73:245|5:203,1,134.999995880127,2|0,0:0|0:0,0:0:0:0:
252,196,17826,2,0,L|254:273,1,67.4999979400635,8|0,0:0|0:0,0:0:0:0:
374,301,18142,2,0,P|378:220|376:177,1,101.249996910095,2|0,0:0|0:0,0:0:0:0:
377,181,18458,6,0,P|394:216|417:248,1,67.4999979400635,8|0,0:0|0:0,0:0:0:0:
328,40,18773,2,0,P|266:43|240:49,1,67.4999979400635,2|0,0:0|0:0,0:0:0:0:
464,109,19089,1,8,0:0:0:0:
423,12,19247,1,0,0:0:0:0:
336,210,19405,5,2,0:0:0:0:
463,200,19563,1,2,0:0:0:0:
253,115,19721,1,8,0:0:0:0:
428,313,19879,1,2,0:0:0:0:
251,90,20194,1,2,0:0:0:0:
336,210,20352,6,0,B|344:189|335:169|335:169|340:146|340:146|333:123,1,90,8|0,0:0|0:0,0:0:0:0:
285,274,20668,6,0,P|339:294|400:263,1,120,6|0,0:0|0:0,0:0:0:0:
261,195,21142,1,0,0:0:0:0:
180,311,21300,2,0,L|180:376,1,60,8|0,0:0|0:0,0:0:0:0:
122,208,21615,1,8,0:0:0:0:
295,294,21773,1,8,0:0:0:0:
70,296,22089,5,8,0:0:0:0:
221,202,22247,2,0,P|217:242|204:290,1,75,0|0,0:0|0:0,0:0:0:0:
139,89,22563,2,0,P|165:70|201:47,1,75,8|0,0:0|0:0,0:0:0:0:
349,134,22879,2,0,P|301:136|269:132,1,75,0|0,0:0|0:0,0:0:0:0:
467,88,23194,6,0,P|475:151|440:214,1,120,6|0,0:0|0:0,0:0:0:0:
340,247,23668,1,0,0:0:0:0:
253,106,23826,2,0,P|245:66|245:34,1,60,8|0,0:0|0:0,0:0:0:0:
383,154,24142,1,8,0:0:0:0:
202,204,24300,1,8,0:0:0:0:
385,129,24615,5,8,0:0:0:0:
302,291,24773,2,0,P|302:351|304:371,1,75,0|0,0:0|0:0,0:0:0:0:
471,258,25089,2,0,P|448:229|418:204,1,75,8|0,0:0|0:0,0:0:0:0:
241,157,25405,2,0,P|300:162|319:160,1,75,0|0,0:0|0:0,0:0:0:0:
120,92,25721,6,0,P|103:175|153:254,1,165.000005035401,6|8,0:0|0:0,0:0:0:0:
288,266,26194,2,0,P|332:265|377:274,1,82.5000025177003,0|0,0:0|0:0,0:0:0:0:
178,338,26510,1,10,0:0:0:0:
202,152,26668,1,10,0:0:0:0:
369,271,26826,1,10,0:0:0:0:
332,73,26984,5,0,0:0:0:0:
176,270,27300,2,0,P|177:321|178:359,1,67.4999979400635,2|0,0:0|0:0,0:0:0:0:
333,139,27615,2,0,P|336:96|329:63,1,67.4999979400635,2|0,0:0|0:0,0:0:0:0:
87,180,27931,2,0,P|73:219|70:256,1,67.4999979400635,2|0,0:0|0:0,0:0:0:0:
267,315,28247,6,0,P|278:259|235:189,1,134.999995880127,6|8,0:0|0:0,0:0:0:0:
177,359,28721,1,0,0:0:0:0:
346,373,28879,2,0,L|415:370,1,67.4999979400635,2|0,0:0|0:0,0:0:0:0:
185,262,29194,2,0,L|101:257,1,67.4999979400635,8|0,0:0|0:0,0:0:0:0:
332,133,29510,5,2,0:0:0:0:
315,223,29668,1,2,0:0:0:0:
244,164,29826,1,10,0:0:0:0:
400,192,29984,1,2,0:0:0:0:
228,254,30142,5,10,0:0:0:0:
262,77,30300,1,8,0:0:0:0:
400,192,30458,1,8,0:0:0:0:
133,142,30615,1,8,0:0:0:0:
393,79,30773,6,0,P|440:82|486:88,1,89.9999972534181,6|0,0:0|0:0,0:0:0:0:
361,267,31089,1,8,0:0:0:0:
361,267,31247,1,0,0:0:0:0:
276,125,31405,2,0,P|266:80|274:35,1,89.9999972534181,6|0,0:0|0:0,0:0:0:0:
424,196,31721,1,8,0:0:0:0:
217,217,31879,1,0,0:0:0:0:
447,95,32036,5,6,0:0:0:0:
400,304,32194,1,0,0:0:0:0:
357,147,32352,1,8,0:0:0:0:
489,253,32510,1,2,0:0:0:0:
355,125,32826,1,0,0:0:0:0:
482,277,32984,2,0,P|481:336|478:370,1,82.5000025177003,8|0,0:0|0:0,0:0:0:0:
267,206,33300,6,0,P|312:200|358:197,1,82.5000025177003,6|0,0:0|0:0,0:0:0:0:
190,277,33615,1,8,0:0:0:0:
252,123,33773,1,0,0:0:0:0:
316,273,33931,2,0,P|324:321|326:358,1,82.5000025177003,6|0,0:0|0:0,0:0:0:0:
138,139,34247,2,0,P|140:97|147:57,1,82.5000025177003,8|0,0:0|0:0,0:0:0:0:
190,277,34563,5,6,0:0:0:0:
40,189,34721,1,2,0:0:0:0:
252,123,34879,1,10,0:0:0:0:
182,307,35036,2,0,B|100:333|103:270|14:306,1,165.000005035401,2|0,0:0|0:0,0:0:0:0:
295,252,35510,2,0,P|305:307|296:347,1,82.5000025177003,8|0,0:0|0:0,0:0:0:0:
150,98,35826,6,0,L|251:90,1,89.9999972534181,6|0,0:0|0:0,0:0:0:0:
463,154,36142,2,0,L|366:146,1,89.9999972534181,8|0,0:0|0:0,0:0:0:0:
192,241,36458,1,6,0:0:0:0:
192,241,36615,1,0,0:0:0:0:
382,257,36773,1,8,0:0:0:0:
270,120,36931,1,0,0:0:0:0:
295,333,37089,6,0,P|351:345|382:341,1,82.5000025177003,6|0,0:0|0:0,0:0:0:0:
192,241,37405,1,8,0:0:0:0:
390,171,37563,2,0,P|461:173|476:175,1,82.5000025177003,2|0,0:0|0:0,0:0:0:0:
307,249,37879,2,0,P|277:205|297:99,1,165.000005035401,2|0,0:0|0:0,0:0:0:0:
396,319,38352,5,6,0:0:0:0:
226,300,38510,1,0,0:0:0:0:
414,234,38668,1,8,0:0:0:0:
230,281,38826,1,0,0:0:0:0:
384,152,38984,2,0,P|427:142|470:141,1,82.5000025177003,6|0,0:0|0:0,0:0:0:0:
234,261,39300,2,0,P|185:263|152:257,1,82.5000025177003,8|0,0:0|0:0,0:0:0:0:
278,93,39615,6,0,L|287:178,2,82.5000025177003,6|0|8,0:0|0:0|0:0,0:0:0:0:
351,259,40089,2,0,P|383:223|367:113,1,165.000005035401,2|0,0:0|0:0,0:0:0:0:
243,275,40563,2,0,P|247:319|256:362,1,82.5000025177003,8|0,0:0|0:0,0:0:0:0:
196,162,40879,6,0,P|247:153|279:153,2,82.5000025177003,6|2|8,0:0|0:0|0:0,0:0:0:0:
25,234,41352,2,0,P|0:183|49:80,1,165.000005035401,2|0,0:0|0:0,0:0:0:0:
146,238,41826,1,8,0:0:0:0:
17,335,41984,1,0,0:0:0:0:
144,156,42142,6,0,L|148:268,1,82.5000025177003,6|0,0:0|0:0,0:0:0:0:
52,121,42458,1,8,0:0:0:0:
240,194,42615,2,0,P|284:184|308:55,1,165.000005035401,2|8,0:0|0:0,0:0:0:0:
144,156,43089,2,0,P|145:199|150:241,1,82.5000025177003,8|0,0:0|0:0,0:0:0:0:
219,360,43405,6,0,P|176:354|132:355,1,82.5000025177003,6|2,0:0|0:0,0:0:0:0:
341,275,43721,1,10,0:0:0:0:
341,275,43879,1,6,0:0:0:0:
190,204,44036,2,0,P|149:202|104:208,1,82.5000025177003,0|0,0:0|0:0,0:0:0:0:
307,152,44352,2,0,P|286:116|257:86,1,82.5000025177003,8|0,0:0|0:0,0:0:0:0:
223,319,44668,6,0,P|269:328|342:278,1,123.75000377655,2|0,0:0|0:0,0:0:0:0:
341,275,44984,2,0,P|347:310|350:364,1,82.5000025177003,8|0,0:0|0:0,0:0:0:0:
142,203,45300,1,8,0:0:0:0:
141,174,45379,1,8,0:0:0:0:
139,145,45458,1,8,0:0:0:0:
138,116,45536,1,8,0:0:0:0:
104,139,45615,1,8,0:0:0:0:
91,178,45694,1,8,0:0:0:0:
98,218,45773,1,8,0:0:0:0:
124,249,45852,1,8,0:0:0:0:
167,262,45931,6,0,P|215:252|267:259,1,97.4999955368044,6|0,0:0|0:0,0:0:0:0:
406,307,46247,1,8,0:0:0:0:
312,161,46405,1,0,0:0:0:0:
227,353,46563,1,2,0:0:0:0:
426,225,46721,1,0,0:0:0:0:
225,333,46879,1,8,0:0:0:0:
167,82,47036,6,0,P|215:70|312:170,1,194.999991073609,2|0,0:0|0:0,0:0:0:0:
66,163,47510,1,8,0:0:0:0:
79,33,47668,1,8,0:0:0:0:
218,187,47826,2,0,P|224:277|219:298,1,97.4999955368044,2|0,0:0|0:0,0:0:0:0:
0,97,48142,2,0,P|-2:52|7:0,1,97.4999955368044,8|0,0:0|0:0,0:0:0:0:
296,72,48458,6,0,P|325:129|328:184,1,104.999996795654,6|0,0:0|0:0,0:0:0:0:
82,294,48773,2,0,P|87:228|109:183,1,104.999996795654,6|0,0:0|0:0,0:0:0:0:
354,283,49089,2,0,P|287:356|188:320,1,209.999993591309,6|8,0:0|0:0,0:0:0:0:
299,80,49563,6,0,B|346:60|378:76|378:76|414:52|414:52|457:70|503:49,1,209.999993591309,4|0,0:0|0:0,0:0:0:0:
227,172,50036,2,0,P|172:172|119:164,1,104.999996795654,6|0,0:0|0:0,0:0:0:0:
411,147,50352,2,0,P|438:184|459:252,1,104.999996795654,6|0,0:0|0:0,0:0:0:0:
210,355,50668,2,0,P|212:306|234:253,1,104.999996795654,2|0,0:0|0:0,0:0:0:0:
332,66,50984,5,6,0:0:0:0:
369,226,51142,1,0,0:0:0:0:
191,136,51300,1,8,0:0:0:0:
353,58,51458,1,0,0:0:0:0:
239,251,51615,1,2,0:0:0:0:
222,40,51773,1,0,0:0:0:0:
226,267,51931,1,8,0:0:0:0:
476,168,52089,6,0,P|466:110|328:67,1,194.999991073609,2|0,0:0|0:0,0:0:0:0:
310,328,52563,1,8,0:0:0:0:
487,271,52721,1,8,0:0:0:0:
252,181,52879,1,2,0:0:0:0:
304,350,53036,1,0,0:0:0:0:
247,159,53194,1,8,0:0:0:0:
424,201,53352,1,0,0:0:0:0:
173,282,53510,6,0,P|120:285|48:261,1,104.999996795654,6|0,0:0|0:0,0:0:0:0:
329,155,53826,2,0,P|348:234|344:264,1,104.999996795654,6|0,0:0|0:0,0:0:0:0:
143,71,54142,2,0,P|189:50|257:45,1,104.999996795654,6|0,0:0|0:0,0:0:0:0:
409,71,54458,1,8,0:0:0:0:
251,273,54615,6,0,B|189:294|142:249|142:249|93:262|53:221,1,209.999993591309,6|0,0:0|0:0,0:0:0:0:
353,223,55089,2,0,P|365:280|356:326,1,104.999996795654,6|0,0:0|0:0,0:0:0:0:
119,171,55405,2,0,P|154:141|213:120,1,104.999996795654,6|0,0:0|0:0,0:0:0:0:
398,92,55721,1,2,0:0:0:0:
398,92,55800,1,0,0:0:0:0:
398,92,55879,1,0,0:0:0:0:
398,92,55958,1,0,0:0:0:0:
398,92,56036,6,0,L|269:87,1,104.999996795654,2|0,0:0|0:0,0:0:0:0:
122,171,56352,2,0,L|232:164,1,104.999996795654,8|0,0:0|0:0,0:0:0:0:
315,272,56668,1,2,0:0:0:0:
315,272,56826,1,0,0:0:0:0:
197,272,56984,1,8,0:0:0:0:
373,170,57142,1,0,0:0:0:0:
257,355,57300,6,0,P|194:374|147:361,1,104.999996795654,2|0,0:0|0:0,0:0:0:0:
427,269,57615,2,0,P|412:334|376:370,1,104.999996795654,8|0,0:0|0:0,0:0:0:0:
233,220,57931,1,2,0:0:0:0:
334,121,58089,1,0,0:0:0:0:
345,218,58247,1,8,0:0:0:0:
339,106,58405,1,0,0:0:0:0:
139,153,58563,6,0,L|26:143,1,104.999996795654,2|0,0:0|0:0,0:0:0:0:
260,38,58879,2,0,L|368:25,1,104.999996795654,8|0,0:0|0:0,0:0:0:0:
272,253,59194,1,2,0:0:0:0:
248,118,59352,1,0,0:0:0:0:
396,247,59510,1,8,0:0:0:0:
232,105,59668,1,0,0:0:0:0:
409,267,59826,6,0,L|410:325,3,52.4999983978272,10|0|8|0,0:0|0:0|0:0|0:0,0:0:0:0:
327,204,60142,1,8,0:0:0:0:
352,177,60221,1,8,0:0:0:0:
385,160,60300,1,8,0:0:0:0:
421,158,60379,1,8,0:0:0:0:
455,170,60458,2,0,P|466:118|444:67,1,104.999996795654,8|8,0:0|0:0,0:0:0:0:
409,267,60694,1,8,0:0:0:0:
409,267,60773,2,0,P|398:319|420:370,1,104.999996795654,8|8,0:0|0:0,0:0:0:0:
267,117,61089,5,14,0:0:0:0:
256,192,61168,12,4,63536,3:0:0:0:
