osu file format v14

[General]
AudioFilename: audio.mp3
AudioLeadIn: 0
PreviewTime: 45931
Countdown: 0
SampleSet: Soft
StackLeniency: 0.7
Mode: 0
LetterboxInBreaks: 0
WidescreenStoryboard: 0

[Editor]
DistanceSpacing: 0.9
BeatDivisor: 4
GridSize: 8
TimelineZoom: 2.4

[Metadata]
Title:Gohan wa Okazu
TitleUnicode:ごはんはおかず
Artist:HO-KAGO TEA TIME
ArtistUnicode:放課後ティータイム
Creator:MashaSG
Version:TheMefisto's Normal!!
Source:けいおん!!
Tags:K-ON! Light Music Rice is a Dish J-Pop bice TheMefisto Pata-Mon Karen vanucik wajinshu Fanteer Momochikun Underforest Armin A_r_M_i_N
BeatmapID:1257712
BeatmapSetID:591709

[Difficulty]
HPDrainRate:4.5
CircleSize:3.4
OverallDifficulty:5
ApproachRate:5
SliderMultiplier:0.999999999999999
SliderTickRate:1

[Events]
//Background and Video events
0,0,"The Mefisto.jpg",0,0
//Break Periods
//Storyboard Layer 0 (Background)
//Storyboard Layer 1 (Fail)
//Storyboard Layer 2 (Pass)
//Storyboard Layer 3 (Foreground)
//Storyboard Sound Samples

[TimingPoints]
458,315.789473684211,4,2,1,80,1,0
45931,-100,4,2,1,80,0,1
50668,-100,4,2,1,80,0,0
50984,-100,4,2,1,80,0,1
55721,-100,4,2,1,80,0,0
63536,-100,4,2,1,40,0,0

[Colours]
Combo1 : 234,117,0
Combo2 : 0,128,192
Combo3 : 128,0,0
Combo4 : 213,0,0

[HitObjects]
426,99,458,6,0,P|437:142|397:220,2,99.9999999999999,6|8|2,0:0|0:0|0:0,0:0:0:0:
355,49,1405,1,8,0:0:0:0:
355,49,1563,2,0,P|285:69|195:62,1,150,2|8,0:0|0:0,0:0:0:0:
129,25,2352,1,2,0:0:0:0:
89,106,2668,1,8,0:0:0:0:
172,147,2984,6,0,P|192:193|171:260,2,99.9999999999999,6|8|2,0:0|0:0|0:0,0:0:0:0:
106,207,3931,1,8,0:0:0:0:
106,207,4089,2,0,P|85:278|116:351,1,150,2|10,0:0|0:0,0:0:0:0:
201,336,4879,2,0,L|301:324,1,99.9999999999999,2|8,0:0|0:0,0:0:0:0:
380,284,5510,6,0,L|480:296,2,99.9999999999999,6|8|2,0:0|0:0|0:0,0:0:0:0:
304,236,6458,1,8,0:0:0:0:
304,236,6615,2,0,P|287:170|310:64,1,150,2|8,0:0|0:0,0:0:0:0:
366,31,7405,1,2,0:0:0:0:
454,48,7721,1,8,0:0:0:0:
501,124,8036,6,0,P|514:165|495:228,2,99.9999999999999,6|8|2,0:0|0:0|0:0,0:0:0:0:
426,175,8984,1,8,0:0:0:0:
426,175,9142,2,0,L|259:196,1,150,2|8,0:0|0:0,0:0:0:0:
209,252,9931,2,0,L|82:268,1,99.9999999999999,2|8,0:0|0:0,0:0:0:0:
36,211,10563,6,0,P|23:163|38:116,1,99.9999999999999,6|8,0:0|0:0,0:0:0:0:
80,100,11036,2,0,P|148:111|235:89,1,150,2|8,0:0|0:0,0:0:0:0:
298,39,11826,2,0,L|404:27,1,99.9999999999999,2|8,0:0|0:0,0:0:0:0:
432,55,12300,2,0,P|456:124|438:201,1,150,2|8,0:0|0:0,0:0:0:0:
366,249,13089,5,2,0:0:0:0:
281,216,13405,1,8,0:0:0:0:
201,257,13721,2,0,P|188:310|215:366,1,99.9999999999999,2|8,0:0|0:0,0:0:0:0:
292,353,14352,2,0,L|357:345,1,50,2|2,0:0|0:0,0:0:0:0:
384,361,14668,2,0,L|449:353,1,50,10|2,0:0|0:0,0:0:0:0:
489,283,15142,1,2,0:0:0:0:
489,283,15300,1,2,0:0:0:0:
432,213,15615,6,0,P|419:171|445:97,1,99.9999999999999,6|8,0:0|0:0,0:0:0:0:
468,92,16089,2,0,L|316:99,1,150,2|8,0:0|0:0,0:0:0:0:
235,136,16879,2,0,L|135:131,1,99.9999999999999,2|8,0:0|0:0,0:0:0:0:
92,146,17352,2,0,P|67:220|84:300,1,150,2|8,0:0|0:0,0:0:0:0:
139,356,18142,5,2,0:0:0:0:
224,328,18458,1,8,0:0:0:0:
307,361,18773,2,0,P|364:363|430:344,1,99.9999999999999,2|8,0:0|0:0,0:0:0:0:
446,273,19405,2,0,L|453:193,1,50,2|2,0:0|0:0,0:0:0:0:
419,190,19721,2,0,L|412:110,1,50,8|2,0:0|0:0,0:0:0:0:
382,60,20194,1,2,0:0:0:0:
382,60,20352,2,0,L|313:56,1,50,8|0,0:0|0:0,0:0:0:0:
292,79,20668,6,0,L|92:88,1,200,6|8,0:0|0:0,0:0:0:0:
26,150,21615,1,8,0:0:0:0:
26,150,21773,1,8,0:0:0:0:
1,238,22089,1,8,0:0:0:0:
1,238,22247,2,0,L|17:340,1,99.9999999999999,0|8,0:0|0:0,0:0:0:0:
102,363,22879,1,0,0:0:0:0:
176,312,23194,6,0,B|272:274|273:348|373:305,1,200,6|8,0:0|0:0,0:0:0:0:
404,222,24142,1,8,0:0:0:0:
404,222,24300,1,8,0:0:0:0:
354,147,24615,1,8,0:0:0:0:
354,147,24773,2,0,L|231:166,1,99.9999999999999,0|8,0:0|0:0,0:0:0:0:
166,177,25405,1,0,0:0:0:0:
81,147,25721,6,0,P|56:111|64:48,1,99.9999999999999,6|8,0:0|0:0,0:0:0:0:
94,29,26194,1,0,0:0:0:0:
181,51,26510,2,0,L|243:41,2,50,10|10|10,0:0|0:0|0:0,0:0:0:0:
81,147,27300,1,2,0:0:0:0:
130,221,27615,1,2,0:0:0:0:
89,301,27931,1,2,0:0:0:0:
138,375,28247,6,0,L|247:360,1,99.9999999999999,6|8,0:0|0:0,0:0:0:0:
307,305,28879,2,0,L|416:290,1,99.9999999999999,2|8,0:0|0:0,0:0:0:0:
441,208,29510,1,2,0:0:0:0:
420,120,29826,1,10,0:0:0:0:
330,112,30142,1,2,0:0:0:0:
295,195,30457,1,8,0:0:0:0:
363,254,30773,6,0,P|374:307|348:362,1,99.9999999999999,6|8,0:0|0:0,0:0:0:0:
269,365,31405,1,6,0:0:0:0:
186,327,31721,1,8,0:0:0:0:
103,363,32036,2,0,L|86:253,1,99.9999999999999,6|8,0:0|0:0,0:0:0:0:
67,223,32510,1,2,0:0:0:0:
27,146,32826,1,0,0:0:0:0:
27,146,32984,2,0,L|39:55,1,50,8|0,0:0|0:0,0:0:0:0:
71,71,33300,6,0,P|125:74|190:46,1,99.9999999999999,6|8,0:0|0:0,0:0:0:0:
247,17,33931,1,6,0:0:0:0:
330,49,34247,1,8,0:0:0:0:
347,137,34563,2,0,L|333:248,1,99.9999999999999,6|10,0:0|0:0,0:0:0:0:
340,280,35036,1,2,0:0:0:0:
411,340,35352,1,0,0:0:0:0:
411,340,35510,1,8,0:0:0:0:
487,293,35826,6,0,P|504:249|494:174,1,99.9999999999999,6|8,0:0|0:0,0:0:0:0:
439,129,36458,1,6,0:0:0:0:
359,170,36773,1,8,0:0:0:0:
281,124,37089,2,0,L|169:115,1,99.9999999999999,6|8,0:0|0:0,0:0:0:0:
144,89,37563,1,2,0:0:0:0:
208,26,37879,2,0,L|258:30,1,50,2|8,0:0|0:0,0:0:0:0:
344,55,38352,6,0,P|372:104|365:163,1,99.9999999999999,6|8,0:0|0:0,0:0:0:0:
303,205,38984,1,6,0:0:0:0:
215,182,39300,1,8,0:0:0:0:
136,224,39615,2,0,P|120:280|145:343,1,99.9999999999999,6|8,0:0|0:0,0:0:0:0:
165,346,40089,1,2,0:0:0:0:
255,320,40405,1,0,0:0:0:0:
255,320,40563,1,8,0:0:0:0:
333,363,40879,6,0,P|396:364|436:342,1,99.9999999999999,6|8,0:0|0:0,0:0:0:0:
455,312,41353,1,2,0:0:0:0:
401,240,41668,2,0,L|334:244,2,50,0|8|0,0:0|0:0|0:0,0:0:0:0:
436,211,42142,2,0,P|448:166|418:103,1,99.9999999999999,6|8,0:0|0:0,0:0:0:0:
386,124,42615,2,0,P|341:136|278:106,1,99.9999999999999,2|8,0:0|0:0,0:0:0:0:
266,81,43089,1,8,0:0:0:0:
178,58,43405,6,0,P|97:58|21:76,2,150,6|6|8,0:0|0:0|0:0,0:0:0:0:
198,145,44668,2,0,L|184:270,1,99.9999999999999,2|8,0:0|0:0,0:0:0:0:
263,292,45300,2,0,L|274:192,1,99.9999999999999,8|8,0:0|0:0,0:0:0:0:
323,117,45931,6,0,P|364:87|441:96,2,99.9999999999999,6|8|2,0:0|0:0|0:0,0:0:0:0:
398,178,46879,1,8,0:0:0:0:
398,178,47036,2,0,P|409:255|376:334,1,150,2|8,0:0|0:0,0:0:0:0:
300,353,47826,2,0,L|188:338,1,99.9999999999999,2|8,0:0|0:0,0:0:0:0:
113,315,48458,5,6,0:0:0:0:
67,237,48773,1,6,0:0:0:0:
73,147,49089,1,6,0:0:0:0:
125,73,49405,1,8,0:0:0:0:
125,73,49563,2,0,L|177:66,1,50,4|0,0:0|0:0,0:0:0:0:
263,53,50036,2,0,P|266:104|292:149,1,99.9999999999999,6|6,0:0|0:0,0:0:0:0:
288,232,50668,1,2,0:0:0:0:
211,279,50984,6,0,L|77:273,2,99.9999999999999,6|8|2,0:0|0:0|0:0,0:0:0:0:
291,332,51931,1,8,0:0:0:0:
291,332,52089,2,0,L|440:322,1,150,2|8,0:0|0:0,0:0:0:0:
500,254,52879,2,0,P|497:203|451:159,1,99.9999999999999,2|8,0:0|0:0,0:0:0:0:
380,141,53510,5,6,0:0:0:0:
300,182,53826,1,6,0:0:0:0:
219,142,54142,1,6,0:0:0:0:
133,180,54458,1,8,0:0:0:0:
133,180,54615,2,0,L|78:177,1,50,4|0,0:0|0:0,0:0:0:0:
34,101,55089,2,0,L|143:94,1,99.9999999999999,6|6,0:0|0:0,0:0:0:0:
195,30,55721,1,2,0:0:0:0:
275,69,56036,6,0,P|323:79|370:64,1,99.9999999999999,2|8,0:0|0:0,0:0:0:0:
407,46,56510,1,0,0:0:0:0:
407,46,56668,2,0,L|408:155,1,99.9999999999999,2|8,0:0|0:0,0:0:0:0:
438,230,57300,1,2,0:0:0:0:
366,283,57615,1,8,0:0:0:0:
294,230,57931,1,2,0:0:0:0:
222,283,58247,1,8,0:0:0:0:
150,230,58563,6,0,L|37:227,1,99.9999999999999,2|8,0:0|0:0,0:0:0:0:
19,254,59036,1,0,0:0:0:0:
19,254,59194,2,0,P|0:303|17:360,1,99.9999999999999,2|8,0:0|0:0,0:0:0:0:
92,309,59826,1,10,0:0:0:0:
178,337,60142,1,8,0:0:0:0:
230,264,60458,1,8,0:0:0:0:
178,191,60773,1,8,0:0:0:0:
92,219,61089,5,14,0:0:0:0:
256,192,61247,12,4,63536,3:0:0:0:
