osu file format v14

[General]
AudioFilename: audio.mp3
AudioLeadIn: 0
PreviewTime: 45931
Countdown: 0
SampleSet: Soft
StackLeniency: 0.3
Mode: 0
LetterboxInBreaks: 0
WidescreenStoryboard: 0

[Editor]
Bookmarks: 34800
DistanceSpacing: 1.2
BeatDivisor: 4
GridSize: 16
TimelineZoom: 1.6

[Metadata]
Title:Gohan wa Okazu
TitleUnicode:ごはんはおかず
Artist:HO-KAGO TEA TIME
ArtistUnicode:放課後ティータイム
Creator:MashaSG
Version:Mochi's Hard!!
Source:けいおん!!
Tags:K-ON! Light Music Rice is a Dish J-Pop bice TheMefisto Pata-Mon Karen vanucik wajinshu Fanteer Momochikun Underforest Armin A_r_M_i_N
BeatmapID:1261446
BeatmapSetID:591709

[Difficulty]
HPDrainRate:6
CircleSize:4
OverallDifficulty:6
ApproachRate:7.5
SliderMultiplier:1.4
SliderTickRate:1

[Events]
//Background and Video events
0,0,"Mochi.jpg",0,0
//Break Periods
//Storyboard Layer 0 (Background)
//Storyboard Layer 1 (Fail)
//Storyboard Layer 2 (Pass)
//Storyboard Layer 3 (Foreground)
//Storyboard Sound Samples

[TimingPoints]
458,315.789473684211,4,2,1,80,1,0
10563,-100,4,2,1,80,0,0
13958,-100,4,2,1,5,0,0
14036,-100,4,2,1,80,0,0
19010,-100,4,2,1,5,0,0
19089,-100,4,2,1,80,0,0
20352,-125,4,2,1,80,0,0
20589,-125,4,2,1,5,0,0
20668,-125,4,2,1,80,0,0
25721,-100,4,2,1,80,0,0
25958,-100,4,2,1,5,0,0
26036,-100,4,2,1,80,0,0
28484,-100,4,2,1,5,0,0
28563,-100,4,2,1,80,0,0
32273,-100,4,2,1,5,0,0
32352,-100,4,2,1,80,0,0
32747,-100,4,2,1,5,0,0
32826,-100,4,2,1,80,0,0
35747,-100,4,2,1,5,0,0
35826,-100,4,2,1,80,0,0
40326,-100,4,2,1,5,0,0
40405,-100,4,2,1,80,0,0
40800,-100,4,2,1,5,0,0
40879,-100,4,2,1,80,0,0
41589,-100,4,2,1,5,0,0
41668,-100,4,2,1,80,0,0
42379,-100,4,2,1,5,0,0
42458,-100,4,2,1,80,0,0
45300,-100,4,2,1,60,0,0
45931,-100,4,2,1,80,0,1
50905,-100,4,2,1,5,0,1
50984,-100,4,2,1,80,0,1
55405,-100,4,2,1,80,0,0
55958,-100,4,2,1,5,0,0
56036,-100,4,2,1,80,0,0
59905,-100,4,2,1,40,0,0
60142,-100,4,2,1,80,0,0
60221,-100,4,2,1,40,0,0
60458,-100,4,2,1,80,0,0
63536,-100,4,2,1,40,0,0

[Colours]
Combo1 : 55,205,255
Combo2 : 255,138,255
Combo3 : 0,0,179
Combo4 : 221,0,0

[HitObjects]
446,285,458,6,0,P|391:300|316:251,1,140,4|8,0:0|0:0,0:0:0:0:
267,192,931,1,0,0:0:0:0:
267,192,1089,2,0,P|212:204|181:211,1,70,2|0,0:0|0:0,0:0:0:0:
108,185,1405,1,8,0:0:0:0:
203,125,1563,6,0,P|304:102|361:89,1,140,2|0,0:0|0:0,0:0:0:0:
421,76,2036,2,0,P|449:113|450:161,1,70,8|8,0:0|0:0,0:0:0:0:
432,217,2352,2,0,P|471:236|505:234,2,70,2|0|8,0:0|0:0|0:0,0:0:0:0:
356,179,2826,1,0,0:0:0:0:
320,283,2984,6,0,P|260:324|192:314,1,140,4|8,0:0|0:0,0:0:0:0:
121,276,3458,1,0,0:0:0:0:
121,276,3615,2,0,B|137:224|117:179|117:179|124:158|132:139,1,140,2|8,0:0|0:0,0:0:0:0:
177,68,4089,6,0,B|269:41|269:41|329:59,1,140,2|0,0:0|0:0,0:0:0:0:
368,115,4563,2,0,P|372:151|382:192,1,70,10|0,0:0|0:0,0:0:0:0:
480,144,4879,2,0,P|470:81|454:7,1,140,2|8,0:0|0:0,0:0:0:0:
380,183,5510,5,4,0:0:0:0:
458,229,5668,1,0,0:0:0:0:
380,183,5826,2,0,L|292:204,1,70,8|0,0:0|0:0,0:0:0:0:
228,256,6142,2,0,L|159:239,2,70,2|0|8,0:0|0:0|0:0,0:0:0:0:
215,168,6615,6,0,B|134:151|134:151|97:161|82:202,1,140,2|0,0:0|0:0,0:0:0:0:
15,143,7089,2,0,P|-3:107|4:63,1,70,8|8,0:0|0:0,0:0:0:0:
92,0,7405,2,0,P|110:36|103:80,1,70,2|0,0:0|0:0,0:0:0:0:
208,46,7721,2,0,P|244:28|288:35,1,70,8|0,0:0|0:0,0:0:0:0:
379,141,8036,6,0,P|325:157|255:106,1,140,6|8,0:0|0:0,0:0:0:0:
176,130,8510,1,0,0:0:0:0:
176,130,8668,2,0,P|147:201|132:273,1,140,2|8,0:0|0:0,0:0:0:0:
90,334,9142,6,0,P|139:291|219:304,1,140,2|0,0:0|0:0,0:0:0:0:
300,333,9615,2,0,P|340:326|370:294,1,70,8|0,0:0|0:0,0:0:0:0:
406,233,9931,1,2,0:0:0:0:
356,148,10089,1,8,0:0:0:0:
356,148,10168,1,8,0:0:0:0:
356,148,10247,2,0,L|343:109,3,35,8|8|8|8,0:0|0:0|0:0|0:0,0:0:0:0:
320,94,10563,6,0,B|274:89|235:113|235:113|192:98|183:66,1,140,4|8,0:0|0:0,0:0:0:0:
118,46,11036,2,0,P|77:97|78:176,1,140,2|0,0:0|0:0,0:0:0:0:
129,234,11510,2,0,L|148:306,1,70,8|0,0:0|0:0,0:0:0:0:
213,354,11826,6,0,B|269:364|269:364|302:353|302:353|365:365,1,140,2|8,0:0|0:0,0:0:0:0:
426,327,12300,2,0,P|425:258|383:203,1,140,2|0,0:0|0:0,0:0:0:0:
297,151,12773,2,0,P|336:133|352:106,1,70,8|0,0:0|0:0,0:0:0:0:
320,32,13089,6,0,P|245:46|179:64,1,140,2|8,0:0|0:0,0:0:0:0:
116,114,13563,1,0,0:0:0:0:
179,168,13721,2,0,P|242:207|266:273,1,140,2|8,0:0|0:0,0:0:0:0:
214,332,14194,1,0,0:0:0:0:
304,367,14352,6,0,P|341:365|375:341,1,70,2|2,0:0|0:0,0:0:0:0:
430,268,14668,2,0,P|459:250|494:249,1,70,10|2,0:0|0:0,0:0:0:0:
426,95,15142,1,2,0:0:0:0:
352,135,15300,2,0,P|314:130|285:119,1,70,8|0,0:0|0:0,0:0:0:0:
233,52,15615,6,0,L|263:209,1,140,4|8,0:0|0:0,0:0:0:0:
212,259,16089,2,0,P|268:218|338:231,1,140,2|0,0:0|0:0,0:0:0:0:
399,304,16563,2,0,P|348:322|306:318,1,70,8|0,0:0|0:0,0:0:0:0:
229,350,16879,6,0,B|170:360|132:328|132:328|106:342|103:365,1,140,2|8,0:0|0:0,0:0:0:0:
34,309,17352,2,0,P|19:237|14:158,1,140,2|0,0:0|0:0,0:0:0:0:
69,106,17826,2,0,P|85:62|94:29,1,70,8|0,0:0|0:0,0:0:0:0:
174,26,18142,6,0,P|249:62|328:49,1,140,2|8,0:0|0:0,0:0:0:0:
382,28,18615,1,0,0:0:0:0:
466,105,18773,2,0,P|391:141|312:128,1,140,2|8,0:0|0:0,0:0:0:0:
253,120,19247,1,0,0:0:0:0:
190,192,19405,6,0,L|172:268,1,70,4|2,0:0|0:0,0:0:0:0:
309,344,19721,2,0,L|325:275,1,70,8|2,0:0|0:0,0:0:0:0:
352,94,20194,1,2,0:0:0:0:
256,32,20352,1,8,0:0:0:0:
256,32,20668,6,0,P|223:75|226:142,1,112,4|0,0:0|0:0,0:0:0:0:
260,206,21142,1,0,0:0:0:0:
352,151,21300,2,0,P|404:125|460:130,1,112,8|8,0:0|0:0,0:0:0:0:
485,206,21773,1,8,0:0:0:0:
357,315,22089,1,8,0:0:0:0:
357,315,22247,2,0,P|324:288|317:264,1,56,0|0,0:0|0:0,0:0:0:0:
237,256,22563,2,0,P|234:199|269:149,1,112,8|0,0:0|0:0,0:0:0:0:
354,28,23194,6,0,L|237:58,1,112,4|0,0:0|0:0,0:0:0:0:
165,28,23668,1,0,0:0:0:0:
176,124,23826,2,0,P|125:118|83:66,1,112,8|8,0:0|0:0,0:0:0:0:
165,28,24300,1,8,0:0:0:0:
310,146,24615,1,8,0:0:0:0:
310,146,24773,2,0,L|379:126,1,56,0|0,0:0|0:0,0:0:0:0:
471,191,25089,2,0,L|417:206,1,56,8|0,0:0|0:0,0:0:0:0:
337,258,25405,1,0,0:0:0:0:
337,258,25721,6,0,P|277:271|220:213,1,140,4|8,0:0|0:0,0:0:0:0:
147,184,26194,2,0,P|104:242|109:318,1,140,0|10,0:0|0:0,0:0:0:0:
50,372,26668,5,0,0:0:0:0:
50,372,26826,2,0,P|111:331|177:344,1,140,10|0,0:0|0:0,0:0:0:0:
250,364,27300,2,0,P|284:364|323:340,1,70,8|0,0:0|0:0,0:0:0:0:
379,292,27615,2,0,B|399:238|377:197|377:197|389:151,1,140,2|8,0:0|0:0,0:0:0:0:
256,48,28247,6,0,B|194:35|179:86|115:67,1,140,4|8,0:0|0:0,0:0:0:0:
44,104,28721,1,0,0:0:0:0:
19,184,28879,2,0,P|53:199|103:191,1,70,2|0,0:0|0:0,0:0:0:0:
165,172,29194,1,8,0:0:0:0:
165,172,29510,6,0,L|236:156,1,70,2|0,0:0|0:0,0:0:0:0:
311,231,29826,2,0,L|382:215,1,70,8|2,0:0|0:0,0:0:0:0:
458,142,30142,2,0,P|458:105|440:75,1,70,2|8,0:0|0:0,0:0:0:0:
428,65,30379,1,8,0:0:0:0:
411,57,30458,2,0,L|369:48,3,35,8|8|8|8,0:0|0:0|0:0|0:0,0:0:0:0:
359,45,30773,6,0,L|290:60,1,70,6|0,0:0|0:0,0:0:0:0:
209,37,31089,2,0,P|186:77|187:117,1,70,8|0,0:0|0:0,0:0:0:0:
282,203,31405,2,0,P|305:163|304:123,1,70,4|0,0:0|0:0,0:0:0:0:
225,264,31721,2,0,P|258:283|304:277,1,70,8|0,0:0|0:0,0:0:0:0:
407,184,32036,6,0,P|341:168|273:217,1,140,4|8,0:0|0:0,0:0:0:0:
383,291,32510,2,0,P|451:289|499:240,1,140,2|0,0:0|0:0,0:0:0:0:
499,155,32984,1,8,0:0:0:0:
455,83,33142,1,0,0:0:0:0:
346,63,33300,6,0,L|273:84,1,70,4|0,0:0|0:0,0:0:0:0:
181,100,33615,2,0,P|198:61|198:18,1,70,8|0,0:0|0:0,0:0:0:0:
87,126,33931,2,0,P|95:173|107:205,1,70,4|0,0:0|0:0,0:0:0:0:
178,230,34247,1,8,0:0:0:0:
178,230,34405,1,0,0:0:0:0:
314,182,34563,6,0,P|274:170|243:170,1,70,4|0,0:0|0:0,0:0:0:0:
178,230,34879,1,8,0:0:0:0:
278,275,35036,2,0,B|331:293|383:270|383:270|409:287|403:305,1,140,2|0,0:0|0:0,0:0:0:0:
452,210,35510,1,8,0:0:0:0:
378,58,35826,6,0,P|317:82|288:152,1,140,4|8,0:0|0:0,0:0:0:0:
216,191,36300,1,0,0:0:0:0:
216,191,36458,2,0,P|176:203|139:206,1,70,6|0,0:0|0:0,0:0:0:0:
112,312,36773,2,0,P|152:300|189:297,1,70,8|0,0:0|0:0,0:0:0:0:
300,261,37089,6,0,P|291:308|280:335,1,70,4|0,0:0|0:0,0:0:0:0:
357,369,37405,1,8,0:0:0:0:
385,249,37563,2,0,P|402:178|450:116,1,140,2|2,0:0|0:0,0:0:0:0:
486,53,38036,1,8,0:0:0:0:
320,21,38352,6,0,P|271:33|239:49,1,70,4|0,0:0|0:0,0:0:0:0:
169,32,38668,2,0,P|176:79|191:113,1,70,8|0,0:0|0:0,0:0:0:0:
232,169,38984,1,4,0:0:0:0:
311,142,39142,1,0,0:0:0:0:
377,193,39300,2,0,P|370:240|355:274,1,70,8|0,0:0|0:0,0:0:0:0:
300,347,39615,5,4,0:0:0:0:
224,304,39773,2,0,P|189:310|154:324,1,70,0|8,0:0|0:0,0:0:0:0:
78,356,40089,2,0,P|131:316|128:233,1,140,2|0,0:0|0:0,0:0:0:0:
58,120,40563,2,0,P|62:159|77:188,1,70,8|0,0:0|0:0,0:0:0:0:
189,163,40879,6,0,P|225:147|267:142,1,70,4|0,0:0|0:0,0:0:0:0:
341,114,41194,1,8,0:0:0:0:
403,204,41352,2,0,P|341:234|272:227,1,140,2|0,0:0|0:0,0:0:0:0:
189,163,41826,2,0,L|172:88,1,70,8|0,0:0|0:0,0:0:0:0:
78,70,42142,6,0,P|32:124|40:191,1,140,4|8,0:0|0:0,0:0:0:0:
149,281,42615,2,0,P|195:227|187:160,1,140,2|8,0:0|0:0,0:0:0:0:
165,80,43089,1,8,0:0:0:0:
318,163,43405,6,0,L|397:143,1,70,4|0,0:0|0:0,0:0:0:0:
421,70,43721,1,8,0:0:0:0:
421,70,43879,2,0,P|424:144|458:200,1,140,4|0,0:0|0:0,0:0:0:0:
494,274,44352,1,8,0:0:0:0:
326,141,44668,6,0,P|285:129|253:133,1,70,2|0,0:0|0:0,0:0:0:0:
176,154,44984,1,8,0:0:0:0:
176,154,45142,1,0,0:0:0:0:
238,244,45300,2,0,L|249:284,3,35,0|0|0|0,1:0|1:0|1:0|1:0,0:0:0:0:
284,297,45615,2,0,L|295:337,3,35,0|0|0|0,1:0|1:0|1:0|1:0,0:0:0:0:
322,362,45931,6,0,P|375:375|454:320,1,140,4|8,0:0|0:0,0:0:0:0:
382,209,46405,2,0,L|363:281,1,70,0|2,0:0|0:0,0:0:0:0:
473,179,46721,2,0,L|455:111,1,70,0|8,0:0|0:0,0:0:0:0:
380,48,47036,6,0,P|313:34|239:73,1,140,2|0,0:0|0:0,0:0:0:0:
196,136,47510,1,8,0:0:0:0:
115,95,47668,1,8,0:0:0:0:
115,95,47826,2,0,P|98:60|106:15,1,70,2|0,0:0|0:0,0:0:0:0:
196,136,48142,2,0,P|196:170|180:201,1,70,8|0,0:0|0:0,0:0:0:0:
108,305,48458,6,0,P|177:280|252:281,1,140,4|8,0:0|0:0,0:0:0:0:
333,269,48931,1,0,0:0:0:0:
425,225,49089,2,0,P|461:177|450:92,1,140,6|8,0:0|0:0,0:0:0:0:
343,44,49563,6,0,P|307:92|318:177,1,140,4|0,0:0|0:0,0:0:0:0:
333,269,50036,2,0,L|317:342,1,70,8|0,0:0|0:0,0:0:0:0:
240,280,50352,2,0,P|194:280|168:296,1,70,4|0,0:0|0:0,0:0:0:0:
85,333,50668,2,0,P|71:301|73:266,1,70,8|0,0:0|0:0,0:0:0:0:
21,185,50984,6,0,P|90:166|152:215,1,140,4|8,0:0|0:0,0:0:0:0:
222,243,51458,1,0,0:0:0:0:
222,243,51615,2,0,P|265:235|303:214,1,70,2|0,0:0|0:0,0:0:0:0:
361,182,51931,1,8,0:0:0:0:
284,322,52089,6,0,P|350:294|425:289,1,140,2|0,0:0|0:0,0:0:0:0:
478,228,52563,2,0,P|491:189|491:153,1,70,8|8,0:0|0:0,0:0:0:0:
404,65,52879,2,0,P|391:104|391:140,1,70,2|0,0:0|0:0,0:0:0:0:
315,189,53194,2,0,P|275:203|232:207,1,70,8|0,0:0|0:0,0:0:0:0:
153,242,53510,6,0,P|97:204|108:123,2,140,4|8|6,0:0|0:0|0:0,0:0:0:0:
218,295,54300,1,0,0:0:0:0:
294,259,54458,1,8,0:0:0:0:
372,332,54615,6,0,B|409:376|471:350|471:350|453:343|437:328,1,140,4|0,0:0|0:0,0:0:0:0:
410,255,55089,2,0,P|416:220|428:187,1,70,10|0,0:0|0:0,0:0:0:0:
493,114,55405,1,4,0:0:0:0:
493,114,55563,1,0,0:0:0:0:
416,52,55721,2,0,P|373:67|340:85,1,70,8|0,0:0|0:0,0:0:0:0:
282,152,56036,6,0,P|231:164|148:106,1,140,4|8,0:0|0:0,0:0:0:0:
92,60,56510,1,0,0:0:0:0:
41,144,56668,2,0,L|56:225,1,70,8|0,0:0|0:0,0:0:0:0:
174,241,56984,2,0,L|159:322,1,70,8|0,0:0|0:0,0:0:0:0:
242,347,57300,6,8,P|314:375|394:358,1,140,10|8,0:0|0:0,0:0:0:0:
444,320,57773,1,0,0:0:0:0:
383,261,57931,2,0,P|364:221|370:184,1,70,10|0,0:0|0:0,0:0:0:0:
439,85,58247,2,0,P|458:125|452:162,1,70,8|0,0:0|0:0,0:0:0:0:
365,196,58563,6,8,B|343:197|319:210|319:210|282:184|224:191,1,140,10|8,0:0|0:0,0:0:0:0:
155,225,59036,1,0,0:0:0:0:
76,195,59194,1,10,0:0:0:0:
61,112,59352,1,0,0:0:0:0:
103,39,59510,2,0,P|141:46|176:57,1,70,8|0,0:0|0:0,0:0:0:0:
255,112,59826,6,0,P|289:105|323:95,1,70,10|8,0:0|0:0,0:0:0:0:
346,106,60063,1,8,0:0:0:0:
369,114,60142,2,0,L|386:164,3,35,8|8|8|8,0:0|0:0|0:0|0:0,0:0:0:0:
404,172,60458,2,0,L|387:222,3,35,8|8|8|8,0:0|0:0|0:0|0:0,0:0:0:0:
383,238,60773,1,8,0:0:0:0:
321,314,60931,1,8,0:0:0:0:
227,284,61089,5,4,0:0:0:0:
256,192,61168,12,4,63536,3:0:0:0:
