osu file format v14

[General]
AudioFilename: audio.mp3
AudioLeadIn: 0
PreviewTime: 57385
Countdown: 0
SampleSet: Normal
StackLeniency: 0.7
Mode: 3
LetterboxInBreaks: 0
SpecialStyle: 0
WidescreenStoryboard: 0

[Editor]
Bookmarks: 1225,8905,23305,30985,46345,57865,79945
DistanceSpacing: 1
BeatDivisor: 3
GridSize: 8
TimelineZoom: 1.8

[Metadata]
Title:GO! GO! MANIAC (TV Size)
TitleUnicode:GO! GO! MANIAC (TV Size)
Artist:HO-KAGO TEA TIME
ArtistUnicode:放課後ティータイム
Creator:Garalulu
Version:Hyper
Source:けいおん!!
Tags:K-ON!! HTT Yui Hirasawa Aki Toyosaki Mio Akiyama Youko Hikasa Ritsu Satomi Satou Minako Kotobuki Tainaka Tsumugi Kotobuki Azusa Nakano Ayana Taketatsu Shouko Ohmori Tom-H@ck Pop Rock
BeatmapID:1659179
BeatmapSetID:776845

[Difficulty]
HPDrainRate:7.5
CircleSize:7
OverallDifficulty:7
ApproachRate:10
SliderMultiplier:1.4
SliderTickRate:1

[Events]
//Background and Video events
0,0,"Maniac!.jpg",0,0
//Break Periods
//Storyboard Layer 0 (Background)
//Storyboard Layer 1 (Fail)
//Storyboard Layer 2 (Pass)
//Storyboard Layer 3 (Foreground)
//Storyboard Sound Samples

[TimingPoints]
-695,240,4,1,1,80,1,0
8905,-100,4,1,1,80,0,1
23305,-100,4,1,1,80,0,0
57865,-100,4,1,1,80,0,1
79945,-100,4,1,1,80,0,0

[HitObjects]
182,192,625,5,0,0:0:0:0:
329,192,745,1,8,0:0:0:0:
475,192,745,1,2,0:0:0:0:
109,192,865,1,8,0:0:0:0:
256,192,865,1,2,0:0:0:0:
182,192,1105,1,2,0:0:0:0:
329,192,1105,1,8,0:0:0:0:
36,192,1225,1,4,0:0:0:0:
109,192,1225,128,0,1385:0:0:0:0:
329,192,1385,128,0,1465:0:0:0:0:
182,192,1465,128,0,1625:0:0:0:0:
402,192,1625,128,0,1705:0:0:0:0:
475,192,1705,1,0,0:0:0:0:
36,192,1865,128,0,1945:0:0:0:0:
256,192,1865,128,0,1945:0:0:0:0:
182,192,2105,1,0,0:0:0:0:
109,192,2185,128,0,2665:0:0:0:0:
329,192,2185,128,0,2425:0:0:0:0:
402,192,2425,128,0,2545:0:0:0:0:
475,192,2545,128,0,2665:0:0:0:0:
256,192,2665,1,0,0:0:0:0:
329,192,2905,128,0,3145:0:0:0:0:
402,192,3145,1,0,0:0:0:0:
36,192,3145,128,0,3385:0:0:0:0:
182,192,3385,1,0,0:0:0:0:
475,192,3625,128,0,3865:0:0:0:0:
329,192,3625,1,0,0:0:0:0:
109,192,3865,1,0,0:0:0:0:
182,192,4105,128,0,4225:0:0:0:0:
329,192,4105,1,0,0:0:0:0:
256,192,4345,128,0,4465:0:0:0:0:
402,192,4345,1,0,0:0:0:0:
329,192,4585,128,0,5065:0:0:0:0:
475,192,4585,1,0,0:0:0:0:
36,192,4585,1,4,0:0:0:0:
182,192,5065,128,0,5225:0:0:0:0:
475,192,5065,1,0,0:0:0:0:
402,192,5225,128,0,5305:0:0:0:0:
109,192,5305,128,0,5465:0:0:0:0:
329,192,5465,128,0,5545:0:0:0:0:
36,192,5545,1,0,0:0:0:0:
182,192,5705,128,0,5785:0:0:0:0:
402,192,5705,128,0,5785:0:0:0:0:
256,192,5945,1,0,0:0:0:0:
329,192,6025,128,0,6505:0:0:0:0:
109,192,6025,128,0,6265:0:0:0:0:
182,192,6265,128,0,6385:0:0:0:0:
256,192,6385,128,0,6505:0:0:0:0:
109,192,6505,1,8,0:0:0:0:
36,192,6505,1,0,0:0:0:0:
182,192,6655,1,8,0:0:0:0:
475,192,6745,128,0,6985:0:0:0:0:
402,192,6745,128,0,6985:0:0:0:0:
329,192,6745,1,2,0:0:0:0:
36,192,6985,1,2,0:0:0:0:
109,192,6985,1,0,0:0:0:0:
256,192,6985,1,0,0:0:0:0:
36,192,7225,1,2,0:0:0:0:
182,192,7225,1,0,0:0:0:0:
329,192,7225,1,0,0:0:0:0:
475,192,7465,1,2,0:0:0:0:
402,192,7465,1,0,0:0:0:0:
256,192,7465,1,0,0:0:0:0:
475,192,7705,1,2,0:0:0:0:
182,192,7705,1,0,0:0:0:0:
329,192,7705,1,0,0:0:0:0:
402,192,7945,128,0,8905:0:0:0:0:
256,192,7945,128,2,8425:0:0:0:0:
109,192,7945,128,0,8425:0:0:0:0:
182,192,8425,128,0,8905:0:0:0:0:
329,192,8425,128,8,8905:0:0:0:0:
256,192,8905,1,2,0:0:0:0:
36,192,8905,128,0,9385:0:0:0:0:
109,192,9145,128,0,9385:0:0:0:0:
182,192,9145,1,0,0:0:0:0:
329,192,9145,1,8,0:0:0:0:
402,192,9385,128,0,9625:0:0:0:0:
475,192,9385,1,2,0:0:0:0:
256,192,9385,128,0,9625:0:0:0:0:
329,192,9625,128,0,10105:0:0:0:0:
182,192,9625,1,8,0:0:0:0:
36,192,9625,1,0,0:0:0:0:
109,192,9865,1,2,0:0:0:0:
402,192,9865,1,0,0:0:0:0:
475,192,10105,128,0,10825:0:0:0:0:
256,192,10105,128,8,10345:0:0:0:0:
36,192,10105,128,0,10345:0:0:0:0:
182,192,10345,1,2,0:0:0:0:
402,192,10345,128,0,10825:0:0:0:0:
109,192,10585,128,0,10825:0:0:0:0:
256,192,10585,1,8,0:0:0:0:
329,192,10825,128,0,10945:0:0:0:0:
36,192,10825,128,2,11065:0:0:0:0:
256,192,10945,128,0,11065:0:0:0:0:
182,192,11065,128,0,11185:0:0:0:0:
475,192,11065,128,8,11305:0:0:0:0:
402,192,11065,1,0,0:0:0:0:
109,192,11185,128,0,11305:0:0:0:0:
402,192,11305,128,0,11425:0:0:0:0:
36,192,11305,128,2,11545:0:0:0:0:
329,192,11425,128,0,11545:0:0:0:0:
256,192,11545,128,0,11665:0:0:0:0:
475,192,11545,1,8,0:0:0:0:
182,192,11665,128,0,11785:0:0:0:0:
36,192,11665,128,0,11785:0:0:0:0:
402,192,11665,128,0,12025:0:0:0:0:
109,192,11905,128,0,12025:0:0:0:0:
329,192,12025,128,0,12145:0:0:0:0:
182,192,12025,128,8,12265:0:0:0:0:
402,192,12145,128,0,12265:0:0:0:0:
475,192,12265,128,2,12505:0:0:0:0:
256,192,12265,128,0,12385:0:0:0:0:
109,192,12385,128,0,12505:0:0:0:0:
36,192,12505,128,8,12745:0:0:0:0:
329,192,12505,128,0,12625:0:0:0:0:
182,192,12625,128,0,12745:0:0:0:0:
475,192,12745,128,0,14185:0:0:0:0:
329,192,12745,1,2,0:0:0:0:
402,192,12985,1,8,0:0:0:0:
182,192,12985,1,0,0:0:0:0:
402,192,13225,128,0,14185:0:0:0:0:
256,192,13225,1,2,0:0:0:0:
329,192,13465,1,8,0:0:0:0:
109,192,13465,1,0,0:0:0:0:
329,192,13705,128,0,14185:0:0:0:0:
182,192,13705,1,2,0:0:0:0:
256,192,13945,1,8,0:0:0:0:
36,192,13945,1,0,0:0:0:0:
109,192,14185,1,2,0:0:0:0:
256,192,14185,128,0,14425:0:0:0:0:
475,192,14425,128,0,14665:0:0:0:0:
36,192,14425,128,8,14665:0:0:0:0:
329,192,14425,128,0,14545:0:0:0:0:
182,192,14545,128,0,14665:0:0:0:0:
402,192,14665,128,8,14905:0:0:0:0:
109,192,14665,128,0,14785:0:0:0:0:
329,192,14665,1,2,0:0:0:0:
256,192,14785,128,0,14905:0:0:0:0:
182,192,14905,128,2,15145:0:0:0:0:
475,192,14905,128,0,15025:0:0:0:0:
109,192,14905,1,8,0:0:0:0:
329,192,15025,128,0,15145:0:0:0:0:
402,192,15145,1,0,0:0:0:0:
36,192,15145,1,2,0:0:0:0:
182,192,15305,1,2,0:0:0:0:
329,192,15385,1,0,0:0:0:0:
109,192,15385,1,8,0:0:0:0:
256,192,15545,1,0,0:0:0:0:
182,192,15625,128,8,15865:0:0:0:0:
475,192,15625,128,0,15745:0:0:0:0:
36,192,15625,1,2,0:0:0:0:
329,192,15745,128,0,15865:0:0:0:0:
402,192,15865,128,2,16105:0:0:0:0:
109,192,15865,128,0,15985:0:0:0:0:
475,192,15865,1,8,0:0:0:0:
256,192,15985,128,0,16105:0:0:0:0:
182,192,16105,1,2,0:0:0:0:
36,192,16105,1,0,0:0:0:0:
402,192,16265,1,8,0:0:0:0:
256,192,16345,1,0,0:0:0:0:
475,192,16345,1,8,0:0:0:0:
329,192,16505,1,0,0:0:0:0:
109,192,16585,128,8,16825:0:0:0:0:
402,192,16585,128,0,16705:0:0:0:0:
182,192,16585,1,2,0:0:0:0:
256,192,16705,128,0,16825:0:0:0:0:
329,192,16825,128,2,17065:0:0:0:0:
36,192,16825,128,0,16945:0:0:0:0:
402,192,16825,1,8,0:0:0:0:
182,192,16945,128,0,17065:0:0:0:0:
109,192,17065,1,0,0:0:0:0:
475,192,17065,1,2,0:0:0:0:
329,192,17225,1,2,0:0:0:0:
402,192,17305,1,2,0:0:0:0:
182,192,17305,1,0,0:0:0:0:
256,192,17465,1,0,0:0:0:0:
329,192,17545,128,2,17785:0:0:0:0:
36,192,17545,128,0,17665:0:0:0:0:
475,192,17545,1,8,0:0:0:0:
182,192,17665,128,0,17785:0:0:0:0:
109,192,17785,128,2,18025:0:0:0:0:
402,192,17785,128,0,17905:0:0:0:0:
36,192,17785,1,8,0:0:0:0:
256,192,17905,128,0,18025:0:0:0:0:
329,192,18025,1,0,0:0:0:0:
475,192,18025,1,2,0:0:0:0:
182,192,18105,1,8,0:0:0:0:
256,192,18185,1,8,0:0:0:0:
329,192,18265,1,8,0:0:0:0:
109,192,18265,1,0,0:0:0:0:
182,192,18425,1,0,0:0:0:0:
475,192,18505,128,4,18985:0:0:0:0:
36,192,18505,1,8,0:0:0:0:
256,192,18505,128,2,18745:0:0:0:0:
402,192,18505,1,0,0:0:0:0:
109,192,18745,128,0,18985:0:0:0:0:
402,192,18985,128,0,19165:0:0:0:0:
329,192,18985,128,0,19165:0:0:0:0:
182,192,18985,128,2,19165:0:0:0:0:
256,192,19225,128,0,19405:0:0:0:0:
329,192,19225,128,0,19405:0:0:0:0:
109,192,19225,128,2,19405:0:0:0:0:
182,192,19465,128,0,19705:0:0:0:0:
36,192,19465,128,8,19705:0:0:0:0:
402,192,19465,128,0,19705:0:0:0:0:
329,192,19705,1,8,0:0:0:0:
256,192,19825,128,0,20185:0:0:0:0:
402,192,19825,1,2,0:0:0:0:
475,192,19825,128,4,20185:0:0:0:0:
109,192,19825,128,0,20185:0:0:0:0:
402,192,20185,128,0,20425:0:0:0:0:
329,192,20185,128,2,20425:0:0:0:0:
182,192,20185,128,0,20425:0:0:0:0:
256,192,20425,128,0,20785:0:0:0:0:
475,192,20425,1,2,0:0:0:0:
36,192,20425,128,0,21385:0:0:0:0:
402,192,20665,1,2,0:0:0:0:
329,192,20785,128,0,21145:0:0:0:0:
109,192,20785,128,0,21385:0:0:0:0:
475,192,20905,1,8,0:0:0:0:
256,192,21145,128,2,21385:0:0:0:0:
475,192,21145,128,0,21385:0:0:0:0:
182,192,21385,1,2,0:0:0:0:
402,192,21385,1,0,0:0:0:0:
329,192,21385,1,8,0:0:0:0:
109,192,21625,1,2,0:0:0:0:
36,192,21625,1,8,0:0:0:0:
329,192,21625,1,0,0:0:0:0:
402,192,21865,1,4,0:0:0:0:
256,192,21865,1,2,0:0:0:0:
109,192,21865,1,8,0:0:0:0:
256,192,22345,128,0,22825:0:0:0:0:
402,192,22345,1,0,0:0:0:0:
36,192,22345,1,0,0:0:0:0:
475,192,22345,1,2,0:0:0:0:
182,192,22745,1,8,0:0:0:0:
109,192,22825,1,8,0:0:0:0:
329,192,22825,1,0,0:0:0:0:
256,192,22985,1,2,0:0:0:0:
182,192,23065,1,8,0:0:0:0:
402,192,23065,1,0,0:0:0:0:
36,192,23065,1,0,0:0:0:0:
329,192,23225,1,8,0:0:0:0:
475,192,23305,1,4,0:0:0:0:
256,192,23305,1,2,0:0:0:0:
109,192,23305,128,0,23425:0:0:0:0:
402,192,23425,128,0,23545:0:0:0:0:
182,192,23545,128,0,23665:0:0:0:0:
109,192,23545,1,0,0:0:0:0:
329,192,23545,1,8,0:0:0:0:
256,192,23785,128,0,23905:0:0:0:0:
182,192,23785,1,2,0:0:0:0:
402,192,24025,128,0,24145:0:0:0:0:
475,192,24025,1,0,0:0:0:0:
109,192,24025,1,8,0:0:0:0:
256,192,24265,128,0,24385:0:0:0:0:
329,192,24265,1,2,0:0:0:0:
256,192,24505,128,0,24625:0:0:0:0:
182,192,24505,1,8,0:0:0:0:
109,192,24505,1,0,0:0:0:0:
329,192,24625,128,0,24985:0:0:0:0:
402,192,24625,128,0,25225:0:0:0:0:
109,192,24985,128,0,25225:0:0:0:0:
256,192,24985,1,8,0:0:0:0:
329,192,25225,128,0,25345:0:0:0:0:
36,192,25225,1,2,0:0:0:0:
182,192,25345,128,0,25465:0:0:0:0:
402,192,25465,128,0,25585:0:0:0:0:
329,192,25465,1,8,0:0:0:0:
109,192,25465,1,0,0:0:0:0:
256,192,25705,128,0,25825:0:0:0:0:
182,192,25705,1,2,0:0:0:0:
109,192,25945,128,0,26065:0:0:0:0:
36,192,25945,1,0,0:0:0:0:
402,192,25945,1,8,0:0:0:0:
329,192,26185,128,0,26305:0:0:0:0:
256,192,26185,1,2,0:0:0:0:
329,192,26425,128,0,26545:0:0:0:0:
402,192,26425,1,8,0:0:0:0:
475,192,26425,1,0,0:0:0:0:
182,192,26545,128,0,26785:0:0:0:0:
109,192,26545,128,0,27145:0:0:0:0:
475,192,26785,128,0,27145:0:0:0:0:
182,192,26905,1,8,0:0:0:0:
256,192,26905,1,0,0:0:0:0:
329,192,27145,128,0,27265:0:0:0:0:
36,192,27145,1,2,0:0:0:0:
402,192,27265,128,0,27385:0:0:0:0:
182,192,27385,128,0,27505:0:0:0:0:
109,192,27385,1,0,0:0:0:0:
475,192,27385,1,8,0:0:0:0:
256,192,27625,128,0,27745:0:0:0:0:
329,192,27625,1,2,0:0:0:0:
109,192,27865,128,0,27985:0:0:0:0:
36,192,27865,1,8,0:0:0:0:
402,192,27865,1,0,0:0:0:0:
182,192,28105,128,0,28225:0:0:0:0:
256,192,28105,1,2,0:0:0:0:
182,192,28345,128,0,28465:0:0:0:0:
36,192,28345,1,0,0:0:0:0:
109,192,28345,1,8,0:0:0:0:
329,192,28465,128,0,28825:0:0:0:0:
402,192,28465,128,0,29065:0:0:0:0:
256,192,28825,1,8,0:0:0:0:
182,192,28825,1,0,0:0:0:0:
109,192,29065,128,4,29185:0:0:0:0:
36,192,29065,128,2,29185:0:0:0:0:
475,192,29305,1,0,0:0:0:0:
402,192,29305,1,0,0:0:0:0:
182,192,29305,1,8,0:0:0:0:
329,192,29425,128,4,29545:0:0:0:0:
256,192,29425,128,2,29545:0:0:0:0:
402,192,29665,1,0,0:0:0:0:
36,192,29665,1,0,0:0:0:0:
109,192,29665,1,8,0:0:0:0:
256,192,29785,128,4,29905:0:0:0:0:
182,192,29785,128,2,29905:0:0:0:0:
402,192,30025,1,8,0:0:0:0:
109,192,30025,1,0,0:0:0:0:
475,192,30025,1,0,0:0:0:0:
329,192,30145,128,4,30505:0:0:0:0:
256,192,30145,128,2,30505:0:0:0:0:
182,192,30505,128,2,30745:0:0:0:0:
402,192,30505,1,4,0:0:0:0:
475,192,30505,128,0,30745:0:0:0:0:
109,192,30745,128,2,30985:0:0:0:0:
329,192,30745,1,4,0:0:0:0:
402,192,30745,128,0,30985:0:0:0:0:
475,192,30985,128,2,31465:0:0:0:0:
256,192,30985,128,0,31105:0:0:0:0:
182,192,30985,1,0,0:0:0:0:
256,192,31225,128,0,31345:0:0:0:0:
329,192,31225,1,8,0:0:0:0:
109,192,31225,1,0,0:0:0:0:
36,192,31465,1,2,0:0:0:0:
402,192,31465,128,0,31705:0:0:0:0:
329,192,31585,128,0,31705:0:0:0:0:
475,192,31705,1,8,0:0:0:0:
109,192,31705,128,0,31945:0:0:0:0:
256,192,31705,1,0,0:0:0:0:
182,192,31825,128,0,31945:0:0:0:0:
36,192,31945,1,2,0:0:0:0:
256,192,31945,128,0,32065:0:0:0:0:
256,192,32185,128,0,32305:0:0:0:0:
182,192,32185,1,8,0:0:0:0:
402,192,32185,1,0,0:0:0:0:
329,192,32305,128,0,32665:0:0:0:0:
475,192,32305,128,0,32665:0:0:0:0:
256,192,32665,1,8,0:0:0:0:
36,192,32665,1,0,0:0:0:0:
109,192,32665,1,0,0:0:0:0:
182,192,32905,1,2,0:0:0:0:
475,192,32905,128,0,33025:0:0:0:0:
256,192,33025,1,0,0:0:0:0:
329,192,33145,1,0,0:0:0:0:
475,192,33145,128,0,33265:0:0:0:0:
109,192,33145,1,8,0:0:0:0:
402,192,33385,128,0,33625:0:0:0:0:
329,192,33385,1,2,0:0:0:0:
475,192,33505,128,0,33625:0:0:0:0:
182,192,33625,1,8,0:0:0:0:
256,192,33625,128,0,33865:0:0:0:0:
36,192,33625,1,0,0:0:0:0:
329,192,33745,128,0,33865:0:0:0:0:
109,192,33865,1,2,0:0:0:0:
402,192,33865,128,0,33985:0:0:0:0:
402,192,34105,128,0,34225:0:0:0:0:
475,192,34105,1,0,0:0:0:0:
256,192,34105,1,8,0:0:0:0:
182,192,34225,128,0,34585:0:0:0:0:
329,192,34225,128,0,34585:0:0:0:0:
402,192,34585,1,8,0:0:0:0:
256,192,34585,1,0,0:0:0:0:
182,192,34705,1,0,0:0:0:0:
475,192,34705,1,8,0:0:0:0:
109,192,34825,128,0,34945:0:0:0:0:
329,192,34825,1,2,0:0:0:0:
109,192,35065,128,0,35185:0:0:0:0:
182,192,35065,1,0,0:0:0:0:
402,192,35065,1,8,0:0:0:0:
256,192,35305,128,0,35545:0:0:0:0:
329,192,35305,1,2,0:0:0:0:
182,192,35425,128,0,35545:0:0:0:0:
109,192,35545,1,8,0:0:0:0:
402,192,35545,128,0,35785:0:0:0:0:
475,192,35545,1,0,0:0:0:0:
329,192,35665,128,0,35785:0:0:0:0:
36,192,35785,1,2,0:0:0:0:
256,192,35785,128,0,35905:0:0:0:0:
256,192,36025,128,0,36145:0:0:0:0:
329,192,36025,1,0,0:0:0:0:
109,192,36025,1,8,0:0:0:0:
36,192,36145,128,0,36505:0:0:0:0:
182,192,36145,128,0,36505:0:0:0:0:
402,192,36505,1,8,0:0:0:0:
475,192,36505,1,0,0:0:0:0:
182,192,36625,1,0,0:0:0:0:
329,192,36625,1,8,0:0:0:0:
256,192,36745,128,2,36865:0:0:0:0:
109,192,36745,128,4,36865:0:0:0:0:
402,192,36985,1,8,0:0:0:0:
475,192,36985,1,0,0:0:0:0:
256,192,36985,1,0,0:0:0:0:
182,192,37105,128,2,37225:0:0:0:0:
329,192,37105,128,4,37225:0:0:0:0:
109,192,37345,1,0,0:0:0:0:
36,192,37345,1,8,0:0:0:0:
329,192,37345,1,0,0:0:0:0:
402,192,37465,128,2,37585:0:0:0:0:
256,192,37465,128,4,37585:0:0:0:0:
109,192,37705,1,8,0:0:0:0:
402,192,37705,1,0,0:0:0:0:
182,192,37705,1,0,0:0:0:0:
329,192,37825,128,4,38185:0:0:0:0:
475,192,37825,128,2,38185:0:0:0:0:
402,192,38185,128,2,38425:0:0:0:0:
36,192,38185,128,0,38425:0:0:0:0:
109,192,38185,1,4,0:0:0:0:
329,192,38425,128,2,38665:0:0:0:0:
109,192,38425,128,0,38665:0:0:0:0:
182,192,38425,1,4,0:0:0:0:
182,192,38665,128,0,39145:0:0:0:0:
256,192,38665,1,2,0:0:0:0:
475,192,38665,128,0,38785:0:0:0:0:
475,192,38905,128,0,39025:0:0:0:0:
402,192,38905,1,8,0:0:0:0:
36,192,38905,1,0,0:0:0:0:
109,192,39145,128,0,39385:0:0:0:0:
329,192,39145,1,2,0:0:0:0:
36,192,39265,128,0,39385:0:0:0:0:
256,192,39385,128,0,39625:0:0:0:0:
402,192,39385,1,0,0:0:0:0:
475,192,39385,1,8,0:0:0:0:
182,192,39505,128,0,39625:0:0:0:0:
109,192,39625,128,0,39745:0:0:0:0:
329,192,39625,1,2,0:0:0:0:
109,192,39865,128,0,39985:0:0:0:0:
329,192,39865,1,8,0:0:0:0:
182,192,39865,1,0,0:0:0:0:
402,192,39985,128,0,40345:0:0:0:0:
475,192,39985,1,0,0:0:0:0:
256,192,39985,128,0,40345:0:0:0:0:
182,192,40345,1,0,0:0:0:0:
329,192,40345,1,8,0:0:0:0:
36,192,40345,1,0,0:0:0:0:
475,192,40585,1,2,0:0:0:0:
109,192,40585,128,0,40705:0:0:0:0:
402,192,40705,1,0,0:0:0:0:
329,192,40825,1,0,0:0:0:0:
182,192,40825,128,0,40945:0:0:0:0:
109,192,40825,1,8,0:0:0:0:
256,192,41065,128,0,41305:0:0:0:0:
402,192,41065,1,2,0:0:0:0:
109,192,41185,128,0,41305:0:0:0:0:
329,192,41305,128,0,41545:0:0:0:0:
475,192,41305,1,0,0:0:0:0:
36,192,41305,1,8,0:0:0:0:
182,192,41425,128,0,41545:0:0:0:0:
402,192,41545,128,0,41665:0:0:0:0:
109,192,41545,1,2,0:0:0:0:
402,192,41785,128,0,41905:0:0:0:0:
329,192,41785,1,0,0:0:0:0:
182,192,41785,1,8,0:0:0:0:
256,192,41905,128,0,42265:0:0:0:0:
109,192,41905,128,0,42265:0:0:0:0:
36,192,42265,1,0,0:0:0:0:
182,192,42265,1,8,0:0:0:0:
256,192,42385,1,8,0:0:0:0:
402,192,42385,1,0,0:0:0:0:
182,192,42505,128,0,42625:0:0:0:0:
109,192,42505,1,2,0:0:0:0:
182,192,42745,128,0,42865:0:0:0:0:
329,192,42745,1,0,0:0:0:0:
475,192,42745,1,8,0:0:0:0:
256,192,42985,128,0,43225:0:0:0:0:
109,192,42985,1,2,0:0:0:0:
402,192,43105,128,0,43225:0:0:0:0:
182,192,43225,128,0,43465:0:0:0:0:
36,192,43225,1,8,0:0:0:0:
475,192,43225,1,0,0:0:0:0:
329,192,43345,128,0,43465:0:0:0:0:
109,192,43465,128,0,43585:0:0:0:0:
402,192,43465,1,2,0:0:0:0:
109,192,43705,128,0,43825:0:0:0:0:
256,192,43705,1,8,0:0:0:0:
36,192,43705,1,0,0:0:0:0:
182,192,43825,128,0,44145:0:0:0:0:
329,192,43825,128,0,44145:0:0:0:0:
475,192,44145,1,0,0:0:0:0:
402,192,44145,1,8,0:0:0:0:
256,192,44305,1,8,0:0:0:0:
109,192,44305,1,0,0:0:0:0:
329,192,44425,128,2,44545:0:0:0:0:
402,192,44425,128,4,44545:0:0:0:0:
182,192,44665,1,0,0:0:0:0:
256,192,44665,1,8,0:0:0:0:
402,192,44665,1,0,0:0:0:0:
109,192,44785,128,2,44905:0:0:0:0:
36,192,44785,128,4,44905:0:0:0:0:
329,192,45025,1,8,0:0:0:0:
36,192,45025,1,0,0:0:0:0:
182,192,45025,1,0,0:0:0:0:
402,192,45145,128,2,45265:0:0:0:0:
475,192,45145,128,4,45265:0:0:0:0:
256,192,45385,1,8,0:0:0:0:
475,192,45385,1,0,0:0:0:0:
329,192,45385,1,0,0:0:0:0:
182,192,45505,128,4,45865:0:0:0:0:
36,192,45505,128,2,45865:0:0:0:0:
109,192,45865,128,4,46105:0:0:0:0:
402,192,45865,128,2,46105:0:0:0:0:
256,192,45865,1,0,0:0:0:0:
475,192,46105,128,4,46345:0:0:0:0:
182,192,46105,128,2,46345:0:0:0:0:
329,192,46105,1,0,0:0:0:0:
402,192,46345,1,4,0:0:0:0:
109,192,46345,1,0,0:0:0:0:
36,192,46345,1,2,0:0:0:0:
256,192,46585,128,0,46705:0:0:0:0:
182,192,46705,128,0,46825:0:0:0:0:
402,192,46825,128,0,46945:0:0:0:0:
329,192,46945,128,0,47065:0:0:0:0:
182,192,47065,128,0,47185:0:0:0:0:
109,192,47185,128,0,47305:0:0:0:0:
256,192,47305,1,0,0:0:0:0:
475,192,47305,1,0,0:0:0:0:
36,192,47305,1,0,0:0:0:0:
329,192,47545,128,0,47665:0:0:0:0:
402,192,47665,128,0,47785:0:0:0:0:
182,192,47785,128,0,47905:0:0:0:0:
256,192,47905,128,0,48025:0:0:0:0:
402,192,48025,128,0,48145:0:0:0:0:
475,192,48145,128,0,48265:0:0:0:0:
36,192,48265,1,0,0:0:0:0:
182,192,48265,1,0,0:0:0:0:
256,192,48265,1,0,0:0:0:0:
329,192,48505,128,0,48625:0:0:0:0:
182,192,48625,128,0,48745:0:0:0:0:
256,192,48745,128,0,48865:0:0:0:0:
329,192,48745,1,0,0:0:0:0:
109,192,48865,128,0,48985:0:0:0:0:
36,192,48865,1,0,0:0:0:0:
475,192,48985,128,0,49105:0:0:0:0:
329,192,49105,128,0,49225:0:0:0:0:
256,192,49225,1,0,0:0:0:0:
109,192,49225,1,0,0:0:0:0:
402,192,49225,1,0,0:0:0:0:
182,192,49465,128,0,49585:0:0:0:0:
36,192,49585,1,0,0:0:0:0:
475,192,49585,1,0,0:0:0:0:
109,192,49585,1,0,0:0:0:0:
329,192,49585,1,8,0:0:0:0:
256,192,50185,1,4,0:0:0:0:
402,192,50185,1,0,0:0:0:0:
109,192,50185,1,0,0:0:0:0:
182,192,50425,128,0,50545:0:0:0:0:
109,192,50545,128,0,50665:0:0:0:0:
329,192,50665,128,0,50785:0:0:0:0:
402,192,50785,128,0,50905:0:0:0:0:
256,192,50905,128,0,51025:0:0:0:0:
182,192,51025,128,0,51145:0:0:0:0:
402,192,51145,1,0,0:0:0:0:
475,192,51145,1,0,0:0:0:0:
256,192,51385,128,0,51505:0:0:0:0:
402,192,51505,128,0,51625:0:0:0:0:
182,192,51625,128,0,51745:0:0:0:0:
256,192,51625,1,8,0:0:0:0:
475,192,51625,1,0,0:0:0:0:
36,192,51745,128,0,51865:0:0:0:0:
256,192,51865,128,0,51985:0:0:0:0:
109,192,51865,1,0,0:0:0:0:
329,192,51865,1,2,0:0:0:0:
402,192,51985,128,0,52105:0:0:0:0:
475,192,52105,1,0,0:0:0:0:
182,192,52105,1,2,0:0:0:0:
36,192,52105,128,0,55945:0:0:0:0:
402,192,52345,1,0,0:0:0:0:
329,192,52345,1,0,0:0:0:0:
256,192,52505,1,0,0:0:0:0:
109,192,52505,1,0,0:0:0:0:
329,192,52745,1,8,0:0:0:0:
182,192,52825,1,0,0:0:0:0:
402,192,52825,1,2,0:0:0:0:
256,192,52985,1,8,0:0:0:0:
329,192,53065,1,2,0:0:0:0:
475,192,53065,128,0,55945:0:0:0:0:
402,192,53305,1,0,0:0:0:0:
256,192,53305,1,0,0:0:0:0:
182,192,53465,1,0,0:0:0:0:
109,192,53465,1,0,0:0:0:0:
256,192,53705,1,8,0:0:0:0:
329,192,53785,1,0,0:0:0:0:
182,192,53785,1,2,0:0:0:0:
256,192,54025,128,0,55945:0:0:0:0:
109,192,54025,1,2,0:0:0:0:
329,192,54265,1,8,0:0:0:0:
182,192,54425,1,2,0:0:0:0:
402,192,54625,1,8,0:0:0:0:
109,192,54705,1,2,0:0:0:0:
182,192,54985,1,8,0:0:0:0:
402,192,55105,1,0,0:0:0:0:
109,192,55225,128,8,55465:0:0:0:0:
329,192,55465,1,2,0:0:0:0:
109,192,55625,1,8,0:0:0:0:
182,192,55705,1,2,0:0:0:0:
402,192,55705,1,0,0:0:0:0:
329,192,55945,1,8,0:0:0:0:
109,192,55945,1,2,0:0:0:0:
402,192,55945,1,0,0:0:0:0:
182,192,56185,1,8,0:0:0:0:
329,192,56185,1,2,0:0:0:0:
36,192,56185,1,0,0:0:0:0:
256,192,56425,1,2,0:0:0:0:
402,192,56425,1,0,0:0:0:0:
475,192,56425,1,8,0:0:0:0:
36,192,56665,1,2,0:0:0:0:
109,192,56665,1,0,0:0:0:0:
256,192,56665,1,8,0:0:0:0:
182,192,56905,1,2,0:0:0:0:
329,192,56905,1,8,0:0:0:0:
475,192,56905,1,0,0:0:0:0:
36,192,56905,1,4,0:0:0:0:
402,192,57385,128,8,57865:0:0:0:0:
109,192,57385,128,0,57865:0:0:0:0:
182,192,57385,128,0,57865:0:0:0:0:
475,192,57865,128,0,58345:0:0:0:0:
256,192,57865,128,2,58105:0:0:0:0:
402,192,58105,128,0,58345:0:0:0:0:
182,192,58105,128,0,58345:0:0:0:0:
329,192,58105,1,8,0:0:0:0:
109,192,58345,128,2,58585:0:0:0:0:
256,192,58345,128,0,58585:0:0:0:0:
36,192,58345,128,0,58585:0:0:0:0:
182,192,58585,128,0,59065:0:0:0:0:
475,192,58585,1,8,0:0:0:0:
402,192,58585,128,0,58825:0:0:0:0:
329,192,58825,128,2,59065:0:0:0:0:
109,192,58825,128,0,59065:0:0:0:0:
36,192,59065,128,0,59785:0:0:0:0:
402,192,59065,128,8,59305:0:0:0:0:
475,192,59065,128,0,59305:0:0:0:0:
256,192,59305,1,2,0:0:0:0:
109,192,59305,128,0,59785:0:0:0:0:
402,192,59545,128,0,59785:0:0:0:0:
329,192,59545,1,8,0:0:0:0:
182,192,59785,128,0,59905:0:0:0:0:
475,192,59785,128,2,60025:0:0:0:0:
109,192,59905,128,0,60025:0:0:0:0:
256,192,60025,128,0,60145:0:0:0:0:
36,192,60025,128,8,60265:0:0:0:0:
329,192,60025,1,0,0:0:0:0:
182,192,60145,128,0,60265:0:0:0:0:
329,192,60265,128,0,60385:0:0:0:0:
109,192,60265,128,2,60505:0:0:0:0:
402,192,60385,128,0,60505:0:0:0:0:
256,192,60505,128,0,60625:0:0:0:0:
475,192,60505,1,8,0:0:0:0:
402,192,60625,128,0,60745:0:0:0:0:
182,192,60625,128,0,60745:0:0:0:0:
109,192,60625,128,0,60985:0:0:0:0:
402,192,60865,128,0,60985:0:0:0:0:
329,192,60985,128,0,61105:0:0:0:0:
36,192,60985,128,8,61225:0:0:0:0:
475,192,61105,128,0,61225:0:0:0:0:
256,192,61225,128,2,61465:0:0:0:0:
402,192,61225,128,0,61345:0:0:0:0:
475,192,61465,128,8,61705:0:0:0:0:
109,192,61465,1,0,0:0:0:0:
329,192,61465,1,0,0:0:0:0:
36,192,61705,128,0,63145:0:0:0:0:
182,192,61705,128,2,61945:0:0:0:0:
109,192,61945,1,8,0:0:0:0:
329,192,61945,1,0,0:0:0:0:
109,192,62185,128,0,63145:0:0:0:0:
256,192,62185,128,2,62425:0:0:0:0:
182,192,62425,1,8,0:0:0:0:
402,192,62425,1,0,0:0:0:0:
182,192,62665,128,0,63145:0:0:0:0:
329,192,62665,128,2,62905:0:0:0:0:
256,192,62905,1,8,0:0:0:0:
475,192,62905,1,0,0:0:0:0:
256,192,63145,128,0,63385:0:0:0:0:
402,192,63145,128,2,63385:0:0:0:0:
36,192,63385,128,0,63625:0:0:0:0:
109,192,63385,128,0,63625:0:0:0:0:
329,192,63385,128,8,63505:0:0:0:0:
475,192,63505,128,8,63625:0:0:0:0:
402,192,63625,128,0,63865:0:0:0:0:
182,192,63625,1,2,0:0:0:0:
329,192,63745,128,0,63865:0:0:0:0:
182,192,63865,128,0,63985:0:0:0:0:
109,192,63865,1,8,0:0:0:0:
256,192,63985,128,0,64225:0:0:0:0:
402,192,63985,1,2,0:0:0:0:
329,192,64105,128,0,64225:0:0:0:0:
475,192,64225,128,0,64345:0:0:0:0:
36,192,64225,1,8,0:0:0:0:
109,192,64345,128,0,64585:0:0:0:0:
256,192,64345,1,2,0:0:0:0:
182,192,64465,128,0,64585:0:0:0:0:
329,192,64585,128,0,64705:0:0:0:0:
402,192,64585,1,8,0:0:0:0:
256,192,64705,128,0,64945:0:0:0:0:
109,192,64705,1,2,0:0:0:0:
182,192,64825,128,0,64945:0:0:0:0:
36,192,64945,128,0,65065:0:0:0:0:
329,192,64945,1,8,0:0:0:0:
402,192,65065,128,0,65545:0:0:0:0:
475,192,65065,128,0,65545:0:0:0:0:
256,192,65065,1,2,0:0:0:0:
182,192,65305,128,2,65545:0:0:0:0:
109,192,65305,128,0,65545:0:0:0:0:
36,192,65545,128,0,66025:0:0:0:0:
256,192,65545,128,2,65785:0:0:0:0:
475,192,65785,128,0,66025:0:0:0:0:
329,192,65785,128,0,66025:0:0:0:0:
182,192,65785,1,8,0:0:0:0:
182,192,66025,128,0,66265:0:0:0:0:
109,192,66025,128,2,66265:0:0:0:0:
402,192,66025,128,0,66265:0:0:0:0:
329,192,66265,128,0,66745:0:0:0:0:
256,192,66265,128,0,66505:0:0:0:0:
36,192,66265,1,8,0:0:0:0:
475,192,66505,128,0,66745:0:0:0:0:
182,192,66505,128,2,66745:0:0:0:0:
402,192,66745,128,0,67465:0:0:0:0:
109,192,66745,128,8,66985:0:0:0:0:
36,192,66745,128,0,66985:0:0:0:0:
256,192,66985,128,0,67465:0:0:0:0:
329,192,66985,1,2,0:0:0:0:
109,192,67225,128,0,67465:0:0:0:0:
182,192,67225,1,8,0:0:0:0:
36,192,67465,128,2,67705:0:0:0:0:
329,192,67465,128,0,67585:0:0:0:0:
402,192,67585,128,0,67705:0:0:0:0:
475,192,67705,128,8,67945:0:0:0:0:
256,192,67705,128,0,67825:0:0:0:0:
182,192,67705,1,0,0:0:0:0:
329,192,67825,128,0,67945:0:0:0:0:
402,192,67945,128,2,68185:0:0:0:0:
182,192,67945,128,0,68065:0:0:0:0:
109,192,68065,128,0,68185:0:0:0:0:
256,192,68185,128,0,68305:0:0:0:0:
36,192,68185,1,8,0:0:0:0:
402,192,68305,128,0,68665:0:0:0:0:
109,192,68305,128,0,68425:0:0:0:0:
329,192,68305,128,0,68425:0:0:0:0:
109,192,68545,128,0,68665:0:0:0:0:
475,192,68665,128,8,68905:0:0:0:0:
182,192,68665,128,0,68785:0:0:0:0:
329,192,68665,1,0,0:0:0:0:
36,192,68785,128,0,68905:0:0:0:0:
256,192,68905,128,2,69145:0:0:0:0:
109,192,68905,128,0,69025:0:0:0:0:
36,192,69145,128,8,69385:0:0:0:0:
402,192,69145,1,0,0:0:0:0:
182,192,69145,1,0,0:0:0:0:
475,192,69385,128,0,70825:0:0:0:0:
329,192,69385,128,2,69625:0:0:0:0:
402,192,69625,1,8,0:0:0:0:
182,192,69625,1,0,0:0:0:0:
402,192,69865,128,0,70825:0:0:0:0:
256,192,69865,128,2,70105:0:0:0:0:
329,192,70105,1,8,0:0:0:0:
109,192,70105,1,0,0:0:0:0:
329,192,70345,128,0,70825:0:0:0:0:
182,192,70345,128,2,70585:0:0:0:0:
256,192,70585,1,8,0:0:0:0:
36,192,70585,1,0,0:0:0:0:
256,192,70825,128,0,71065:0:0:0:0:
109,192,70825,128,2,71065:0:0:0:0:
475,192,71065,128,0,71305:0:0:0:0:
402,192,71065,128,0,71305:0:0:0:0:
182,192,71065,128,2,71185:0:0:0:0:
36,192,71185,128,0,71305:0:0:0:0:
182,192,71305,1,8,0:0:0:0:
329,192,71305,128,0,71425:0:0:0:0:
109,192,71305,128,2,71545:0:0:0:0:
402,192,71425,128,0,71545:0:0:0:0:
36,192,71545,1,8,0:0:0:0:
256,192,71545,128,0,71665:0:0:0:0:
475,192,71545,128,2,71785:0:0:0:0:
182,192,71665,128,0,71785:0:0:0:0:
329,192,71785,1,0,0:0:0:0:
109,192,71785,1,2,0:0:0:0:
256,192,71945,1,2,0:0:0:0:
402,192,72025,1,0,0:0:0:0:
182,192,72025,1,2,0:0:0:0:
329,192,72185,1,0,0:0:0:0:
256,192,72265,1,2,0:0:0:0:
182,192,72265,128,0,72385:0:0:0:0:
475,192,72265,128,8,72505:0:0:0:0:
109,192,72385,128,0,72505:0:0:0:0:
182,192,72505,1,8,0:0:0:0:
329,192,72505,128,0,72625:0:0:0:0:
36,192,72505,128,2,72745:0:0:0:0:
402,192,72625,128,0,72745:0:0:0:0:
475,192,72745,1,0,0:0:0:0:
109,192,72745,1,2,0:0:0:0:
329,192,72825,1,8,0:0:0:0:
256,192,72905,1,8,0:0:0:0:
182,192,72985,1,0,0:0:0:0:
402,192,72985,1,8,0:0:0:0:
256,192,73145,1,0,0:0:0:0:
182,192,73225,1,8,0:0:0:0:
109,192,73225,128,0,73345:0:0:0:0:
402,192,73225,128,2,73465:0:0:0:0:
36,192,73345,128,0,73465:0:0:0:0:
329,192,73465,1,2,0:0:0:0:
475,192,73465,128,0,73585:0:0:0:0:
109,192,73465,128,8,73705:0:0:0:0:
402,192,73585,128,0,73705:0:0:0:0:
36,192,73705,1,2,0:0:0:0:
256,192,73705,1,0,0:0:0:0:
182,192,73865,1,2,0:0:0:0:
329,192,73945,1,0,0:0:0:0:
109,192,73945,1,2,0:0:0:0:
256,192,74105,1,0,0:0:0:0:
182,192,74185,1,2,0:0:0:0:
402,192,74185,128,0,74305:0:0:0:0:
109,192,74185,128,8,74425:0:0:0:0:
475,192,74305,128,0,74425:0:0:0:0:
329,192,74425,1,2,0:0:0:0:
36,192,74425,128,0,74545:0:0:0:0:
402,192,74425,128,8,74665:0:0:0:0:
109,192,74545,128,0,74665:0:0:0:0:
475,192,74665,1,2,0:0:0:0:
256,192,74665,1,0,0:0:0:0:
329,192,74825,1,2,0:0:0:0:
402,192,74905,1,2,0:0:0:0:
182,192,74905,1,0,0:0:0:0:
256,192,75065,1,2,0:0:0:0:
475,192,75145,128,0,75385:0:0:0:0:
109,192,75145,1,8,0:0:0:0:
36,192,75145,128,4,75625:0:0:0:0:
329,192,75145,1,2,0:0:0:0:
402,192,75385,128,0,75625:0:0:0:0:
329,192,75625,128,2,75805:0:0:0:0:
182,192,75625,128,0,75805:0:0:0:0:
109,192,75625,128,0,75805:0:0:0:0:
402,192,75865,128,2,76045:0:0:0:0:
182,192,75865,128,0,76045:0:0:0:0:
256,192,75865,128,0,76045:0:0:0:0:
109,192,76105,128,8,76345:0:0:0:0:
475,192,76105,128,0,76345:0:0:0:0:
329,192,76105,128,0,76345:0:0:0:0:
182,192,76345,1,8,0:0:0:0:
36,192,76465,128,4,76825:0:0:0:0:
402,192,76465,128,0,76825:0:0:0:0:
256,192,76465,128,0,76825:0:0:0:0:
109,192,76465,1,8,0:0:0:0:
329,192,76825,128,0,77065:0:0:0:0:
182,192,76825,128,2,77065:0:0:0:0:
109,192,76825,128,0,77065:0:0:0:0:
475,192,77065,128,0,78025:0:0:0:0:
36,192,77065,1,2,0:0:0:0:
256,192,77065,128,0,77425:0:0:0:0:
402,192,77425,128,0,78025:0:0:0:0:
182,192,77425,128,0,77785:0:0:0:0:
36,192,77785,128,0,78025:0:0:0:0:
256,192,77785,128,2,78025:0:0:0:0:
182,192,78025,1,8,0:0:0:0:
109,192,78025,1,0,0:0:0:0:
329,192,78025,1,2,0:0:0:0:
182,192,78265,1,8,0:0:0:0:
475,192,78265,1,0,0:0:0:0:
402,192,78265,1,2,0:0:0:0:
402,192,78505,1,4,0:0:0:0:
256,192,78505,1,8,0:0:0:0:
109,192,78505,1,2,0:0:0:0:
475,192,78985,1,0,0:0:0:0:
109,192,78985,1,0,0:0:0:0:
256,192,78985,128,0,79465:0:0:0:0:
36,192,78985,1,2,0:0:0:0:
329,192,79385,1,8,0:0:0:0:
182,192,79465,1,0,0:0:0:0:
402,192,79465,1,8,0:0:0:0:
256,192,79625,1,2,0:0:0:0:
475,192,79705,1,0,0:0:0:0:
109,192,79705,1,0,0:0:0:0:
329,192,79705,1,8,0:0:0:0:
182,192,79865,1,8,0:0:0:0:
36,192,79945,1,4,0:0:0:0:
402,192,79945,128,0,80065:0:0:0:0:
256,192,79945,1,2,0:0:0:0:
109,192,80065,128,0,80185:0:0:0:0:
182,192,80185,1,0,0:0:0:0:
402,192,80185,1,8,0:0:0:0:
329,192,80185,128,0,80305:0:0:0:0:
329,192,80425,1,2,0:0:0:0:
256,192,80425,128,0,80545:0:0:0:0:
402,192,80665,1,0,0:0:0:0:
36,192,80665,1,8,0:0:0:0:
109,192,80665,128,0,80785:0:0:0:0:
182,192,80905,1,2,0:0:0:0:
256,192,80905,128,0,81025:0:0:0:0:
329,192,81145,1,8,0:0:0:0:
256,192,81145,128,0,81265:0:0:0:0:
475,192,81145,1,0,0:0:0:0:
109,192,81265,128,0,81865:0:0:0:0:
182,192,81265,128,0,81625:0:0:0:0:
256,192,81625,1,8,0:0:0:0:
402,192,81625,128,0,81865:0:0:0:0:
475,192,81865,1,2,0:0:0:0:
182,192,81865,128,0,81985:0:0:0:0:
329,192,81985,128,0,82105:0:0:0:0:
402,192,82105,1,0,0:0:0:0:
182,192,82105,1,8,0:0:0:0:
109,192,82105,128,0,82225:0:0:0:0:
329,192,82345,1,2,0:0:0:0:
256,192,82345,128,0,82465:0:0:0:0:
109,192,82585,1,8,0:0:0:0:
475,192,82585,1,0,0:0:0:0:
402,192,82585,128,0,82705:0:0:0:0:
256,192,82825,1,2,0:0:0:0:
36,192,82825,128,0,82945:0:0:0:0:
109,192,83065,1,0,0:0:0:0:
182,192,83065,1,8,0:0:0:0:
36,192,83065,128,0,83185:0:0:0:0:
402,192,83185,128,0,83785:0:0:0:0:
329,192,83185,128,0,83425:0:0:0:0:
36,192,83425,128,0,83785:0:0:0:0:
256,192,83545,1,0,0:0:0:0:
329,192,83545,1,8,0:0:0:0:
475,192,83785,1,2,0:0:0:0:
182,192,83785,128,0,83905:0:0:0:0:
109,192,83905,128,0,84025:0:0:0:0:
36,192,84025,1,8,0:0:0:0:
402,192,84025,1,0,0:0:0:0:
329,192,84025,128,0,84145:0:0:0:0:
182,192,84265,1,2,0:0:0:0:
256,192,84265,128,0,84385:0:0:0:0:
109,192,84505,1,0,0:0:0:0:
475,192,84505,1,8,0:0:0:0:
402,192,84505,128,0,84625:0:0:0:0:
256,192,84745,1,2,0:0:0:0:
329,192,84745,128,0,84865:0:0:0:0:
402,192,84985,1,8,0:0:0:0:
475,192,84985,1,0,0:0:0:0:
329,192,84985,128,0,85105:0:0:0:0:
109,192,85105,128,0,85705:0:0:0:0:
182,192,85105,128,0,85465:0:0:0:0:
329,192,85465,1,0,0:0:0:0:
256,192,85465,1,8,0:0:0:0:
475,192,85705,128,2,85825:0:0:0:0:
182,192,85705,1,0,0:0:0:0:
402,192,85705,128,4,85825:0:0:0:0:
402,192,85945,1,8,0:0:0:0:
109,192,85945,1,0,0:0:0:0:
36,192,85945,1,0,0:0:0:0:
256,192,86065,128,2,86185:0:0:0:0:
182,192,86065,128,4,86185:0:0:0:0:
402,192,86305,1,0,0:0:0:0:
475,192,86305,1,0,0:0:0:0:
182,192,86305,1,8,0:0:0:0:
329,192,86425,128,4,86545:0:0:0:0:
256,192,86425,128,2,86545:0:0:0:0:
36,192,86665,1,0,0:0:0:0:
329,192,86665,1,8,0:0:0:0:
109,192,86665,1,0,0:0:0:0:
256,192,86785,128,2,87145:0:0:0:0:
182,192,86785,128,4,87145:0:0:0:0:
36,192,87145,128,4,87385:0:0:0:0:
109,192,87145,1,0,0:0:0:0:
329,192,87145,128,2,87385:0:0:0:0:
109,192,87385,128,4,87625:0:0:0:0:
402,192,87385,128,2,87625:0:0:0:0:
256,192,87385,1,0,0:0:0:0:
475,192,87625,1,8,0:0:0:0:
182,192,87625,1,6,0:0:0:0:
182,192,87745,1,6,0:0:0:0:
475,192,87745,1,8,0:0:0:0:
256,192,87985,1,8,0:0:0:0:
36,192,87985,1,6,0:0:0:0:
109,192,88225,1,6,0:0:0:0:
329,192,88225,1,8,0:0:0:0:
402,192,88465,1,8,0:0:0:0:
182,192,88465,1,4,0:0:0:0:
36,192,88465,1,2,0:0:0:0:
256,192,88825,128,4,89305:0:0:0:0:
402,192,88825,128,8,89305:0:0:0:0:
109,192,88825,128,2,89305:0:0:0:0:
