osu file format v14

[General]
AudioFilename: audio.mp3
AudioLeadIn: 0
PreviewTime: 221540
Countdown: 1
SampleSet: Soft
StackLeniency: 0.2
Mode: 0
LetterboxInBreaks: 0
WidescreenStoryboard: 0

[Editor]
Bookmarks: 110,1425,22630,33215,43840,54458,65060,73025,75665,96905,107498,118100,128708,139330,147278,149906,171144,181750,192355,197665,202965,213590,221540,224863,246089,256675,256841
DistanceSpacing: 0.7
BeatDivisor: 4
GridSize: 32
TimelineZoom: 2

[Metadata]
Title:Don't say "lazy"
TitleUnicode:Don't say "lazy"
Artist:HO-KAGO TEA TIME
ArtistUnicode:放課後ティータイム
Creator:eiri-
Version:Memories
Source:けいおん!
Tags:Ayyri Dont Rock Full Ver Version KyoAni Tribute Kyoto Animation Anime Japanese Ending ED 1 K-ON! HTT Keion Yui Hirasawa Mio Akiyama Ritsu Tainaka Tsumugi Kotobuki Azusa Nakano Toyosaki Aki Hikasa Yoko Sato Satomi Minako Taketatsu Ayana 平沢唯 秋山澪 田井中律 琴吹紬 中野梓 豊崎愛生 日笠陽子 佐藤聡美 寿美菜子 竹達彩奈
BeatmapID:2138994
BeatmapSetID:1022381

[Difficulty]
HPDrainRate:5
CircleSize:5
OverallDifficulty:8.5
ApproachRate:9
SliderMultiplier:1.8
SliderTickRate:1

[Events]
//Background and Video events
0,0,"Dont say lazy.jpg",0,0
//Break Periods
//Storyboard Layer 0 (Background)
//Storyboard Layer 1 (Fail)
//Storyboard Layer 2 (Pass)
//Storyboard Layer 3 (Foreground)
//Storyboard Layer 4 (Overlay)
//Storyboard Sound Samples

[TimingPoints]
110,331.491712707182,4,2,1,80,1,0
772,329.67032967033,4,2,1,80,1,0
1101,326.086956521739,4,2,1,80,1,0
1425,329.67032967033,4,2,1,100,1,1
3065,333.333333333333,4,2,1,100,1,1
3405,337.078651685393,4,2,1,100,1,1
4046,331.491712707182,4,2,1,100,1,1
4724,331.491712707182,4,2,1,100,1,1
5400,331.491712707182,4,2,1,100,1,1
5716,329.67032967033,4,2,1,100,1,1
6710,340.909090909091,4,2,1,100,1,1
7363,329.67032967033,4,2,1,100,1,1
8035,331.491712707182,4,2,1,100,1,1
9220,315.789473684211,4,2,1,100,1,1
9364,315.789473684211,4,2,1,100,1,1
10027,331.491712707182,4,2,1,100,1,1
11360,331.491712707182,4,2,1,100,1,1
12055,315.789473684211,4,2,1,100,1,1
12353,333.333333333333,4,2,1,100,1,1
13340,335.195530726257,4,2,1,100,1,1
13997,335.195530726257,4,2,1,100,1,1
14660,335.195530726257,4,2,1,100,1,1
15990,335.195530726257,4,2,1,100,1,1
16660,346.820809248555,4,2,1,100,1,1
17350,315.789473684211,4,2,1,100,1,1
17665,326.086956521739,4,2,1,100,1,1
18642,335.195530726257,4,2,1,100,1,1
19982,346.820809248555,4,2,1,100,1,1
20320,340.909090909091,4,2,1,100,1,1
20646,320.855614973262,4,2,1,100,1,1
21287,340.909090909091,4,2,1,100,1,1
21635,328.767123287671,4,2,1,100,1,1
22630,340.909090909091,4,2,1,75,1,0
23289,331.491712707182,4,2,1,75,1,0
23951,327.868852459016,4,2,1,75,1,0
25270,333.333333333333,4,2,1,75,1,0
26603,327.868852459016,4,2,1,75,1,0
27920,329.67032967033,4,2,1,75,1,0
29238,333.333333333333,4,2,1,75,1,0
30560,340.909090909091,4,2,1,75,1,0
31241,320.855614973262,4,2,1,75,1,0
31882,340.909090909091,4,2,1,75,1,0
32563,326.086956521739,4,2,1,75,1,0
33215,333.333333333333,4,2,1,65,1,0
38547,333.333333333333,4,2,1,75,1,0
39870,329.67032967033,4,2,1,75,1,0
41850,337.078651685393,4,2,1,75,1,0
42512,335.195530726257,4,2,1,75,1,0
43182,338.983050847458,4,2,1,75,1,0
43492,340.909090909091,4,2,1,75,1,0
43840,331.491712707182,4,2,1,65,1,0
49155,331.491712707182,4,2,1,75,1,0
54458,-100,4,2,1,70,0,0
56440,331.491712707182,4,2,1,70,1,0
57102,331.491712707182,4,2,1,70,1,0
59745,331.491712707182,4,2,1,70,1,0
60585,331.491712707182,4,2,1,70,1,0
65060,-100,4,2,1,75,0,0
65567,331.491712707182,4,2,1,75,1,0
67040,331.491712707182,4,2,1,75,1,0
70365,331.491712707182,4,2,1,80,1,0
73025,327.868852459016,4,2,1,90,1,0
74008,387.096774193548,4,2,1,90,1,0
74347,327.868852459016,4,2,1,90,1,0
75665,331.491712707182,4,2,1,100,1,1
76343,331.491712707182,4,2,1,100,1,1
76990,331.491712707182,4,2,1,100,1,1
77836,331.491712707182,4,2,1,100,1,1
78332,331.491712707182,4,2,1,100,1,1
80990,331.491712707182,4,2,1,100,1,1
82975,326.086956521739,4,2,1,100,1,1
83640,324.324324324324,4,2,1,100,1,1
83960,320.855614973262,4,2,1,100,1,1
84625,326.086956521739,4,2,1,100,1,1
85612,319.148936170213,4,2,1,100,1,1
86260,333.333333333333,4,2,1,100,1,1
95244,327.868852459016,4,2,1,100,1,1
96555,346.820809248555,4,2,1,100,1,1
96905,331.491712707182,4,2,1,75,1,0
99535,331.491712707182,4,2,1,75,1,0
106185,324.324324324324,4,2,1,75,1,0
107498,331.491712707182,4,2,1,65,1,0
112823,331.491712707182,4,2,1,75,1,0
114148,333.333333333333,4,2,1,75,1,0
115120,331.491712707182,4,2,1,75,1,0
118000,331.491712707182,4,2,1,75,1,0
118100,331.491712707182,4,2,1,65,1,0
122077,327.868852459016,4,2,1,65,1,0
122732,319.148936170213,4,2,1,65,1,0
123405,331.491712707182,4,2,1,75,1,0
128708,-100,4,2,1,70,0,0
131016,331.491712707182,4,2,1,70,1,0
131347,333.333333333333,4,2,1,70,1,0
135347,322.58064516129,4,2,1,70,1,0
136020,319.148936170213,4,2,1,70,1,0
136658,331.491712707182,4,2,1,70,1,0
139330,324.324324324324,4,2,1,75,1,0
139835,352.941176470588,4,2,1,75,1,0
140172,327.868852459016,4,2,1,75,1,0
141975,331.491712707182,4,2,1,75,1,0
144626,-100,4,2,1,80,0,0
147278,-100,4,2,1,90,0,0
148620,324.324324324324,4,2,1,90,1,0
149090,319.148936170213,4,2,1,90,1,0
149400,315.789473684211,4,2,1,90,1,0
149564,352.941176470588,4,2,1,90,1,0
149906,324.324324324324,4,2,1,100,1,1
150585,333.333333333333,4,2,1,100,1,1
151251,333.333333333333,4,2,1,100,1,1
152602,331.491712707182,4,2,1,100,1,1
153583,331.491712707182,4,2,1,100,1,1
153914,331.491712707182,4,2,1,100,1,1
157245,331.491712707182,4,2,1,100,1,1
157560,331.491712707182,4,2,1,100,1,1
157891,327.868852459016,4,2,1,100,1,1
160550,331.491712707182,4,2,1,100,1,1
165204,331.491712707182,4,2,1,100,1,1
165523,331.491712707182,4,2,1,100,1,1
165854,331.491712707182,4,2,1,100,1,1
167828,331.491712707182,4,2,1,100,1,1
168490,331.491712707182,4,2,1,100,1,1
170478,324.324324324324,4,2,1,100,1,1
170802,342.857142857143,4,2,1,100,1,1
171144,331.491712707182,4,2,1,70,1,0
176447,346.820809248555,4,2,1,70,1,0
177134,324.324324324324,4,2,1,70,1,0
177959,324.324324324324,4,2,1,70,1,0
178785,331.491712707182,4,2,1,70,1,0
179116,331.491712707182,4,2,1,70,1,0
181750,331.491712707182,4,2,1,75,1,0
187065,331.491712707182,4,2,1,75,1,0
188381,331.491712707182,4,2,1,75,1,0
191042,327.868852459016,4,2,1,75,1,0
192036,331.491712707182,4,2,1,75,1,0
192355,331.491712707182,4,2,1,80,1,0
193691,331.491712707182,4,2,1,80,1,0
194339,331.491712707182,4,2,1,80,1,0
195012,331.491712707182,4,2,1,80,1,0
197005,337.078651685393,4,2,1,80,1,0
197665,352.941176470588,4,2,1,80,1,0
198355,315.789473684211,4,2,1,80,1,0
198990,331.491712707182,4,2,1,80,1,0
200326,331.491712707182,4,2,1,85,1,0
200810,314.13612565445,4,2,1,90,1,0
200970,352.941176470588,4,2,1,95,1,0
201465,331.491712707182,4,2,1,100,1,0
202612,331.491712707182,4,2,1,65,1,0
202965,331.491712707182,4,2,1,70,1,0
203310,331.491712707182,4,2,1,70,1,0
203490,317.460317460317,4,2,1,70,1,0
203966,331.491712707182,4,2,1,70,1,0
204955,331.491712707182,4,2,1,70,1,0
205617,329.67032967033,4,2,1,70,1,0
207605,331.491712707182,4,2,1,70,1,0
208267,331.491712707182,4,2,1,70,1,0
213093,331.491712707182,4,2,1,70,1,0
213590,331.491712707182,4,2,1,75,1,0
216232,331.491712707182,4,2,1,75,1,0
218899,322.58064516129,4,2,1,80,1,0
219395,329.67032967033,4,2,1,80,1,0
220878,331.491712707182,4,2,1,80,1,0
221540,331.491712707182,4,2,1,90,1,0
224180,331.491712707182,4,2,1,80,1,0
224345,-100,4,2,1,60,0,0
224511,-100,4,2,1,40,0,0
224677,-100,4,2,1,20,0,0
224863,331.491712707182,4,2,1,100,1,1
227833,331.491712707182,4,2,1,100,1,1
228827,331.491712707182,4,2,1,100,1,1
230163,331.491712707182,4,2,1,100,1,1
234803,315.789473684211,4,2,1,100,1,1
235455,337.078651685393,4,2,1,100,1,1
236150,331.491712707182,4,2,1,100,1,1
236805,331.491712707182,4,2,1,100,1,1
238783,331.491712707182,4,2,1,100,1,1
239445,331.491712707182,4,2,1,100,1,1
246089,331.491712707182,4,2,1,80,1,0
248075,324.324324324324,4,2,1,80,1,0
248375,324.324324324324,4,2,1,80,1,0
248720,331.491712707182,4,2,1,80,1,0
251371,-100,4,2,1,90,0,0
256675,-100,4,2,1,100,0,1
256758,-100,4,2,1,100,0,0
256841,-100,4,2,1,100,0,1
256924,-100,4,2,1,100,0,0

[Colours]
Combo1 : 217,174,175
Combo2 : 168,213,147
Combo3 : 164,221,209
Combo4 : 146,182,218

[HitObjects]
449,348,110,5,2,0:0:0:0:
449,348,441,1,2,0:0:0:0:
449,348,772,5,0,1:0:0:0:
457,308,854,1,0,1:0:0:0:
465,269,936,1,8,0:0:0:0:
449,348,1101,5,0,1:0:0:0:
457,309,1182,1,0,1:0:0:0:
465,270,1264,1,8,0:0:0:0:
473,231,1345,1,8,0:0:0:0:
481,192,1425,6,0,B|416:164|408:221|336:221,1,135,14|0,0:0|0:0,0:0:0:0:
307,213,1754,2,0,P|285:164|287:114,1,90,2|0,1:2|0:0,0:0:0:0:
441,65,2084,2,0,P|438:109|418:149,1,90,10|8,0:0|0:0,0:0:0:0:
288,219,2414,2,0,P|266:170|268:120,1,90,2|0,1:2|0:0,0:0:0:0:
283,1,2743,6,0,P|216:28|143:7,1,135,14|0,0:0|0:0,0:0:0:0:
117,0,3065,2,0,P|140:53|150:101,1,90,2|0,1:2|0:0,0:0:0:0:
135,196,3405,1,10,0:0:0:0:
135,196,3573,1,10,0:0:0:0:
265,134,3742,2,0,L|401:148,1,135,2|0,1:2|0:0,0:0:0:0:
445,153,4046,6,0,P|485:108|457:27,1,135,14|0,0:0|0:0,0:0:0:0:
439,12,4377,2,0,P|442:88|455:119,1,90,2|0,1:2|0:0,0:0:0:0:
501,287,4724,2,0,P|511:243|508:198,1,90,10|8,0:0|0:0,0:0:0:0:
320,196,5055,2,0,P|317:240|327:284,1,90,2|0,1:2|0:0,0:0:0:0:
394,136,5400,6,0,P|344:102|250:132,1,135,14|0,0:0|0:0,0:0:0:0:
234,136,5716,2,0,L|249:17,1,90,2|0,1:2|0:0,0:0:0:0:
347,194,6045,1,14,0:0:0:0:
358,283,6210,1,10,0:0:0:0:
172,317,6375,2,0,L|153:163,1,135,2|0,1:2|0:0,0:0:0:0:
145,134,6710,6,0,P|77:158|12:118,1,135,14|0,0:0|0:0,0:0:0:0:
48,112,7050,2,0,P|91:128|136:102,1,90,2|0,1:2|0:0,0:0:0:0:
132,6,7363,2,0,P|88:-10|44:16,1,90,10|8,0:0|0:0,0:0:0:0:
43,146,7692,2,0,P|85:159|127:146,1,90,2|0,1:2|0:0,0:0:0:0:
297,52,8035,6,0,P|365:28|430:68,1,135,14|0,0:0|0:0,0:0:0:0:
443,93,8366,2,0,L|424:190,1,90,2|0,1:2|0:0,0:0:0:0:
282,79,8697,2,0,B|219:72|219:72|187:116|187:116|126:130,1,180,10|0,0:0|1:0,0:0:0:0:
243,280,9220,1,2,0:0:0:0:
256,192,9364,5,14,0:0:0:0:
243,280,9521,1,0,0:0:0:0:
98,253,9679,1,2,1:2:0:0:
111,165,9837,1,2,0:0:0:0:
290,202,10027,2,0,L|268:345,1,135,2|0,1:2|0:0,0:0:0:0:
257,368,10358,2,0,L|243:280,1,90,14|0,0:0|0:0,0:0:0:0:
225,146,10689,5,2,1:2:0:0:
312,124,10855,1,0,0:0:0:0:
293,0,11021,1,2,1:2:0:0:
206,22,11187,1,2,0:0:0:0:
231,172,11360,2,0,L|347:143,1,90,14|0,0:0|1:0,0:0:0:0:
319,162,11608,1,0,1:0:0:0:
319,173,11691,2,0,L|203:202,1,90,14|8,0:0|0:0,0:0:0:0:
96,226,12055,6,0,B|69:176|69:176|95:72,1,135,14|0,0:0|0:0,0:0:0:0:
103,58,12353,2,0,L|1:77,1,90,2|0,1:2|0:0,0:0:0:0:
270,16,12686,2,0,L|168:-3,1,90,10|8,0:0|0:0,0:0:0:0:
319,162,13019,2,0,L|217:181,1,90,0|0,1:0|0:0,0:0:0:0:
358,32,13340,6,0,L|504:60,1,135,14|0,0:0|0:0,0:0:0:0:
469,78,13675,2,0,L|367:97,1,90,2|0,1:2|0:0,0:0:0:0:
308,198,13997,2,0,L|454:226,1,135,10|0,0:0|0:0,0:0:0:0:
419,244,14332,2,0,L|317:263,1,90,2|0,1:2|0:0,0:0:0:0:
177,287,14660,6,0,P|145:234|161:143,1,135,14|0,0:0|0:0,0:0:0:0:
177,134,14995,2,0,P|182:200|176:231,1,90,2|0,1:2|0:0,0:0:0:0:
53,181,15330,1,10,0:0:0:0:
53,181,15497,1,10,0:0:0:0:
175,102,15665,2,0,L|342:128,1,135,2|0,1:2|0:0,0:0:0:0:
348,131,15990,6,0,L|298:2,1,135,14|0,0:0|0:0,0:0:0:0:
327,18,16325,2,0,L|370:129,1,90,2|0,1:2|0:0,0:0:0:0:
359,282,16660,1,14,0:0:0:0:
327,366,16833,1,10,0:0:0:0:
186,303,17006,2,0,L|234:177,1,135,2|0,1:2|0:0,0:0:0:0:
259,139,17350,6,0,B|320:113|322:170|398:173,1,135,14|0,0:0|0:0,0:0:0:0:
427,174,17665,2,0,P|460:128|456:82,1,90,2|0,1:2|0:0,0:0:0:0:
281,96,17991,2,0,P|285:140|314:173,1,90,10|8,0:0|0:0,0:0:0:0:
482,98,18317,2,0,P|477:53|448:20,1,90,2|0,1:2|0:0,0:0:0:0:
295,16,18642,6,0,P|256:71|257:137,1,135,14|0,0:0|0:0,0:0:0:0:
272,182,18977,2,0,L|173:161,1,90,2|0,1:2|0:0,0:0:0:0:
133,300,19312,2,0,L|276:269,1,135,10|0,0:0|0:0,0:0:0:0:
308,260,19647,1,6,1:2:0:0:
212,315,19815,1,2,0:0:0:0:
257,136,19982,5,6,1:2:0:0:
280,242,20155,1,0,0:0:0:0:
440,216,20320,1,2,1:2:0:0:
418,112,20490,1,2,0:0:0:0:
303,231,20646,2,0,L|285:143,1,90,2|8,1:2|0:0,0:0:0:0:
444,116,20966,1,6,1:2:0:0:
463,205,21127,1,10,0:0:0:0:
281,112,21287,6,0,L|305:0,1,90,2|0,1:2|0:0,0:0:0:0:
377,193,21635,1,2,1:2:0:0:
358,281,21799,1,0,0:0:0:0:
181,242,21963,2,0,L|205:130,1,90,14|0,0:0|1:0,0:0:0:0:
208,165,22210,1,0,1:0:0:0:
215,175,22292,2,0,L|197:264,1,90,14|8,0:0|0:0,0:0:0:0:
156,93,22630,6,0,B|188:57|228:62|228:62|262:114|346:93,1,180,14|0,0:0|1:0,0:0:0:0:
406,76,23141,1,0,0:0:0:0:
365,226,23289,2,0,B|302:190|225:215|225:215|275:242,1,180,10|0,0:0|1:0,0:0:0:0:
301,121,23786,1,0,0:0:0:0:
356,320,23951,6,0,P|386:259|382:149,1,180,10|0,0:0|1:0,0:0:0:0:
256,232,24442,1,0,0:0:0:0:
132,119,24606,2,0,B|76:133|76:133|127:151,1,90,10|0,0:0|0:0,0:0:0:0:
242,35,24934,2,0,B|298:49|298:49|247:67,1,90,2|0,1:2|0:0,0:0:0:0:
64,56,25270,6,0,B|8:42|8:42|137:-2,1,180,10|0,0:0|1:0,0:0:0:0:
77,133,25770,1,0,0:0:0:0:
273,90,25936,2,0,B|368:79|368:79|437:139,1,180,10|0,0:0|1:0,0:0:0:0:
334,57,26436,1,0,0:0:0:0:
303,233,26603,6,0,B|242:239|242:239|192:174|122:206,1,180,10|0,0:0|1:0,0:0:0:0:
50,237,27094,1,0,0:0:0:0:
159,326,27258,2,0,P|181:316|140:299,1,90,10|0,0:0|0:0,0:0:0:0:
50,237,27586,2,0,P|27:227|68:210,1,90,2|0,1:2|0:0,0:0:0:0:
32,384,27920,6,0,P|115:349|212:349,1,180,14|0,0:0|1:0,0:0:0:0:
297,373,28414,1,0,0:0:0:0:
202,247,28579,2,0,P|285:282|382:282,1,180,10|0,0:0|1:0,0:0:0:0:
467,258,29073,1,0,0:0:0:0:
468,332,29238,6,0,P|433:249|431:160,1,180,10|0,0:0|1:0,0:0:0:0:
451,68,29738,1,0,0:0:0:0:
320,128,29904,2,0,B|332:75|332:75|363:122,1,90,10|0,0:0|0:0,0:0:0:0:
192,128,30238,2,0,B|180:75|180:75|149:122,1,90,2|0,1:2|0:0,0:0:0:0:
139,286,30560,6,0,B|192:274|192:274|38:242,1,180,10|0,0:0|1:0,0:0:0:0:
148,369,31071,1,0,0:0:0:0:
52,213,31241,2,0,L|253:255,1,180,10|0,0:0|1:0,0:0:0:0:
341,273,31722,1,0,0:0:0:0:
353,76,31882,6,2,B|350:42|334:29|334:29|268:79|341:178,1,180,10|0,0:0|1:0,0:1:0:0:
351,250,32393,1,0,0:0:0:0:
209,184,32563,2,0,P|145:194|91:217,1,90,10|0,0:0|1:0,0:0:0:0:
94,219,32807,1,0,1:0:0:0:
59,257,32889,2,0,L|33:137,1,90,2|0,1:2|1:0,0:0:0:0:
15,50,33215,5,14,0:0:0:0:
103,83,33381,1,2,0:0:0:0:
214,10,33548,2,0,L|336:19,2,90,2|0|0,1:2|0:0|0:0,0:0:0:0:
214,10,34048,1,10,0:0:0:0:
340,22,34215,2,0,L|328:116,1,90,2|0,1:2|0:0,0:0:0:0:
310,240,34548,5,10,0:0:0:0:
310,240,34715,1,2,0:0:0:0:
405,215,34881,1,2,1:2:0:0:
405,215,35048,1,2,0:0:0:0:
215,173,35215,2,0,L|116:189,1,90,10|8,0:0|0:0,0:0:0:0:
247,167,35548,1,2,1:2:0:0:
235,284,35715,1,2,0:0:0:0:
135,110,35881,5,10,0:0:0:0:
272,131,36048,1,8,0:0:0:0:
96,103,36215,2,0,P|80:58|92:3,2,90,2|0|0,1:2|0:0|0:0,0:0:0:0:
96,103,36715,1,10,0:0:0:0:
285,19,36881,2,0,L|276:129,1,90,2|0,1:2|0:0,0:0:0:0:
267,270,37214,5,10,0:0:0:0:
267,270,37381,1,2,0:0:0:0:
244,138,37548,2,0,L|262:235,1,90,2|0,1:2|0:0,0:0:0:0:
225,51,37881,2,0,L|319:74,1,90,10|8,0:0|0:0,0:0:0:0:
166,125,38214,2,0,L|18:162,1,135,2|0,1:2|0:0,0:0:0:0:
0,170,38547,6,0,B|55:174|55:174|80:223|80:223|172:270,1,180,14|0,0:0|1:0,0:0:0:0:
233,289,39047,1,0,0:0:0:0:
313,173,39213,2,0,B|318:149|302:129|302:129|256:157|256:157|224:123|155:136,1,180,10|0,0:0|1:0,0:0:0:0:
198,217,39713,1,0,0:0:0:0:
255,74,39870,6,0,B|313:48|313:48|455:94,1,180,10|0,0:0|1:0,0:0:0:0:
313,173,40364,1,0,0:0:0:0:
417,49,40529,2,0,B|403:-8|403:-8|388:57,1,90,10|0,0:0|0:0,0:0:0:0:
412,201,40859,2,0,B|426:258|426:258|441:193,1,90,2|0,1:2|0:0,0:0:0:0:
242,150,41188,6,0,B|191:180|191:180|323:172,1,180,10|0,0:0|1:0,0:0:0:0:
357,85,41683,1,0,0:0:0:0:
311,201,41850,2,0,L|114:215,1,180,10|0,0:0|1:0,0:0:0:0:
34,218,42355,1,0,0:0:0:0:
101,109,42512,6,0,P|80:50|-25:96,1,180,10|0,0:0|1:0,0:0:0:0:
97,140,43014,1,0,0:0:0:0:
172,30,43182,2,0,P|212:9|256:0,1,90,10|0,0:0|0:0,0:0:0:0:
256,192,43492,2,0,P|212:182|172:161,1,90,2|0,1:2|0:0,0:0:0:0:
352,76,43840,5,14,0:0:0:0:
275,176,44005,1,2,0:0:0:0:
231,50,44171,2,0,L|330:72,2,90,2|0|0,1:2|0:0|0:0,0:0:0:0:
231,50,44668,1,10,0:0:0:0:
420,12,44834,2,0,L|432:106,1,90,2|0,1:2|0:0,0:0:0:0:
448,237,45165,5,10,0:0:0:0:
448,237,45331,1,2,0:0:0:0:
464,109,45497,1,2,1:2:0:0:
464,109,45663,1,2,0:0:0:0:
327,78,45828,2,0,L|228:56,1,90,10|8,0:0|0:0,0:0:0:0:
356,88,46160,1,2,1:2:0:0:
216,142,46326,1,2,0:0:0:0:
355,210,46491,5,10,0:0:0:0:
238,155,46657,1,8,0:0:0:0:
368,95,46823,2,0,P|384:140|372:195,2,90,2|0|0,1:2|0:0|0:0,0:0:0:0:
368,95,47320,1,10,0:0:0:0:
355,210,47486,2,0,L|465:201,1,90,2|0,1:2|0:0,0:0:0:0:
314,149,47817,5,10,0:0:0:0:
314,149,47983,1,2,0:0:0:0:
205,204,48149,2,0,L|95:195,1,90,2|0,1:2|0:0,0:0:0:0:
199,65,48480,2,0,L|309:56,1,90,10|0,0:0|1:0,0:0:0:0:
286,69,48729,1,0,1:0:0:0:
283,80,48812,2,0,L|173:89,1,90,2|8,1:2|0:0,0:0:0:0:
50,94,49155,6,0,B|32:145|32:145|95:287,1,180,14|0,0:0|1:0,0:0:0:0:
123,348,49652,1,0,0:0:0:0:
237,282,49817,2,0,B|252:231|252:231|104:257,1,180,10|0,0:0|1:0,0:0:0:0:
0,276,50315,1,0,0:0:0:0:
86,176,50480,6,0,B|53:69|53:69|17:82|13:167,1,180,10|0,0:0|1:0,0:0:0:0:
95,208,50978,1,0,0:0:0:0:
192,128,51143,2,0,P|183:83|164:102,1,90,10|0,0:0|0:0,0:0:0:0:
166,290,51475,2,0,P|205:291|192:256,1,90,2|0,1:2|0:0,0:0:0:0:
150,177,51806,6,0,B|240:144|237:213|342:213,1,180,10|0,0:0|1:0,0:0:0:0:
409,170,52304,1,0,0:0:0:0:
404,19,52469,2,0,P|328:24|311:121,1,180,10|0,0:0|1:0,0:0:0:0:
196,34,52967,1,0,0:0:0:0:
370,82,53132,6,0,B|308:65|308:65|250:179,1,180,10|0,0:0|1:0,0:0:0:0:
306,113,53630,1,0,0:0:0:0:
196,34,53795,2,0,P|186:77|166:117,1,90,10|0,0:0|1:0,0:0:0:0:
143,164,54044,1,0,1:0:0:0:
143,164,54127,2,0,P|186:173|226:193,1,90,2|0,1:2|1:0,0:0:0:0:
262,226,54375,1,0,1:0:0:0:
296,270,54458,6,0,L|283:104,1,135,14|0,0:0|0:0,0:0:0:0:
280,85,54790,1,2,1:2:0:0:
296,270,54956,2,0,L|306:400,1,90,2|8,0:0|0:0,0:0:0:0:
468,348,55287,1,10,0:0:0:0:
461,258,55453,1,2,1:2:0:0:
299,314,55619,2,0,L|192:299,1,90,2|8,0:0|0:0,0:0:0:0:
16,287,55950,6,0,L|203:260,1,180,2|0,0:0|0:0,0:0:0:0:
321,244,56440,1,10,0:0:0:0:
216,274,56605,1,10,0:0:0:0:
277,141,56771,2,0,L|265:41,1,90,2|0,1:2|0:0,0:0:0:0:
282,185,57102,6,0,P|227:139|114:152,1,180,10|2,0:0|1:2,0:0:0:0:
31,227,57600,2,0,P|81:166|96:114,1,90,2|8,0:0|0:0,0:0:0:0:
82,73,57931,2,0,P|59:34|27:2,1,90,10|2,0:0|1:2,0:0:0:0:
157,114,58263,2,0,P|195:91|227:59,1,90,2|8,0:0|0:0,0:0:0:0:
336,140,58594,6,0,B|261:101|243:181|160:186,1,180,2|0,0:0|0:0,0:0:0:0:
77,174,59091,1,10,0:0:0:0:
169,196,59257,1,10,0:0:0:0:
73,300,59423,2,0,L|181:315,1,90,2|0,1:2|0:0,0:0:0:0:
312,331,59745,6,0,L|127:357,1,180,10|0,0:0|1:0,0:0:0:0:
312,331,60242,2,0,P|333:279|320:224,1,90,2|8,0:0|0:0,0:0:0:0:
305,164,60585,1,8,0:0:0:0:
312,331,60750,1,2,1:2:0:0:
330,246,60916,1,2,0:0:0:0:
298,134,61082,6,0,L|190:119,1,90,10|0,0:0|0:0,0:0:0:0:
374,166,61413,2,0,L|482:151,1,90,2|0,1:2|0:0,0:0:0:0:
307,218,61745,2,0,P|305:277|318:321,1,90,10|8,0:0|0:0,0:0:0:0:
366,83,62076,2,0,P|351:25|327:-12,1,90,2|0,1:2|0:0,0:0:0:0:
208,121,62408,6,0,P|275:125|260:26,1,180,10|0,0:0|1:0,0:0:0:0:
298,134,62905,1,0,0:0:0:0:
172,197,63071,1,10,0:0:0:0:
172,197,63236,1,10,0:0:0:0:
304,255,63402,1,2,1:2:0:0:
304,255,63568,1,0,0:0:0:0:
135,280,63734,6,0,L|16:294,1,90,10|8,0:0|0:0,0:0:0:0:
225,379,64065,2,0,B|253:344|253:344|206:248,1,135,6|0,1:2|0:0,0:0:0:0:
184,221,64397,1,10,0:0:0:0:
318,266,64562,1,10,0:0:0:0:
353,130,64728,2,0,P|297:150|224:90,1,135,6|0,1:2|0:0,0:0:0:0:
209,73,65060,6,0,L|381:52,1,135,14|0,0:0|0:0,0:0:0:0:
387,50,65391,1,2,1:2:0:0:
209,73,65567,2,0,L|94:87,1,90,2|8,0:0|0:0,0:0:0:0:
274,192,65898,2,0,L|159:178,1,90,10|2,0:0|1:2,0:0:0:0:
353,130,66229,2,0,L|468:116,1,90,2|8,0:0|0:0,0:0:0:0:
313,241,66561,6,0,L|113:216,1,180,2|0,0:0|0:0,0:0:0:0:
134,218,67040,1,10,0:0:0:0:
227,259,67205,1,10,0:0:0:0:
378,216,67371,2,0,P|421:275|432:316,1,90,2|0,1:2|0:0,0:0:0:0:
401,144,67702,6,0,P|339:179|263:104,1,180,10|2,0:0|1:2,0:0:0:0:
423,118,68200,2,0,L|512:105,1,90,2|8,0:0|0:0,0:0:0:0:
347,39,68531,2,0,L|258:26,1,90,10|2,0:0|1:2,0:0:0:0:
179,202,68863,2,0,L|268:189,1,90,2|8,0:0|0:0,0:0:0:0:
90,215,69194,6,0,P|42:188|37:67,1,180,2|0,0:0|0:0,0:0:0:0:
0,153,69691,1,10,0:0:0:0:
115,223,69857,1,10,0:0:0:0:
0,361,70023,2,0,P|54:375|24:328,1,135,2|0,1:2|0:0,0:0:0:0:
31,358,70365,6,0,B|119:358|101:272|217:309,1,180,14|0,0:0|1:0,0:0:0:0:
323,340,70862,2,0,L|302:227,2,90,2|10|10,0:0|0:0|0:0,0:0:0:0:
298,213,71359,1,2,1:2:0:0:
442,275,71525,1,2,0:0:0:0:
480,96,71690,6,0,L|309:115,1,135,10|0,0:0|0:0,0:0:0:0:
314,78,72022,2,0,L|143:59,1,135,2|0,1:2|0:0,0:0:0:0:
111,113,72353,1,10,0:0:0:0:
179,63,72519,1,10,0:0:0:0:
22,0,72685,2,0,L|37:112,1,90,2|0,1:2|0:0,0:0:0:0:
59,275,73025,5,14,1:2:0:0:
59,275,73352,1,10,1:2:0:0:
59,275,73680,1,10,1:2:0:0:
138,236,73844,1,8,0:0:0:0:
274,367,74008,2,0,L|258:258,1,90,10|8,1:2|0:0,0:0:0:0:
236,92,74347,5,10,0:0:0:0:
368,151,74510,1,10,0:0:0:0:
368,151,74592,1,10,0:0:0:0:
368,151,74674,2,0,L|426:139,1,45,2|0,1:2|0:0,0:0:0:0:
253,240,74838,2,0,L|195:228,1,45,2|0,1:2|0:0,0:0:0:0:
420,278,75002,5,10,1:2:0:0:
177,225,75166,1,2,1:2:0:0:
343,49,75330,1,2,1:2:0:0:
298,39,75412,1,10,0:0:0:0:
254,30,75494,1,2,1:2:0:0:
210,21,75576,1,10,0:0:0:0:
166,11,75665,6,0,P|199:94|203:175,1,135,14|0,0:0|0:0,0:0:0:0:
197,188,75996,2,0,P|263:150|314:140,1,90,2|0,1:2|0:0,0:0:0:0:
275,319,76343,2,0,P|233:302|196:277,1,90,10|8,0:0|0:0,0:0:0:0:
387,319,76674,2,0,P|429:303|466:278,1,90,2|0,1:2|0:0,0:0:0:0:
465,145,76990,6,0,L|483:2,1,135,14|0,0:0|0:0,0:0:0:0:
497,39,77321,2,0,L|484:164,1,90,2|0,1:2|0:0,0:0:0:0:
323,105,77652,1,10,0:0:0:0:
332,15,77836,1,10,0:0:0:0:
320,139,78001,2,0,P|266:114|166:113,1,135,2|0,1:2|0:0,0:0:0:0:
160,131,78332,6,0,B|225:121|225:121|203:212,1,135,14|0,0:0|0:0,0:0:0:0:
194,233,78663,2,0,L|90:215,1,90,2|0,1:2|0:0,0:0:0:0:
246,316,78994,2,0,L|350:298,1,90,10|8,0:0|0:0,0:0:0:0:
480,275,79326,2,0,P|449:220|351:221,1,135,2|0,1:2|0:0,0:0:0:0:
345,226,79657,6,0,B|366:130|366:130|320:171,1,135,14|0,0:0|0:0,0:0:0:0:
313,177,79989,2,0,L|422:162,1,90,2|0,1:2|0:0,0:0:0:0:
224,189,80320,1,14,0:0:0:0:
277,80,80486,1,10,0:0:0:0:
300,307,80652,2,0,P|227:286|211:228,1,135,2|0,1:2|0:0,0:0:0:0:
224,189,80990,6,0,L|380:205,1,135,14|0,0:0|0:0,0:0:0:0:
406,205,81321,2,0,L|384:97,1,90,2|0,1:2|0:0,0:0:0:0:
209,149,81652,2,0,L|231:41,1,90,10|8,0:0|0:0,0:0:0:0:
450,31,81984,2,0,L|468:120,1,90,2|0,1:2|0:0,0:0:0:0:
512,293,82315,6,0,B|460:266|460:266|445:306|373:332,1,135,14|0,0:0|0:0,0:0:0:0:
373,300,82647,2,0,P|423:261|429:202,1,90,2|0,1:2|0:0,0:0:0:0:
279,245,82975,1,10,0:0:0:0:
298,363,83138,1,8,0:0:0:0:
293,130,83301,2,0,L|286:261,1,90,0|2,1:0|0:0,0:0:0:0:
132,152,83640,5,14,0:0:0:0:
245,131,83802,1,0,0:0:0:0:
180,273,83960,1,2,1:2:0:0:
67,294,84120,1,2,0:0:0:0:
213,267,84280,2,0,L|310:278,1,90,2|0,1:2|0:0,0:0:0:0:
510,299,84625,1,14,0:0:0:0:
411,324,84788,1,0,0:0:0:0:
433,174,84951,5,2,1:2:0:0:
421,264,85114,1,0,0:0:0:0:
264,238,85277,2,0,L|279:133,1,90,2|2,1:2|0:0,0:0:0:0:
296,21,85612,5,6,1:2:0:0:
323,91,85771,1,0,1:0:0:0:
140,80,85931,5,6,1:2:0:0:
113,150,86090,1,0,1:0:0:0:
302,277,86260,6,0,B|320:254|320:254|211:266,1,135,14|0,0:0|0:0,0:0:0:0:
167,273,86593,2,0,P|147:221|155:175,1,90,2|0,1:2|0:0,0:0:0:0:
361,187,86926,2,0,P|363:232|345:273,1,90,10|8,0:0|0:0,0:0:0:0:
256,96,87260,2,0,L|256:0,1,90,0|0,1:0|0:0,0:0:0:0:
256,256,87593,6,0,P|332:238|382:262,1,135,14|0,0:0|0:0,0:0:0:0:
361,274,87926,2,0,P|316:260|263:281,1,90,2|0,1:2|0:0,0:0:0:0:
426,359,88260,1,10,0:0:0:0:
380,261,88426,1,8,0:0:0:0:
485,135,88593,2,0,L|341:147,1,135,2|0,1:2|0:0,0:0:0:0:
303,150,88926,6,0,B|271:84|338:72|287:-12,1,135,14|0,0:0|0:0,0:0:0:0:
289,7,89260,2,0,P|287:60|268:96,1,90,2|0,1:2|0:0,0:0:0:0:
116,148,89593,2,0,P|118:95|137:59,1,90,10|10,0:0|0:0,0:0:0:0:
141,241,89926,2,0,P|96:241|55:222,1,90,2|0,1:2|0:0,0:0:0:0:
236,149,90260,6,0,B|270:128|270:128|379:164,1,135,14|0,0:0|0:0,0:0:0:0:
394,180,90593,2,0,L|381:81,1,90,2|0,1:2|0:0,0:0:0:0:
511,206,90926,2,0,L|499:295,1,90,14|10,0:0|0:0,0:0:0:0:
352,236,91260,2,0,B|386:257|386:257|476:227,1,135,2|0,1:2|0:0,0:0:0:0:
511,206,91593,6,0,P|491:152|405:117,1,135,14|0,0:0|0:0,0:0:0:0:
380,122,91926,2,0,L|392:18,1,90,2|0,1:2|0:0,0:0:0:0:
229,3,92260,1,10,0:0:0:0:
239,92,92426,1,8,0:0:0:0:
63,118,92593,2,0,L|51:14,1,90,2|0,1:2|0:0,0:0:0:0:
176,173,92926,6,0,L|160:324,1,135,14|0,0:0|0:0,0:0:0:0:
154,349,93260,2,0,P|126:295|70:258,1,90,2|0,1:2|0:0,0:0:0:0:
271,294,93593,1,10,0:0:0:0:
159,382,93759,1,8,0:0:0:0:
336,242,93926,2,0,L|446:264,1,90,6|2,1:2|0:0,0:0:0:0:
298,235,94259,5,6,1:2:0:0:
276,139,94426,1,0,0:0:0:0:
132,168,94593,1,2,1:2:0:0:
154,264,94759,1,2,0:0:0:0:
276,139,94926,2,0,L|283:37,1,90,2|8,1:2|0:0,0:0:0:0:
105,181,95244,1,6,1:2:0:0:
222,202,95407,1,10,0:0:0:0:
100,313,95571,6,0,L|6:299,1,90,2|0,1:2|0:0,0:0:0:0:
154,264,95899,1,2,1:2:0:0:
191,355,96063,1,0,0:0:0:0:
355,273,96227,2,0,L|346:152,1,90,14|0,0:0|1:0,0:0:0:0:
345,196,96473,1,0,1:0:0:0:
341,208,96555,2,0,L|347:297,1,90,14|8,0:0|0:0,0:0:0:0:
330,108,96905,6,0,B|458:88|458:88|446:54|398:58,1,180,14|0,0:0|1:0,0:0:0:0:
348,183,97402,1,0,0:0:0:0:
255,71,97567,2,0,L|63:112,1,180,10|0,0:0|1:0,0:0:0:0:
150,8,98065,1,0,0:0:0:0:
207,138,98230,6,0,B|159:173|101:167|101:167|49:102,1,180,10|0,0:0|1:0,0:0:0:0:
34,237,98728,1,0,0:0:0:0:
156,191,98893,2,0,B|201:216|201:216|162:239,1,90,10|0,0:0|0:0,0:0:0:0:
38,277,99225,2,0,B|4:296|4:296|49:321,1,90,2|0,1:2|0:0,0:0:0:0:
234,367,99535,6,0,B|243:329|243:329|104:371,1,180,10|0,0:0|1:0,0:0:0:0:
169,262,100032,1,0,0:0:0:0:
315,372,100197,2,0,B|344:270|344:270|334:243|334:243|359:167,1,180,10|0,0:0|1:0,0:0:0:0:
379,96,100695,1,0,0:0:0:0:
284,33,100860,6,0,P|234:78|109:72,1,180,10|0,0:0|1:0,0:0:0:0:
254,109,101358,1,0,0:0:0:0:
363,24,101523,2,0,B|418:38|418:38|377:61,1,90,10|0,0:0|0:0,0:0:0:0:
254,109,101855,2,0,B|199:123|199:123|240:146,1,90,6|0,1:2|0:0,0:0:0:0:
431,221,102186,6,0,B|486:207|486:207|356:140,1,180,14|0,0:0|1:0,0:0:0:0:
412,316,102684,1,0,0:0:0:0:
416,171,102849,2,0,L|231:211,1,180,10|0,0:0|1:0,0:0:0:0:
412,316,103347,1,0,0:0:0:0:
266,279,103512,6,0,B|205:288|205:288|176:334|176:334|100:349,1,180,10|0,0:0|1:0,0:0:0:0:
9,321,104010,1,0,0:0:0:0:
81,189,104175,2,0,P|112:208|115:167,1,90,10|0,0:0|0:0,0:0:0:0:
73,42,104507,2,0,P|104:23|107:64,1,90,2|0,1:2|0:0,0:0:0:0:
14,210,104838,6,0,P|60:268|175:248,1,180,10|0,0:0|1:0,0:0:0:0:
240,209,105336,1,0,0:0:0:0:
342,287,105501,2,0,L|369:97,1,180,10|0,0:0|1:0,0:0:0:0:
383,14,105999,1,0,0:0:0:0:
497,185,106185,6,2,B|481:210|460:217|460:217|425:163|425:163|399:147|341:155,1,180,10|0,0:0|1:0,0:1:0:0:
259,187,106671,1,0,0:0:0:0:
293,25,106833,1,8,0:0:0:0:
248,30,106914,1,8,0:0:0:0:
203,36,106995,1,8,0:0:0:0:
159,42,107076,1,8,0:0:0:0:
113,47,107157,2,0,L|171:62,1,45,2|0,1:2|1:0,0:0:0:0:
285,97,107320,2,0,L|231:108,1,45,2|0,1:2|1:0,0:0:0:0:
72,144,107498,5,14,0:0:0:0:
131,68,107663,1,2,0:0:0:0:
197,230,107829,2,0,L|79:205,2,90,2|0|0,1:2|0:0|0:0,0:0:0:0:
197,230,108326,1,10,0:0:0:0:
87,206,108492,2,0,L|100:314,1,90,2|0,1:2|0:0,0:0:0:0:
174,154,108823,5,10,0:0:0:0:
174,154,108989,1,2,0:0:0:0:
58,217,109155,1,2,1:2:0:0:
58,217,109321,1,2,0:0:0:0:
215,254,109486,2,0,L|333:279,1,90,10|8,0:0|0:0,0:0:0:0:
183,245,109818,1,2,1:2:0:0:
341,211,109984,1,2,0:0:0:0:
381,379,110149,5,10,0:0:0:0:
319,288,110315,1,8,0:0:0:0:
461,300,110481,2,0,P|477:255|465:200,2,90,2|0|0,1:2|0:0|0:0,0:0:0:0:
461,300,110978,1,10,0:0:0:0:
445,178,111144,2,0,L|335:187,1,90,2|0,1:2|0:0,0:0:0:0:
227,198,111475,5,10,0:0:0:0:
227,198,111641,1,2,0:0:0:0:
204,77,111807,2,0,L|222:174,1,90,2|0,1:2|0:0,0:0:0:0:
87,109,112138,2,0,L|105:12,1,90,10|0,0:0|1:0,0:0:0:0:
110,31,112387,1,0,1:0:0:0:
116,41,112470,2,0,L|98:138,1,90,2|0,1:2|1:0,0:0:0:0:
106,139,112718,1,0,1:0:0:0:
112,149,112823,6,0,B|61:181|61:181|105:314,1,180,14|0,0:0|1:0,0:0:0:0:
132,383,113320,1,0,0:0:0:0:
271,318,113485,2,0,B|304:282|304:282|157:297,1,180,10|0,0:0|1:0,0:0:0:0:
248,211,113983,1,0,0:0:0:0:
350,335,114148,6,0,B|408:361|408:361|531:301,1,180,10|0,0:0|1:0,0:0:0:0:
324,319,114648,1,0,0:0:0:0:
407,177,114814,2,0,B|393:120|393:120|378:185,1,90,10|0,0:0|0:0,0:0:0:0:
395,304,115120,2,0,B|409:361|409:361|424:296,1,90,2|0,1:2|0:0,0:0:0:0:
393,120,115451,6,0,B|379:63|379:63|353:186,1,180,10|0,0:0|1:0,0:0:0:0:
240,136,115948,1,0,0:0:0:0:
186,252,116114,2,0,L|-11:266,1,180,10|0,0:0|1:0,0:0:0:0:
94,220,116611,1,0,0:0:0:0:
0,113,116777,6,0,P|21:54|126:100,1,180,10|0,0:0|1:0,0:0:0:0:
2,143,117274,1,0,0:0:0:0:
156,63,117440,2,0,L|266:74,1,90,10|0,0:0|1:0,0:0:0:0:
250,83,117689,1,0,1:0:0:0:
254,94,117771,2,0,L|364:105,1,90,2|0,1:2|1:0,0:0:0:0:
348,114,118000,1,0,1:0:0:0:
352,125,118100,5,14,0:0:0:0:
441,133,118265,1,2,0:0:0:0:
331,244,118431,2,0,L|213:219,2,90,2|0|0,1:2|0:0|0:0,0:0:0:0:
331,244,118928,1,10,0:0:0:0:
202,220,119094,2,0,L|215:328,1,90,2|0,1:2|0:0,0:0:0:0:
370,258,119425,5,10,0:0:0:0:
370,258,119591,1,2,0:0:0:0:
326,366,119757,1,2,1:2:0:0:
326,366,119923,1,2,0:0:0:0:
314,205,120088,2,0,L|431:234,1,90,10|8,0:0|0:0,0:0:0:0:
282,194,120420,1,2,1:2:0:0:
450,154,120586,1,2,0:0:0:0:
254,94,120751,5,10,0:0:0:0:
202,220,120917,1,8,0:0:0:0:
59,142,121083,2,0,P|43:97|55:42,2,90,2|0|0,1:2|0:0|0:0,0:0:0:0:
59,142,121580,1,10,0:0:0:0:
233,132,121746,2,0,L|343:123,1,90,2|0,1:2|0:0,0:0:0:0:
451,112,122077,5,10,0:0:0:0:
451,112,122240,1,2,0:0:0:0:
322,90,122404,1,2,1:2:0:0:
322,90,122568,1,0,0:0:0:0:
271,240,122732,5,10,0:0:0:0:
249,160,122891,1,0,1:0:0:0:
57,166,123051,5,2,1:2:0:0:
79,86,123210,1,0,1:0:0:0:
254,173,123405,6,0,B|354:179|315:72|436:114,1,180,14|0,0:0|1:0,0:0:0:0:
506,118,123902,1,0,0:0:0:0:
423,26,124067,2,0,P|339:29|253:113,1,180,10|0,0:0|1:0,0:0:0:0:
193,205,124565,1,0,0:0:0:0:
104,62,124730,6,0,B|162:36|162:36|285:96,1,180,10|0,0:0|1:0,0:0:0:0:
109,148,125228,1,0,0:0:0:0:
288,114,125393,2,0,B|274:57|274:57|259:122,1,90,10|0,0:0|0:0,0:0:0:0:
293,260,125725,2,0,B|307:317|307:317|322:252,1,90,2|0,1:2|0:0,0:0:0:0:
374,105,126056,6,0,B|360:48|360:48|334:171,1,180,10|0,0:0|1:0,0:0:0:0:
267,87,126554,1,0,0:0:0:0:
231,226,126719,2,0,L|38:201,1,180,10|0,0:0|1:0,0:0:0:0:
142,242,127217,1,0,0:0:0:0:
229,117,127382,6,0,P|214:68|77:61,1,180,10|0,0:0|1:0,0:0:0:0:
20,132,127880,1,0,0:0:0:0:
177,76,128045,2,0,L|267:87,1,90,10|0,0:0|1:0,0:0:0:0:
118,195,128377,1,2,1:2:0:0:
28,205,128543,1,0,1:0:0:0:
119,370,128708,6,0,L|291:349,1,135,14|0,0:0|0:0,0:0:0:0:
302,347,129040,1,2,1:2:0:0:
119,370,129206,2,0,L|10:383,1,90,2|8,0:0|0:0,0:0:0:0:
253,354,129537,1,10,0:0:0:0:
229,234,129703,1,2,1:2:0:0:
358,252,129869,2,0,L|251:237,1,90,2|8,0:0|0:0,0:0:0:0:
377,144,130200,6,0,L|405:338,1,180,2|0,0:0|0:0,0:0:0:0:
412,201,130697,1,10,0:0:0:0:
358,252,130863,1,10,0:0:0:0:
263,166,131016,2,0,L|281:36,1,90,2|0,1:2|0:0,0:0:0:0:
217,248,131347,6,0,P|272:202|385:215,1,180,10|2,0:0|1:2,0:0:0:0:
362,349,131847,2,0,P|312:288|297:236,1,90,2|8,0:0|0:0,0:0:0:0:
480,227,132180,2,0,P|457:266|425:298,1,90,10|2,0:0|1:2,0:0:0:0:
468,131,132513,2,0,P|445:93|413:61,1,90,2|8,0:0|0:0,0:0:0:0:
282,179,132847,6,0,L|489:151,1,180,2|0,0:0|0:0,0:0:0:0:
336,137,133347,1,10,0:0:0:0:
375,208,133513,1,10,0:0:0:0:
320,308,133680,2,0,L|448:325,1,90,2|0,1:2|0:0,0:0:0:0:
239,269,134013,6,0,L|54:294,1,180,14|0,0:0|1:0,0:0:0:0:
239,269,134513,2,0,P|260:217|247:162,1,90,2|8,0:0|0:0,0:0:0:0:
214,296,134847,1,8,0:0:0:0:
256,184,135013,1,2,1:2:0:0:
285,341,135180,1,2,0:0:0:0:
389,254,135347,6,0,L|281:239,1,90,10|0,0:0|0:0,0:0:0:0:
423,141,135669,2,0,L|531:126,1,90,2|0,1:2|0:0,0:0:0:0:
299,241,136020,2,0,P|296:286|305:330,1,90,10|8,0:0|0:0,0:0:0:0:
423,141,136339,2,0,P|408:83|384:46,1,90,2|0,1:2|0:0,0:0:0:0:
258,182,136658,6,0,P|334:183|326:88,1,180,10|0,0:0|1:0,0:0:0:0:
299,241,137155,1,0,0:0:0:0:
422,174,137320,1,10,0:0:0:0:
422,174,137486,1,10,0:0:0:0:
238,167,137652,1,2,1:2:0:0:
238,167,137818,1,0,0:0:0:0:
311,76,137983,6,0,L|192:62,1,90,10|8,0:0|0:0,0:0:0:0:
79,204,138315,2,0,B|113:217|113:217|218:179,1,135,6|0,1:2|0:0,0:0:0:0:
238,167,138646,1,10,0:0:0:0:
217,266,138812,1,10,0:0:0:0:
187,100,138978,2,0,P|245:83|316:140,1,135,6|0,1:2|0:0,0:0:0:0:
334,156,139330,6,0,L|506:135,1,135,14|0,0:0|0:0,0:0:0:0:
512,133,139654,1,2,1:2:0:0:
334,156,139835,2,0,L|219:170,1,90,2|8,0:0|0:0,0:0:0:0:
406,270,140172,2,0,L|291:256,1,90,10|2,0:0|1:2,0:0:0:0:
371,85,140499,2,0,L|486:71,1,90,2|8,0:0|0:0,0:0:0:0:
245,167,140827,6,0,L|45:142,1,180,2|0,0:0|0:0,0:0:0:0:
23,139,141319,1,10,0:0:0:0:
150,115,141483,1,10,0:0:0:0:
184,267,141647,2,0,P|111:255|75:234,1,90,2|0,1:2|0:0,0:0:0:0:
260,192,141975,6,0,P|222:269|198:376,1,180,10|2,0:0|1:2,0:0:0:0:
144,233,142473,2,0,L|233:220,1,90,2|8,0:0|0:0,0:0:0:0:
110,132,142803,2,0,L|21:119,1,90,10|2,0:0|1:2,0:0:0:0:
145,252,143136,2,0,L|234:239,1,90,2|8,0:0|0:0,0:0:0:0:
419,214,143466,6,0,P|371:173|262:217,1,180,2|0,0:0|0:0,0:0:0:0:
192,312,143963,1,10,0:0:0:0:
269,206,144129,1,10,0:0:0:0:
413,345,144296,2,0,P|359:359|389:312,1,135,2|0,1:2|0:0,0:0:0:0:
382,342,144626,6,0,B|294:342|312:256|196:293,1,180,14|0,0:0|1:0,0:0:0:0:
88,354,145124,2,0,L|201:369,2,90,2|10|10,0:0|0:0|0:0,0:0:0:0:
218,287,145620,1,2,1:2:0:0:
138,350,145788,1,2,0:0:0:0:
36,221,145952,6,0,L|183:201,1,135,10|0,0:0|0:0,0:0:0:0:
210,191,146284,2,0,L|63:171,1,135,2|0,1:2|0:0,0:0:0:0:
26,166,146615,1,10,0:0:0:0:
162,115,146781,1,10,0:0:0:0:
9,38,146947,2,0,L|24:150,1,90,2|0,1:2|0:0,0:0:0:0:
47,306,147278,5,14,1:2:0:0:
47,306,147610,1,10,1:2:0:0:
47,306,147941,1,10,1:2:0:0:
118,271,148107,1,8,0:0:0:0:
233,338,148273,2,0,L|217:229,1,90,10|8,1:2|0:0,0:0:0:0:
195,92,148620,5,10,0:0:0:0:
113,178,148782,1,10,0:0:0:0:
113,178,148863,1,10,0:0:0:0:
113,178,148944,2,0,L|124:101,1,45,2|0,1:2|0:0,0:0:0:0:
285,194,149090,2,0,L|274:117,1,45,2|0,1:2|0:0,0:0:0:0:
118,271,149249,5,10,1:2:0:0:
308,174,149400,1,2,1:2:0:0:
159,38,149564,1,2,1:2:0:0:
204,28,149652,1,10,0:0:0:0:
248,19,149740,1,2,1:2:0:0:
292,10,149828,1,10,0:0:0:0:
336,0,149906,6,0,P|303:83|299:164,1,135,14|0,0:0|0:0,0:0:0:0:
308,174,150230,2,0,P|353:162|410:142,1,90,2|0,1:2|0:0,0:0:0:0:
212,173,150585,2,0,P|167:161|110:141,1,90,10|8,0:0|0:0,0:0:0:0:
0,291,150918,2,0,P|42:277|86:266,1,90,2|0,1:2|0:0,0:0:0:0:
299,344,151251,6,0,L|152:328,1,135,14|0,0:0|0:0,0:0:0:0:
152,302,151585,2,0,P|205:307|240:338,1,90,2|0,1:2|0:0,0:0:0:0:
84,384,151918,1,10,0:0:0:0:
165,330,152085,1,10,0:0:0:0:
44,184,152251,2,0,P|98:159|198:158,1,135,2|0,1:2|0:0,0:0:0:0:
212,173,152602,6,0,B|230:72|230:72|256:136,1,135,14|0,0:0|0:0,0:0:0:0:
254,125,152933,2,0,B|237:31,1,90,2|0,1:2|0:0,0:0:0:0:
341,174,153264,2,0,B|324:268,1,90,10|8,0:0|0:0,0:0:0:0:
359,82,153583,2,0,P|328:137|230:136,1,135,2|0,1:2|0:0,0:0:0:0:
219,132,153914,6,0,P|282:102|340:143,1,135,14|0,0:0|0:0,0:0:0:0:
350,166,154245,2,0,L|226:145,1,90,2|0,1:2|0:0,0:0:0:0:
131,126,154577,1,14,0:0:0:0:
237,36,154743,1,10,0:0:0:0:
268,264,154908,2,0,P|195:243|179:185,1,135,2|0,1:2|0:0,0:0:0:0:
198,152,155240,6,0,L|182:308,1,135,14|0,0:0|0:0,0:0:0:0:
166,326,155571,2,0,L|144:218,1,90,2|0,1:2|0:0,0:0:0:0:
303,203,155903,2,0,L|325:95,1,90,10|8,0:0|0:0,0:0:0:0:
180,63,156234,2,0,L|198:152,1,90,2|0,1:2|0:0,0:0:0:0:
226,296,156566,6,0,B|244:274|241:253|241:253|120:275,1,135,14|0,0:0|0:0,0:0:0:0:
109,260,156897,2,0,L|211:242,1,90,2|0,1:2|0:0,0:0:0:0:
315,227,157245,1,10,0:0:0:0:
297,340,157410,1,8,0:0:0:0:
320,114,157560,2,0,L|335:241,1,90,6|2,1:2|0:0,0:0:0:0:
202,172,157891,5,14,0:0:0:0:
282,168,158054,1,0,0:0:0:0:
296,321,158218,1,2,1:2:0:0:
216,325,158382,1,2,0:0:0:0:
297,244,158546,2,0,L|394:255,1,90,2|0,1:2|0:0,0:0:0:0:
262,379,158874,1,14,0:0:0:0:
296,321,159038,1,0,0:0:0:0:
271,182,159202,5,2,1:2:0:0:
166,154,159366,1,0,0:0:0:0:
252,303,159530,2,0,L|267:198,1,90,2|2,1:2|0:0,0:0:0:0:
109,93,159858,2,0,L|129:240,1,135,14|8,0:0|0:0,0:0:0:0:
131,259,160186,1,14,0:0:0:0:
108,238,160268,1,0,1:0:0:0:
79,246,160350,1,0,1:0:0:0:
69,274,160431,1,0,1:0:0:0:
87,298,160550,6,0,L|242:275,1,135,14|0,0:0|0:0,0:0:0:0:
267,270,160881,2,0,P|287:218|279:172,1,90,2|0,1:2|0:0,0:0:0:0:
399,197,161212,2,0,P|401:241|383:282,1,90,10|8,0:0|0:0,0:0:0:0:
302,113,161544,2,0,P|346:110|387:128,1,90,0|0,1:0|0:0,0:0:0:0:
348,359,161875,6,0,P|413:354|461:308,1,135,14|0,0:0|0:0,0:0:0:0:
469,280,162207,2,0,P|426:293|383:282,1,90,2|0,1:2|0:0,0:0:0:0:
388,129,162538,5,10,0:0:0:0:
472,130,162704,1,8,0:0:0:0:
332,49,162870,2,0,P|299:87|305:177,1,135,2|0,1:2|0:0,0:0:0:0:
320,221,163201,6,0,B|250:240|257:158|158:213,1,135,14|0,0:0|0:0,0:0:0:0:
171,226,163533,2,0,P|215:226|256:207,1,90,2|0,1:2|0:0,0:0:0:0:
143,96,163864,2,0,P|183:77|228:77,1,90,10|10,0:0|0:0,0:0:0:0:
150,260,164196,2,0,P|105:260|64:241,1,90,2|0,1:2|0:0,0:0:0:0:
228,77,164527,6,0,B|249:111|249:111|213:220,1,135,14|0,0:0|0:0,0:0:0:0:
198,228,164859,2,0,L|176:126,1,90,2|0,1:2|0:0,0:0:0:0:
332,239,165204,2,0,L|310:341,1,90,14|10,0:0|0:0,0:0:0:0:
375,181,165523,2,0,B|341:160|341:160|251:190,1,135,2|0,1:2|0:0,0:0:0:0:
219,201,165854,6,0,P|239:135|310:118,1,135,14|0,0:0|0:0,0:0:0:0:
343,126,166185,2,0,L|355:22,1,90,2|0,1:2|0:0,0:0:0:0:
184,18,166516,1,10,0:0:0:0:
173,107,166682,1,8,0:0:0:0:
387,42,166848,2,0,L|375:146,1,90,2|0,1:2|0:0,0:0:0:0:
503,246,167179,6,0,L|482:106,1,135,14|0,0:0|0:0,0:0:0:0:
467,69,167511,2,0,P|413:97|376:153,1,90,2|0,1:2|0:0,0:0:0:0:
288,246,167828,2,0,P|234:218|193:144,1,135,10|0,0:0|0:0,0:0:0:0:
203,112,168159,2,0,L|315:130,1,90,6|2,1:2|0:0,0:0:0:0:
490,147,168490,5,6,1:2:0:0:
376,131,168655,1,0,0:0:0:0:
483,274,168821,1,2,1:2:0:0:
369,258,168987,1,2,0:0:0:0:
479,89,169152,2,0,L|486:-13,1,90,2|8,1:2|0:0,0:0:0:0:
426,189,169484,1,6,1:2:0:0:
391,64,169650,1,10,0:0:0:0:
281,156,169815,6,0,L|288:258,1,90,2|0,1:2|0:0,0:0:0:0:
297,344,170147,1,2,1:2:0:0:
362,298,170313,1,0,0:0:0:0:
491,361,170478,2,0,L|376:353,1,90,14|0,0:0|1:0,0:0:0:0:
408,365,170721,1,0,1:0:0:0:
416,374,170802,2,0,L|506:381,1,90,14|8,0:0|0:0,0:0:0:0:
310,291,171144,5,14,0:0:0:0:
310,291,173795,5,14,0:0:0:0:
310,291,176447,5,14,0:0:0:0:
334,224,176620,1,2,0:0:0:0:
241,189,176793,2,0,L|136:198,1,90,2|0,1:2|0:0,0:0:0:0:
56,202,177134,2,0,L|89:75,2,90,2|2|2,1:2|0:0|0:0,0:0:0:0:
98,317,177620,1,2,1:2:0:0:
98,317,177782,1,2,0:0:0:0:
167,271,177959,6,0,L|266:319,2,90,2|2|2,1:2|0:0|0:0,0:0:0:0:
243,228,178445,2,0,L|342:180,1,90,2|0,1:2|0:0,0:0:0:0:
254,141,178785,2,0,L|277:33,1,90,2|0,1:2|0:0,0:0:0:0:
313,273,179116,5,14,0:0:0:0:
345,280,179447,2,0,L|451:299,1,90,2|0,1:2|0:0,0:0:0:0:
299,354,179779,2,0,L|405:335,1,90,2|0,1:2|0:0,0:0:0:0:
241,294,180110,1,2,1:2:0:0:
203,371,180276,1,2,0:0:0:0:
89,298,180442,2,0,L|79:184,1,90,2|0,1:2|0:0,0:0:0:0:
75,124,180773,1,2,1:2:0:0:
144,153,180939,1,2,0:0:0:0:
113,17,181105,6,0,L|256:40,1,135,2|8,1:2|0:0,0:0:0:0:
291,18,181436,2,0,L|343:11,1,45,2|2,1:2|1:2,0:0:0:0:
359,160,181602,2,0,L|296:170,1,45,2|2,1:2|1:2,0:0:0:0:
491,73,181750,6,0,L|465:288,1,180,14|0,0:0|1:0,0:0:0:0:
450,151,182247,1,0,0:0:0:0:
470,252,182412,2,0,L|291:230,1,180,10|0,0:0|1:0,0:0:0:0:
391,210,182910,1,0,0:0:0:0:
333,100,183075,6,0,P|273:69|150:90,1,180,10|0,0:0|1:0,0:0:0:0:
82,133,183573,1,0,0:0:0:0:
199,247,183738,2,0,P|182:209|184:251,1,90,10|0,0:0|0:0,0:0:0:0:
248,348,184070,2,0,P|276:371|281:334,1,90,2|0,1:2|0:0,0:0:0:0:
333,179,184401,6,0,B|428:144|410:232|525:232,1,180,10|0,0:0|1:0,0:0:0:0:
369,243,184899,1,0,0:0:0:0:
507,147,185064,2,0,P|469:94|490:-22,1,180,10|0,0:0|1:0,0:0:0:0:
440,125,185562,1,0,0:0:0:0:
305,60,185727,6,0,P|224:69|94:80,1,180,10|0,0:0|1:0,0:0:0:0:
29,78,186225,1,0,0:0:0:0:
163,0,186390,2,0,B|208:-11|208:-11|235:37,1,90,10|0,0:0|0:0,0:0:0:0:
237,179,186722,2,0,B|215:217|215:217|170:206,1,90,2|0,1:2|0:0,0:0:0:0:
335,51,187065,6,0,B|393:40|393:40|373:186,1,180,14|0,0:0|1:0,0:0:0:0:
358,258,187562,1,0,0:0:0:0:
233,158,187727,2,0,B|175:147|175:147|195:293,1,180,10|0,0:0|1:0,0:0:0:0:
210,365,188225,1,0,0:0:0:0:
368,329,188381,6,0,P|316:267|197:277,1,180,10|0,0:0|1:0,0:0:0:0:
114,317,188878,1,0,0:0:0:0:
6,199,189043,2,0,P|63:234|113:232,1,90,10|0,0:0|0:0,0:0:0:0:
192,216,189375,2,0,P|244:174|259:126,1,90,2|0,1:2|0:0,0:0:0:0:
153,3,189706,6,0,L|130:182,1,180,10|0,0:0|1:0,0:0:0:0:
110,99,190204,1,0,0:0:0:0:
313,85,190369,2,0,P|317:21|260:81,1,180,10|0,0:0|1:0,0:0:0:0:
298,220,190867,1,0,0:0:0:0:
466,124,191042,6,2,B|439:110|415:116|415:116|395:90|395:90|342:73|296:108,1,180,10|0,0:0|1:0,0:1:0:0:
220,168,191533,1,0,0:0:0:0:
110,99,191697,1,10,0:0:0:0:
194,155,191861,1,0,0:0:0:0:
40,232,192036,2,0,L|52:378,1,135,2|0,1:2|0:0,0:0:0:0:
53,378,192355,6,0,L|73:274,1,90,14|0,0:0|0:0,0:0:0:0:
98,183,192686,1,2,1:2:0:0:
151,233,192852,1,0,0:0:0:0:
220,168,193017,2,0,L|330:153,1,90,2|0,1:2|0:0,0:0:0:0:
211,84,193349,2,0,L|321:69,1,90,2|0,1:2|0:0,0:0:0:0:
229,252,193691,6,0,L|377:232,1,135,2|0,1:2|0:0,0:0:0:0:
385,255,194022,2,0,L|286:242,1,90,2|0,1:2|0:0,0:0:0:0:
346,344,194339,1,2,1:2:0:0:
385,255,194504,1,8,0:0:0:0:
346,344,194670,1,2,1:2:0:0:
296,243,194836,1,8,0:0:0:0:
346,344,195012,5,2,1:2:0:0:
377,279,195177,1,2,0:0:0:0:
241,235,195343,2,0,L|258:128,1,90,2|0,1:2|0:0,0:0:0:0:
218,324,195674,2,0,L|201:217,1,90,2|0,1:2|0:0,0:0:0:0:
363,368,196006,2,0,L|380:261,1,90,2|0,1:2|0:0,0:0:0:0:
144,364,196337,6,0,L|121:225,1,135,2|0,1:2|0:0,0:0:0:0:
114,185,196669,2,0,L|3:223,1,90,2|0,1:2|0:0,0:0:0:0:
203,235,197005,1,2,1:2:0:0:
223,127,197173,1,8,0:0:0:0:
203,235,197342,1,2,1:2:0:0:
174,81,197510,1,8,0:0:0:0:
133,298,197665,5,6,1:2:0:0:
187,266,197782,1,2,0:0:0:0:
249,272,197900,1,2,0:0:0:0:
299,318,198017,5,2,1:2:0:0:
366,354,198135,1,2,0:0:0:0:
440,347,198253,1,2,0:0:0:0:
497,295,198355,6,0,L|474:193,1,90,2|10,1:2|0:0,0:0:0:0:
448,76,198670,2,0,L|470:15,2,45,2|2|2,1:2|0:0|0:0,0:0:0:0:
477,207,198990,5,2,1:2:0:0:
406,175,199155,1,2,0:0:0:0:
289,281,199321,2,0,P|217:243|213:171,1,135,2|0,1:2|0:0,0:0:0:0:
214,150,199652,2,0,L|104:176,1,90,2|8,1:2|0:0,0:0:0:0:
192,47,199984,2,0,L|302:73,1,90,2|8,1:2|0:0,0:0:0:0:
466,120,200326,6,0,L|390:139,1,45,2|0,1:2|0:0,0:0:0:0:
281,175,200491,2,0,L|391:201,1,90,2|0,1:2|1:0,0:0:0:0:
304,76,200810,1,2,1:2:0:0:
269,210,200970,2,0,L|294:340,1,90,2|0,1:2|1:0,0:0:0:0:
313,57,201322,1,2,1:2:0:0:
67,117,201465,5,6,1:2:0:0:
67,117,202612,2,0,P|121:131|91:84,1,135,2|0,0:0|0:0,0:0:0:0:
96,115,202965,6,0,L|116:269,1,135,14|0,0:0|0:0,0:0:0:0:
119,295,203310,1,2,1:2:0:0:
96,115,203490,2,0,L|80:-4,1,90,2|8,0:0|0:0,0:0:0:0:
261,2,203807,1,10,0:0:0:0:
268,92,203966,1,2,1:2:0:0:
96,115,204131,2,0,L|-11:100,1,90,2|8,0:0|0:0,0:0:0:0:
113,248,204463,6,0,L|294:223,1,180,2|0,0:0|0:0,0:0:0:0:
180,198,204955,1,10,0:0:0:0:
119,295,205120,1,10,0:0:0:0:
0,192,205286,2,0,L|7:92,1,90,2|0,1:2|0:0,0:0:0:0:
0,225,205617,6,0,P|87:237|158:185,1,180,10|2,0:0|1:2,0:0:0:0:
237,217,206111,2,0,P|214:256|183:288,1,90,2|8,0:0|0:0,0:0:0:0:
166,115,206441,2,0,P|143:76|111:44,1,90,10|2,0:0|1:2,0:0:0:0:
158,185,206770,2,0,P|87:237|49:241,1,90,2|8,0:0|0:0,0:0:0:0:
230,147,207100,6,0,L|421:178,1,180,2|0,0:0|0:0,0:0:0:0:
293,229,207605,1,10,0:0:0:0:
376,194,207770,1,10,0:0:0:0:
225,117,207936,2,0,L|210:-8,1,90,2|0,1:2|0:0,0:0:0:0:
95,206,208267,6,0,L|118:20,1,180,14|0,0:0|1:0,0:0:0:0:
95,206,208764,2,0,P|139:202|176:178,1,90,2|8,0:0|0:0,0:0:0:0:
225,117,209095,1,8,0:0:0:0:
95,206,209261,1,2,1:2:0:0:
177,178,209427,1,2,0:0:0:0:
135,325,209592,6,0,L|27:310,1,90,10|0,0:0|0:0,0:0:0:0:
218,253,209924,2,0,L|326:238,1,90,2|0,1:2|0:0,0:0:0:0:
40,223,210255,2,0,P|38:282|51:326,1,90,10|8,0:0|0:0,0:0:0:0:
307,240,210587,2,0,P|292:182|268:145,1,90,2|0,1:2|0:0,0:0:0:0:
94,102,210918,6,0,B|192:108|143:9|279:32,1,180,10|0,0:0|1:0,0:0:0:0:
99,20,211416,1,0,0:0:0:0:
66,198,211581,1,10,0:0:0:0:
66,198,211747,1,10,0:0:0:0:
40,53,211913,1,2,1:2:0:0:
40,53,212079,1,0,0:0:0:0:
235,99,212244,6,0,L|324:88,1,90,10|8,0:0|0:0,0:0:0:0:
456,205,212576,2,0,B|416:223|416:223|310:199,1,135,6|0,1:2|0:0,0:0:0:0:
278,192,212907,1,10,0:0:0:0:
327,301,213093,1,10,0:0:0:0:
381,91,213258,2,0,B|391:53|391:53|406:158,1,135,6|0,1:2|0:0,0:0:0:0:
415,194,213590,6,0,L|436:22,1,135,14|0,0:0|0:0,0:0:0:0:
438,16,213921,1,2,1:2:0:0:
415,194,214087,2,0,L|399:324,1,90,2|8,0:0|0:0,0:0:0:0:
317,136,214418,2,0,L|301:6,1,90,10|2,0:0|1:2,0:0:0:0:
218,253,214750,2,0,L|202:383,1,90,2|8,0:0|0:0,0:0:0:0:
317,136,215081,6,0,L|117:111,1,180,2|0,0:0|0:0,0:0:0:0:
235,153,215578,1,10,0:0:0:0:
114,214,215744,1,10,0:0:0:0:
288,288,215910,2,0,P|331:347|342:388,1,90,2|0,1:2|0:0,0:0:0:0:
415,194,216232,6,0,P|353:229|277:154,1,180,10|2,0:0|1:2,0:0:0:0:
410,98,216729,2,0,L|499:85,1,90,2|8,0:0|0:0,0:0:0:0:
309,18,217060,2,0,L|220:5,1,90,10|2,0:0|1:2,0:0:0:0:
189,180,217392,2,0,L|278:167,1,90,2|8,0:0|0:0,0:0:0:0:
24,64,217723,6,0,P|88:71|154:179,1,180,2|0,0:0|0:0,0:0:0:0:
12,96,218220,1,10,0:0:0:0:
165,85,218386,1,10,0:0:0:0:
115,293,218552,2,0,P|169:307|139:260,1,135,2|0,1:2|0:0,0:0:0:0:
145,290,218899,6,0,B|233:290|215:204|331:241,1,180,14|0,0:0|1:0,0:0:0:0:
473,273,219395,2,0,L|452:160,2,90,2|10|10,0:0|0:0|0:0,0:0:0:0:
447,142,219889,1,2,1:2:0:0:
387,318,220054,1,2,0:0:0:0:
183,204,220219,6,0,L|12:223,1,135,10|0,0:0|0:0,0:0:0:0:
0,225,220548,2,0,L|19:54,1,135,2|0,1:2|0:0,0:0:0:0:
22,40,220878,1,10,0:0:0:0:
48,218,221043,1,10,0:0:0:0:
169,73,221209,2,0,L|184:185,1,90,2|0,1:2|0:0,0:0:0:0:
216,384,221540,5,14,1:2:0:0:
216,384,221871,1,10,1:2:0:0:
262,259,222202,1,10,1:2:0:0:
188,298,222368,1,8,0:0:0:0:
40,211,222534,2,0,L|56:102,1,90,10|8,1:2|0:0,0:0:0:0:
19,345,222865,6,0,B|144:348|152:217|271:262,1,270,10|0,0:0|0:0,0:0:0:0:
383,324,223528,1,10,1:2:0:0:
351,152,223694,1,10,0:0:0:0:
351,152,223777,1,10,0:0:0:0:
351,152,223860,2,0,L|432:164,1,45,2|10,1:2|0:0,0:0:0:0:
267,36,224026,2,0,L|348:24,1,45,2|10,1:2|0:0,0:0:0:0:
184,179,224180,5,2,0:0:0:0:
155,273,224345,1,2,0:0:0:0:
195,334,224511,1,2,0:0:0:0:
190,364,224677,1,2,0:0:0:0:
121,130,224863,6,0,B|186:102|194:159|266:159,1,135,14|0,0:0|0:0,0:0:0:0:
295,151,225194,2,0,P|317:102|315:52,1,90,2|0,1:2|0:0,0:0:0:0:
98,45,225525,2,0,P|101:89|121:129,1,90,10|8,0:0|0:0,0:0:0:0:
324,166,225857,2,0,P|346:117|344:67,1,90,2|0,1:2|0:0,0:0:0:0:
150,207,226188,6,0,P|217:234|293:220,1,135,14|0,0:0|0:0,0:0:0:0:
321,212,226520,2,0,P|344:265|354:313,1,90,2|0,1:2|0:0,0:0:0:0:
212,275,226851,1,10,0:0:0:0:
212,275,227017,1,10,0:0:0:0:
280,158,227183,2,0,L|426:176,1,135,2|0,1:2|0:0,0:0:0:0:
461,176,227514,6,0,P|501:131|473:50,1,135,14|0,0:0|0:0,0:0:0:0:
452,38,227833,2,0,L|468:158,1,90,2|0,1:2|0:0,0:0:0:0:
268,247,228164,2,0,L|284:127,1,90,10|8,0:0|0:0,0:0:0:0:
478,35,228495,2,0,L|494:155,1,90,2|0,1:2|0:0,0:0:0:0:
510,289,228827,6,0,P|460:255|366:285,1,135,14|0,0:0|0:0,0:0:0:0:
363,295,229158,2,0,P|431:300|458:286,1,90,2|0,1:2|0:0,0:0:0:0:
307,218,229490,1,14,0:0:0:0:
363,295,229656,1,10,0:0:0:0:
210,363,229821,2,0,L|225:208,1,135,2|0,1:2|0:0,0:0:0:0:
228,182,230163,6,0,P|160:158|95:198,1,135,14|0,0:0|0:0,0:0:0:0:
129,220,230494,2,0,P|172:236|217:210,1,90,2|0,1:2|0:0,0:0:0:0:
207,46,230825,2,0,P|163:30|119:56,1,90,10|8,0:0|0:0,0:0:0:0:
130,252,231157,2,0,P|172:265|214:252,1,90,2|0,1:2|0:0,0:0:0:0:
376,113,231488,6,0,P|334:175|311:261,1,135,14|0,0:0|0:0,0:0:0:0:
316,279,231820,2,0,L|419:260,1,90,2|0,1:2|0:0,0:0:0:0:
507,105,232151,2,0,B|450:97|450:97|408:128|408:128|322:124,1,180,10|0,0:0|1:0,0:0:0:0:
173,188,232649,1,2,0:0:0:0:
338,125,232814,5,14,0:0:0:0:
353,222,232980,1,0,0:0:0:0:
174,259,233146,1,2,1:2:0:0:
159,162,233312,1,2,0:0:0:0:
353,222,233477,2,0,L|206:203,1,135,2|0,1:2|0:0,0:0:0:0:
179,199,233809,2,0,L|193:287,1,90,14|0,0:0|0:0,0:0:0:0:
311,134,234140,5,2,1:2:0:0:
398,112,234306,1,0,0:0:0:0:
375,0,234472,1,2,1:2:0:0:
288,22,234638,1,2,0:0:0:0:
408,135,234803,2,0,L|526:151,1,90,14|0,0:0|1:0,0:0:0:0:
493,158,235039,1,0,1:0:0:0:
489,168,235118,2,0,L|370:151,1,90,14|0,0:0|1:0,0:0:0:0:
400,166,235355,1,0,1:0:0:0:
401,176,235455,6,0,B|351:203|351:203|247:177,1,135,14|0,0:0|0:0,0:0:0:0:
200,152,235792,2,0,L|223:305,1,135,6|0,1:2|0:0,0:0:0:0:
224,335,236150,2,0,P|173:301|112:295,1,90,10|8,0:0|0:0,0:0:0:0:
373,233,236481,2,0,L|271:252,1,90,0|0,1:0|0:0,0:0:0:0:
462,366,236805,6,0,P|504:323|499:221,1,135,14|0,0:0|0:0,0:0:0:0:
479,222,237136,2,0,L|493:321,1,90,2|0,1:2|0:0,0:0:0:0:
284,249,237467,2,0,P|242:206|247:104,1,135,10|0,0:0|0:0,0:0:0:0:
267,105,237799,2,0,L|253:204,1,90,2|0,1:2|0:0,0:0:0:0:
283,1,238130,6,0,L|448:29,1,135,14|0,0:0|0:0,0:0:0:0:
460,34,238462,2,0,L|371:49,1,90,2|0,1:2|0:0,0:0:0:0:
185,89,238783,1,10,0:0:0:0:
185,89,238948,1,10,0:0:0:0:
379,237,239114,2,0,P|333:212|367:251,1,135,2|0,1:2|0:0,0:0:0:0:
352,228,239445,6,0,L|365:72,1,135,14|0,0:0|0:0,0:0:0:0:
371,48,239776,2,0,L|404:163,1,90,2|0,1:2|0:0,0:0:0:0:
436,260,240107,1,14,0:0:0:0:
352,228,240273,1,10,0:0:0:0:
484,125,240439,2,0,P|427:87|356:97,1,135,2|0,1:2|0:0,0:0:0:0:
318,112,240770,6,0,B|247:118|267:46|172:78,1,135,14|0,0:0|0:0,0:0:0:0:
154,88,241102,2,0,L|176:194,1,90,2|0,1:2|0:0,0:0:0:0:
22,204,241433,2,0,L|0:98,1,90,10|8,0:0|0:0,0:0:0:0:
181,205,241765,2,0,L|162:293,1,90,2|0,1:2|0:0,0:0:0:0:
0,92,242096,6,0,P|58:68|133:111,1,135,14|0,0:0|0:0,0:0:0:0:
144,130,242428,2,0,P|94:116|71:77,1,90,2|0,1:2|0:0,0:0:0:0:
285,39,242759,2,0,L|430:52,1,135,10|0,0:0|0:0,0:0:0:0:
463,57,243091,1,6,1:2:0:0:
347,87,243257,1,2,0:0:0:0:
478,205,243422,5,6,1:2:0:0:
455,311,243588,1,0,0:0:0:0:
278,276,243754,1,2,1:2:0:0:
301,170,243920,1,2,0:0:0:0:
494,210,244085,2,0,L|512:298,1,90,2|8,1:2|0:0,0:0:0:0:
337,231,244417,1,6,1:2:0:0:
356,320,244583,1,10,0:0:0:0:
411,177,244748,6,0,L|429:89,1,90,2|2,1:2|1:2,0:0:0:0:
447,46,244997,1,2,1:2:0:0:
447,46,245080,1,2,1:2:0:0:
494,210,245246,1,2,0:0:0:0:
284,148,245411,2,0,L|308:36,1,90,14|0,0:0|1:0,0:0:0:0:
311,71,245660,1,0,1:0:0:0:
318,81,245743,2,0,L|300:170,1,90,14|8,0:0|0:0,0:0:0:0:
266,313,246089,6,0,B|288:285|319:286|319:286|352:372,1,135,14|0,0:0|0:0,0:0:0:0:
359,384,246420,2,0,L|389:240,1,135,6|0,1:2|0:0,0:0:0:0:
405,164,246751,2,0,B|361:184|361:184|261:160,1,135,10|0,0:0|0:0,0:0:0:0:
234,149,247083,2,0,P|296:122|348:173,1,135,6|0,1:2|0:0,0:0:0:0:
393,282,247414,6,0,P|453:250|459:162,1,135,10|0,0:0|0:0,0:0:0:0:
456,144,247746,2,0,B|496:127|496:127|480:228,1,135,6|0,1:2|0:0,0:0:0:0:
449,348,248075,2,0,P|482:350|448:328,1,90,10|0,0:0|0:0,0:0:0:0:
306,371,248375,2,0,P|273:373|307:351,1,90,6|0,1:2|0:0,0:0:0:0:
482,217,248720,6,0,P|424:185|320:185,1,135,14|0,0:0|0:0,0:0:0:0:
311,205,249051,2,0,L|452:193,1,135,6|0,1:2|0:0,0:0:0:0:
496,120,249382,2,0,B|505:84|505:84|408:113,1,135,10|0,0:0|0:0,0:0:0:0:
360,122,249714,2,0,L|413:8,1,90,6|0,1:2|0:0,0:0:0:0:
311,205,250045,6,0,L|374:340,1,135,10|0,0:0|0:0,0:0:0:0:
389,367,250377,2,0,P|342:331|287:321,1,90,6|0,1:2|0:0,0:0:0:0:
198,322,250708,1,10,0:0:0:0:
123,366,250874,1,10,0:0:0:0:
42,228,251040,2,0,P|117:224|173:279,1,135,6|0,1:2|0:0,0:0:0:0:
198,322,251371,6,0,L|300:312,1,90,14|0,0:0|0:0,0:0:0:0:
432,309,251703,2,0,L|274:292,1,135,6|0,1:2|0:0,0:0:0:0:
257,288,252034,2,0,P|307:253|349:260,1,90,10|0,0:0|0:0,0:0:0:0:
376,351,252366,2,0,P|326:386|284:379,1,90,6|0,1:2|0:0,0:0:0:0:
413,276,252697,5,10,0:0:0:0:
276,223,252863,2,0,L|286:104,1,90,2|6,0:0|1:2,0:0:0:0:
295,37,253195,2,0,L|392:67,2,90,2|10|10,0:0|0:0|0:0,0:0:0:0:
181,109,253692,2,0,L|84:139,1,90,6|2,1:2|0:0,0:0:0:0:
47,155,253940,1,2,0:0:0:0:
47,155,254023,6,0,L|76:58,1,60,14|2,0:0|0:0,0:0:0:0:
91,10,254244,1,2,0:0:0:0:
191,131,254355,6,0,L|216:215,1,60,6|2,1:2|0:0,0:0:0:0:
228,257,254576,1,2,0:0:0:0:
329,193,254686,6,0,L|449:208,1,90,10|0,0:0|0:0,0:0:0:0:
232,284,255018,2,0,L|112:299,1,90,6|0,1:2|0:0,0:0:0:0:
6,314,255349,1,10,0:0:0:0:
114,270,255515,1,10,0:0:0:0:
31,159,255681,2,0,B|66:134|66:134|58:245,1,135,6|0,1:2|0:0,0:0:0:0:
57,273,256012,2,0,P|79:237|77:288,1,135,10|0,0:0|0:0,0:0:0:0:
77,266,256344,2,0,L|218:283,1,135,6|0,1:2|0:0,0:0:0:0:
295,294,256675,5,14,0:0:0:0:
256,104,256841,1,14,0:0:0:0:
