osu file format v14

[General]
AudioFilename: audio.mp3
AudioLeadIn: 0
PreviewTime: 121297
Countdown: 0
SampleSet: Normal
StackLeniency: 0.7
Mode: 1
LetterboxInBreaks: 0
WidescreenStoryboard: 1

[Editor]
DistanceSpacing: 1.4
BeatDivisor: 4
GridSize: 32
TimelineZoom: 2.3

[Metadata]
Title:Yumesaki After school
TitleUnicode:夢咲きAfter school
Artist:HO-KA-GO CLIMAX GIRLS
ArtistUnicode:放課後クライマックスガールズ
Creator:Rinze
Version:Muzukashii
Source:アイドルマスター シャイニーカラーズ
Tags:杜野凛世 Morino Rinze 丸岡和佳奈 Maruoka Wakana namaniku ler1211 THE iDOLM@STER Shiny Colors BRILLI@NT WING 04 brilliant idolmaster imas im@s 小宮果穂 Komiya Kaho 河野ひより Kono Hiyori 園田智代子 Sonoda Chiyoko 白石晴香 Shiraishi Haruka 西城樹里 Saijo Juri 永井真里子 Nagai Mariko 有栖川夏葉 Arisugawa Natsuha 涼本あきほ Suzumoto Akiho japanese pop jpop j-pop rock jrock j-rock video game full ver. version houkago hokago
BeatmapID:3914920
BeatmapSetID:1899013

[Difficulty]
HPDrainRate:5.5
CircleSize:5
OverallDifficulty:5
ApproachRate:5
SliderMultiplier:1.4
SliderTickRate:1

[Events]
//Background and Video events
0,0,"SC_S_Sonoda_Chiyoko_SSR06.jpg",0,0
//Break Periods
2,174826,179112
//Storyboard Layer 0 (Background)
//Storyboard Layer 1 (Fail)
//Storyboard Layer 2 (Pass)
//Storyboard Layer 3 (Foreground)
//Storyboard Layer 4 (Overlay)
//Storyboard Sound Samples

[TimingPoints]
655,342.857142857143,4,1,0,80,1,0
4940,-100,4,1,0,30,0,0
5626,-100,4,1,0,80,0,0
17112,-100,4,1,0,50,0,0
18397,-100,4,1,0,70,0,0
21140,-100,4,1,0,80,0,0
24140,-100,4,1,0,70,0,0
26626,-100,4,1,0,80,0,0
52739,-100,4,1,0,60,0,0
53626,-100,4,1,0,80,0,0
54140,-100,4,1,0,90,0,1
63740,-100,4,1,0,80,0,0
65112,-100,4,1,0,90,0,1
73340,-100,4,1,0,70,0,0
75567,-100,4,1,0,80,0,0
86969,-100,4,1,0,60,0,0
89712,-100,4,1,0,80,0,0
92712,-100,4,1,0,70,0,0
95198,-100,4,1,0,80,0,0
121512,-100,4,1,0,60,0,0
122198,-100,4,1,0,80,0,0
122712,-100,4,1,0,90,0,1
132312,-100,4,1,0,80,0,0
133683,-100,4,1,0,90,0,1
141912,-100,4,1,0,70,0,0
144569,-100,4,1,0,80,0,0
144997,-100,4,1,0,70,0,0
149369,-100,4,1,0,80,0,0
154897,-100,4,1,0,40,0,0
155540,-100,4,1,0,85,0,0
155797,-100,4,1,0,70,0,0
163853,-100,4,1,0,80,0,0
173540,-100,4,1,0,50,0,0
174826,-100,4,1,0,50,0,0
180310,-100,4,1,0,80,0,0
183055,-100,4,1,0,50,0,0
183997,-100,4,1,0,80,0,0
185797,-100,4,1,0,90,0,1
194026,-100,4,1,0,70,0,0
196769,-100,4,1,0,80,0,0
207740,-100,4,1,0,90,0,1
218712,-100,4,1,0,80,0,0

[HitObjects]
256,192,655,5,0,0:0:0:0:
256,192,826,1,0,0:0:0:0:
256,192,997,1,8,0:0:0:0:
256,192,1340,1,0,0:0:0:0:
256,192,1512,1,0,0:0:0:0:
256,192,1683,1,8,0:0:0:0:
256,192,2026,1,0,0:0:0:0:
256,192,2197,1,8,0:0:0:0:
256,192,2369,1,0,0:0:0:0:
256,192,2540,1,8,0:0:0:0:
256,192,2712,1,0,0:0:0:0:
256,192,2883,1,0,0:0:0:0:
256,192,3055,1,0,0:0:0:0:
256,192,3226,1,0,0:0:0:0:
256,192,3397,1,8,0:0:0:0:
256,192,3483,1,8,0:0:0:0:
256,192,3569,1,8,0:0:0:0:
256,192,3740,1,0,0:0:0:0:
256,192,3912,1,0,0:0:0:0:
256,192,4083,1,8,0:0:0:0:
256,192,4169,1,8,0:0:0:0:
256,192,4255,1,8,0:0:0:0:
256,192,4426,1,0,0:0:0:0:
256,192,4597,1,8,0:0:0:0:
256,192,4769,1,0,0:0:0:0:
256,192,5797,1,8,0:0:0:0:
256,192,6140,1,4,0:0:0:0:
256,192,6483,1,8,0:0:0:0:
256,192,6655,1,0,0:0:0:0:
256,192,6740,1,0,0:0:0:0:
256,192,6826,1,0,0:0:0:0:
256,192,6997,1,0,0:0:0:0:
256,192,7169,1,8,0:0:0:0:
256,192,7512,1,0,0:0:0:0:
256,192,7855,1,8,0:0:0:0:
256,192,8026,1,0,0:0:0:0:
256,192,8369,1,0,0:0:0:0:
256,192,8540,1,8,0:0:0:0:
256,192,8712,1,8,0:0:0:0:
256,192,8883,1,0,0:0:0:0:
256,192,9226,1,8,0:0:0:0:
256,192,9740,1,0,0:0:0:0:
256,192,9912,1,8,0:0:0:0:
256,192,10255,1,0,0:0:0:0:
256,192,10426,1,0,0:0:0:0:
256,192,10597,1,8,0:0:0:0:
256,192,10769,1,0,0:0:0:0:
256,192,11112,1,0,0:0:0:0:
256,192,11283,1,8,0:0:0:0:
256,192,11369,1,8,0:0:0:0:
256,192,11455,1,8,0:0:0:0:
256,192,11626,1,4,0:0:0:0:
256,192,11969,1,8,0:0:0:0:
256,192,12140,1,8,0:0:0:0:
256,192,12312,1,0,0:0:0:0:
256,192,12397,1,0,0:0:0:0:
256,192,12483,1,0,0:0:0:0:
256,192,12655,1,8,0:0:0:0:
256,192,12997,1,0,0:0:0:0:
256,192,13340,1,8,0:0:0:0:
256,192,13512,1,0,0:0:0:0:
256,192,13855,1,0,0:0:0:0:
256,192,14026,1,8,0:0:0:0:
256,192,14369,1,0,0:0:0:0:
256,192,14540,1,0,0:0:0:0:
256,192,14712,1,8,0:0:0:0:
256,192,15226,1,0,0:0:0:0:
256,192,15397,1,8,0:0:0:0:
256,192,15740,1,0,0:0:0:0:
256,192,15912,1,0,0:0:0:0:
256,192,16083,1,8,0:0:0:0:
256,192,16169,1,8,0:0:0:0:
256,192,16255,1,8,0:0:0:0:
256,192,16426,1,0,0:0:0:0:
256,192,16597,1,0,0:0:0:0:
256,192,16769,1,8,0:0:0:0:
256,192,16940,1,0,0:0:0:0:
256,192,18483,1,4,0:0:0:0:
256,192,18826,1,8,0:0:0:0:
256,192,19340,1,0,0:0:0:0:
256,192,19512,1,8,0:0:0:0:
256,192,19855,1,0,0:0:0:0:
256,192,20197,1,8,0:0:0:0:
256,192,20369,1,0,0:0:0:0:
256,192,20712,1,0,0:0:0:0:
256,192,20883,1,8,0:0:0:0:
256,192,21226,1,4,0:0:0:0:
256,192,21569,1,8,0:0:0:0:
256,192,21740,1,8,0:0:0:0:
256,192,21912,1,0,0:0:0:0:
256,192,22083,1,0,0:0:0:0:
256,192,22255,1,8,0:0:0:0:
256,192,22426,1,0,0:0:0:0:
256,192,22769,1,0,0:0:0:0:
256,192,22940,1,8,0:0:0:0:
256,192,23112,1,8,0:0:0:0:
256,192,23283,1,0,0:0:0:0:
256,192,23455,1,8,0:0:0:0:
256,192,23540,1,8,0:0:0:0:
256,192,23626,1,8,0:0:0:0:
256,192,23969,1,4,0:0:0:0:
256,192,24312,1,8,0:0:0:0:
256,192,24826,1,0,0:0:0:0:
256,192,24997,1,8,0:0:0:0:
256,192,25340,1,0,0:0:0:0:
256,192,25683,1,8,0:0:0:0:
256,192,25855,1,0,0:0:0:0:
256,192,26197,1,0,0:0:0:0:
256,192,26369,1,8,0:0:0:0:
256,192,26712,1,4,0:0:0:0:
256,192,27055,1,8,0:0:0:0:
256,192,27226,1,8,0:0:0:0:
256,192,27397,1,0,0:0:0:0:
256,192,27483,1,0,0:0:0:0:
256,192,27569,1,0,0:0:0:0:
256,192,27740,1,8,0:0:0:0:
256,192,27912,1,0,0:0:0:0:
256,192,28255,1,0,0:0:0:0:
256,192,28426,1,8,0:0:0:0:
256,192,28597,1,0,0:0:0:0:
256,192,28769,1,8,0:0:0:0:
256,192,28940,1,8,0:0:0:0:
256,192,29026,1,8,0:0:0:0:
256,192,29112,1,8,0:0:0:0:
256,192,29455,1,4,0:0:0:0:
256,192,29797,1,8,0:0:0:0:
256,192,29969,1,8,0:0:0:0:
256,192,30140,1,0,0:0:0:0:
256,192,30312,1,0,0:0:0:0:
256,192,30655,1,8,0:0:0:0:
256,192,30826,1,0,0:0:0:0:
256,192,30997,1,8,0:0:0:0:
256,192,31169,1,8,0:0:0:0:
256,192,31512,1,0,0:0:0:0:
256,192,31683,1,0,0:0:0:0:
256,192,32197,1,0,0:0:0:0:
256,192,32540,1,8,0:0:0:0:
256,192,32712,1,8,0:0:0:0:
256,192,32883,1,0,0:0:0:0:
256,192,33226,1,8,0:0:0:0:
256,192,33397,1,0,0:0:0:0:
256,192,33740,1,0,0:0:0:0:
256,192,33912,1,8,0:0:0:0:
256,192,34083,1,8,0:0:0:0:
256,192,34255,1,0,0:0:0:0:
256,192,34340,1,0,0:0:0:0:
256,192,34426,1,0,0:0:0:0:
256,192,34597,1,8,0:0:0:0:
256,192,34769,1,8,0:0:0:0:
256,192,34940,1,4,0:0:0:0:
256,192,35283,1,8,0:0:0:0:
256,192,35626,1,0,0:0:0:0:
256,192,35797,1,0,0:0:0:0:
256,192,35969,1,8,0:0:0:0:
256,192,36312,1,8,0:0:0:0:
256,192,36483,1,0,0:0:0:0:
256,192,36655,1,8,0:0:0:0:
256,192,37169,1,0,0:0:0:0:
256,192,37340,1,8,0:0:0:0:
256,192,37512,1,8,0:0:0:0:
256,192,37683,1,4,0:0:0:0:
256,192,38026,1,8,0:0:0:0:
256,192,38197,1,0,0:0:0:0:
256,192,38540,1,0,0:0:0:0:
256,192,38712,1,8,0:0:0:0:
256,192,38883,1,4,0:0:0:0:
256,192,39226,1,0,0:0:0:0:
256,192,39397,1,8,0:0:0:0:
256,192,39569,1,0,0:0:0:0:
256,192,39740,1,8,0:0:0:0:
256,192,39912,1,0,0:0:0:0:
256,192,40083,1,8,0:0:0:0:
256,192,40255,1,8,0:0:0:0:
256,192,40426,1,4,0:0:0:0:
256,192,40683,1,4,0:0:0:0:
256,192,40940,1,4,0:0:0:0:
256,192,41112,1,12,0:0:0:0:
256,192,41797,1,8,0:0:0:0:
256,192,41969,1,8,0:0:0:0:
256,192,42140,1,0,0:0:0:0:
256,192,42312,1,8,0:0:0:0:
256,192,42483,1,0,0:0:0:0:
256,192,42569,1,0,0:0:0:0:
256,192,42655,1,0,0:0:0:0:
256,192,42826,1,8,0:0:0:0:
256,192,42997,1,8,0:0:0:0:
256,192,43169,1,4,0:0:0:0:
256,192,43426,1,4,0:0:0:0:
256,192,43683,1,4,0:0:0:0:
256,192,43855,1,12,0:0:0:0:
256,192,44540,1,0,0:0:0:0:
256,192,44712,1,8,0:0:0:0:
256,192,44797,1,8,0:0:0:0:
256,192,44883,1,8,0:0:0:0:
256,192,45055,1,0,0:0:0:0:
256,192,45226,1,8,0:0:0:0:
256,192,45397,1,0,0:0:0:0:
256,192,45569,1,8,0:0:0:0:
256,192,45740,1,8,0:0:0:0:
256,192,45912,1,4,0:0:0:0:
256,192,46255,1,8,0:0:0:0:
256,192,46769,1,0,0:0:0:0:
256,192,46940,1,8,0:0:0:0:
256,192,47112,1,8,0:0:0:0:
256,192,47283,1,0,0:0:0:0:
256,192,47626,1,8,0:0:0:0:
256,192,47797,1,0,0:0:0:0:
256,192,48140,1,0,0:0:0:0:
256,192,48312,1,8,0:0:0:0:
256,192,48483,1,8,0:0:0:0:
256,192,48655,1,4,0:0:0:0:
256,192,48997,1,8,0:0:0:0:
256,192,49169,1,8,0:0:0:0:
256,192,49340,1,0,0:0:0:0:
256,192,49512,1,0,0:0:0:0:
256,192,49683,1,8,0:0:0:0:
256,192,50026,1,0,0:0:0:0:
256,192,50197,1,0,0:0:0:0:
256,192,50369,1,8,0:0:0:0:
256,192,50540,1,0,0:0:0:0:
256,192,50712,1,0,0:0:0:0:
256,192,50883,1,0,0:0:0:0:
256,192,51055,1,8,0:0:0:0:
256,192,51226,1,8,0:0:0:0:
256,192,51397,1,0,0:0:0:0:
256,192,51483,1,0,0:0:0:0:
256,192,51569,1,0,0:0:0:0:
256,192,51740,1,8,0:0:0:0:
256,192,51912,1,8,0:0:0:0:
256,192,52083,1,0,0:0:0:0:
256,192,52169,1,0,0:0:0:0:
256,192,52255,1,0,0:0:0:0:
256,192,52426,1,8,0:0:0:0:
256,192,52597,1,8,0:0:0:0:
256,192,52769,1,0,0:0:0:0:
256,192,53797,1,8,0:0:0:0:
256,192,54140,1,4,0:0:0:0:
256,192,54483,1,8,0:0:0:0:
256,192,54655,1,8,0:0:0:0:
256,192,54826,1,0,0:0:0:0:
256,192,54912,1,0,0:0:0:0:
256,192,54997,1,0,0:0:0:0:
256,192,55169,1,8,0:0:0:0:
256,192,55512,1,0,0:0:0:0:
256,192,55683,1,8,0:0:0:0:
256,192,55769,1,8,0:0:0:0:
256,192,55855,1,8,0:0:0:0:
256,192,56026,1,8,0:0:0:0:
256,192,56369,1,0,0:0:0:0:
256,192,56883,1,8,0:0:0:0:
256,192,57055,1,0,0:0:0:0:
256,192,57226,1,8,0:0:0:0:
256,192,57312,1,8,0:0:0:0:
256,192,57397,1,8,0:0:0:0:
256,192,57569,1,0,0:0:0:0:
256,192,57912,1,8,0:0:0:0:
256,192,58083,1,8,0:0:0:0:
256,192,58255,1,0,0:0:0:0:
256,192,58340,1,0,0:0:0:0:
256,192,58426,1,0,0:0:0:0:
256,192,58597,1,8,0:0:0:0:
256,192,58769,1,8,0:0:0:0:
256,192,58940,1,0,0:0:0:0:
256,192,59112,1,8,0:0:0:0:
256,192,59197,1,8,0:0:0:0:
256,192,59283,1,8,0:0:0:0:
256,192,59455,1,8,0:0:0:0:
256,192,59626,1,0,0:0:0:0:
256,192,60140,1,8,0:0:0:0:
256,192,60312,1,0,0:0:0:0:
256,192,60483,1,8,0:0:0:0:
256,192,60569,1,8,0:0:0:0:
256,192,60655,1,8,0:0:0:0:
256,192,60826,1,8,0:0:0:0:
256,192,60997,1,0,0:0:0:0:
256,192,61340,1,8,0:0:0:0:
256,192,61512,1,0,0:0:0:0:
256,192,61597,1,0,0:0:0:0:
256,192,61683,1,0,0:0:0:0:
256,192,61855,1,0,0:0:0:0:
256,192,62026,1,8,0:0:0:0:
256,192,62197,1,8,0:0:0:0:
256,192,62369,1,0,0:0:0:0:
256,192,62712,1,8,0:0:0:0:
256,192,62797,1,8,0:0:0:0:
256,192,62883,1,8,0:0:0:0:
256,192,63055,1,0,0:0:0:0:
256,192,63226,1,0,0:0:0:0:
256,192,63397,1,12,0:0:0:0:
256,192,63740,1,0,0:0:0:0:
256,192,64083,1,8,0:0:0:0:
256,192,64255,1,0,0:0:0:0:
256,192,64597,1,0,0:0:0:0:
256,192,64769,1,8,0:0:0:0:
256,192,65112,1,4,0:0:0:0:
256,192,65455,1,8,0:0:0:0:
256,192,65626,1,8,0:0:0:0:
256,192,65797,1,0,0:0:0:0:
256,192,65883,1,0,0:0:0:0:
256,192,65969,1,0,0:0:0:0:
256,192,66140,1,8,0:0:0:0:
256,192,66483,1,0,0:0:0:0:
256,192,66655,1,0,0:0:0:0:
256,192,66826,1,8,0:0:0:0:
256,192,66997,1,0,0:0:0:0:
256,192,67083,1,0,0:0:0:0:
256,192,67169,1,0,0:0:0:0:
256,192,67340,1,8,0:0:0:0:
256,192,67855,1,8,0:0:0:0:
256,192,68026,1,0,0:0:0:0:
256,192,68197,1,8,0:0:0:0:
256,192,68283,1,8,0:0:0:0:
256,192,68369,1,8,0:0:0:0:
256,192,68540,1,0,0:0:0:0:
256,192,68883,1,8,0:0:0:0:
256,192,69055,1,8,0:0:0:0:
256,192,69226,1,0,0:0:0:0:
256,192,69397,1,0,0:0:0:0:
256,192,69569,1,8,0:0:0:0:
256,192,69655,1,8,0:0:0:0:
256,192,69740,1,8,0:0:0:0:
256,192,69912,1,8,0:0:0:0:
256,192,70083,1,0,0:0:0:0:
256,192,70255,1,8,0:0:0:0:
256,192,70426,1,8,0:0:0:0:
256,192,70597,1,0,0:0:0:0:
256,192,71112,1,8,0:0:0:0:
256,192,71283,1,0,0:0:0:0:
256,192,71455,1,0,0:0:0:0:
256,192,71626,1,8,0:0:0:0:
256,192,71969,1,0,0:0:0:0:
256,192,72140,1,0,0:0:0:0:
256,192,72312,1,8,0:0:0:0:
256,192,72483,1,0,0:0:0:0:
256,192,72569,1,0,0:0:0:0:
256,192,72655,1,0,0:0:0:0:
256,192,72826,1,0,0:0:0:0:
256,192,72997,1,8,0:0:0:0:
256,192,73083,1,8,0:0:0:0:
256,192,73169,1,8,0:0:0:0:
256,192,73340,1,0,0:0:0:0:
256,192,73683,1,0,0:0:0:0:
256,192,73855,1,8,0:0:0:0:
256,192,74197,1,8,0:0:0:0:
256,192,74540,1,0,0:0:0:0:
256,192,74883,1,8,0:0:0:0:
256,192,75055,1,8,0:0:0:0:
256,192,75397,1,0,0:0:0:0:
256,192,75740,1,8,0:0:0:0:
256,192,76083,1,4,0:0:0:0:
256,192,76426,1,8,0:0:0:0:
256,192,76597,1,0,0:0:0:0:
256,192,76683,1,0,0:0:0:0:
256,192,76769,1,0,0:0:0:0:
256,192,76940,1,0,0:0:0:0:
256,192,77112,1,8,0:0:0:0:
256,192,77455,1,0,0:0:0:0:
256,192,77797,1,8,0:0:0:0:
256,192,77969,1,0,0:0:0:0:
256,192,78312,1,0,0:0:0:0:
256,192,78483,1,8,0:0:0:0:
256,192,78655,1,8,0:0:0:0:
256,192,78826,1,0,0:0:0:0:
256,192,79169,1,8,0:0:0:0:
256,192,79683,1,0,0:0:0:0:
256,192,79855,1,8,0:0:0:0:
256,192,80197,1,0,0:0:0:0:
256,192,80369,1,0,0:0:0:0:
256,192,80540,1,8,0:0:0:0:
256,192,80712,1,0,0:0:0:0:
256,192,81055,1,0,0:0:0:0:
256,192,81226,1,8,0:0:0:0:
256,192,81312,1,8,0:0:0:0:
256,192,81397,1,8,0:0:0:0:
256,192,81569,1,4,0:0:0:0:
256,192,81912,1,8,0:0:0:0:
256,192,82083,1,8,0:0:0:0:
256,192,82255,1,0,0:0:0:0:
256,192,82340,1,0,0:0:0:0:
256,192,82426,1,0,0:0:0:0:
256,192,82597,1,8,0:0:0:0:
256,192,82940,1,0,0:0:0:0:
256,192,83283,1,8,0:0:0:0:
256,192,83455,1,0,0:0:0:0:
256,192,83797,1,0,0:0:0:0:
256,192,83969,1,8,0:0:0:0:
256,192,84312,1,0,0:0:0:0:
256,192,84483,1,0,0:0:0:0:
256,192,84655,1,8,0:0:0:0:
256,192,85169,1,0,0:0:0:0:
256,192,85340,1,8,0:0:0:0:
256,192,85683,1,0,0:0:0:0:
256,192,85855,1,0,0:0:0:0:
256,192,86026,1,8,0:0:0:0:
256,192,86112,1,8,0:0:0:0:
256,192,86197,1,8,0:0:0:0:
256,192,86369,1,0,0:0:0:0:
256,192,86540,1,0,0:0:0:0:
256,192,86712,1,12,0:0:0:0:
256,192,87055,1,0,0:0:0:0:
256,192,87397,1,8,0:0:0:0:
256,192,88255,1,8,0:0:0:0:
256,192,88597,1,8,0:0:0:0:
256,192,88940,1,0,0:0:0:0:
256,192,89112,1,8,0:0:0:0:
256,192,89455,1,8,0:0:0:0:
256,192,89797,1,4,0:0:0:0:
256,192,90140,1,8,0:0:0:0:
256,192,90312,1,0,0:0:0:0:
256,192,90483,1,0,0:0:0:0:
256,192,90569,1,0,0:0:0:0:
256,192,90655,1,0,0:0:0:0:
256,192,90826,1,8,0:0:0:0:
256,192,90997,1,0,0:0:0:0:
256,192,91340,1,8,0:0:0:0:
256,192,91512,1,8,0:0:0:0:
256,192,91683,1,0,0:0:0:0:
256,192,91855,1,0,0:0:0:0:
256,192,92026,1,8,0:0:0:0:
256,192,92112,1,8,0:0:0:0:
256,192,92197,1,8,0:0:0:0:
256,192,92540,1,4,0:0:0:0:
256,192,92883,1,0,0:0:0:0:
256,192,93226,1,8,0:0:0:0:
256,192,93569,1,0,0:0:0:0:
256,192,93740,1,8,0:0:0:0:
256,192,94083,1,0,0:0:0:0:
256,192,94426,1,8,0:0:0:0:
256,192,94597,1,0,0:0:0:0:
256,192,94769,1,0,0:0:0:0:
256,192,94940,1,8,0:0:0:0:
256,192,95283,1,4,0:0:0:0:
256,192,95626,1,8,0:0:0:0:
256,192,95797,1,0,0:0:0:0:
256,192,95883,1,0,0:0:0:0:
256,192,95969,1,0,0:0:0:0:
256,192,96140,1,0,0:0:0:0:
256,192,96312,1,8,0:0:0:0:
256,192,96483,1,0,0:0:0:0:
256,192,96826,1,0,0:0:0:0:
256,192,96997,1,8,0:0:0:0:
256,192,97169,1,0,0:0:0:0:
256,192,97340,1,8,0:0:0:0:
256,192,97512,1,8,0:0:0:0:
256,192,97597,1,8,0:0:0:0:
256,192,97683,1,8,0:0:0:0:
256,192,98026,1,4,0:0:0:0:
256,192,98369,1,8,0:0:0:0:
256,192,98712,1,0,0:0:0:0:
256,192,98883,1,0,0:0:0:0:
256,192,99055,1,8,0:0:0:0:
256,192,99226,1,0,0:0:0:0:
256,192,99569,1,0,0:0:0:0:
256,192,99740,1,8,0:0:0:0:
256,192,99912,1,8,0:0:0:0:
256,192,100083,1,0,0:0:0:0:
256,192,100255,1,0,0:0:0:0:
256,192,100769,1,0,0:0:0:0:
256,192,100940,1,8,0:0:0:0:
256,192,101112,1,0,0:0:0:0:
256,192,101197,1,0,0:0:0:0:
256,192,101283,1,0,0:0:0:0:
256,192,101455,1,8,0:0:0:0:
256,192,101797,1,8,0:0:0:0:
256,192,101969,1,0,0:0:0:0:
256,192,102312,1,0,0:0:0:0:
256,192,102483,1,8,0:0:0:0:
256,192,102655,1,8,0:0:0:0:
256,192,102826,1,0,0:0:0:0:
256,192,102997,1,0,0:0:0:0:
256,192,103169,1,8,0:0:0:0:
256,192,103255,1,8,0:0:0:0:
256,192,103340,1,8,0:0:0:0:
256,192,103512,1,4,0:0:0:0:
256,192,103855,1,8,0:0:0:0:
256,192,104197,1,0,0:0:0:0:
256,192,104540,1,8,0:0:0:0:
256,192,104712,1,8,0:0:0:0:
256,192,104883,1,0,0:0:0:0:
256,192,105226,1,8,0:0:0:0:
256,192,105569,1,0,0:0:0:0:
256,192,105740,1,8,0:0:0:0:
256,192,105826,1,8,0:0:0:0:
256,192,105912,1,8,0:0:0:0:
256,192,106083,1,8,0:0:0:0:
256,192,106255,1,4,0:0:0:0:
256,192,106597,1,8,0:0:0:0:
256,192,106769,1,0,0:0:0:0:
256,192,107112,1,0,0:0:0:0:
256,192,107283,1,8,0:0:0:0:
256,192,107455,1,4,0:0:0:0:
256,192,107797,1,0,0:0:0:0:
256,192,107969,1,8,0:0:0:0:
256,192,108140,1,0,0:0:0:0:
256,192,108312,1,8,0:0:0:0:
256,192,108483,1,0,0:0:0:0:
256,192,108655,1,8,0:0:0:0:
256,192,108826,1,8,0:0:0:0:
256,192,108997,1,4,0:0:0:0:
256,192,109255,1,4,0:0:0:0:
256,192,109512,1,4,0:0:0:0:
256,192,109683,1,12,0:0:0:0:
256,192,110369,1,0,0:0:0:0:
256,192,110540,1,0,0:0:0:0:
256,192,110712,1,8,0:0:0:0:
256,192,110883,1,0,0:0:0:0:
256,192,111055,1,8,0:0:0:0:
256,192,111169,1,8,0:0:0:0:
256,192,111283,1,8,0:0:0:0:
256,192,111397,1,8,0:0:0:0:
256,192,111740,1,4,0:0:0:0:
256,192,111997,1,4,0:0:0:0:
256,192,112255,1,4,0:0:0:0:
256,192,112426,1,12,0:0:0:0:
256,192,113112,1,0,0:0:0:0:
256,192,113283,1,8,0:0:0:0:
256,192,113455,1,0,0:0:0:0:
256,192,113626,1,0,0:0:0:0:
256,192,113797,1,8,0:0:0:0:
256,192,113969,1,0,0:0:0:0:
256,192,114055,1,0,0:0:0:0:
256,192,114140,1,0,0:0:0:0:
256,192,114312,1,8,0:0:0:0:
256,192,114483,1,4,0:0:0:0:
256,192,114826,1,8,0:0:0:0:
256,192,115340,1,0,0:0:0:0:
256,192,115512,1,8,0:0:0:0:
256,192,115683,1,8,0:0:0:0:
256,192,115855,1,0,0:0:0:0:
256,192,116197,1,8,0:0:0:0:
256,192,116369,1,0,0:0:0:0:
256,192,116712,1,0,0:0:0:0:
256,192,116883,1,8,0:0:0:0:
256,192,117055,1,8,0:0:0:0:
256,192,117226,1,4,0:0:0:0:
256,192,117569,1,8,0:0:0:0:
256,192,117740,1,8,0:0:0:0:
256,192,117912,1,0,0:0:0:0:
256,192,118083,1,0,0:0:0:0:
256,192,118255,1,8,0:0:0:0:
256,192,118597,1,0,0:0:0:0:
256,192,118769,1,8,0:0:0:0:
256,192,118940,1,0,0:0:0:0:
256,192,119112,1,8,0:0:0:0:
256,192,119283,1,0,0:0:0:0:
256,192,119455,1,0,0:0:0:0:
256,192,119626,1,8,0:0:0:0:
256,192,119797,1,8,0:0:0:0:
256,192,119969,1,0,0:0:0:0:
256,192,120055,1,0,0:0:0:0:
256,192,120140,1,0,0:0:0:0:
256,192,120312,1,8,0:0:0:0:
256,192,120483,1,8,0:0:0:0:
256,192,120655,1,0,0:0:0:0:
256,192,120740,1,0,0:0:0:0:
256,192,120826,1,0,0:0:0:0:
256,192,120997,1,8,0:0:0:0:
256,192,121169,1,8,0:0:0:0:
256,192,121340,1,0,0:0:0:0:
256,192,122369,1,8,0:0:0:0:
256,192,122712,1,4,0:0:0:0:
256,192,123055,1,8,0:0:0:0:
256,192,123226,1,8,0:0:0:0:
256,192,123397,1,0,0:0:0:0:
256,192,123483,1,0,0:0:0:0:
256,192,123569,1,0,0:0:0:0:
256,192,123740,1,8,0:0:0:0:
256,192,124083,1,0,0:0:0:0:
256,192,124255,1,8,0:0:0:0:
256,192,124340,1,8,0:0:0:0:
256,192,124426,1,8,0:0:0:0:
256,192,124597,1,8,0:0:0:0:
256,192,124940,1,0,0:0:0:0:
256,192,125455,1,8,0:0:0:0:
256,192,125626,1,0,0:0:0:0:
256,192,125797,1,8,0:0:0:0:
256,192,125883,1,8,0:0:0:0:
256,192,125969,1,8,0:0:0:0:
256,192,126140,1,0,0:0:0:0:
256,192,126483,1,8,0:0:0:0:
256,192,126655,1,8,0:0:0:0:
256,192,126826,1,0,0:0:0:0:
256,192,126912,1,0,0:0:0:0:
256,192,126997,1,0,0:0:0:0:
256,192,127169,1,8,0:0:0:0:
256,192,127340,1,8,0:0:0:0:
256,192,127512,1,0,0:0:0:0:
256,192,127683,1,8,0:0:0:0:
256,192,127769,1,8,0:0:0:0:
256,192,127855,1,8,0:0:0:0:
256,192,128026,1,8,0:0:0:0:
256,192,128197,1,0,0:0:0:0:
256,192,128712,1,8,0:0:0:0:
256,192,128883,1,0,0:0:0:0:
256,192,129055,1,8,0:0:0:0:
256,192,129140,1,8,0:0:0:0:
256,192,129226,1,8,0:0:0:0:
256,192,129397,1,8,0:0:0:0:
256,192,129569,1,0,0:0:0:0:
256,192,129912,1,8,0:0:0:0:
256,192,130083,1,0,0:0:0:0:
256,192,130169,1,0,0:0:0:0:
256,192,130255,1,0,0:0:0:0:
256,192,130426,1,0,0:0:0:0:
256,192,130597,1,8,0:0:0:0:
256,192,130769,1,8,0:0:0:0:
256,192,130940,1,0,0:0:0:0:
256,192,131283,1,8,0:0:0:0:
256,192,131369,1,8,0:0:0:0:
256,192,131455,1,8,0:0:0:0:
256,192,131626,1,0,0:0:0:0:
256,192,131797,1,0,0:0:0:0:
256,192,131969,1,12,0:0:0:0:
256,192,132312,1,0,0:0:0:0:
256,192,132655,1,8,0:0:0:0:
256,192,132826,1,0,0:0:0:0:
256,192,133169,1,0,0:0:0:0:
256,192,133340,1,8,0:0:0:0:
256,192,133683,1,4,0:0:0:0:
256,192,134026,1,8,0:0:0:0:
256,192,134197,1,8,0:0:0:0:
256,192,134369,1,0,0:0:0:0:
256,192,134455,1,0,0:0:0:0:
256,192,134540,1,0,0:0:0:0:
256,192,134712,1,8,0:0:0:0:
256,192,135055,1,0,0:0:0:0:
256,192,135226,1,0,0:0:0:0:
256,192,135397,1,8,0:0:0:0:
256,192,135569,1,0,0:0:0:0:
256,192,135655,1,0,0:0:0:0:
256,192,135740,1,0,0:0:0:0:
256,192,135912,1,8,0:0:0:0:
256,192,136426,1,8,0:0:0:0:
256,192,136597,1,0,0:0:0:0:
256,192,136769,1,8,0:0:0:0:
256,192,136855,1,8,0:0:0:0:
256,192,136940,1,8,0:0:0:0:
256,192,137112,1,0,0:0:0:0:
256,192,137455,1,8,0:0:0:0:
256,192,137626,1,8,0:0:0:0:
256,192,137797,1,0,0:0:0:0:
256,192,137969,1,0,0:0:0:0:
256,192,138140,1,8,0:0:0:0:
256,192,138226,1,8,0:0:0:0:
256,192,138312,1,8,0:0:0:0:
256,192,138483,1,8,0:0:0:0:
256,192,138655,1,0,0:0:0:0:
256,192,138826,1,8,0:0:0:0:
256,192,138997,1,8,0:0:0:0:
256,192,139169,1,0,0:0:0:0:
256,192,139683,1,8,0:0:0:0:
256,192,139855,1,0,0:0:0:0:
256,192,140026,1,0,0:0:0:0:
256,192,140197,1,8,0:0:0:0:
256,192,140540,1,0,0:0:0:0:
256,192,140712,1,0,0:0:0:0:
256,192,140883,1,8,0:0:0:0:
256,192,141055,1,0,0:0:0:0:
256,192,141140,1,0,0:0:0:0:
256,192,141226,1,0,0:0:0:0:
256,192,141397,1,0,0:0:0:0:
256,192,141569,1,8,0:0:0:0:
256,192,141655,1,8,0:0:0:0:
256,192,141740,1,8,0:0:0:0:
256,192,141912,1,0,0:0:0:0:
256,192,142255,1,0,0:0:0:0:
256,192,142426,1,8,0:0:0:0:
256,192,142769,1,8,0:0:0:0:
256,192,143112,1,0,0:0:0:0:
256,192,143455,1,8,0:0:0:0:
256,192,143626,1,8,0:0:0:0:
256,192,143969,1,0,0:0:0:0:
256,192,144312,1,8,0:0:0:0:
256,192,144655,1,4,0:0:0:0:
256,192,147397,1,0,0:0:0:0:
256,192,149455,1,8,0:0:0:0:
256,192,149540,1,8,0:0:0:0:
256,192,149626,1,8,0:0:0:0:
256,192,149797,1,0,0:0:0:0:
256,192,149969,1,8,0:0:0:0:
256,192,150140,1,4,0:0:0:0:
256,192,150826,1,0,0:0:0:0:
256,192,151340,1,0,0:0:0:0:
256,192,151855,1,8,0:0:0:0:
256,192,152197,1,8,0:0:0:0:
256,192,152883,1,0,0:0:0:0:
256,192,153569,1,0,0:0:0:0:
256,192,154083,1,8,0:0:0:0:
256,192,154255,1,0,0:0:0:0:
256,192,154426,1,8,0:0:0:0:
256,192,154512,1,8,0:0:0:0:
256,192,154597,1,8,0:0:0:0:
256,192,154769,1,8,0:0:0:0:
256,192,154940,1,0,0:0:0:0:
256,192,155112,1,0,0:0:0:0:
256,192,155283,1,0,0:0:0:0:
256,192,155455,1,0,0:0:0:0:
256,192,155626,1,4,0:0:0:0:
256,192,156140,1,0,0:0:0:0:
256,192,156312,1,8,0:0:0:0:
256,192,156655,1,0,0:0:0:0:
256,192,156997,1,8,0:0:0:0:
256,192,157512,1,0,0:0:0:0:
256,192,157683,1,8,0:0:0:0:
256,192,157855,1,0,0:0:0:0:
256,192,158369,1,0,0:0:0:0:
256,192,158883,1,0,0:0:0:0:
256,192,159055,1,8,0:0:0:0:
256,192,159397,1,0,0:0:0:0:
256,192,159740,1,8,0:0:0:0:
256,192,160255,1,0,0:0:0:0:
256,192,160426,1,8,0:0:0:0:
256,192,160597,1,8,0:0:0:0:
256,192,160683,1,8,0:0:0:0:
256,192,160769,1,8,0:0:0:0:
256,192,160940,1,0,0:0:0:0:
256,192,161112,1,8,0:0:0:0:
256,192,161626,1,0,0:0:0:0:
256,192,161797,1,8,0:0:0:0:
256,192,162140,1,0,0:0:0:0:
256,192,162483,1,8,0:0:0:0:
256,192,162997,1,0,0:0:0:0:
256,192,163169,1,8,0:0:0:0:
256,192,163340,1,0,0:0:0:0:
256,192,163512,1,8,0:0:0:0:
256,192,163683,1,8,0:0:0:0:
256,192,163855,1,4,0:0:0:0:
256,192,164197,1,8,0:0:0:0:
256,192,164712,1,0,0:0:0:0:
256,192,164883,1,8,0:0:0:0:
256,192,165055,1,8,0:0:0:0:
256,192,165226,1,0,0:0:0:0:
256,192,165569,1,8,0:0:0:0:
256,192,165740,1,8,0:0:0:0:
256,192,165912,1,0,0:0:0:0:
256,192,165997,1,0,0:0:0:0:
256,192,166083,1,0,0:0:0:0:
256,192,166255,1,8,0:0:0:0:
256,192,166597,1,4,0:0:0:0:
256,192,166940,1,8,0:0:0:0:
256,192,167455,1,0,0:0:0:0:
256,192,167626,1,8,0:0:0:0:
256,192,167797,1,8,0:0:0:0:
256,192,167969,1,0,0:0:0:0:
256,192,168226,1,8,0:0:0:0:
256,192,168312,1,8,0:0:0:0:
256,192,168483,1,8,0:0:0:0:
256,192,168655,1,0,0:0:0:0:
256,192,168826,1,0,0:0:0:0:
256,192,168997,1,8,0:0:0:0:
256,192,169340,1,4,0:0:0:0:
256,192,169683,1,8,0:0:0:0:
256,192,169855,1,0,0:0:0:0:
256,192,170026,1,8,0:0:0:0:
256,192,170197,1,0,0:0:0:0:
256,192,170369,1,8,0:0:0:0:
256,192,170712,1,0,0:0:0:0:
256,192,170883,1,0,0:0:0:0:
256,192,171055,1,8,0:0:0:0:
256,192,171226,1,8,0:0:0:0:
256,192,171397,1,8,0:0:0:0:
256,192,171569,1,0,0:0:0:0:
256,192,171740,1,8,0:0:0:0:
256,192,171912,1,0,0:0:0:0:
256,192,172083,1,8,0:0:0:0:
256,192,172169,1,8,0:0:0:0:
256,192,172255,1,8,0:0:0:0:
256,192,172426,1,0,0:0:0:0:
256,192,172597,1,0,0:0:0:0:
256,192,172769,1,8,0:0:0:0:
256,192,172855,1,8,0:0:0:0:
256,192,172940,1,8,0:0:0:0:
256,192,173112,1,0,0:0:0:0:
256,192,173283,1,0,0:0:0:0:
256,192,173455,1,8,0:0:0:0:
256,192,180312,5,4,0:0:0:0:
256,192,180483,1,0,0:0:0:0:
256,192,180655,1,0,0:0:0:0:
256,192,180997,1,0,0:0:0:0:
256,192,181340,1,0,0:0:0:0:
256,192,181683,1,0,0:0:0:0:
256,192,181855,1,0,0:0:0:0:
256,192,182026,1,0,0:0:0:0:
256,192,182197,1,0,0:0:0:0:
256,192,182369,1,0,0:0:0:0:
256,192,182540,1,0,0:0:0:0:
256,192,182712,1,0,0:0:0:0:
256,192,182883,1,0,0:0:0:0:
256,192,184083,1,12,0:0:0:0:
256,192,184426,1,0,0:0:0:0:
256,192,184769,1,0,0:0:0:0:
256,192,184940,1,0,0:0:0:0:
256,192,185112,1,8,0:0:0:0:
256,192,185369,1,8,0:0:0:0:
256,192,185455,1,8,0:0:0:0:
256,192,185626,1,8,0:0:0:0:
256,192,185797,1,4,0:0:0:0:
256,192,186140,1,8,0:0:0:0:
256,192,186312,1,8,0:0:0:0:
256,192,186483,1,0,0:0:0:0:
256,192,186569,1,0,0:0:0:0:
256,192,186655,1,0,0:0:0:0:
256,192,186826,1,8,0:0:0:0:
256,192,187169,1,0,0:0:0:0:
256,192,187340,1,0,0:0:0:0:
256,192,187512,1,8,0:0:0:0:
256,192,187683,1,0,0:0:0:0:
256,192,187769,1,0,0:0:0:0:
256,192,187855,1,0,0:0:0:0:
256,192,188026,1,8,0:0:0:0:
256,192,188540,1,8,0:0:0:0:
256,192,188712,1,0,0:0:0:0:
256,192,188883,1,8,0:0:0:0:
256,192,188969,1,8,0:0:0:0:
256,192,189055,1,8,0:0:0:0:
256,192,189226,1,0,0:0:0:0:
256,192,189569,1,8,0:0:0:0:
256,192,189740,1,8,0:0:0:0:
256,192,189912,1,0,0:0:0:0:
256,192,190083,1,0,0:0:0:0:
256,192,190255,1,8,0:0:0:0:
256,192,190340,1,8,0:0:0:0:
256,192,190426,1,8,0:0:0:0:
256,192,190597,1,8,0:0:0:0:
256,192,190769,1,0,0:0:0:0:
256,192,190940,1,8,0:0:0:0:
256,192,191112,1,8,0:0:0:0:
256,192,191283,1,0,0:0:0:0:
256,192,191797,1,8,0:0:0:0:
256,192,191969,1,0,0:0:0:0:
256,192,192140,1,0,0:0:0:0:
256,192,192312,1,8,0:0:0:0:
256,192,192655,1,0,0:0:0:0:
256,192,192826,1,0,0:0:0:0:
256,192,192997,1,8,0:0:0:0:
256,192,193169,1,0,0:0:0:0:
256,192,193255,1,0,0:0:0:0:
256,192,193340,1,0,0:0:0:0:
256,192,193512,1,0,0:0:0:0:
256,192,193683,1,8,0:0:0:0:
256,192,193769,1,8,0:0:0:0:
256,192,193855,1,8,0:0:0:0:
256,192,194026,1,0,0:0:0:0:
256,192,194369,1,0,0:0:0:0:
256,192,194540,1,8,0:0:0:0:
256,192,194883,1,8,0:0:0:0:
256,192,195226,1,0,0:0:0:0:
256,192,195569,1,8,0:0:0:0:
256,192,195740,1,8,0:0:0:0:
256,192,196083,1,0,0:0:0:0:
256,192,196426,1,8,0:0:0:0:
256,192,196769,1,4,0:0:0:0:
256,192,197112,1,8,0:0:0:0:
256,192,197283,1,0,0:0:0:0:
256,192,197369,1,0,0:0:0:0:
256,192,197455,1,0,0:0:0:0:
256,192,197626,1,0,0:0:0:0:
256,192,197797,1,8,0:0:0:0:
256,192,198140,1,0,0:0:0:0:
256,192,198483,1,8,0:0:0:0:
256,192,198655,1,0,0:0:0:0:
256,192,198997,1,0,0:0:0:0:
256,192,199169,1,8,0:0:0:0:
256,192,199340,1,8,0:0:0:0:
256,192,199512,1,0,0:0:0:0:
256,192,199855,1,8,0:0:0:0:
256,192,200369,1,0,0:0:0:0:
256,192,200540,1,8,0:0:0:0:
256,192,200883,1,0,0:0:0:0:
256,192,201055,1,0,0:0:0:0:
256,192,201226,1,8,0:0:0:0:
256,192,201397,1,0,0:0:0:0:
256,192,201740,1,0,0:0:0:0:
256,192,201912,1,8,0:0:0:0:
256,192,201997,1,8,0:0:0:0:
256,192,202083,1,8,0:0:0:0:
256,192,202255,1,4,0:0:0:0:
256,192,202597,1,8,0:0:0:0:
256,192,202769,1,8,0:0:0:0:
256,192,202940,1,0,0:0:0:0:
256,192,203026,1,0,0:0:0:0:
256,192,203112,1,0,0:0:0:0:
256,192,203283,1,8,0:0:0:0:
256,192,203626,1,0,0:0:0:0:
256,192,203969,1,8,0:0:0:0:
256,192,204140,1,0,0:0:0:0:
256,192,204483,1,0,0:0:0:0:
256,192,204655,1,8,0:0:0:0:
256,192,204997,1,0,0:0:0:0:
256,192,205169,1,0,0:0:0:0:
256,192,205340,1,8,0:0:0:0:
256,192,205855,1,0,0:0:0:0:
256,192,206026,1,8,0:0:0:0:
256,192,206369,1,0,0:0:0:0:
256,192,206540,1,0,0:0:0:0:
256,192,206712,1,8,0:0:0:0:
256,192,206883,1,8,0:0:0:0:
256,192,207055,1,0,0:0:0:0:
256,192,207312,1,8,0:0:0:0:
256,192,207397,1,8,0:0:0:0:
256,192,207569,1,8,0:0:0:0:
256,192,207740,1,4,0:0:0:0:
256,192,208083,1,8,0:0:0:0:
256,192,208255,1,8,0:0:0:0:
256,192,208426,1,0,0:0:0:0:
256,192,208597,1,0,0:0:0:0:
256,192,208769,1,8,0:0:0:0:
256,192,208940,1,0,0:0:0:0:
256,192,209112,1,8,0:0:0:0:
256,192,209455,1,8,0:0:0:0:
256,192,209626,1,0,0:0:0:0:
256,192,209797,1,8,0:0:0:0:
256,192,209969,1,8,0:0:0:0:
256,192,210055,1,8,0:0:0:0:
256,192,210140,1,8,0:0:0:0:
256,192,210312,1,0,0:0:0:0:
256,192,210483,1,8,0:0:0:0:
256,192,210826,1,12,0:0:0:0:
256,192,211169,1,8,0:0:0:0:
256,192,211340,1,0,0:0:0:0:
256,192,211512,1,12,0:0:0:0:
256,192,211855,1,8,0:0:0:0:
256,192,212197,1,12,0:0:0:0:
256,192,212540,1,8,0:0:0:0:
256,192,212712,1,0,0:0:0:0:
256,192,212883,1,8,0:0:0:0:
256,192,212969,1,8,0:0:0:0:
256,192,213055,1,8,0:0:0:0:
256,192,213226,1,4,0:0:0:0:
256,192,213569,1,8,0:0:0:0:
256,192,213740,1,8,0:0:0:0:
256,192,213912,1,0,0:0:0:0:
256,192,214083,1,0,0:0:0:0:
256,192,214255,1,8,0:0:0:0:
256,192,214426,1,0,0:0:0:0:
256,192,214597,1,8,0:0:0:0:
256,192,214940,1,8,0:0:0:0:
256,192,215112,1,0,0:0:0:0:
256,192,215283,1,8,0:0:0:0:
256,192,215455,1,8,0:0:0:0:
256,192,215540,1,8,0:0:0:0:
256,192,215626,1,8,0:0:0:0:
256,192,215797,1,0,0:0:0:0:
256,192,215969,1,8,0:0:0:0:
256,192,216312,1,12,0:0:0:0:
256,192,216655,1,8,0:0:0:0:
256,192,216826,1,0,0:0:0:0:
256,192,216997,1,12,0:0:0:0:
256,192,217340,1,0,0:0:0:0:
256,192,217512,1,0,0:0:0:0:
256,192,217683,1,12,0:0:0:0:
256,192,218026,1,0,0:0:0:0:
256,192,218197,1,0,0:0:0:0:
256,192,218369,1,12,0:0:0:0:
256,192,218712,1,4,0:0:0:0:
256,192,219055,1,0,0:0:0:0:
256,192,219397,1,8,0:0:0:0:
256,192,219569,1,8,0:0:0:0:
256,192,219740,1,0,0:0:0:0:
256,192,219912,1,0,0:0:0:0:
256,192,220083,1,8,0:0:0:0:
256,192,220169,1,8,0:0:0:0:
256,192,220255,1,8,0:0:0:0:
256,192,220426,1,0,0:0:0:0:
256,192,220597,1,0,0:0:0:0:
256,192,220769,1,8,0:0:0:0:
256,192,220855,1,8,0:0:0:0:
256,192,220940,1,8,0:0:0:0:
256,192,221112,1,0,0:0:0:0:
256,192,221283,1,8,0:0:0:0:
256,192,221455,1,4,0:0:0:0:
