osu file format v14

[General]
AudioFilename: audio.mp3
AudioLeadIn: 0
PreviewTime: 204620
Countdown: 0
SampleSet: Soft
StackLeniency: 0.5
Mode: 0
LetterboxInBreaks: 0
WidescreenStoryboard: 1

[Editor]
DistanceSpacing: 0.2
BeatDivisor: 4
GridSize: 4
TimelineZoom: 3.599999

[Metadata]
Title:Kuroiuta
TitleUnicode:クロイウタ
Artist:HMMMM
ArtistUnicode:HMMMM
Creator:Lunicia
Version:Rebirth
Source:Drakengard 3
Tags:kuroi uta black song cover DRAG ON DRAGOON ドラッグオンドラグーン3 ドラグーン エミ エヴァンス White DRAG-ON DRAGOON 3 video game japanese vulkain dkdk carmen katie justin myomi shannon 247th xildy KT pKotetsu hana kikuchi keiichi okabe keigo hoashi monaca emi evans aoi eir 音&ME’16R3 oto&ME chorus battle pop jpop j-pop folk ost soundtrack
BeatmapID:3650787
BeatmapSetID:1782683

[Difficulty]
HPDrainRate:5.5
CircleSize:4.2
OverallDifficulty:8.5
ApproachRate:9.3
SliderMultiplier:2.2
SliderTickRate:1

[Events]
//Background and Video events
0,0,"c6seMyS.jpg",0,0
//Break Periods
2,264741,279741
//Storyboard Layer 0 (Background)
//Storyboard Layer 1 (Fail)
//Storyboard Layer 2 (Pass)
//Storyboard Layer 3 (Foreground)
//Storyboard Layer 4 (Overlay)
//Storyboard Sound Samples

[TimingPoints]
735,750,4,2,1,20,1,0
735,-1000,4,2,1,20,0,0
6547,-1000,4,2,1,5,0,0
6735,-1000,4,2,1,20,0,0
12547,-1000,4,2,1,5,0,0
12735,731.707317073171,4,2,1,20,1,0
12735,-102.354145342886,4,2,1,40,0,0
14216,759.493670886076,4,2,1,40,1,0
15545,-100,4,2,1,5,0,0
15734,750,4,2,1,40,1,0
15734,-100,4,2,1,40,0,0
17047,-100,4,2,1,5,0,0
17235,-100,4,2,1,40,0,0
18734,722.89156626506,4,2,1,40,1,0
18734,-102.249488752556,4,2,1,40,0,0
20179,750,4,2,1,40,1,0
20929,769.230769230769,4,2,1,40,1,0
21505,-100,4,2,1,5,0,0
21602,-100,4,2,1,40,0,0
21735,750,4,2,1,40,1,0
24735,740.740740740741,4,2,1,40,1,0
27512,-100,4,2,1,5,0,0
27735,750,4,2,1,40,1,0
27735,-100,4,2,1,40,0,0
30547,-100,4,2,1,5,0,0
30735,-100,4,2,1,40,0,0
33547,-100,4,2,1,5,0,0
33735,-100,4,2,1,40,0,0
38235,-101.010101010101,4,2,1,40,0,0
39209,740.740740740741,4,2,1,40,1,0
39735,750,4,2,1,40,1,0
41047,-100,4,2,1,5,0,0
41235,-100,4,2,1,40,0,0
48735,810.810810810811,4,2,1,40,1,0
49545,759.493670886076,4,2,1,40,1,0
51063,674.157303370787,4,2,1,40,1,0
51737,779.22077922078,4,2,1,40,1,0
52516,722.891566265061,4,2,1,40,1,0
53238,750.000000000001,4,2,1,40,1,0
53800,-100,4,2,1,5,0,0
53988,-62.5,4,2,1,40,0,0
54550,-62.5,4,2,1,5,0,0
54735,750.000000000001,4,2,1,40,1,0
54735,-100,4,2,1,40,0,0
59985,-200,4,2,1,40,0,0
60547,-200,4,2,1,5,0,0
60735,-50,4,2,1,60,0,0
61860,-200,4,2,1,60,0,0
63735,-50,4,2,1,60,0,0
65985,-200,4,2,1,60,0,0
66735,-50,4,2,1,60,0,0
68235,-100,4,2,1,60,0,0
69735,-50,4,2,1,60,0,0
71235,-100,4,2,1,60,0,0
72735,-50,4,2,1,60,0,0
74985,-200,4,2,1,60,0,0
75735,-50,4,2,1,60,0,0
77985,-100,4,2,1,60,0,0
78735,-50,4,2,1,60,0,0
80985,-100,4,2,1,60,0,0
84735,-50,4,2,1,60,0,0
85860,-100,4,2,1,60,0,0
87735,-66.6666666666667,4,2,1,60,0,0
92235,-133.333333333333,4,2,1,60,0,0
93735,-66.6666666666667,4,2,1,60,0,0
98610,-200,4,2,1,60,0,0
99735,-66.6666666666667,4,2,1,60,0,0
104985,-133.333333333333,4,2,1,60,0,0
105735,-66.6666666666667,4,2,1,60,0,0
107235,-133.333333333333,4,2,1,60,0,0
109860,-66.6666666666667,4,2,1,60,0,0
110610,-133.333333333333,4,2,1,60,0,0
111735,-50,4,2,1,60,0,0
115485,-133.333333333333,4,2,1,60,0,0
115860,-50,4,2,1,60,0,0
119610,-133.333333333333,4,2,1,60,0,0
120735,-50,4,2,1,60,0,0
121860,-100,4,2,1,60,0,0
123735,-50,4,2,1,60,0,0
127860,-100,4,2,1,60,0,0
129735,-50,4,2,1,60,0,0
132922,-133.333333333333,4,2,1,60,0,0
133860,-50,4,2,1,60,0,0
141360,375,4,2,1,80,1,0
141716,375,4,2,1,80,1,0
141716,-66.6666666666667,4,2,1,80,0,0
142091,-100,4,2,1,80,0,0
142466,-66.6666666666667,4,2,1,80,0,0
143591,-100,4,2,1,80,0,0
143966,-66.6666666666667,4,2,1,80,0,0
145091,-100,4,2,1,80,0,0
145466,-66.6666666666667,4,2,1,80,0,0
146216,-100,4,2,1,80,0,0
146403,-66.6666666666667,4,1,2,80,0,0
146591,-50,4,1,2,80,0,0
146778,-40,4,2,1,80,0,0
146966,-100,4,1,2,80,0,0
147341,-100,4,2,1,80,0,0
147528,-100,4,1,2,80,0,0
147716,-66.6666666666667,4,2,1,80,0,0
148278,-100,4,2,1,80,0,0
148466,-100,4,2,1,80,0,0
148841,-50,4,2,1,80,0,0
149216,-66.6666666666667,4,2,1,80,0,0
149497,-100,4,2,1,80,0,0
149966,-66.6666666666667,4,2,1,80,0,0
150341,-100,4,2,1,80,0,0
150716,-66.6666666666667,4,2,1,80,0,0
151091,-100,4,2,1,80,0,0
151278,-66.6666666666667,4,2,1,80,0,0
152216,-100,4,2,1,80,0,0
152403,-66.6666666666667,4,1,2,80,0,0
152591,-50,4,1,2,80,0,0
152778,-40,4,2,1,80,0,0
152966,-33.3333333333333,4,1,2,80,0,0
153153,-28.5714285714286,4,1,2,80,0,0
153341,-25,4,2,1,80,0,0
153528,-22.2222222222222,4,1,2,80,0,0
153716,-66.6666666666667,4,2,1,80,0,0
154091,-100,4,2,1,80,0,0
154466,-66.6666666666667,4,2,1,80,0,0
154841,-100,4,2,1,80,0,0
155216,-66.6666666666667,4,2,1,80,0,0
155591,-100,4,2,1,80,0,0
155966,-66.6666666666667,4,2,1,80,0,0
156341,-100,4,2,1,80,0,0
156716,-66.6666666666667,4,2,1,80,0,0
157091,-100,4,2,1,80,0,0
157466,-66.6666666666667,4,2,1,80,0,0
157841,-100,4,2,1,80,0,0
158216,-66.6666666666667,4,2,1,80,0,0
158591,-100,4,2,1,80,0,0
158966,-66.6666666666667,4,2,1,80,0,0
159341,-100,4,2,1,80,0,0
159716,-66.6666666666667,4,2,1,80,0,0
160091,-100,4,2,1,80,0,0
160466,-66.6666666666667,4,2,1,80,0,0
160841,-100,4,2,1,80,0,0
161216,-66.6666666666667,4,2,1,80,0,0
161591,-100,4,2,1,80,0,0
162716,-66.6666666666667,4,2,1,80,0,0
163091,-100,4,2,1,80,0,0
163466,-66.6666666666667,4,2,1,80,0,0
166091,-100,4,2,1,80,0,0
166372,-66.6666666666667,4,2,1,80,0,0
166841,-100,4,2,1,80,0,0
167216,-66.6666666666667,4,2,1,80,0,0
167591,-100,4,2,1,80,0,0
168716,-66.6666666666667,4,2,1,80,0,0
169091,-80,4,2,1,80,0,0
169466,-100,4,2,1,80,0,0
169841,-133.333333333333,4,2,1,80,0,0
170966,-100,4,2,1,80,0,0
171716,-66.6666666666667,4,2,1,80,0,0
172091,-100,4,2,1,80,0,0
172466,-66.6666666666667,4,2,1,80,0,0
172841,-100,4,2,1,80,0,0
173591,-66.6666666666667,4,2,1,80,0,0
173966,-100,4,2,1,80,0,0
174716,-66.6666666666667,4,2,1,80,0,0
175091,-100,4,2,1,80,0,0
175466,-66.6666666666667,4,2,1,80,0,0
175841,-100,4,2,1,80,0,0
177714,375,4,2,1,80,1,0
177714,-66.6666666666667,4,2,1,80,0,0
178464,-100,4,2,1,80,0,0
178839,-66.6666666666667,4,2,1,80,0,0
179776,-100,4,2,1,80,0,0
179964,-66.6666666666667,4,2,1,80,0,0
180339,-100,4,2,1,80,0,0
180714,-66.6666666666667,4,2,1,80,0,0
181089,-100,4,2,1,80,0,0
181464,-66.6666666666667,4,2,1,80,0,0
181839,-100,4,2,1,80,0,0
182214,-66.6666666666667,4,2,1,80,0,0
182964,-100,4,2,1,80,0,0
183714,-66.6666666666667,4,2,1,80,0,0
184089,-100,4,2,1,80,0,0
184464,-66.6666666666667,4,2,1,80,0,0
184839,-100,4,2,1,80,0,0
185214,-66.6666666666667,4,2,1,80,0,0
185870,-100,4,2,1,80,0,0
186714,-66.6666666666667,4,2,1,80,0,0
187464,-100,4,2,1,80,0,0
188214,-66.6666666666667,4,2,1,80,0,0
188964,-100,4,1,2,80,0,0
189151,-50,4,1,2,80,0,0
189339,-40,4,2,1,80,0,0
189526,-33.3333333333333,4,1,2,80,0,0
189714,-57.1428571428571,4,2,1,80,0,0
190089,-100,4,2,1,80,0,0
190839,-66.6666666666667,4,2,1,80,0,0
191214,-66.6666666666667,4,2,1,80,0,0
191589,-100,4,2,1,80,0,0
191964,-66.6666666666667,4,2,1,80,0,0
192339,-100,4,2,1,80,0,0
192714,-66.6666666666667,4,2,1,80,0,0
193089,-100,4,2,1,80,0,0
193464,-66.6666666666667,4,2,1,80,0,0
193839,-100,4,2,1,80,0,0
194214,-66.6666666666667,4,2,1,80,0,0
194589,-100,4,2,1,80,0,0
195714,-66.6666666666667,4,2,1,80,0,0
196089,-100,4,2,1,80,0,0
197214,-66.6666666666667,4,2,1,80,0,0
197589,-100,4,2,1,80,0,0
197964,-66.6666666666667,4,2,1,80,0,0
198339,-100,4,2,1,80,0,0
198714,-66.6666666666667,4,2,1,80,0,0
199089,-100,4,2,1,80,0,0
199839,-66.6666666666667,4,2,1,80,0,0
202464,-33.3333333333333,4,1,2,80,0,0
202651,-40,4,1,2,80,0,0
202839,-50,4,2,1,80,0,0
203026,-66.6666666666667,4,2,1,80,0,0
203214,-100,4,1,2,80,0,0
203401,-200,4,1,2,80,0,0
203589,-100,4,1,2,80,0,0
203776,-66.6666666666667,4,1,2,80,0,0
203964,-50,4,2,1,80,0,0
204151,-40,4,2,1,80,0,0
204339,-33.3333333333333,4,2,1,80,0,0
204526,-28.5714285714286,4,2,1,80,0,0
204714,-66.6666666666667,4,2,1,80,0,1
205089,-100,4,2,1,80,0,1
205839,-50,4,2,1,80,0,1
206214,-66.6666666666667,4,2,1,80,0,1
206589,-100,4,2,1,80,0,1
206964,-66.6666666666667,4,2,1,80,0,1
207339,-100,4,2,1,80,0,1
207714,-66.6666666666667,4,2,1,80,0,1
208089,-100,4,2,1,80,0,1
208464,-66.6666666666667,4,2,1,80,0,1
208839,-100,4,2,1,80,0,1
209214,-66.6666666666667,4,2,1,80,0,1
209589,-100,4,2,1,80,0,1
210714,-66.6666666666667,4,2,1,80,0,1
211089,-100,4,2,1,80,0,1
211464,-66.6666666666667,4,2,1,80,0,1
211839,-100,4,2,1,80,0,1
212214,-66.6666666666667,4,2,1,80,0,1
212589,-100,4,2,1,80,0,1
213339,-66.6666666666667,4,2,1,80,0,1
214089,-100,4,2,1,80,0,1
214276,-66.6666666666667,4,2,1,80,0,1
214839,-100,4,2,1,80,0,1
215214,-66.6666666666667,4,2,1,80,0,1
215589,-100,4,2,1,80,0,1
215964,-66.6666666666667,4,2,1,80,0,1
216339,-100,4,2,1,80,0,1
216714,-66.6666666666667,4,2,1,80,0,1
217089,-100,4,2,1,80,0,1
217464,-66.6666666666667,4,2,1,80,0,1
217839,-100,4,2,1,80,0,1
218214,-66.6666666666667,4,2,1,80,0,1
218589,-100,4,2,1,80,0,1
219714,-66.6666666666667,4,2,1,80,0,1
220089,-66.6666666666667,4,2,1,80,0,1
220464,-100,4,2,1,80,0,1
221214,-66.6666666666667,4,2,1,80,0,1
221589,-100,4,2,1,80,0,1
221964,-66.6666666666667,4,2,1,80,0,1
223089,-100,4,2,1,80,0,1
224214,-66.6666666666667,4,2,1,80,0,1
224589,-100,4,2,1,80,0,1
224964,-66.6666666666667,4,2,1,80,0,1
225339,-100,4,2,1,80,0,1
225714,-28.5714285714286,4,2,1,80,0,0
225901,-33.3333333333333,4,1,2,80,0,0
226089,-40,4,1,2,80,0,0
226276,-50,4,2,1,80,0,0
226464,-66.6666666666667,4,1,2,80,0,0
226651,-100,4,1,2,80,0,0
226839,-100,4,2,1,80,0,0
227214,-200,4,2,1,80,0,0
227401,-100,4,1,2,80,0,0
227589,-66.6666666666667,4,1,2,80,0,0
227776,-50,4,2,1,80,0,0
227964,-40,4,1,2,80,0,0
228151,-33.3333333333333,4,1,2,80,0,0
228339,-28.5714285714286,4,2,1,80,0,0
228526,-28.5714285714286,4,1,2,80,0,0
228714,-66.6666666666667,4,2,1,80,0,1
229089,-100,4,2,1,80,0,1
229839,-50,4,2,1,80,0,1
230214,-66.6666666666667,4,2,1,80,0,1
230589,-100,4,2,1,80,0,1
230964,-66.6666666666667,4,2,1,80,0,1
231339,-100,4,2,1,80,0,1
231714,-66.6666666666667,4,2,1,80,0,1
232089,-100,4,2,1,80,0,1
232464,-66.6666666666667,4,2,1,80,0,1
232839,-100,4,2,1,80,0,1
233214,-66.6666666666667,4,2,1,80,0,1
233589,-100,4,2,1,80,0,1
233964,-66.6666666666667,4,2,1,80,0,1
234339,-100,4,2,1,80,0,1
234714,-66.6666666666667,4,2,1,80,0,1
235089,-100,4,2,1,80,0,1
235839,-66.6666666666667,4,2,1,80,0,1
236214,-66.6666666666667,4,2,1,80,0,1
236589,-100,4,2,1,80,0,1
236964,-66.6666666666667,4,2,1,80,0,1
237714,-66.6666666666667,4,2,1,80,0,1
238089,-100,4,2,1,80,0,1
238276,-66.6666666666667,4,2,1,80,0,1
238839,-100,4,2,1,80,0,1
239214,-66.6666666666667,4,2,1,80,0,1
239589,-100,4,2,1,80,0,1
239964,-66.6666666666667,4,2,1,80,0,1
240339,-100,4,2,1,80,0,1
240714,-66.6666666666667,4,2,1,80,0,1
241089,-100,4,2,1,80,0,1
241839,-50,4,2,1,80,0,1
242214,-66.6666666666667,4,2,1,80,0,1
242589,-100,4,2,1,80,0,1
243714,-66.6666666666667,4,2,1,80,0,1
244464,-100,4,2,1,80,0,1
245214,-66.6666666666667,4,2,1,80,0,1
245589,-100,4,2,1,80,0,1
245964,-66.6666666666667,4,2,1,80,0,1
246339,-100,4,2,1,80,0,1
246714,-66.6666666666667,4,2,1,80,0,1
247089,-100,4,2,1,80,0,1
247464,-66.6666666666667,4,2,1,80,0,1
247839,-100,4,2,1,80,0,1
248214,-66.6666666666667,4,2,1,80,0,1
248589,-100,4,2,1,80,0,1
248964,-66.6666666666667,4,2,1,80,0,1
249339,-50,4,2,1,80,0,1
249714,-200,4,2,1,80,0,1
249901,-133.333333333333,4,1,2,80,0,1
250089,-100,4,1,2,80,0,1
250276,-80,4,2,1,80,0,1
250464,-66.6666666666667,4,1,2,80,0,1
250651,-57.1428571428571,4,1,2,80,0,1
250839,-50,4,2,1,80,0,1
251026,-44.4444444444445,4,1,2,80,0,1
251214,-40,4,2,1,80,0,1
251401,-36.3636363636364,4,1,2,80,0,1
251589,-33.3333333333333,4,1,2,80,0,1
251776,-30.7692307692308,4,2,1,80,0,1
251964,-1000,4,1,2,80,0,0
252339,-1000,4,2,1,80,0,0
252726,375,4,1,2,80,1,1
252726,-50,4,2,1,80,0,1
252913,-50,4,1,2,80,0,1
253288,-50,4,2,1,80,0,1
253476,-50,4,1,2,80,0,1
253663,-66.6666666666667,4,1,2,80,0,1
253851,-66.6666666666667,4,2,1,80,0,1
254038,-66.6666666666667,4,1,2,80,0,1
254226,-66.6666666666667,4,2,1,80,0,1
254413,-66.6666666666667,4,1,2,80,0,1
254601,-200,4,1,2,80,0,1
254788,-200,4,2,1,80,0,1
254976,-200,4,1,2,80,0,1
255351,-200,4,2,1,80,0,1
255538,-100,4,1,2,80,0,1
255726,-200,4,2,1,80,0,1
255913,-200,4,1,2,80,0,1
256288,-200,4,2,1,80,0,1
256476,-200,4,1,2,80,0,1
256663,-66.6666666666667,4,1,2,80,0,1
256851,-66.6666666666667,4,2,1,80,0,1
257038,-66.6666666666667,4,1,2,80,0,1
257226,-66.6666666666667,4,2,1,80,0,1
257413,-66.6666666666667,4,1,2,80,0,1
257601,-50,4,1,2,80,0,1
257788,-50,4,2,1,80,0,1
257976,-50,4,1,2,80,0,1
258351,-50,4,2,1,80,0,1
258538,-100,4,1,2,80,0,1
258741,750,4,2,1,80,1,0
258741,-49.7512437810945,4,2,1,80,0,0
261741,-50,4,2,1,40,0,0
282741,794.701986754967,4,2,1,80,1,0
282741,-100,4,2,1,40,0,0
285721,-100,4,2,1,5,0,0
285815,759.493670886076,4,2,1,40,1,0
288750,769.230769230769,4,2,1,40,1,0
291634,-100,4,2,1,5,0,0
291826,-96.4320154291225,4,2,1,40,0,0
292596,714.285714285714,4,2,1,40,1,0
294738,769.230769230769,4,2,1,40,1,0
297622,-100,4,2,1,5,0,0
297814,-100,4,2,1,40,0,0
300782,750,4,2,1,40,1,0
303782,740.740740740741,4,2,1,40,1,0
306744,750,4,2,1,40,1,0
306744,-114.850120592627,4,2,1,40,0,0
312739,869.565217391304,4,2,1,40,1,0
314478,967.741935483871,4,2,1,40,1,0
316481,1000,4,2,1,40,1,0
318439,1090.90909090909,4,2,1,40,1,0
319510,937.5,4,2,1,40,1,0
321385,-100,4,2,1,5,0,0
322620,983.606557377049,4,2,1,40,1,0
323562,909.090909090909,4,2,1,40,1,0
324408,1153.84615384615,4,2,1,40,1,0
325767,1200,4,2,1,40,1,0
329367,-100,4,2,1,5,0,0

[Colours]
Combo1 : 177,100,255
Combo2 : 185,214,173
Combo3 : 237,165,165
Combo4 : 159,188,236
Combo5 : 255,194,149
Combo6 : 193,193,193
Combo7 : 255,230,151
Combo8 : 129,129,129

[HitObjects]
255,383,735,102,0,P|238:350|206:328,1,77,2|0,0:0|0:0,0:0:0:0:
144,265,3735,2,0,P|166:232|205:234,1,82.5,2|0,0:0|0:0,0:0:0:0:
218,229,6735,6,0,P|235:196|267:174,1,77,2|0,0:0|0:0,0:0:0:0:
354,125,9735,2,0,P|331:92|292:94,1,82.5,2|0,0:0|0:0,0:0:0:0:
100,93,12735,22,0,B|125:54|54:2|54:2|246:27|310:161|295:398|-22:339|43:168|122:102|41:-37|-22:6,1,825,2|0,0:0|0:0,0:0:0:0:
13,245,15735,2,0,P|126:94|309:50,1,385,2|0,0:0|0:0,0:0:0:0:
375,127,17235,2,0,P|440:130|435:3,1,220,2|0,0:0|0:0,0:0:0:0:
383,306,18734,86,0,B|391:308|399:317|399:317|409:317|409:317|409:327|409:327|472:328|407:498|616:371|538:178|398:174|226:219|313:272|313:272|207:351|62:233|187:110|173:290|281:249,1,825,2|0,0:0|0:0,0:0:0:0:
331,358,21602,2,0,P|333:364|335:371,2,13.75
345,383,21735,2,0,P|360:169|514:18,1,440,2|0,0:0|0:0,0:0:0:0:
128,339,24735,22,0,B|42:411|-79:327|-84:197|67:153|191:168|218:81|218:81|208:178|93:160|46:283|131:337,1,825,2|0,0:0|0:0,0:0:0:0:
173,274,27735,2,0,P|162:164|118:64,1,220,2|0,0:0|0:0,0:0:0:0:
106,57,29235,1,2,0:0:0:0:
321,18,29985,86,0,P|395:15|397:89,1,165,2|0,0:0|0:0,0:0:0:0:
270,124,30735,2,0,B|137:95|317:-21|103:-123|42:132|180:163|242:169|311:137|311:137|278:227|190:145|98:388|349:438|374:294,1,825,2|0,0:0|0:0,0:0:0:0:
342,259,33735,2,0,P|233:274|138:327,1,220,2|0,0:0|0:0,0:0:0:0:
130,341,35235,1,2,0:0:0:0:
1,137,36735,54,0,P|94:105|125:199,1,220,2|0,0:0|0:0,0:0:0:0:
55,285,38235,2,0,B|12:211|89:142|102:186|175:114|129:41,1,282.857142857143,2|0,0:0|0:0,0:0:0:0:
215,129,39456,1,2,0:0:0:0:
0,0,39735,54,0,P|187:33|342:145,1,385,2|0,0:0|0:0,0:0:0:0:
251,202,41235,2,0,P|142:221|53:286,1,220,2|0,0:0|0:0,0:0:0:0:
402,364,42735,54,0,P|307:334|339:240,1,220,2|0,0:0|0:0,0:0:0:0:
355,237,44235,1,2,0:0:0:0:
478,190,44610,2,0,P|446:234|436:288,2,110,2|2|2,0:0|0:0|0:0,0:0:0:0:
512,384,45735,54,0,P|384:208|180:135,1,440,2|0,0:0|0:0,0:0:0:0:
167,141,47985,1,2,0:0:0:0:
328,47,48735,54,0,P|421:15|452:109,1,220,2|0,0:0|0:0,0:0:0:0:
258,0,50304,2,0,P|304:99|315:208,1,220,2|0,0:0|0:0,0:0:0:0:
445,122,51737,2,0,P|398:228|388:336,1,220,2|0,0:0|0:0,0:0:0:0:
142,332,53238,2,0,P|164:261|234:285,1,165,2|0,0:0|0:0,0:0:0:0:
293,331,53988,2,0,B|224:370|160:298|201:286|134:218|65:261,1,264,2|0,0:0|0:0,0:0:0:0:
0,384,54735,54,0,P|102:195|307:132,1,440,2|2,0:0|0:0,0:0:0:0:
317,145,56938,53,2,0:0:0:0:
317,145,56985,1,2,0:0:0:0:
512,0,57688,53,2,0:0:0:0:
512,0,57735,1,2,0:0:0:0:
503,8,59235,53,2,0:0:0:0:
416,148,59985,6,0,L|400:58,1,82.5,2|0,0:0|0:0,0:0:0:0:
308,128,60735,38,0,P|213:97|245:3,1,220,6|0,1:0|0:0,0:0:0:0:
114,95,61297,2,0,P|212:48|321:48,1,220,2|0,3:0|0:0,0:0:0:0:
200,199,61860,2,0,P|200:171|212:147,2,55,2|0|2,3:0|0:0|0:0,0:0:0:0:
203,210,62797,1,2,0:0:0:0:
210,218,62985,1,0,0:0:0:0:
114,250,63360,69,2,3:0:0:0:
304,214,63547,1,0,3:0:0:0:
100,173,63735,38,0,P|5:203|37:297,1,220,2|0,1:0|0:0,0:0:0:0:
0,374,64297,2,0,P|98:327|207:327,1,220,2|0,3:0|0:0,0:0:0:0:
221,333,64860,1,2,3:0:0:0:
376,279,65235,69,2,0:0:0:0:
417,187,65422,1,0,0:0:0:0:
287,259,65610,1,2,0:0:0:0:
407,359,65797,1,0,0:0:0:0:
481,267,65985,38,0,L|450:275,1,27.5,0|2,0:0|0:0,0:0:0:0:
486,276,66360,2,0,L|516:284,1,27.5,2|0,0:0|0:0,0:0:0:0:
304,375,66735,70,0,B|254:289|344:208|359:260|444:176|390:90,2,330,2|2|2,1:0|3:0|3:0,0:0:0:0:
311,384,68047,1,0,0:0:0:0:
212,309,68235,38,0,P|188:294|162:285,1,55,2|0,0:0|0:0,0:0:0:0:
417,187,68610,2,0,P|440:172|466:163,1,55,2|0,0:0|0:0,0:0:0:0:
282,175,68985,69,2,0:0:0:0:
269,165,69360,1,2,3:0:0:0:
367,298,69547,1,0,3:0:0:0:
364,80,69735,37,2,1:0:0:0:
142,49,70297,1,0,3:0:0:0:
297,8,70672,69,2,0:0:0:0:
289,15,70859,1,0,0:0:0:0:
286,26,71047,1,2,0:0:0:0:
150,152,71235,38,0,P|164:175|173:201,1,55,2|0,0:0|0:0,0:0:0:0:
150,309,71610,1,0,3:0:0:0:
141,319,71797,1,2,0:0:0:0:
18,238,71985,38,0,L|71:223,1,55,2|0,3:2|0:0,0:0:0:0:
7,249,72360,1,2,3:0:0:0:
243,271,72547,1,0,3:0:0:0:
277,342,72735,70,0,P|371:311|339:217,1,220,2|0,1:0|0:0,0:0:0:0:
466,260,73297,2,0,P|466:150|512:52,1,220,2|0,3:0|0:0,0:0:0:0:
386,111,73860,2,0,P|385:56|362:7,1,110,2|0,3:0|0:0,0:0:0:0:
500,173,74235,37,2,0:0:0:0:
268,152,74610,1,0,0:0:0:0:
339,217,74797,1,2,0:0:0:0:
332,209,74985,2,0,L|324:235,1,27.5,0|2,0:0|0:0,0:0:0:0:
76,268,75360,69,2,3:0:0:0:
198,238,75547,1,2,3:2:0:0:
84,254,75735,38,0,P|178:284|146:378,1,220,2|0,1:0|0:0,0:0:0:0:
67,370,76297,2,0,P|165:324|275:324,1,220,2|0,3:0|0:0,0:0:0:0:
289,332,76859,1,2,3:0:0:0:
138,176,77235,69,2,0:0:0:0:
33,60,77422,1,0,0:0:0:0:
191,5,77610,1,2,0:0:0:0:
122,88,77797,1,0,0:0:0:0:
55,160,77985,38,0,L|1:174,1,55,0|2,0:0|0:0,0:0:0:0:
222,100,78360,2,0,L|276:114,1,55,2|0,0:0|0:0,0:0:0:0:
449,199,78735,70,0,P|304:152|353:9,2,330,2|2|2,1:0|3:0|3:0,0:0:0:0:
380,103,80235,1,0,0:0:0:0:
320,283,80610,37,0,0:0:0:0:
233,226,80797,1,2,0:0:0:0:
332,272,80985,2,0,L|317:217,1,55,2|0,0:0|0:0,0:0:0:0:
421,367,81360,1,2,3:0:0:0:
508,310,81547,1,2,3:2:0:0:
409,356,81735,69,2,1:0:0:0:
155,298,82297,1,0,0:0:0:0:
240,384,82672,37,2,0:0:0:0:
247,377,82860,1,0,0:0:0:0:
258,374,83047,1,2,0:0:0:0:
158,192,83235,70,0,P|134:177|108:168,1,55,2|0,0:0|0:0,0:0:0:0:
13,180,83610,1,2,3:2:0:0:
4,190,83797,1,2,3:2:0:0:
69,328,83985,38,0,L|54:273,1,55,2|0,3:2|0:0,0:0:0:0:
61,344,84360,1,2,3:0:0:0:
231,223,84547,1,0,3:0:0:0:
156,304,84735,70,0,B|123:247|182:193|193:228|249:172|213:115,1,220,2|0,1:0|0:0,0:0:0:0:
256,37,85297,2,0,P|162:6|132:100,1,220,2|0,3:0|0:0,0:0:0:0:
305,98,85860,38,0,P|328:83|354:74,2,55,2|0|0,3:0|0:0|0:0,0:0:0:0:
40,86,86610,1,2,0:0:0:0:
51,90,86797,1,2,0:0:0:0:
58,100,86985,1,0,0:0:0:0:
141,196,87360,69,2,3:0:0:0:
348,225,87547,1,0,3:0:0:0:
447,245,87735,6,0,P|372:238|352:317,1,165.000006294251,6|2,1:0|0:0,0:0:0:0:
258,269,88297,1,2,3:0:0:0:
433,334,88485,2,0,P|351:333|276:368,1,165.000006294251,2|2,0:0|3:0,0:0:0:0:
250,259,89047,1,0,0:0:0:0:
159,361,89235,69,2,0:0:0:0:
68,287,89422,1,0,0:0:0:0:
184,209,89610,1,2,0:0:0:0:
225,132,89797,1,0,0:0:0:0:
171,220,89985,53,0,0:0:0:0:
20,139,90172,1,2,0:0:0:0:
170,40,90360,1,2,0:0:0:0:
130,137,90547,1,0,0:0:0:0:
72,272,90735,102,0,L|26:12,2,247.500009441376,2|2|2,1:0|3:0|3:0,0:0:0:0:
333,83,92235,70,0,P|315:72|296:65,1,41.2500015735627,2|0,0:0|0:0,0:0:0:0:
383,185,92610,2,0,L|390:144,1,41.2500015735627,2|0,0:0|0:0,0:0:0:0:
510,119,92985,2,0,P|491:126|474:137,1,41.2500015735627,2|0,0:0|0:0,0:0:0:0:
418,58,93360,2,0,L|411:18,1,41.2500015735627,2|0,0:0|0:0,0:0:0:0:
359,297,93735,54,0,P|380:223|456:229,1,165.000006294251,2|2,1:0|0:0,0:0:0:0:
487,325,94297,1,2,3:0:0:0:
272,319,94485,2,0,B|314:294|355:338|328:346|370:388|413:361,1,165.000006294251,2|2,0:0|3:0,0:0:0:0:
278,220,95047,1,2,3:2:0:0:
188,384,95235,2,0,P|188:302|153:227,1,165.000006294251,2|2,3:2|3:2,0:0:0:0:
285,205,95797,1,2,3:2:0:0:
87,125,95985,101,2,3:0:0:0:
75,115,96360,1,2,3:0:0:0:
207,24,96547,1,0,3:0:0:0:
264,91,96735,70,0,P|340:96|361:23,1,165.000006294251,2|0,1:0|0:0,0:0:0:0:
484,0,97297,2,0,P|448:75|448:157,1,165.000006294251,2|0,3:0|0:0,0:0:0:0:
478,236,97860,1,2,3:0:0:0:
489,247,98047,1,0,0:0:0:0:
494,262,98235,1,0,0:0:0:0:
490,357,98610,2,0,L|495:385,2,27.5,2|2|0,0:0|0:0|0:0,0:0:0:0:
392,319,99360,53,2,3:0:0:0:
206,270,99547,1,0,3:0:0:0:
143,340,99735,86,0,P|69:318|75:242,1,165.000006294251,2|2,1:0|0:0,0:0:0:0:
203,173,100297,1,2,3:0:0:0:
155,334,100485,2,0,P|155:252|190:178,1,165.000006294251,2|2,0:0|3:0,0:0:0:0:
128,73,101047,1,0,3:0:0:0:
100,157,101235,21,2,0:0:0:0:
233,51,101422,1,0,0:0:0:0:
70,0,101610,1,2,0:0:0:0:
116,82,101797,1,0,0:0:0:0:
294,151,101985,85,0,0:0:0:0:
423,25,102172,1,2,0:0:0:0:
399,118,102360,1,2,0:0:0:0:
435,34,102547,1,0,0:0:0:0:
491,100,102735,22,0,L|247:57,2,247.500009441376,2|2|2,1:0|3:0|3:0,0:0:0:0:
354,212,104235,1,2,0:0:0:0:
501,307,104610,85,0,0:0:0:0:
477,225,104797,1,2,0:0:0:0:
489,320,104985,2,0,L|496:362,1,41.2500015735627,2|0,0:0|0:0,0:0:0:0:
405,366,105360,21,2,3:0:0:0:
250,276,105547,1,2,3:2:0:0:
359,230,105735,86,0,B|385:272|344:314|335:288|291:328|316:371,1,165.000006294251,2|0,1:0|0:0,0:0:0:0:
329,382,106297,1,0,3:0:0:0:
111,306,106672,1,2,0:0:0:0:
100,301,106860,1,0,0:0:0:0:
166,384,107047,21,2,0:0:0:0:
246,261,107235,2,0,P|239:241|228:224,1,41.2500015735627,2|0,0:0|0:0,0:0:0:0:
169,158,107610,85,2,3:0:0:0:
255,11,107797,1,0,3:0:0:0:
115,50,107985,22,0,L|157:57,1,41.2500015735627,2|2,3:0|0:0,0:0:0:0:
101,61,108360,1,2,3:0:0:0:
299,158,108547,1,2,3:2:0:0:
371,84,108735,85,2,1:0:0:0:
452,6,108922,2,0,L|409:13,1,41.2500015735627,2|0,0:0|0:0,0:0:0:0:
307,167,109297,21,2,3:0:0:0:
226,89,109484,2,0,L|268:96,1,41.2500015735627,2|0,0:0|0:0,0:0:0:0:
502,262,109860,86,0,P|480:188|404:194,1,165.000006294251,2|0,3:0|0:0,0:0:0:0:
403,206,110610,2,0,L|410:248,2,41.2500015735627,2|2|0,0:0|0:0|0:0,0:0:0:0:
307,167,111360,21,2,3:0:0:0:
179,343,111547,1,2,0:0:0:0:
277,378,111735,38,0,B|309:321|251:267|240:302|184:246|220:190,1,220,6|2,1:0|0:0,0:0:0:0:
311,57,112297,1,2,3:0:0:0:
114,184,112485,2,0,P|106:83|203:55,1,220,2|2,0:0|3:0,0:0:0:0:
231,187,113047,1,0,0:0:0:0:
86,376,113235,85,2,0:0:0:0:
23,215,113422,1,0,0:0:0:0:
185,268,113610,1,2,0:0:0:0:
108,298,113797,1,0,0:0:0:0:
189,354,113985,5,0,0:0:0:0:
405,290,114172,1,2,0:0:0:0:
316,271,114360,1,2,0:0:0:0:
407,307,114547,1,0,0:0:0:0:
501,310,114735,6,0,P|508:209|411:181,1,220,2|2,1:0|3:2,0:0:0:0:
399,193,115297,1,2,3:0:0:0:
370,60,115485,2,0,L|377:17,1,41.2500015735627,0|2,3:0|0:0,0:0:0:0:
465,78,115860,2,0,L|249:116,1,220,2|0,3:0|0:0,0:0:0:0:
84,40,116610,1,2,0:0:0:0:
78,29,116797,1,2,0:0:0:0:
67,24,116985,1,0,0:0:0:0:
138,152,117360,85,2,3:0:0:0:
199,23,117548,1,0,3:0:0:0:
148,142,117735,6,0,P|245:169|238:270,1,220,2|2,1:0|0:0,0:0:0:0:
99,248,118297,1,2,3:0:0:0:
350,290,118485,2,0,P|239:290|140:337,1,220,2|2,0:0|3:0,0:0:0:0:
108,238,119047,1,2,3:2:0:0:
71,370,119235,2,0,P|17:371|3:325,1,110,2|0,3:2|0:0,0:0:0:0:
6,185,119610,2,0,L|14:226,1,41.2500015735627,2|2,3:0|0:0,0:0:0:0:
152,350,119985,5,2,3:0:0:0:
222,221,120172,1,2,3:2:0:0:
56,109,120360,1,2,3:0:0:0:
116,230,120547,1,2,3:2:0:0:
285,28,120735,86,0,P|183:20|156:118,1,220,2|0,1:0|0:0,0:0:0:0:
360,301,121297,2,0,B|392:244|334:190|323:225|267:169|303:113,1,220,2|0,3:0|0:0,0:0:0:0:
379,59,121860,2,0,L|435:49,1,55,2|0,3:0|0:0,0:0:0:0:
228,93,122235,5,2,0:0:0:0:
380,146,122610,5,2,0:0:0:0:
452,214,122985,85,2,0:0:0:0:
468,245,123360,6,0,L|478:301,1,55,2|0,3:0|3:0,0:0:0:0:
510,166,123735,2,0,L|471:382,1,220,2|2,1:0|0:0,0:0:0:0:
345,241,124297,1,2,3:0:0:0:
359,338,124485,2,0,P|257:346|230:248,1,220,2|2,0:0|3:0,0:0:0:0:
237,235,125047,1,0,3:0:0:0:
256,140,125235,53,2,0:0:0:0:
61,63,125422,1,0,0:0:0:0:
113,255,125610,1,2,0:0:0:0:
140,149,125797,1,0,0:0:0:0:
37,184,125985,53,0,0:0:0:0:
237,235,126172,1,2,0:0:0:0:
146,361,126360,1,2,0:0:0:0:
107,268,126547,1,0,0:0:0:0:
0,289,126735,54,0,L|216:327,1,220,2|0,3:0|0:0,0:0:0:0:
366,145,127297,2,0,P|264:137|237:235,1,220,2|0,3:0|0:0,0:0:0:0:
354,295,127860,2,0,L|344:240,1,55,2|0,3:0|0:0,0:0:0:0:
298,384,128235,53,2,0:0:0:0:
446,285,128610,1,0,0:0:0:0:
512,233,128797,1,2,0:0:0:0:
455,298,128985,2,0,L|445:352,1,55,0|2,0:0|0:0,0:0:0:0:
429,201,129360,53,2,3:0:0:0:
397,28,129547,1,2,3:2:0:0:
491,103,129735,54,0,B|434:135|380:77|415:66|359:10|303:46,1,220,2|0,1:0|0:0,0:0:0:0:
229,248,130297,2,0,P|229:138|183:39,1,220,0|0,3:0|0:0,0:0:0:0:
331,121,130860,53,2,0:0:0:0:
324,131,131047,1,2,0:0:0:0:
321,145,131235,1,0,0:0:0:0:
345,240,131610,53,2,3:0:0:0:
226,339,131797,1,2,0:0:0:0:
135,294,131985,53,2,3:0:0:0:
233,328,132172,1,2,0:0:0:0:
323,344,132360,53,2,3:0:0:0:
213,118,132547,1,2,3:2:0:0:
134,176,132735,53,2,1:0:0:0:
4,86,132922,2,0,L|44:93,1,41.2500015735627,2|0,0:0|0:0,0:0:0:0:
232,231,133297,53,2,3:0:0:0:
362,139,133484,2,0,L|321:146,1,41.2500015735627,2|0,0:0|0:0,0:0:0:0:
378,384,133860,54,0,P|406:286|507:294,1,220,2|0,3:0|0:0,0:0:0:0:
512,309,134610,1,2,3:0:0:0:
476,384,134797,1,2,3:2:0:0:
429,244,134985,6,0,L|469:16,1,220,2|2,3:2|3:0,0:0:0:0:
477,15,135547,1,2,3:2:0:0:
256,120,135735,5,2,1:0:0:0:
256,192,135922,12,0,140985,0:0:0:0:
0,384,141360,5,2,0:0:0:0:
4,366,141453,5,2,0:0:0:0:
20,341,141547,5,2,0:0:0:0:
87,304,141641,5,2,0:0:0:0:
176,328,141716,38,0,P|289:337|321:227,1,247.500009441376,6|0,1:0|0:0,0:0:0:0:
381,132,142091,2,0,L|436:142,1,55,2|0,3:0|0:0,0:0:0:0:
230,230,142278,2,0,L|176:240,1,55,10|0,0:0|0:0,0:0:0:0:
430,310,142466,6,0,B|474:312|496:345|496:345|487:298|427:296,1,165.000006294251,2|0,3:0|0:0,0:0:0:0:
321,227,142747,1,0,0:0:0:0:
310,216,142841,2,0,B|273:151|339:90|351:130|414:67|374:3,1,247.500009441376,8|0,0:0|0:0,0:0:0:0:
232,95,143216,6,0,P|180:35|238:92,1,247.500009441376,2|0,1:0|0:0,0:0:0:0:
85,99,143591,2,0,L|30:89,1,55,2|0,3:0|0:0,0:0:0:0:
144,168,143778,1,10,0:0:0:0:
0,21,143966,6,0,L|29:186,1,165.000006294251,2|0,3:0|0:0,0:0:0:0:
89,295,144247,1,0,0:0:0:0:
25,341,144341,2,0,P|37:302|74:286,1,82.5000031471254,10|0,0:0|0:0,0:0:0:0:
157,253,144528,2,0,P|196:244|228:268,1,82.5000031471254,0|0,3:0|0:0,0:0:0:0:
326,362,144716,6,0,B|307:374|307:374|187:351|187:351|176:333,1,165.000006294251,2|2,1:0|3:0,0:0:0:0:
340,288,144997,1,2,0:0:0:0:
312,219,145091,2,0,L|321:273,1,55,2|0,3:0|0:0,0:0:0:0:
426,379,145278,2,0,L|435:324,1,55,10|0,0:0|0:0,0:0:0:0:
411,194,145466,6,0,P|334:199|314:126,1,165.000006294251,2|0,3:0|0:0,0:0:0:0:
392,73,145747,1,0,0:0:0:0:
407,79,145841,2,0,B|480:56|480:56|480:52|480:52|395:60,1,165.000006294251,10|0,0:0|0:0,0:0:0:0:
228,24,146122,1,0,0:0:0:0:
212,18,146216,38,0,P|186:27|169:48,1,55,2|0,1:0|0:0,0:0:0:0:
72,155,146403,6,0,P|32:162|1:137,1,82.5000031471254,2|0,0:1|0:0,0:0:0:0:
34,0,146591,6,0,P|53:63|113:33,1,110,2|0,3:1|0:0,0:0:0:0:
96,281,146778,6,0,P|156:257|153:191,1,137.5,8|0,0:0|0:0,0:0:0:0:
222,118,146966,6,0,B|167:119|158:166|158:166|180:133|224:131,1,165.000006294251,2|0,3:1|0:0,0:0:0:0:
83,267,147341,2,0,L|29:276,1,55,8|0,3:2|0:0,0:0:0:0:
17,290,147528,1,2,0:1:0:0:
249,376,147716,6,0,P|249:293|283:219,1,165.000006294251,6|2,1:0|3:0,0:0:0:0:
306,68,147997,1,2,0:0:0:0:
339,148,148091,2,0,P|339:106|321:69,1,82.5000031471254,2|0,3:0|0:0,0:0:0:0:
314,58,148278,2,0,P|314:31|325:6,1,55,10|0,0:0|0:0,0:0:0:0:
434,101,148466,38,0,B|488:99|497:52|497:52|475:85|431:87,1,165.000006294251,2|0,3:0|0:0,0:0:0:0:
503,120,148841,2,0,P|434:32|485:131,1,330,10|0,0:0|0:0,0:0:0:0:
495,226,149216,6,0,B|471:237|471:237|445:344|445:344|420:358,1,165.000006294251,2|2,1:0|3:0,0:0:0:0:
387,273,149497,1,2,0:0:0:0:
380,284,149591,2,0,L|326:293,1,55,2|0,3:0|0:0,0:0:0:0:
426,367,149778,2,0,L|480:376,1,55,10|0,0:0|0:0,0:0:0:0:
297,200,149966,6,0,B|247:176|160:188|127:317|231:343|228:287,1,247.500009441376,2|0,3:0|0:0,0:0:0:0:
181,202,150341,2,0,P|174:175|154:156,1,55,10|0,0:0|0:0,0:0:0:0:
251,384,150528,2,0,P|275:369|302:370,1,55,0|0,3:0|0:0,0:0:0:0:
87,363,150716,6,0,P|13:342|19:266,1,165.000006294251,2|2,1:0|3:0,0:0:0:0:
104,214,150997,1,2,0:0:0:0:
102,289,151091,2,0,L|93:235,1,55,2|0,3:0|0:0,0:0:0:0:
166,149,151278,2,0,B|184:138|184:138|207:18|207:18|195:-1,1,165.000006294251,10|2,0:0|3:0,0:0:0:0:
314,118,151653,5,2,3:2:0:0:
74,27,151841,2,0,B|-1:19|-1:19|-1:24|-1:24|77:48,1,165.000006294251,4|0,3:0|0:0,0:0:0:0:
96,121,152122,5,0,0:0:0:0:
107,106,152216,2,0,P|102:83|82:60,1,55,2|0,1:0|0:0,0:0:0:0:
30,175,152403,38,0,P|60:170|105:220,1,82.5000031471254,2|0,0:0|0:0,0:0:0:0:
108,215,152591,6,0,P|160:207|180:158,1,110,2|0,3:1|0:0,0:0:0:0:
249,31,152778,6,0,P|191:55|169:-12,1,137.5,10|0,0:0|0:0,0:0:0:0:
330,164,152966,6,0,P|406:147|395:76,1,165.000006294251,2|0,3:1|0:0,0:0:0:0:
265,218,153153,6,0,P|229:154|316:148,1,192.500001835823
486,89,153341,6,0,P|464:0|399:64,1,220,8|0,3:2|0:0,0:0:0:0:
247,14,153528,38,0,P|356:35|338:145,1,247.500009441376,2|0,3:1|0:0,0:0:0:0:
400,297,153716,102,0,B|371:315|371:315|190:280|190:280|174:255,1,247.500009441376,6|0,1:0|0:0,0:0:0:0:
129,336,154091,2,0,L|75:345,1,55,2|0,3:0|0:0,0:0:0:0:
255,302,154278,2,0,L|309:293,1,55,10|0,0:0|0:0,0:0:0:0:
259,379,154466,6,0,B|222:314|288:253|300:293|363:230|323:166,1,247.500009441376,2|0,3:0|0:0,0:0:0:0:
423,287,154841,2,0,B|477:285|486:238|486:238|464:271|420:273,1,165.000006294251,4|0,3:0|0:0,0:0:0:0:
512,337,155216,102,0,P|520:223|410:192,1,247.500009441376,2|0,1:0|0:0,0:0:0:0:
393,195,155591,2,0,P|365:193|342:178,1,55,2|0,3:0|0:0,0:0:0:0:
283,121,155778,2,0,P|271:96|272:68,1,55,10|0,0:0|0:0,0:0:0:0:
381,21,155966,6,0,P|419:95|367:29,1,247.500009441376,2|0,3:0|0:0,0:0:0:0:
448,74,156341,2,0,L|502:83,1,55,10|0,0:0|0:0,0:0:0:0:
512,93,156528,1,0,3:0:0:0:
256,0,156716,102,0,B|206:-23|119:-11|86:117|190:143|187:87,1,247.500009441376,2|0,1:0|0:0,0:0:0:0:
107,57,157091,2,0,L|53:48,1,55,2|0,3:0|0:0,0:0:0:0:
167,215,157278,2,0,P|190:200|217:198,1,55,10|0,0:0|0:0,0:0:0:0:
152,225,157466,6,0,P|38:233|7:123,1,247.500009441376,2|0,3:0|0:0,0:0:0:0:
154,210,157841,2,0,P|77:204|57:277,1,165,4|0,3:0|0:0,0:0:0:0:
182,377,158216,102,0,B|219:356|219:356|258:195|258:195|294:179,1,247.500009441376,2|0,1:0|0:0,0:0:0:0:
403,310,158591,2,0,L|349:301,1,55,2|0,3:0|0:0,0:0:0:0:
335,307,158778,1,10,0:0:0:0:
387,115,158966,6,0,B|500:103|500:103|501:111|501:111|381:146,1,247.500009441376,2|0,3:0|0:0,0:0:0:0:
470,76,159341,2,0,L|479:22,1,55,10|0,0:0|0:0,0:0:0:0:
450,215,159528,1,0,3:0:0:0:
371,38,159716,102,0,P|262:57|286:166,1,247.500009441376,2|0,1:0|0:0,0:0:0:0:
216,110,160091,2,0,P|196:91|170:82,1,55,2|0,3:0|0:0,0:0:0:0:
137,7,160278,2,0,P|110:15|90:33,1,55,10|0,0:0|0:0,0:0:0:0:
216,0,160466,6,0,L|258:252,1,247.500009441376,2|0,3:0|0:0,0:0:0:0:
184,272,160841,2,0,B|129:270|120:223|120:223|142:256|186:258,1,165.000006294251,4|0,3:0|0:0,0:0:0:0:
199,341,161216,102,0,P|222:232|113:214,1,247.500009441376,2|0,1:0|0:0,0:0:0:0:
46,209,161591,2,0,P|69:222|97:224,1,55,2|0,3:0|0:0,0:0:0:0:
11,349,161778,2,0,P|34:334|50:312,1,55,10|0,0:0|0:0,0:0:0:0:
250,257,161966,6,0,P|177:259|191:331,1,165,2|0,3:0|0:0,0:0:0:0:
367,322,162341,2,0,L|421:331,1,55,10|0,0:0|0:0,0:0:0:0:
428,343,162528,1,0,3:0:0:0:
297,383,162716,102,0,L|255:134,1,247.500009441376,2|0,1:0|0:0,0:0:0:0:
312,55,163091,2,0,L|321:1,1,55,2|0,3:0|0:0,0:0:0:0:
267,126,163278,1,10,0:0:0:0:
180,60,163466,6,0,B|244:23|305:89|265:101|328:164|392:124,1,247.500009441376,2|0,3:0|0:0,0:0:0:0:
512,112,163841,2,0,B|535:62|523:-24|394:-57|368:46|424:43,1,247.500009441376,4|0,3:0|0:0,0:0:0:0:
462,173,164216,101,2,1:0:0:0:
438,339,164403,5,2,3:0:0:0:
448,326,164497,1,2,0:0:0:0:
444,342,164591,1,2,3:0:0:0:
307,343,164778,101,8,0:0:0:0:
336,305,164872,1,2,0:0:0:0:
313,347,164966,1,2,3:0:0:0:
131,270,165153,5,2,3:0:0:0:
199,223,165247,1,2,0:0:0:0:
137,276,165341,1,8,0:0:0:0:
27,43,165528,101,2,3:0:0:0:
132,53,165621,1,2,3:2:0:0:
25,58,165716,38,0,B|61:74|61:74|105:191|105:191|136:137|136:137|156:131,1,247.500009441376,6|0,1:0|0:0,0:0:0:0:
259,130,166091,2,0,P|256:79|205:75,1,110,2|10,3:0|0:0,0:0:0:0:
199,223,166372,69,2,0:0:0:0:
214,237,166466,2,0,B|278:273|339:207|299:195|362:132|426:172,1,247.500009441376,2|0,3:0|0:0,0:0:0:0:
512,191,166841,2,0,L|503:137,1,55,10|0,0:0|0:0,0:0:0:0:
346,41,167028,1,2,3:2:0:0:
423,70,167122,1,0,3:0:0:0:
458,0,167216,38,0,P|348:17|371:126,1,247.500009441376,2|0,1:0|0:0,0:0:0:0:
328,299,167591,2,0,P|379:288|390:238,1,110,2|10,3:0|0:0,0:0:0:0:
483,276,167872,69,2,0:0:0:0:
489,289,167966,2,0,L|480:343,1,55,2|0,3:0|0:0,0:0:0:0:
278,363,168153,2,0,P|255:348|228:345,1,55,2|0,3:2|0:0,0:0:0:0:
358,379,168341,2,0,P|385:376|408:362,1,55,10|0,0:0|0:0,0:0:0:0:
151,329,168528,2,0,L|97:338,1,55,0|0,3:0|0:0,0:0:0:0:
214,237,168716,38,0,P|252:162|200:228,1,247.500009441376,2|0,1:0|0:0,0:0:0:0:
70,221,169091,70,0,P|37:159|81:213,1,206.25,0|0,3:0|0:0,0:0:0:0:
155,90,169466,38,0,P|180:40|146:84,1,165,0|0,3:0|0:0,0:0:0:0:
93,34,169841,70,0,P|73:-3|99:29,1,123.750004720688,8|0,0:0|0:0,0:0:0:0:
49,114,170216,37,2,1:0:0:0:
121,151,170309,1,0,0:0:0:0:
201,141,170403,1,2,3:0:0:0:
236,112,170497,1,2,0:0:0:0:
257,74,170591,1,2,3:0:0:0:
277,52,170684,1,0,0:0:0:0:
301,49,170778,1,10,0:0:0:0:
317,59,170872,1,2,0:0:0:0:
330,64,170966,86,0,B|385:62|394:15|394:15|372:48|328:50,1,165.000006294251,2|0,3:0|0:0,0:0:0:0:
466,74,171341,2,0,L|475:20,1,55,10|0,0:0|0:0,0:0:0:0:
370,136,171528,2,0,P|403:151|418:180,1,55,0|0,3:0|0:0,0:0:0:0:
512,223,171716,22,0,B|491:260|491:260|330:299|330:299|314:335,1,247.500009441376,2|0,1:0|0:0,0:0:0:0:
413,330,172091,2,0,B|421:245|421:245|416:245|416:245|394:318,1,165,0|0,3:0|0:0,0:0:0:0:
303,348,172466,2,0,P|194:369|177:259,1,247.500009441376,0|0,3:0|0:0,0:0:0:0:
265,195,172841,2,0,L|256:141,1,55,10|0,0:0|0:0,0:0:0:0:
256,288,173028,1,0,3:0:0:0:
53,306,173216,86,0,B|-2:304|-11:257|-11:257|11:290|55:292,1,165.000006294251,2|0,1:0|0:0,0:0:0:0:
71,384,173591,2,0,P|71:259|20:149,1,247.500009441376,0|0,3:0|0:0,0:0:0:0:
39,59,173966,2,0,P|111:44|122:117,1,165,0|0,3:0|0:0,0:0:0:0:
131,190,174341,2,0,P|118:165|120:138,1,55,10|0,0:0|0:0,0:0:0:0:
154,50,174528,2,0,P|169:26|205:13,1,55,0|0,3:0|0:0,0:0:0:0:
262,103,174716,22,0,L|302:347,1,247.500009441376,2|0,1:0|0:0,0:0:0:0:
311,188,175091,2,0,B|278:172|221:180|200:264|268:280|266:244,1,165,0|0,3:0|0:0,0:0:0:0:
387,167,175466,2,0,P|495:145|512:255,1,247.500009441376,0|0,3:0|0:0,0:0:0:0:
498,266,175841,2,0,P|476:253|442:251,1,55,10|0,0:0|0:0,0:0:0:0:
397,352,176028,2,0,P|419:339|453:337,1,55,0|0,3:0|0:0,0:0:0:0:
362,259,176216,85,2,1:0:0:0:
352,249,176309,1,0,0:0:0:0:
330,246,176403,1,2,3:0:0:0:
301,254,176497,1,2,0:0:0:0:
264,279,176591,1,2,3:0:0:0:
204,285,176684,1,0,0:0:0:0:
152,223,176778,1,10,0:0:0:0:
188,151,176872,1,2,0:0:0:0:
269,115,176966,21,2,3:0:0:0:
308,51,177059,1,0,0:0:0:0:
270,10,177153,1,2,3:0:0:0:
215,15,177247,1,0,0:0:0:0:
184,41,177341,1,10,0:0:0:0:
152,50,177434,1,0,0:0:0:0:
123,49,177528,1,2,3:2:0:0:
106,41,177622,1,0,0:0:0:0:
100,30,177714,22,0,P|57:29|37:65,1,82.5000031471254,6|0,1:0|0:0,0:0:0:0:
53,161,177901,1,2,3:0:0:0:
62,175,177995,1,2,0:0:0:0:
78,179,178089,1,2,3:0:0:0:
180,133,178276,1,10,0:0:0:0:
476,209,178464,38,0,L|368:230,1,110,2|0,3:0|0:0,0:0:0:0:
327,319,178745,1,2,0:0:0:0:
322,335,178839,2,0,P|212:318|234:209,1,247.500009441376,4|0,3:0|0:0,0:0:0:0:
316,146,179214,70,0,L|332:65,1,82.5000031471254,2|0,1:0|0:0,0:0:0:0:
215,15,179401,1,2,3:0:0:0:
218,31,179494,1,2,0:0:0:0:
221,47,179588,1,2,3:0:0:0:
429,116,179776,38,0,P|456:113|479:100,1,55,10|0,0:0|0:0,0:0:0:0:
421,6,179964,2,0,B|384:70|450:131|462:91|525:154|485:218,1,247.500009441376,2|0,3:0|0:0,0:0:0:0:
494,367,180339,2,0,P|466:364|443:351,1,55,10|0,0:0|0:0,0:0:0:0:
478,229,180526,2,0,L|488:282,1,55,0|0,3:0|0:0,0:0:0:0:
296,366,180714,70,0,B|271:351|271:351|244:243|244:243|220:232,1,165.000006294251,2|2,1:0|3:0,0:0:0:0:
108,308,180995,1,2,0:0:0:0:
122,317,181089,2,0,L|175:306,1,55,2|0,3:0|0:0,0:0:0:0:
376,250,181276,2,0,L|322:239,1,55,10|0,0:0|0:0,0:0:0:0:
137,218,181464,38,0,B|113:168|125:83|250:51|274:153|220:150,1,247.500009441376,2|0,3:0|0:0,0:0:0:0:
120,142,181839,2,0,P|106:118|104:91,1,55,10|0,0:0|0:0,0:0:0:0:
29,62,182026,2,0,P|42:38|65:22,1,55,0|0,3:0|0:0,0:0:0:0:
215,0,182214,70,0,P|238:32|277:29,1,82.5000031471254,2|0,1:0|0:0,0:0:0:0:
382,9,182401,1,2,3:0:0:0:
398,8,182495,1,2,0:0:0:0:
411,17,182589,1,2,3:0:0:0:
290,24,182776,1,10,0:0:0:0:
426,123,182964,70,0,B|481:121|490:74|490:74|468:107|424:109,1,165,2|0,3:0|0:0,0:0:0:0:
330,102,183339,2,0,L|340:155,1,55,10|0,0:0|0:0,0:0:0:0:
418,222,183526,2,0,L|407:275,1,55,0|0,3:0|0:0,0:0:0:0:
271,353,183714,38,0,P|233:278|285:344,1,247.500009441376,2|0,1:0|0:0,0:0:0:0:
452,344,184089,2,0,P|428:357|401:359,1,55,2|0,3:0|0:0,0:0:0:0:
387,352,184276,1,10,0:0:0:0:
119,227,184464,70,0,P|46:237|60:310,1,165.000006294251,2|0,3:0|0:0,0:0:0:0:
149,347,184745,1,2,0:0:0:0:
135,356,184839,2,0,B|59:364|59:364|58:358|58:358|139:335,1,165,4|0,3:0|0:0,0:0:0:0:
221,254,185214,38,0,B|257:189|191:128|179:168|116:105|156:41,1,247.500009441376,2|0,1:0|0:0,0:0:0:0:
166,34,185589,2,0,P|238:44|224:117,1,165.000006294251,2|0,3:0|0:0,0:0:0:0:
75,140,185870,69,2,0:0:0:0:
59,145,185964,2,0,B|4:143|-5:96|-5:96|17:129|61:131,1,165,2|0,3:0|0:0,0:0:0:0:
53,0,186339,2,0,L|63:53,1,55,10|0,0:0|0:0,0:0:0:0:
158,162,186526,2,0,L|147:215,1,55,0|0,3:0|0:0,0:0:0:0:
388,72,186714,38,0,P|349:69|326:102,1,82.5000031471254,2|0,1:0|0:0,0:0:0:0:
318,196,186901,1,2,3:0:0:0:
328,209,186995,1,2,0:0:0:0:
344,214,187089,1,2,3:0:0:0:
443,184,187276,1,10,0:0:0:0:
446,352,187464,70,0,L|337:329,1,110,2|0,3:0|0:0,0:0:0:0:
440,268,187745,1,2,0:0:0:0:
456,265,187839,2,0,L|509:254,1,55,10|0,0:0|0:0,0:0:0:0:
330,319,188026,1,0,3:0:0:0:
225,367,188214,38,0,B|207:356|207:356|184:236|184:236|196:217,1,165.000006294251,2|2,1:0|3:0,0:0:0:0:
182,127,188495,1,2,0:0:0:0:
170,116,188589,2,0,P|97:126|111:199,1,165.000006294251,2|10,3:0|0:0,0:0:0:0:
45,333,188964,70,0,P|69:322|83:299,1,55,2|0,3:1|0:0,0:0:0:0:
156,284,189151,86,0,P|111:268|109:211,1,110
264,147,189339,22,0,P|276:207|215:216,1,137.5,8|0,3:2|0:0,0:0:0:0:
16,260,189526,86,0,P|27:186|99:201,1,165.000006294251,2|0,3:1|0:0,0:0:0:0:
142,368,189714,22,0,L|83:82,1,288.750002753735,6|0,1:0|0:0,0:0:0:0:
4,0,190089,2,0,L|57:10,1,55,2|0,3:0|0:0,0:0:0:0:
173,34,190276,1,10,0:0:0:0:
189,31,190369,1,2,0:0:0:0:
205,28,190463,1,2,3:0:0:0:
182,127,190651,85,0,3:0:0:0:
336,33,190839,2,0,P|408:43|394:116,1,165.000006294251,10|0,0:0|3:0,0:0:0:0:
250,245,191120,1,2,3:2:0:0:
235,252,191214,22,0,P|194:148|299:113,1,247.500009441376,2|0,1:0|0:0,0:0:0:0:
405,221,191589,2,0,B|460:219|469:172|469:172|447:205|403:207,1,165,2|0,3:0|0:0,0:0:0:0:
318,194,191964,86,0,L|350:355,1,165.000006294251,2|0,3:0|0:0,0:0:0:0:
425,313,192245,1,2,0:0:0:0:
440,306,192339,2,0,L|493:316,1,55,10|0,0:0|0:0,0:0:0:0:
273,373,192526,2,0,L|219:362,1,55,0|0,3:0|0:0,0:0:0:0:
88,337,192714,54,0,B|102:312|102:312|210:285|210:285|221:261,1,165.000006294251,2|0,1:0|3:0,0:0:0:0:
76,188,192995,1,2,0:0:0:0:
61,195,193089,2,0,P|33:192|10:179,1,55,2|0,3:0|0:0,0:0:0:0:
162,96,193276,2,0,P|189:93|212:80,1,55,10|0,0:0|0:0,0:0:0:0:
79,14,193464,54,0,B|42:78|108:139|120:99|183:162|143:226,1,247.500009441376,2|0,3:0|0:0,0:0:0:0:
232,254,193839,2,0,B|312:230|312:230|311:225|311:225|236:233,1,165,4|0,3:0|0:0,0:0:0:0:
334,271,194214,54,0,P|372:196|319:261,1,247.500009441376,2|0,1:0|0:0,0:0:0:0:
475,238,194589,2,0,P|439:194|465:244,1,165,2|0,3:0|0:0,0:0:0:0:
417,380,194964,2,0,L|427:326,1,55,2|0,3:0|0:0,0:0:0:0:
429,315,195151,1,2,3:2:0:0:
326,107,195339,54,0,L|272:117,1,55,10|0,0:0|0:0,0:0:0:0:
450,84,195526,2,0,L|503:73,1,55,0|0,3:0|0:0,0:0:0:0:
364,30,195714,38,0,B|340:79|352:164|477:196|501:94|447:97,1,247.500009441376,2|0,1:0|0:0,0:0:0:0:
355,18,196089,2,0,P|327:15|304:2,1,55,2|0,3:0|0:0,0:0:0:0:
203,45,196276,1,10,0:0:0:0:
189,45,196370,1,2,0:0:0:0:
178,54,196464,1,2,3:0:0:0:
265,129,196651,5,2,3:2:0:0:
89,238,196839,2,0,P|74:165|147:154,1,165.000006294251,4|0,3:0|0:0,0:0:0:0:
165,250,197214,102,0,B|154:268|154:268|34:291|34:291|15:279,1,165.000006294251,2|2,1:0|3:0,0:0:0:0:
160,347,197495,1,2,0:0:0:0:
176,351,197589,2,0,L|229:361,1,55,2|0,3:0|0:0,0:0:0:0:
380,245,197776,2,0,L|326:255,1,55,10|0,0:0|0:0,0:0:0:0:
319,362,197964,6,0,B|355:297|289:236|277:276|214:213|254:149,1,247.500009441376,2|0,3:0|0:0,0:0:0:0:
206,87,198339,2,0,P|229:73|256:71,1,55,10|0,0:0|0:0,0:0:0:0:
293,1,198526,2,0,P|316:14|332:37,1,55,0|0,3:0|0:0,0:0:0:0:
397,80,198714,102,0,L|151:30,1,247.500009441376,2|0,1:0|0:0,0:0:0:0:
72,99,199089,2,0,L|10:111,1,55,2|0,3:0|0:0,0:0:0:0:
82,216,199276,1,10,0:0:0:0:
85,200,199369,1,2,0:0:0:0:
88,184,199463,1,2,3:0:0:0:
166,296,199651,5,2,3:2:0:0:
335,172,199839,2,0,P|407:183|393:255,1,165.000006294251,4|0,3:0|3:0,0:0:0:0:
456,333,200120,1,2,0:0:0:0:
447,346,200214,102,0,B|397:369|312:357|280:232|382:208|379:262,1,247.500009441376,2|0,1:0|0:0,0:0:0:0:
354,370,200589,2,0,P|383:204|476:69,2,330.000012588501,2|2|10,3:2|3:2|0:0,0:0:0:0:
361,384,201526,1,0,0:0:0:0:
172,312,201714,37,8,0:0:0:0:
512,245,201901,1,10,0:0:0:0:
503,231,201995,1,2,0:0:0:0:
487,225,202089,1,2,0:0:0:0:
338,57,202276,1,2,0:0:0:0:
347,43,202370,1,2,0:0:0:0:
363,37,202464,54,0,P|301:74|283:5,1,165.000006294251
112,114,202651,6,0,P|113:69|204:69,1,137.5
445,78,202839,6,0,P|423:30|371:31,1,110,8|0,0:0|0:0,0:0:0:0:
191,132,203026,22,0,P|206:168|244:179,1,82.5000031471254,8|0,0:0|0:0,0:0:0:0:
369,173,203214,54,0,P|345:157|314:155,1,55
159,257,203401,6,0,P|170:249|183:246,1,27.5
325,246,203589,6,0,P|301:262|270:264,1,55
200,327,203776,22,0,P|237:343|247:382,1,82.5000031471254
106,344,203964,54,0,P|57:323|67:275,1,110,8|0,0:0|0:0,0:0:0:0:
430,255,204151,6,0,P|426:318|363:331,1,137.5,0|0,3:0|0:0,0:0:0:0:
77,265,204339,6,0,P|146:221|105:161,1,165.000006294251,8|0,0:0|0:0,0:0:0:0:
420,239,204526,22,0,P|342:200|380:122,1,192.500001835823,0|0,3:0|0:0,0:0:0:0:
218,17,204714,86,0,L|260:260,1,247.500009441376,6|0,1:0|0:0,0:0:0:0:
267,142,205089,2,0,L|276:87,1,55,2|0,3:0|0:0,0:0:0:0:
293,0,205276,1,10,2:0:0:0:
106,78,205464,22,0,B|52:76|43:29|43:29|65:62|109:64,1,165.000006294251,2|0,3:0|0:0,0:0:0:0:
30,104,205839,2,0,P|99:16|48:115,1,330,4|0,3:0|0:0,0:0:0:0:
18,188,206214,102,0,B|42:199|42:199|68:306|68:306|93:320,1,165.000006294251,2|2,1:0|3:0,0:0:0:0:
159,215,206495,1,2,0:0:0:0:
223,307,206589,2,0,L|232:362,1,55,2|0,3:0|0:0,0:0:0:0:
160,201,206776,2,0,L|169:146,1,55,10|0,0:0|0:0,0:0:0:0:
92,319,206964,86,0,B|156:356|217:290|177:278|240:215|304:255,1,247.500009441376,2|0,3:0|0:0,0:0:0:0:
309,334,207339,2,0,P|336:331|359:318,1,55,10|0,0:0|0:0,0:0:0:0:
435,350,207526,2,0,P|445:325|446:298,1,55,0|0,3:0|0:0,0:0:0:0:
388,236,207714,6,0,B|365:186|377:100|506:67|532:170|476:167,1,247.500009441376,2|0,1:0|0:0,0:0:0:0:
472,174,208089,2,0,B|418:172|409:125|409:125|431:158|475:160,1,165.000006294251,0|0,3:0|0:0,0:0:0:0:
446,297,208464,2,0,L|404:54,1,247.500009441376,0|0,3:0|0:0,0:0:0:0:
334,0,208839,2,0,P|262:11|276:83,1,165.000006294251,8|0,0:0|0:0,0:0:0:0:
403,53,209214,22,0,B|339:16|278:82|318:94|255:157|191:117,1,247.500009441376,2|0,1:0|0:0,0:0:0:0:
119,62,209589,2,0,L|110:7,1,55,2|0,3:0|0:0,0:0:0:0:
154,196,209776,2,0,L|145:251,1,55,10|0,0:0|0:0,0:0:0:0:
0,116,209964,2,0,P|72:127|58:199,1,165.000006294251,2|0,3:0|0:0,0:0:0:0:
92,317,210339,2,0,P|115:330|142:333,1,55,10|0,0:0|0:0,0:0:0:0:
229,375,210526,2,0,P|252:361|268:339,1,55,0|0,3:0|0:0,0:0:0:0:
248,243,210714,102,0,P|322:208|404:208,1,165.000006294251,6|2,1:0|3:0,0:0:0:0:
494,228,210995,1,2,0:0:0:0:
421,220,211089,2,0,P|445:231|472:231,1,55,2|0,3:0|0:0,0:0:0:0:
381,132,211276,2,0,P|356:120|329:120,1,55,10|0,0:0|0:0,0:0:0:0:
401,314,211464,86,0,P|400:191|451:79,1,247.500009441376,2|0,3:0|0:0,0:0:0:0:
398,328,211839,2,0,P|326:317|340:245,1,165.000006294251,4|0,3:0|0:0,0:0:0:0:
232,235,212214,6,0,P|209:127|319:110,1,247.500009441376,2|0,1:0|0:0,0:0:0:0:
173,182,212589,2,0,L|118:191,1,55,2|0,3:0|0:0,0:0:0:0:
309,237,212776,1,8,0:0:0:0:
325,240,212870,1,2,0:0:0:0:
341,243,212963,1,2,3:0:0:0:
221,329,213151,1,2,3:2:0:0:
5,124,213339,22,0,P|21:87|60:76,1,82.5000031471254,10|0,0:0|0:0,0:0:0:0:
96,5,213526,2,0,P|135:1|164:28,1,82.5000031471254,0|0,3:0|0:0,0:0:0:0:
135,108,213714,102,0,L|108:271,1,165.000006294251,2|2,1:0|3:0,0:0:0:0:
44,340,213995,1,2,0:0:0:0:
25,267,214089,2,0,L|34:322,1,55,2|0,3:0|0:0,0:0:0:0:
221,329,214276,2,0,B|240:317|240:317|360:340|360:340|371:358,1,165.000006294251,10|2,0:0|3:0,0:0:0:0:
443,227,214651,85,2,0:0:0:0:
292,300,214839,2,0,B|284:225|284:225|289:225|289:225|313:303,1,165.000006294251,4|0,3:0|0:0,0:0:0:0:
380,177,215214,6,0,P|271:199|254:90,1,247.500009441376,2|0,1:0|0:0,0:0:0:0:
372,80,215589,2,0,P|399:80|424:68,1,55,2|0,3:0|0:0,0:0:0:0:
491,110,215776,2,0,P|504:86|507:59,1,55,10|0,0:0|0:0,0:0:0:0:
386,3,215964,22,0,B|349:67|415:128|427:88|490:151|450:215,1,247.500009441376,2|0,3:0|0:0,0:0:0:0:
442,312,216339,2,0,L|451:367,1,55,10|0,0:0|0:0,0:0:0:0:
370,251,216526,1,0,3:0:0:0:
248,74,216714,38,0,P|175:59|164:131,1,165.000006294251,6|2,1:0|3:0,0:0:0:0:
106,210,216995,1,2,0:0:0:0:
32,206,217089,2,0,L|87:197,1,55,2|0,3:0|0:0,0:0:0:0:
262,235,217276,2,0,L|207:226,1,55,10|0,0:0|0:0,0:0:0:0:
119,286,217464,102,0,B|96:236|108:150|237:117|263:220|207:217,1,247.500009441376,2|0,3:0|0:0,0:0:0:0:
270,340,217839,2,0,B|324:338|333:291|333:291|311:324|267:326,1,165.000006294251,4|0,3:0|0:0,0:0:0:0:
198,364,218214,6,0,B|161:300|227:239|239:279|302:216|262:152,1,247.500009441376,2|0,1:0|0:0,0:0:0:0:
235,64,218589,2,0,B|227:-11|227:-11|232:-11|232:-11|256:67,1,165.000006294251,0|0,3:0|0:0,0:0:0:0:
340,39,218964,102,0,L|395:48,1,55,2|0,3:0|0:0,0:0:0:0:
187,128,219151,2,0,P|162:116|135:117,1,55,2|0,3:0|0:0,0:0:0:0:
273,144,219339,6,0,P|297:132|325:133,1,55,10|0,0:0|0:0,0:0:0:0:
122,23,219526,2,0,L|67:32,1,55,0|0,3:0|0:0,0:0:0:0:
238,279,219714,102,0,P|193:208|222:288,1,247.500009441376,2|0,1:0|0:0,0:0:0:0:
187,358,220089,2,0,B|198:334|198:334|305:308|305:308|319:283,1,165.000006294251,2|10,3:0|0:0,0:0:0:0:
395,302,220370,1,0,0:0:0:0:
393,374,220464,2,0,L|384:319,1,55,2|0,3:0|0:0,0:0:0:0:
332,210,220651,2,0,L|341:155,1,55,2|0,3:2|0:0,0:0:0:0:
434,218,220839,2,0,B|488:216|497:169|497:169|475:202|431:204,1,165.000006294251,4|0,3:0|0:0,0:0:0:0:
498,284,221214,6,0,B|448:307|362:295|329:166|432:140|429:196,1,247.500009441376,2|0,1:0|0:0,0:0:0:0:
463,103,221589,2,0,P|463:75|475:51,1,55,2|0,3:0|0:0,0:0:0:0:
483,43,221776,1,10,0:0:0:0:
312,18,221964,38,0,B|276:34|276:34|232:151|232:151|201:97|201:97|181:91,1,247.500009441376,2|0,3:0|0:0,0:0:0:0:
100,66,222339,2,0,P|115:29|154:17,1,82.5000031471254,10|0,0:0|0:0,0:0:0:0:
342,155,222526,2,0,P|326:118|287:106,1,82.5000031471254,0|0,3:0|0:0,0:0:0:0:
215,181,222714,70,0,L|241:343,1,165.000006294251,6|2,1:0|3:0,0:0:0:0:
304,261,222995,1,2,0:0:0:0:
377,289,223089,2,0,L|322:280,1,55,2|0,3:0|0:0,0:0:0:0:
133,253,223276,2,0,L|78:244,1,55,10|0,0:0|0:0,0:0:0:0:
8,226,223464,2,0,B|83:218|83:218|83:223|83:223|2:247,1,165.000006294251,2|0,3:0|0:0,0:0:0:0:
33,372,223839,38,0,P|33:344|45:320,1,55,10|0,0:0|0:0,0:0:0:0:
112,360,224026,1,0,3:0:0:0:
481,340,224214,70,0,P|504:232|394:215,1,247.500009441376,2|0,1:0|0:0,0:0:0:0:
323,254,224589,2,0,P|311:229|311:202,1,55,2|0,3:0|0:0,0:0:0:0:
244,157,224776,2,0,P|259:134|282:120,1,55,10|0,0:0|0:0,0:0:0:0:
442,65,224964,38,0,L|401:313,1,247.500009441376,2|0,3:0|0:0,0:0:0:0:
276,352,225339,2,0,L|221:360,1,55,10|0,0:0|0:0,0:0:0:0:
353,372,225526,1,0,3:0:0:0:
113,221,225714,70,0,P|35:230|41:326,1,192.500001835823,6|0,3:1|0:0,0:0:0:0:
122,384,225901,38,0,P|122:310|49:314,1,165.000006294251,2|0,0:0|0:0,0:0:0:0:
154,128,226089,70,0,P|209:134|204:202,1,137.5,2|0,3:1|0:0,0:0:0:0:
254,282,226276,38,0,P|204:265|197:213,1,110,8|0,0:0|0:0,0:0:0:0:
237,56,226464,70,0,P|278:55|306:27,1,82.5000031471254,2|0,3:1|0:0,0:0:0:0:
437,70,226651,38,0,P|418:50|391:49,1,55
325,135,226839,70,0,B|317:210|317:210|322:210|322:210|346:129,1,165.000006294251,8|0,3:2|0:0,0:0:0:0:
393,280,227214,38,0,P|383:271|371:265,1,27.5,2|0,1:0|0:0,0:0:0:0:
441,344,227401,70,0,P|457:366|483:375,1,55,2|0,0:0|0:0,0:0:0:0:
488,172,227589,38,0,P|444:176|424:204,1,82.5000031471254,2|0,3:1|0:0,0:0:0:0:
278,320,227776,70,0,P|229:305|226:253,1,110,8|0,0:0|0:0,0:0:0:0:
212,61,227964,38,0,P|148:56|134:117,1,137.5,2|0,3:1|0:0,0:0:0:0:
23,260,228151,70,0,P|97:276|132:208,1,165.000006294251
56,3,228339,38,0,P|43:95|129:124,1,192.500001835823,8|0,3:2|0:0,0:0:0:0:
226,243,228526,70,0,P|233:166|130:135,1,192.500001835823,2|0,3:1|0:0,0:0:0:0:
0,185,228714,70,0,L|269:137,1,247.500009441376,6|0,1:0|0:0,0:0:0:0:
361,87,229089,2,0,L|306:77,1,55,2|0,3:0|0:0,0:0:0:0:
212,61,229276,1,10,0:0:0:0:
463,19,229464,54,0,B|538:11|538:11|538:16|538:16|458:41,1,165.000006294251,2|0,3:0|0:0,0:0:0:0:
469,139,229839,2,0,P|421:38|487:127,1,330,4|0,3:0|0:0,0:0:0:0:
458,218,230214,6,0,B|433:260|477:301|485:274|527:316|500:359,1,165.000006294251,2|2,1:0|3:0,0:0:0:0:
356,315,230495,1,2,0:0:0:0:
421,342,230589,2,0,P|393:342|369:330,1,55,2|0,3:0|0:0,0:0:0:0:
302,249,230776,2,0,P|274:249|250:261,1,55,10|0,0:0|0:0,0:0:0:0:
186,344,230964,86,0,B|136:367|50:355|17:226|120:200|117:256,1,247.500009441376,2|0,3:0|0:0,0:0:0:0:
51,335,231339,2,0,P|26:346|0:346,1,55,10|0,0:0|0:0,0:0:0:0:
197,260,231526,2,0,P|221:271|248:271,1,55,0|0,3:0|0:0,0:0:0:0:
278,372,231714,70,0,L|234:128,1,247.500009441376,2|0,1:0|0:0,0:0:0:0:
231,113,232089,2,0,B|233:59|280:50|280:50|247:72|245:116,1,165.000006294251,0|0,3:0|0:0,0:0:0:0:
189,25,232464,2,0,P|297:4|315:114,1,247.500009441376,0|0,3:0|0:0,0:0:0:0:
139,139,232839,2,0,B|63:147|63:147|63:142|63:142|144:117,1,165.000006294251,8|0,0:0|0:0,0:0:0:0:
70,185,233214,54,0,P|100:106|55:177,1,247.500009441376,2|0,1:0|0:0,0:0:0:0:
159,237,233589,2,0,L|213:246,1,55,2|0,3:0|0:0,0:0:0:0:
82,311,233776,2,0,L|27:320,1,55,10|0,0:0|0:0,0:0:0:0:
70,185,233964,2,0,B|106:201|106:201|145:362|145:362|182:383,1,247.500009441376,2|0,3:0|0:0,0:0:0:0:
257,333,234339,2,0,P|270:309|292:293,1,55,10|0,0:0|0:0,0:0:0:0:
286,214,234526,2,0,P|313:213|337:225,1,55,0|0,3:0|0:0,0:0:0:0:
408,175,234714,6,0,L|437:338,1,165.000006294251,6|2,1:0|3:0,0:0:0:0:
500,278,234995,1,2,0:0:0:0:
512,209,235089,2,0,L|502:263,1,55,2|0,3:0|0:0,0:0:0:0:
368,384,235276,2,0,L|358:329,1,55,10|0,0:0|0:0,0:0:0:0:
416,161,235464,86,0,B|470:159|479:112|479:112|457:145|413:147,1,165.000006294251,2|0,3:0|0:0,0:0:0:0:
502,128,235839,2,0,B|525:78|513:-8|384:-41|358:62|414:59,1,247.500009441376,4|0,3:0|0:0,0:0:0:0:
336,121,236214,70,0,P|210:121|103:174,1,247.500009441376,2|0,1:0|0:0,0:0:0:0:
0,82,236589,2,0,P|24:94|51:94,1,55,2|0,3:0|0:0,0:0:0:0:
140,57,236776,1,8,0:0:0:0:
148,48,236870,1,2,0:0:0:0:
152,35,236964,1,2,3:0:0:0:
240,158,237151,1,2,3:2:0:0:
0,384,237339,54,0,P|16:347|55:336,1,82.5000031471254,10|0,0:0|0:0,0:0:0:0:
91,265,237526,2,0,P|130:261|159:288,1,82.5000031471254,0|0,3:0|0:0,0:0:0:0:
237,360,237714,6,0,P|164:374|153:301,1,165.000006294251,2|2,1:0|3:0,0:0:0:0:
315,299,237995,1,2,0:0:0:0:
247,272,238089,2,0,L|301:281,1,55,2|0,3:0|0:0,0:0:0:0:
487,362,238276,2,0,B|499:343|499:343|476:223|476:223|458:212,1,165.000006294251,10|2,0:0|3:0,0:0:0:0:
507,110,238651,85,2,0:0:0:0:
403,310,238839,2,0,B|327:318|327:318|327:313|327:313|408:288,1,165.000006294251,4|0,3:0|0:0,0:0:0:0:
458,212,239214,70,0,B|498:148|435:85|423:125|357:64|394:0,1,247.500009441376,2|0,1:0|0:0,0:0:0:0:
372,102,239589,2,0,P|344:102|320:89,1,55,2|0,3:0|0:0,0:0:0:0:
461,33,239776,2,0,P|485:20|512:20,1,55,10|0,0:0|0:0,0:0:0:0:
310,79,239964,54,0,P|201:57|184:167,1,247.500009441376,2|0,3:0|0:0,0:0:0:0:
270,202,240339,2,0,L|260:147,1,55,10|0,0:0|0:0,0:0:0:0:
163,47,240526,1,0,3:0:0:0:
13,331,240714,54,0,B|63:354|149:342|182:213|79:187|82:243,1,247.500009441376,6|0,1:0|0:0,0:0:0:0:
16,233,241089,2,0,P|40:245|67:245,1,55,2|0,3:0|0:0,0:0:0:0:
163,290,241276,2,0,P|187:277|214:277,1,55,10|0,0:0|0:0,0:0:0:0:
368,272,241464,2,0,B|422:274|431:321|431:321|409:288|365:286,1,165.000006294251,2|0,3:0|0:0,0:0:0:0:
311,362,241839,2,0,P|263:261|329:350,1,330,4|0,3:0|0:0,0:0:0:0:
324,365,242214,54,0,B|284:301|347:238|359:278|425:217|388:153,1,247.500009441376,2|0,1:0|0:0,0:0:0:0:
384,143,242589,2,0,P|456:128|467:201,1,165,0|0,3:0|0:0,0:0:0:0:
315,184,242964,54,0,L|260:174,1,55,2|0,1:0|0:0,0:0:0:0:
132,37,243151,2,0,P|104:36|80:23,1,55,2|0,3:0|0:0,0:0:0:0:
319,52,243339,54,0,P|346:52|370:39,1,55,10|0,0:0|0:0,0:0:0:0:
204,107,243526,2,0,L|149:116,1,55,0|0,3:0|0:0,0:0:0:0:
221,12,243714,54,0,L|264:254,1,247.500009441376,2|0,1:0|0:0,0:0:0:0:
274,376,244089,2,0,P|243:297|288:368,1,247.500009441376,0|0,3:0|0:0,0:0:0:0:
183,337,244464,54,0,B|107:345|107:345|107:340|107:340|188:315,1,165.000006294251,2|0,1:0|0:0,0:0:0:0:
346,300,244839,2,0,B|396:294|396:294|396:297|396:297|342:314,1,110,10|0,0:0|3:0,0:0:0:0:
264,255,245120,1,2,0:0:0:0:
249,243,245214,54,0,B|211:221|211:221|172:61|172:61|136:44,1,247.500009441376,2|0,1:0|0:0,0:0:0:0:
44,161,245589,2,0,L|34:215,1,55,2|0,3:0|0:0,0:0:0:0:
27,73,245776,1,10,0:0:0:0:
453,23,245964,54,0,P|474:131|364:149,1,247.500009441376,2|0,3:0|0:0,0:0:0:0:
300,187,246339,2,0,P|287:162|287:135,1,55,10|0,0:0|0:0,0:0:0:0:
218,100,246526,2,0,P|232:77|256:63,1,55,0|0,3:0|0:0,0:0:0:0:
381,74,246714,54,0,L|409:236,1,165.000006294251,6|2,1:0|3:0,0:0:0:0:
482,334,246995,1,2,0:0:0:0:
413,382,247089,2,0,P|385:382|361:369,1,55,2|0,3:0|0:0,0:0:0:0:
418,251,247276,2,0,L|408:305,1,55,10|0,0:0|0:0,0:0:0:0:
84,371,247464,54,0,P|62:262|172:244,1,247.500009441376,2|0,3:0|0:0,0:0:0:0:
185,253,247839,2,0,B|239:251|248:204|248:204|226:237|182:239,1,165.000006294251,4|0,3:0|0:0,0:0:0:0:
110,147,248214,54,0,B|73:211|139:272|151:232|214:295|174:359,1,247.500009441376,2|0,1:0|0:0,0:0:0:0:
262,318,248589,2,0,L|317:308,1,55,2|0,3:0|0:0,0:0:0:0:
179,369,248776,1,10,0:0:0:0:
231,88,248964,54,0,P|277:17|246:95,1,247.500009441376,2|0,3:0|0:0,0:0:0:0:
312,155,249339,2,0,P|294:121|302:158,1,110,10|0,0:0|0:0,0:0:0:0:
220,215,249526,2,0,P|212:252|230:218,1,110,0|0,3:0|0:0,0:0:0:0:
315,350,249714,54,0,P|319:336|324:324,1,27.5,6|0,3:1|0:0,0:0:0:0:
221,346,249901,54,0,P|235:361|243:381,1,41.2500015735627,2|0,0:0|0:0,0:0:0:0:
357,252,250089,54,0,P|383:244|403:225,1,55,2|0,3:1|0:0,0:0:0:0:
154,265,250276,54,0,P|121:275|101:302,1,68.75,8|0,0:0|0:0,0:0:0:0:
475,257,250464,54,0,P|486:212|461:173,1,82.5000031471254,2|0,3:1|0:0,0:0:0:0:
73,198,250651,54,0,P|33:220|31:269,1,96.2500009179115
418,120,250839,54,0,P|376:120|349:61,1,110,8|0,3:2|0:0,0:0:0:0:
53,118,251026,54,0,P|107:97|144:141,1,123.750004720688,2|0,0:0|0:0,0:0:0:0:
403,226,251214,54,0,P|342:202|349:137,1,137.5,2|0,1:0|0:0,0:0:0:0:
34,15,251401,54,0,P|101:3|123:70,1,151.250001442432,2|0,0:0|0:0,0:0:0:0:
279,325,251589,54,0,P|258:252|328:233,1,165.000006294251,2|0,3:1|0:0,0:0:0:0:
208,52,251776,54,0,P|230:130|155:151,1,178.750005114079,8|0,0:0|0:0,0:0:0:0:
22,377,251964,102,0,L|0:380,1,22,2|8,3:1|0:0,0:0:0:0:
316,9,252726,6,0,P|263:17|255:76,1,110,6|0,3:1|0:0,0:0:0:0:
99,304,252914,6,0,P|147:329|188:286,1,110,2|0,0:0|0:0,0:0:0:0:
448,192,253101,6,0,P|424:144|366:155,1,110,2|0,3:1|0:0,0:0:0:0:
100,78,253289,6,0,P|91:131|145:157,1,110,8|0,0:0|0:0,0:0:0:0:
315,375,253476,6,0,P|353:337|324:285,1,110,2|0,3:1|0:0,0:0:0:0:
245,80,253664,38,0,P|239:119|269:145,1,82.5000031471254
198,288,253851,6,0,P|226:260|218:221,1,82.5000031471254,8|0,3:2|0:0,0:0:0:0:
359,147,254039,6,0,P|320:153|304:190,1,82.5000031471254,2|0,0:0|0:0,0:0:0:0:
146,166,254226,6,0,P|181:184|215:165,1,82.5000031471254,2|0,3:1|0:0,0:0:0:0:
329,276,254414,6,0,P|312:241|272:237,1,82.5000031471254,2|0,0:0|0:0,0:0:0:0:
256,155,254601,6,0,P|243:160|233:170,1,27.5,2|0,3:1|0:0,0:0:0:0:
234,221,254789,38,0,P|247:224|261:222,1,27.5,8|0,0:0|0:0,0:0:0:0:
291,180,254976,6,0,P|281:170|269:163,1,27.5,2|0,3:1|0:0,0:0:0:0:
220,180,255164,6,0,P|222:194|228:206,1,27.5
277,221,255351,6,0,P|284:210|286:196,1,27.5,8|0,3:2|0:0,0:0:0:0:
245,80,255538,6,0,L|233:14,1,55,2|0,3:1|0:0,0:0:0:0:
256,229,255726,6,0,P|268:223|278:213,1,27.5,6|0,3:1|0:0,0:0:0:0:
277,162,255914,38,0,P|264:159|250:161,1,27.5,2|0,0:0|0:0,0:0:0:0:
220,203,256101,6,0,P|230:213|242:220,1,27.5,2|0,3:1|0:0,0:0:0:0:
291,203,256289,6,0,P|289:189|283:177,1,27.5,8|0,0:0|0:0,0:0:0:0:
234,162,256476,6,0,P|227:173|225:187,1,27.5,2|0,3:1|0:0,0:0:0:0:
266,303,256664,6,0,P|272:264|242:238,1,82.5000031471254
313,95,256851,6,0,P|285:123|293:162,1,82.5000031471254,8|0,3:2|0:0,0:0:0:0:
152,236,257039,38,0,P|191:230|207:193,1,82.5000031471254,2|0,0:0|0:0,0:0:0:0:
365,217,257226,6,0,P|330:199|296:218,1,82.5000031471254,2|0,3:1|0:0,0:0:0:0:
182,107,257413,6,0,P|199:142|239:146,1,82.5000031471254
196,375,257601,6,0,P|249:367|257:308,1,110,2|0,3:1|0:0,0:0:0:0:
412,79,257789,6,0,P|364:54|323:97,1,110,8|0,0:0|0:0,0:0:0:0:
63,191,257976,6,0,P|87:239|145:228,1,110,2|0,3:1|0:0,0:0:0:0:
411,305,258164,38,0,P|420:252|366:226,1,110
196,8,258351,6,0,P|158:46|187:98,1,110,12|0,3:2|0:0,0:0:0:0:
261,318,258539,6,0,L|249:252,1,55,2|0,3:1|0:0,0:0:0:0:
238,154,258741,38,0,B|191:73|256:17|256:17|330:78|256:191|256:191|87:207|153:66|-7:79|-7:79|25:302|194:257|256:364|256:364|318:257|488:302|520:79|520:79|359:66|425:207|256:191,1,1768.80000674744,6|2,1:0|0:0,0:0:0:0:
484,288,282741,38,0,B|370:246|532:126|410:109|350:302|511:378|511:378|335:400|238:165|429:200|463:80|358:13,1,825,2|0,0:0|0:0,0:0:0:0:
512,145,285815,2,0,P|290:178|226:-5,1,440,2|0,0:0|0:0,0:0:0:0:
235,7,288093,1,2,0:0:0:0:
137,218,288750,6,0,B|139:334|7:371|7:371|88:293|19:243|68:160|204:-4|364:94|436:383|99:347|307:185|131:209,1,825,2|0,0:0|0:0,0:0:0:0:
199,383,291826,2,0,P|253:173|406:19,1,440,2|0,0:0|0:0,0:0:0:0:
422,18,294024,1,2,0:0:0:0:
366,359,294738,6,0,B|379:275|192:270|192:270|230:193|481:289|288:265|331:422|575:455|643:296|587:219|363:407|342:146|435:132,1,825,2|0,0:0|0:0,0:0:0:0:
427,76,297814,2,0,P|268:106|263:378,1,440,2|0,0:0|0:0,0:0:0:0:
250,357,300122,1,2,0:0:0:0:
0,30,300782,6,0,B|64:33|111:142|0:107|58:289|184:274|184:274|95:199|137:82|200:166|205:14|145:-2,1,660,2|0,0:0|0:0,0:0:0:0:
512,30,303782,2,0,B|448:33|400:142|511:107|453:289|327:274|327:274|416:199|374:82|311:166|306:14|366:-2,1,660,2|0,0:0|0:0,0:0:0:0:
210,231,306744,6,0,B|166:268|105:252|107:238|88:227|74:225|74:225|85:219|101:202|94:190|146:145|203:168|203:168|203:168|203:168|148:136|152:66|164:49|168:42|166:28|166:28|176:38|196:48|206:37|263:71|261:134|261:134|261:133|261:133|272:71|340:53|346:66|369:62|381:56|381:56|375:69|372:91|384:97|369:164|309:178|309:178|309:178|309:178|372:170|410:229|399:239|410:258|419:270|419:270|406:267|383:271|382:285|313:291|279:238|279:238|279:238|279:238|304:294|261:348|247:342|232:357|227:370|227:370|224:356|213:336|199:338|172:271|211:229,1,1531.20001285034,4|2,0:0|0:0,0:0:0:0:
395,50,313608,37,2,0:0:0:0:
264,235,314478,101,2,0:0:0:0:
245,364,315445,5,2,0:0:0:0:
256,384,316481,101,2,0:0:0:0:
256,192,318439,12,0,321385,0:0:0:0:
256,192,322620,12,0,329367,0:0:0:0:
