osu file format v14

[General]
AudioFilename: 01 Aphrodite.mp3
AudioLeadIn: 0
PreviewTime: 174158
Countdown: 0
SampleSet: Soft
StackLeniency: 0.5
Mode: 0
LetterboxInBreaks: 1
WidescreenStoryboard: 1

[Editor]
Bookmarks: 6887,14843,90443,111658,236479,257694,278910,300125
DistanceSpacing: 0.5
BeatDivisor: 4
GridSize: 8
TimelineZoom: 1

[Metadata]
Title:Aphrodite
TitleUnicode:Aphrodite
Artist:HIZAKI Grace Project
ArtistUnicode:HIZAKI Grace Project
Creator:Kite
Version:Memoire
Source:
Tags:curse of virgo 2007 Sherow Artist Society neoclassical power metal jasmine you mikage teru
BeatmapID:1164324
BeatmapSetID:549893

[Difficulty]
HPDrainRate:6
CircleSize:4.6
OverallDifficulty:9
ApproachRate:9.4
SliderMultiplier:1.95
SliderTickRate:1

[Events]
//Background and Video events
0,0,"BG DRAWN BY SKADE.jpg",0,0
//Break Periods
//Storyboard Layer 0 (Background)
//Storyboard Layer 1 (Fail)
//Storyboard Layer 2 (Pass)
//Storyboard Layer 3 (Foreground)
//Storyboard Sound Samples

[TimingPoints]
6919,662.983425414365,4,2,5,10,1,0
7550,-100,4,2,5,15,0,0
8876,-100,4,2,5,20,0,0
9539,-100,4,2,5,25,0,0
11528,-100,4,2,5,30,0,0
16169,-100,4,2,5,35,0,0
16832,-100,4,2,5,25,0,0
17495,662.983425414365,4,2,3,40,1,0
17495,-133.333333333333,4,2,3,40,0,0
28103,-125,4,2,3,40,0,0
38711,-111.111111111111,4,2,3,40,0,0
44512,-111.111111111111,4,2,3,44,0,0
45340,-111.111111111111,4,2,3,48,0,0
46666,-111.111111111111,4,2,3,50,0,0
49153,-113.636363636364,4,2,3,54,0,0
49318,-113.636363636364,4,2,3,54,0,0
50479,-106.382978723404,4,2,3,57,0,0
51804,-100,4,2,3,60,0,0
53130,-90.9090909090909,4,2,3,63,0,0
54622,-90.9090909090909,4,2,3,66,0,0
59955,331.491712707182,4,2,1,85,1,0
65921,-100,4,2,1,85,0,0
66667,-100,4,2,1,65,0,0
67579,-83.3333333333333,4,2,1,85,0,0
67993,-83.3333333333333,4,2,1,65,0,0
68408,-73.5294117647059,4,2,1,85,0,0
68905,-100,4,2,1,85,0,0
90452,-90.9090909090909,4,2,1,85,0,0
106280,-83.3333333333333,4,2,1,85,0,0
106778,-100,4,2,1,85,0,0
107938,-83.3333333333333,4,2,1,85,0,0
108269,-76.9230769230769,4,2,1,85,0,0
108684,-100,4,2,1,85,0,0
111667,-133.333333333333,4,2,1,65,0,0
114153,331.491712707182,4,2,1,65,1,0
114153,-133.333333333333,4,2,1,65,0,0
116639,331.491712707182,4,2,1,65,1,0
116639,-133.333333333333,4,2,1,65,0,0
117220,-200,4,2,1,85,0,0
118546,-200,4,2,1,65,0,0
119043,-200,4,2,1,85,0,0
119125,331.491712707182,4,2,1,85,1,0
119125,-200,4,2,1,85,0,0
120369,-200,4,2,1,65,0,0
120535,-200,4,2,1,85,0,0
120700,-200,4,2,1,65,0,0
120866,-200,4,2,1,85,0,0
121032,-200,4,2,1,65,0,0
121198,-200,4,2,1,85,0,0
121784,331.491712707182,4,2,1,90,1,1
121784,-83.3333333333333,4,2,1,90,0,1
124104,-62.5,4,2,1,90,0,1
124435,-83.3333333333333,4,2,1,90,0,1
147529,-80,4,2,1,90,0,1
147971,-83.3333333333333,4,2,1,90,0,1
153607,-100,4,2,1,66,0,0
157833,-100,4,2,1,46,0,0
158828,-100,4,2,1,66,0,0
163551,331.491712707182,4,2,1,86,1,0
184352,-66.6666666666667,4,2,1,86,0,0
184766,-100,4,2,1,86,0,0
190070,-117.647058823529,4,2,1,86,0,0
190567,-100,4,2,1,86,0,0
191810,-100,4,2,1,66,0,0
192142,-100,4,2,1,86,0,0
195374,-100,4,2,1,86,0,1
216009,-100,4,2,1,66,0,1
216589,-100,4,2,1,86,0,0
223302,-100,4,2,1,66,0,0
224213,-83.3333333333333,4,2,1,86,0,0
224628,-83.3333333333333,4,2,1,66,0,0
225042,-83.3333333333333,4,2,1,86,0,0
225871,-83.3333333333333,4,2,1,86,0,1
228191,-66.6666666666667,4,2,1,86,0,1
228523,-83.3333333333333,4,2,1,86,0,1
247004,-83.3333333333333,4,2,1,86,0,0
247086,-83.3333333333333,4,2,1,86,0,1
277584,-76.9230769230769,4,2,1,86,0,1
277749,-83.3333333333333,4,2,1,86,0,1
289517,-90.9090909090909,4,2,1,86,0,1
305346,-100,4,2,1,86,0,0
305429,-100,4,2,1,86,0,1
305512,-100,4,2,1,86,0,0
306092,-100,4,2,1,76,0,0
306755,-100,4,2,1,66,0,0
307418,-100,4,2,1,56,0,0
308081,-100,4,2,1,46,0,0
308744,-100,4,2,1,36,0,0
309407,-100,4,2,1,26,0,0
310070,-100,4,2,1,16,0,0
310733,-100,4,2,99,5,0,0

[Colours]
Combo1 : 205,20,122
Combo2 : 126,137,207
Combo3 : 115,158,213
Combo4 : 189,153,238
Combo5 : 255,255,255
Combo6 : 198,0,5
Combo7 : 255,15,15

[HitObjects]
54,331,6918,5,0,0:0:0:0:
61,312,7581,1,0,0:0:0:0:
68,293,8244,1,0,0:0:0:0:
75,274,8907,1,0,0:0:0:0:
82,255,9570,1,0,0:0:0:0:
46,124,11559,5,0,0:0:0:0:
43,143,11891,1,0,0:0:0:0:
40,162,12222,1,0,0:0:0:0:
240,34,13548,5,0,0:0:0:0:
240,34,14874,5,0,0:0:0:0:
248,111,15537,1,0,0:0:0:0:
256,188,16200,1,0,0:0:0:0:
264,265,16863,1,0,0:0:0:0:
67,164,17495,38,0,P|55:129|63:92,1,73.1250027894975,10|0,0:0|0:0,0:0:0:0:
140,29,18157,2,0,L|253:42,1,109.687504184246
328,24,18820,1,2,0:0:0:0:
328,24,18986,1,0,0:0:0:0:
422,126,19318,1,0,0:0:0:0:
481,66,19483,2,0,P|484:40|479:20,1,36.5625013947487
422,126,19815,2,0,L|423:170,1,36.5625013947487
423,261,20146,5,10,0:0:0:0:
254,335,20478,1,0,0:0:0:0:
423,261,20809,2,0,L|499:271,1,73.1250027894975
379,331,21307,1,0,0:0:0:0:
342,254,21472,2,0,L|335:214,1,36.5625013947487,2|0,0:0|0:0,0:0:0:0:
379,331,21804,1,0,0:0:0:0:
379,331,22135,1,0,0:0:0:0:
472,177,22467,1,0,0:0:0:0:
308,47,22798,6,0,P|265:35|233:40,1,73.1250027894975,10|0,0:0|0:0,0:0:0:0:
336,132,23461,2,0,L|419:120,1,73.1250027894975
469,66,23959,1,0,0:0:0:0:
469,66,24124,1,2,0:0:0:0:
503,143,24290,1,0,0:0:0:0:
443,206,24456,2,0,P|437:244|447:277,1,73.1250027894975
503,143,25119,1,0,0:0:0:0:
274,34,25450,54,0,L|197:46,1,73.1250027894975,10|0,0:0|0:0,0:0:0:0:
39,131,26113,2,0,L|148:146,1,109.687504184246
231,128,26776,1,2,0:0:0:0:
231,128,26942,1,0,0:0:0:0:
254,208,27108,2,0,P|255:237|251:251,1,36.5625013947487
231,128,27439,2,0,L|305:120,1,73.1250027894975
161,332,28102,6,0,L|83:336,1,73.1250027894975,10|0,0:0|0:0,0:0:0:0:
225,253,28765,2,0,L|303:261,1,78
177,184,29262,1,0,0:0:0:0:
177,184,29428,1,2,0:0:0:0:
237,122,29594,2,0,P|242:78|221:38,1,78
177,184,30091,2,0,L|185:230,1,39
98,152,30423,2,0,L|107:111,1,39
30,211,30754,5,10,0:0:0:0:
192,332,31086,1,0,0:0:0:0:
359,217,31417,2,0,P|409:208|439:222,1,78
320,288,31914,1,0,0:0:0:0:
320,288,32080,1,2,0:0:0:0:
277,212,32246,2,0,L|285:132,1,78
320,288,32743,2,0,L|321:329,1,39
277,212,33075,1,0,0:0:0:0:
450,104,33406,53,10,0:0:0:0:
274,23,33738,1,0,0:0:0:0:
123,146,34069,2,0,P|82:157|46:145,1,78
155,68,34566,1,0,0:0:0:0:
155,68,34732,2,0,L|194:76,1,39,2|0,0:0|0:0,0:0:0:0:
248,146,35064,2,0,L|291:140,1,39
370,81,35395,1,0,0:0:0:0:
454,224,35727,1,0,0:0:0:0:
270,307,36058,6,0,P|257:348|267:380,1,78,10|0,0:0|0:0,0:0:0:0:
454,224,36721,1,0,0:0:0:0:
454,224,37053,2,0,L|455:181,1,39
366,40,37384,2,0,L|376:118,1,78,2|0,0:0|0:0,0:0:0:0:
155,48,38047,1,0,0:0:0:0:
155,48,38378,2,0,P|134:45|113:49,1,39
37,173,38710,6,0,L|29:262,1,78,2|0,0:0|0:0,0:0:0:0:
119,366,39373,1,0,0:0:0:0:
119,366,39704,1,0,0:0:0:0:
182,163,40036,2,0,L|191:256,1,87.7499973220826,2|0,0:0|0:0,0:0:0:0:
237,360,40699,1,0,0:0:0:0:
237,360,41030,1,0,0:0:0:0:
378,205,41362,54,0,L|369:117,1,87.7499973220826,2|0,0:0|0:0,0:0:0:0:
470,273,42025,2,0,L|461:360,1,87.7499973220826,2|0,0:0|0:0,0:0:0:0:
369,117,42688,1,2,0:0:0:0:
301,324,43019,1,0,0:0:0:0:
141,167,43351,2,0,P|130:121|146:85,1,87.7499973220826,2|0,0:0|0:0,0:0:0:0:
199,128,43848,1,0,0:0:0:0:
181,233,44014,6,0,P|134:244|95:230,1,87.7499973220826,10|0,0:0|0:0,0:0:0:0:
241,48,44677,2,0,L|330:62,1,87.7499973220826,2|0,0:0|0:0,0:0:0:0:
398,149,45174,1,0,0:0:0:0:
491,95,45340,2,0,P|503:54|488:9,1,87.7499973220826,2|0,0:0|0:0,0:0:0:0:
398,149,46003,2,0,L|403:239,1,87.7499973220826,2|0,0:0|0:0,0:0:0:0:
366,322,46500,1,0,0:0:0:0:
489,277,46666,5,2,0:0:0:0:
314,117,46997,1,0,0:0:0:0:
202,315,47329,2,0,P|162:328|120:315,1,87.7499973220826,2|0,0:0|0:0,0:0:0:0:
54,238,47826,1,0,0:0:0:0:
14,353,47992,1,2,0:0:0:0:
14,353,48323,54,0,L|30:311,1,43.8749986610413,2|0,0:0|0:0,0:0:0:0:
54,238,48655,2,0,L|38:196,1,43.8749986610413,2|0,0:0|0:0,0:0:0:0:
45,122,48986,1,2,0:0:0:0:
201,161,49152,1,0,0:0:0:0:
288,46,49318,6,0,P|338:31|369:40,1,85.8000026184083,10|0,0:0|0:0,0:0:0:0:
217,68,49981,2,0,P|213:41|216:23,1,42.9000013092041,2|0,0:0|0:0,0:0:0:0:
269,124,50312,1,0,0:0:0:0:
135,314,50644,6,0,P|92:334|50:322,1,91.649998601532,2|0,0:0|0:0,0:0:0:0:
228,240,51307,2,0,P|237:272|234:293,1,45.824999300766,2|0,0:0|0:0,0:0:0:0:
123,203,51638,1,0,0:0:0:0:
325,52,51970,54,0,P|365:40|416:58,1,97.5,2|0,0:0|0:0,0:0:0:0:
197,131,52633,2,0,P|188:101|190:79,1,48.75,2|0,0:0|0:0,0:0:0:0:
222,273,52964,2,0,P|239:255|249:233,1,48.75,2|0,0:0|0:0,0:0:0:0:
48,244,53296,6,0,P|24:290|40:340,1,107.25000327301,2|0,0:0|0:0,0:0:0:0:
322,206,53959,2,0,P|263:157|191:183,1,160.875004909516,10|0,0:0|0:0,0:0:0:0:
250,234,54622,6,0,P|254:266|250:290,1,53.6250016365052,2|0,0:0|0:0,0:0:0:0:
210,358,54953,2,0,P|180:371|156:375,1,53.6250016365052
79,358,55285,2,0,P|56:334|46:312,1,53.6250016365052,2|0,0:0|0:0,0:0:0:0:
41,235,55616,1,2,0:0:0:0:
165,302,55782,1,0,0:0:0:0:
259,184,55948,54,0,P|264:150|260:130,1,53.6250016365052,2|0,0:0|0:0,0:0:0:0:
214,56,56279,2,0,P|183:40|162:38,1,53.6250016365052
78,59,56611,2,0,P|53:83|45:102,1,53.6250016365052,2|0,0:0|0:0,0:0:0:0:
38,189,56942,2,0,P|53:219|68:233,1,53.6250016365052,2|0,0:0|0:0,0:0:0:0:
152,259,57274,6,0,B|205:254,1,53.6250016365052,2|0,0:0|0:0,0:0:0:0:
324,299,57605,2,0,B|271:294,1,53.6250016365052
223,353,57936,1,2,0:0:0:0:
437,261,58268,1,0,0:0:0:0:
250,39,58599,5,2,0:0:0:0:
250,39,58931,1,0,0:0:0:0:
334,167,59262,1,2,0:0:0:0:
187,196,59594,1,0,0:0:0:0:
187,196,59677,1,0,0:0:0:0:
187,196,59760,1,0,0:0:0:0:
83,51,59955,21,4,0:1:0:0:
51,297,60120,2,0,B|52:334|52:334|58:348,3,48.75,2|0|0|0,0:0|0:0|0:0|0:0,0:0:0:0:
106,224,60452,2,0,B|73:206|73:206|58:204,3,48.75,2|0|0|0,0:0|0:0|0:0|0:0,0:0:0:0:
141,308,60783,1,2,0:0:0:0:
141,308,60866,1,0,0:0:0:0:
141,308,60949,2,0,B|172:288|172:288|181:276,3,48.75,2|0|0|0,0:0|0:0|0:0|0:0,0:0:0:0:
52,190,61280,2,0,B|38:139|38:139|44:90,1,97.5,2|0,0:0|0:0,0:0:0:0:
60,19,61529,1,0,0:0:0:0:
60,19,61612,1,2,0:1:0:0:
266,319,61943,5,4,0:0:0:0:
340,68,62109,2,0,P|370:60|394:62,3,48.75,4|0|0|0,0:1|0:0|0:0|0:0,0:0:0:0:
340,187,62441,2,0,P|318:165|307:143,3,48.75,2|0|0|0,0:0|0:0|0:0|0:0,0:0:0:0:
444,128,62772,1,2,0:0:0:0:
444,128,62855,1,0,0:0:0:0:
444,128,62938,2,0,P|435:157|422:177,3,48.75,2|0|0|0,0:0|0:0|0:0|0:0,0:0:0:0:
303,244,63269,2,0,P|284:292|299:333,1,97.5,2|0,0:0|0:0,0:0:0:0:
367,372,63518,1,0,0:0:0:0:
367,372,63601,1,2,0:1:0:0:
152,66,63932,5,4,0:0:0:0:
80,350,64098,1,0,0:0:0:0:
34,211,64264,1,2,0:0:0:0:
351,157,64430,1,4,0:0:0:0:
152,66,64595,1,0,0:0:0:0:
218,166,64761,1,2,0:0:0:0:
430,55,64927,69,4,0:0:0:0:
460,79,65010,1,8,0:0:0:0:
473,115,65093,1,8,0:0:0:0:
471,153,65175,1,8,0:0:0:0:
454,188,65258,2,0,P|431:200|402:203,1,48.75,8|0,0:0|0:0,0:0:0:0:
218,166,65424,5,8,0:1:0:0:
188,190,65507,1,8,0:0:0:0:
175,226,65590,1,8,0:3:0:0:
177,264,65673,1,8,0:0:0:0:
194,299,65756,2,0,P|217:311|246:314,1,48.75,2|2,0:3|0:3,0:0:0:0:
407,254,65921,5,8,0:1:0:0:
407,254,66004,1,2,0:3:0:0:
407,254,66087,2,0,L|402:205,1,48.75,4|0,0:3|0:0,0:0:0:0:
500,302,66253,1,8,0:1:0:0:
500,302,66336,1,8,0:3:0:0:
500,302,66419,2,0,L|495:253,1,48.75,2|0,0:3|0:0,0:0:0:0:
414,348,66584,69,12,0:1:0:0:
251,189,66750,1,2,0:1:0:0:
305,195,66833,1,2,0:1:0:0:
359,201,66916,1,2,0:1:0:0:
414,207,66999,1,2,0:1:0:0:
468,214,67082,2,0,L|475:153,1,48.75,6|0,0:1|0:0,0:0:0:0:
328,40,67247,1,2,0:1:0:0:
270,47,67330,1,2,0:1:0:0:
212,53,67413,1,2,0:1:0:0:
155,59,67496,1,2,0:1:0:0:
100,69,67579,6,0,B|98:137|61:166|61:166|82:177|98:197|98:197|72:228|82:270,1,233.999992858887,4|4,0:0|0:1,0:0:0:0:
369,345,68076,1,2,1:0:0:0:
412,297,68159,1,2,1:0:0:0:
379,241,68242,1,2,1:0:0:0:
316,255,68325,1,2,1:0:0:0:
309,318,68408,6,0,B|335:365|406:364|433:325|434:258|407:234|350:218|316:256|316:256|239:271|207:201,1,397.800002427978,6|0,0:1|3:0,0:0:0:0:
190,161,68988,1,0,3:0:0:0:
179,103,69071,1,0,3:0:0:0:
194,47,69153,1,0,3:0:0:0:
237,7,69236,69,4,0:1:0:0:
263,35,69319,1,0,0:0:0:0:
299,49,69402,1,8,0:0:0:0:
337,53,69485,1,0,0:0:0:0:
375,46,69568,1,0,0:0:0:0:
412,36,69651,1,0,0:0:0:0:
450,28,69734,1,8,0:0:0:0:
484,44,69816,1,0,0:0:0:0:
501,78,69899,1,0,0:0:0:0:
491,115,69982,1,0,0:0:0:0:
460,139,70065,1,8,0:0:0:0:
421,135,70148,1,0,0:0:0:0:
396,104,70231,2,0,P|391:78|399:55,3,48.75,0|0|8|0,0:0|0:0|0:0|0:0,0:0:0:0:
486,209,70562,5,4,0:0:0:0:
490,246,70645,1,0,0:0:0:0:
470,279,70728,1,8,0:0:0:0:
434,291,70811,1,0,0:0:0:0:
398,278,70894,1,0,0:0:0:0:
379,244,70977,1,0,0:0:0:0:
385,207,71059,1,8,0:0:0:0:
414,182,71142,1,0,0:0:0:0:
451,178,71225,5,0,0:0:0:0:
445,215,71308,1,0,0:0:0:0:
417,241,71391,1,8,0:0:0:0:
379,244,71474,1,0,0:0:0:0:
348,222,71557,1,0,0:0:0:0:
338,185,71640,1,0,0:0:0:0:
354,150,71722,1,8,0:0:0:0:
388,133,71805,1,0,0:0:0:0:
424,138,71888,69,4,0:1:0:0:
424,176,71971,1,0,0:0:0:0:
407,211,72054,1,8,0:0:0:0:
377,235,72137,1,0,0:0:0:0:
339,243,72220,1,0,0:0:0:0:
302,233,72303,1,0,0:0:0:0:
273,207,72385,1,8,0:0:0:0:
258,171,72468,1,0,0:0:0:0:
261,133,72551,1,0,0:0:0:0:
281,100,72634,1,0,0:0:0:0:
313,79,72717,1,8,0:0:0:0:
351,74,72800,1,0,0:0:0:0:
389,87,72883,2,0,P|415:93|442:89,3,48.75,0|0|8|0,0:0|0:0|0:0|0:0,0:0:0:0:
268,15,73214,5,4,0:0:0:0:
236,37,73297,1,0,0:0:0:0:
211,67,73380,1,8,0:0:0:0:
194,102,73463,1,0,0:0:0:0:
186,140,73546,1,0,0:0:0:0:
187,179,73629,1,0,0:0:0:0:
198,216,73711,1,8,0:0:0:0:
217,250,73794,1,0,0:0:0:0:
244,278,73877,1,0,0:0:0:0:
277,299,73960,1,0,0:0:0:0:
314,311,74043,1,8,0:0:0:0:
352,314,74126,1,0,0:0:0:0:
391,310,74209,2,0,P|415:292|426:273,1,48.75
383,160,74374,2,0,P|363:173|350:194,1,48.75,8|0,0:0|0:0,0:0:0:0:
471,147,74540,5,4,0:1:0:0:
455,111,74623,1,0,0:0:0:0:
425,86,74706,1,8,0:0:0:0:
388,75,74789,1,0,0:0:0:0:
350,81,74872,1,0,0:0:0:0:
318,103,74954,1,0,0:0:0:0:
293,133,75037,1,8,0:0:0:0:
261,155,75120,1,0,0:0:0:0:
223,161,75203,1,0,0:0:0:0:
186,150,75286,1,0,0:0:0:0:
157,125,75369,1,8,0:0:0:0:
141,89,75452,1,0,0:0:0:0:
144,49,75535,2,0,P|152:23|166:7,3,48.75,0|0|8|0,0:0|0:0|0:0|0:0,0:0:0:0:
227,74,75866,69,4,0:0:0:0:
249,104,75949,1,0,0:0:0:0:
254,143,76032,1,8,0:0:0:0:
242,179,76115,1,0,0:0:0:0:
217,209,76198,1,0,0:0:0:0:
199,243,76280,1,0,0:0:0:0:
196,282,76363,1,8,0:0:0:0:
215,315,76446,1,0,0:0:0:0:
246,337,76529,5,0,0:0:0:0:
209,341,76612,1,0,0:0:0:0:
173,326,76695,1,8,0:0:0:0:
147,297,76778,1,0,0:0:0:0:
134,261,76861,1,0,0:0:0:0:
113,228,76943,1,0,0:0:0:0:
81,206,77026,1,8,0:0:0:0:
43,206,77109,1,0,0:0:0:0:
9,222,77192,5,4,0:1:0:0:
34,250,77275,1,0,0:0:0:0:
69,267,77358,1,8,0:0:0:0:
108,269,77441,1,0,0:0:0:0:
145,256,77524,1,0,0:0:0:0:
173,230,77606,1,0,0:0:0:0:
190,195,77689,1,8,0:0:0:0:
191,156,77772,1,0,0:0:0:0:
178,120,77855,1,0,0:0:0:0:
152,91,77938,1,0,0:0:0:0:
116,75,78021,1,8,0:0:0:0:
78,74,78104,1,0,0:0:0:0:
41,87,78187,2,0,P|32:112|35:140,3,48.75,0|0|8|0,0:0|0:0|0:0|0:0,0:0:0:0:
108,269,78518,69,8,0:0:0:0:
271,101,78684,1,12,0:1:0:0:
108,269,78850,1,2,0:3:0:0:
148,227,78932,1,2,0:3:0:0:
189,185,79015,1,8,0:3:0:0:
230,143,79098,1,8,0:3:0:0:
271,101,79181,2,0,L|324:91,1,48.75,12|8,0:1|0:1,0:3:0:0:
303,214,79347,5,4,0:3:0:0:
246,200,79430,1,4,0:3:0:0:
189,185,79513,1,0,0:0:0:0:
132,171,79595,1,0,0:0:0:0:
76,156,79678,2,0,L|40:115,1,48.75
189,185,79844,5,4,0:1:0:0:
207,219,79927,1,0,0:0:0:0:
206,258,80010,1,8,0:0:0:0:
186,291,80093,1,0,0:0:0:0:
150,306,80175,1,0,0:0:0:0:
128,273,80258,1,0,0:0:0:0:
132,234,80341,1,8,0:0:0:0:
154,202,80424,1,0,0:0:0:0:
189,185,80507,1,0,0:0:0:0:
228,185,80590,1,0,0:0:0:0:
262,203,80673,1,8,0:0:0:0:
281,236,80756,1,0,0:0:0:0:
281,274,80838,2,0,P|272:300|257:323,3,48.75,0|0|8|0,0:0|0:0|0:0|0:0,0:0:0:0:
372,211,81170,69,4,0:0:0:0:
408,197,81253,1,0,0:0:0:0:
447,198,81336,1,8,0:0:0:0:
482,213,81419,1,0,0:0:0:0:
507,242,81501,1,0,0:0:0:0:
474,263,81584,1,0,0:0:0:0:
435,271,81667,1,8,0:0:0:0:
396,266,81750,1,0,0:0:0:0:
357,259,81833,5,0,0:0:0:0:
318,254,81916,1,0,0:0:0:0:
279,262,81999,1,8,0:0:0:0:
246,283,82082,1,0,0:0:0:0:
271,312,82164,1,0,0:0:0:0:
306,327,82247,1,0,0:0:0:0:
345,328,82330,1,8,0:0:0:0:
381,314,82413,1,0,0:0:0:0:
410,288,82496,5,4,0:1:0:0:
390,254,82579,1,0,0:0:0:0:
381,215,82662,1,8,0:0:0:0:
386,176,82745,1,0,0:0:0:0:
400,140,82827,1,0,0:0:0:0:
427,112,82910,1,0,0:0:0:0:
465,101,82993,1,8,0:0:0:0:
496,121,83076,1,0,0:0:0:0:
501,158,83159,1,0,0:0:0:0:
475,185,83242,1,0,0:0:0:0:
437,181,83325,1,8,0:0:0:0:
416,150,83408,1,0,0:0:0:0:
427,112,83490,2,0,L|446:67,3,48.75,0|0|8|0,0:0|0:0|0:0|0:0,0:0:0:0:
496,262,83822,69,4,0:0:0:0:
474,294,83905,1,0,0:0:0:0:
437,308,83988,1,8,0:0:0:0:
397,307,84071,1,0,0:0:0:0:
361,291,84153,1,0,0:0:0:0:
338,258,84236,1,0,0:0:0:0:
324,221,84319,1,8,0:0:0:0:
301,188,84402,1,0,0:0:0:0:
265,172,84485,1,0,0:0:0:0:
225,171,84568,1,0,0:0:0:0:
188,185,84651,1,8,0:0:0:0:
166,217,84734,1,0,0:0:0:0:
160,255,84816,2,0,P|163:288|172:313,1,48.75
320,371,84982,2,0,P|332:339|335:313,1,48.75,8|0,0:0|0:0,0:0:0:0:
244,252,85148,5,4,0:1:0:0:
273,276,85231,1,0,0:0:0:0:
310,287,85314,1,8,0:0:0:0:
349,283,85396,1,0,0:0:0:0:
383,264,85479,1,0,0:0:0:0:
406,234,85562,1,0,0:0:0:0:
416,196,85645,1,8,0:0:0:0:
410,158,85728,1,0,0:0:0:0:
390,125,85811,1,0,0:0:0:0:
355,106,85894,1,0,0:0:0:0:
316,102,85977,1,0,0:0:0:0:
279,113,86059,1,0,0:0:0:0:
251,140,86142,2,0,P|243:170|248:197,3,48.75,0|0|8|0,0:0|0:0|0:0|0:0,0:0:0:0:
410,158,86474,5,4,0:0:0:0:
439,132,86557,1,0,0:0:0:0:
449,95,86640,1,8,0:0:0:0:
437,59,86722,1,0,0:0:0:0:
407,35,86805,1,0,0:0:0:0:
369,31,86888,1,0,0:0:0:0:
335,49,86971,1,8,0:0:0:0:
317,83,87054,1,0,0:0:0:0:
328,119,87137,69,0,0:0:0:0:
347,85,87220,1,0,0:0:0:0:
381,67,87303,1,8,0:0:0:0:
419,71,87385,1,0,0:0:0:0:
449,95,87468,1,0,0:0:0:0:
461,131,87551,1,0,0:0:0:0:
450,168,87634,1,8,0:0:0:0:
422,194,87717,1,0,0:0:0:0:
383,197,87800,5,4,0:1:0:0:
389,159,87883,1,0,0:0:0:0:
417,133,87966,1,8,0:0:0:0:
455,129,88048,1,0,0:0:0:0:
488,149,88131,1,0,0:0:0:0:
503,184,88214,1,0,0:0:0:0:
492,221,88297,1,8,0:0:0:0:
462,244,88380,1,0,0:0:0:0:
423,248,88463,1,0,0:0:0:0:
387,231,88546,1,0,0:0:0:0:
360,202,88629,1,8,0:0:0:0:
325,185,88711,1,0,0:0:0:0:
286,181,88794,2,0,P|257:186|234:199,1,48.75
145,307,88960,2,0,P|167:317|191:320,1,48.75,8|0,0:0|0:0,0:0:0:0:
71,193,89126,5,4,0:0:0:0:
237,37,89292,1,8,1:0:0:0:
274,26,89374,1,8,1:0:0:0:
312,28,89457,1,4,3:0:0:0:
348,41,89540,1,4,3:0:0:0:
373,70,89623,2,0,P|376:100|368:131,1,48.75,2|2,3:0|3:0,0:0:0:0:
253,250,89789,5,8,0:1:0:0:
253,250,89872,1,8,0:1:0:0:
253,250,89954,2,0,L|193:260,1,48.75,8|8,0:3|0:3,0:0:0:0:
328,332,90120,1,8,0:1:0:0:
328,332,90203,1,8,0:1:0:0:
328,332,90286,2,0,L|388:342,1,48.75,4|2,0:3|0:3,0:0:0:0:
253,250,90452,6,0,B|262:154|262:154|236:97|236:97|266:51,1,214.500006546021,4|2,0:1|0:1,0:0:0:0:
340,214,90949,1,0,0:0:0:0:
340,214,91032,1,0,0:0:0:0:
340,214,91115,2,0,L|329:326,1,107.25000327301,8|0,0:0|0:0,0:0:0:0:
196,190,91446,2,0,L|185:78,1,107.25000327301,2|0,0:1|0:0,0:0:0:0:
149,320,91778,6,0,P|99:336|51:315,1,107.25000327301,8|0,0:0|0:0,0:0:0:0:
170,295,92026,1,0,0:0:0:0:
170,295,92109,2,0,L|278:305,1,107.25000327301,2|0,0:1|0:0,0:0:0:0:
358,112,92441,2,0,B|278:98|229:107|229:107|282:90|330:96,1,214.500006546021,8|2,0:0|0:1,0:0:0:0:
363,140,92855,1,0,0:0:0:0:
366,165,92938,1,2,0:0:0:0:
370,191,93021,1,0,0:0:0:0:
373,217,93104,70,0,B|374:272|374:272|356:324,1,107.25000327301,4|0,0:1|0:0,0:0:0:0:
206,202,93435,2,0,B|253:173|253:173|304:163,1,107.25000327301,2|0,0:1|0:0,0:0:0:0:
277,354,93767,2,0,B|228:327|228:327|194:288,1,107.25000327301,8|0,0:0|0:0,0:0:0:0:
469,263,94098,2,0,P|482:224|483:204,1,53.6250016365052,2|0,0:1|0:0,0:0:0:0:
393,149,94264,2,0,P|396:175|407:200,1,53.6250016365052,2|0,0:0|0:0,0:0:0:0:
457,101,94430,6,0,P|400:69|357:79,1,107.25000327301,8|0,0:0|0:0,0:0:0:0:
206,134,94761,2,0,B|158:158|112:147|112:147|124:129|144:115|181:102|219:109,1,214.500006546021,2|8,0:1|0:0,0:0:0:0:
243,117,95175,1,0,0:0:0:0:
265,131,95258,1,0,0:0:0:0:
281,152,95341,1,0,0:0:0:0:
293,175,95424,1,2,0:0:0:0:
327,201,95507,1,0,0:0:0:0:
364,179,95590,1,2,0:0:0:0:
353,137,95673,1,0,0:0:0:0:
311,132,95756,5,4,0:1:0:0:
293,175,95838,1,0,0:0:0:0:
289,221,95921,1,2,0:0:0:0:
297,267,96004,1,0,0:0:0:0:
316,310,96087,1,2,0:1:0:0:
265,279,96170,1,0,0:0:0:0:
242,223,96253,1,0,0:0:0:0:
244,164,96336,1,0,0:0:0:0:
272,112,96419,70,0,P|311:90|398:148,1,160.875004909516,8|0,0:0|0:0,0:0:0:0:
244,122,96750,2,0,P|224:67|247:17,1,107.25000327301,2|2,0:1|0:0,0:0:0:0:
441,236,97082,1,8,0:0:0:0:
296,353,97247,1,0,0:0:0:0:
281,340,97330,1,0,0:0:0:0:
267,327,97413,2,0,P|210:305|163:327,1,107.25000327301,2|0,0:1|0:0,0:0:0:0:
28,288,97745,2,0,P|87:270|150:336,1,160.875004909516,8|0,0:0|0:0,0:0:0:0:
147,366,98076,1,2,0:1:0:0:
135,335,98159,1,0,0:0:0:0:
136,302,98242,1,2,0:0:0:0:
150,273,98325,1,0,0:0:0:0:
174,251,98408,6,0,P|212:244|268:282,1,107.25000327301,4|0,0:1|0:0,0:0:0:0:
294,357,98656,1,0,0:0:0:0:
294,357,98739,1,2,0:1:0:0:
437,280,98905,1,2,0:0:0:0:
296,141,99071,2,0,P|258:134|202:172,1,107.25000327301,8|0,0:0|0:0,0:0:0:0:
174,251,99319,1,0,0:0:0:0:
174,251,99402,1,2,0:1:0:0:
21,174,99568,1,2,0:0:0:0:
332,207,99734,6,0,P|367:166|323:70,1,160.875004909516,12|0,0:0|0:0,0:0:0:0:
249,51,100065,1,2,0:1:0:0:
210,70,100148,1,0,0:0:0:0:
172,90,100231,1,2,0:0:0:0:
134,110,100314,1,0,0:0:0:0:
96,130,100396,2,0,P|35:112|81:56,1,160.875004909516,12|0,0:0|0:0,0:0:0:0:
172,90,100728,1,2,0:0:0:0:
198,192,100894,1,2,0:0:0:0:
224,294,101059,70,0,B|217:344|217:344|203:369,2,71.5000021820069,4|0|0,0:1|0:0|0:0,0:0:0:0:
198,192,101391,2,0,B|246:102|246:102|296:60,1,160.875004909516,2|0,0:1|0:0,0:0:0:0:
185,213,101722,2,0,P|135:221|91:189,1,107.25000327301,8|2,0:0|0:0,0:0:0:0:
59,111,101971,1,0,0:0:0:0:
59,111,102054,2,0,L|49:4,1,107.25000327301,2|0,0:1|0:0,0:0:0:0:
27,288,102385,5,8,0:0:0:0:
191,148,102551,1,2,0:0:0:0:
309,326,102717,2,0,P|365:343|423:266,1,160.875004909516,2|0,0:1|0:0,0:0:0:0:
294,340,103048,2,0,P|249:348|203:308,1,107.25000327301,8|2,0:0|0:0,0:0:0:0:
189,235,103297,1,0,0:0:0:0:
189,235,103380,1,2,0:1:0:0:
59,111,103546,1,2,0:0:0:0:
8,294,103711,6,0,B|24:351|24:351|61:383,1,107.25000327301,4|0,0:1|0:0,0:0:0:0:
247,285,103960,1,0,0:0:0:0:
247,285,104043,2,0,P|261:221|241:183,1,107.25000327301,2|2,0:1|0:0,0:0:0:0:
59,111,104374,1,8,0:0:0:0:
108,278,104540,1,0,0:0:0:0:
108,278,104623,1,0,0:0:0:0:
108,278,104706,1,2,0:1:0:0:
263,105,104872,70,0,P|321:89|381:165,1,160.875004909516,2|0,0:0|0:0,0:0:0:0:
357,269,105203,1,2,0:0:0:0:
344,228,105286,1,0,0:0:0:0:
354,187,105369,1,2,0:1:0:0:
381,157,105452,1,0,0:0:0:0:
421,144,105535,1,2,0:0:0:0:
461,148,105617,1,0,0:0:0:0:
493,175,105700,6,0,P|430:179|458:108,1,160.875004909516,8|0,0:0|0:0,0:0:0:0:
464,111,106032,1,2,0:1:0:0:
503,349,106198,5,2,0:0:0:0:
503,349,106280,1,0,0:0:0:0:
503,349,106363,2,0,B|428:374|428:374|387:362,1,116.999996429443,4|0,0:1|0:0,0:0:0:0:
305,327,106612,1,0,0:0:0:0:
305,327,106695,1,2,0:1:0:0:
371,161,106861,1,0,0:0:0:0:
186,204,107026,2,0,P|158:247|168:298,1,97.5,8|0,0:0|0:0,0:0:0:0:
212,357,107275,1,0,0:0:0:0:
212,357,107358,1,2,0:1:0:0:
377,318,107524,1,2,0:0:0:0:
196,188,107689,70,0,P|183:142|204:97,1,97.5,8|0,0:0|0:0,0:0:0:0:
412,191,108021,2,0,L|396:312,1,116.999996429443,2|0,0:1|0:0,0:0:0:0:
262,54,108352,2,0,B|246:21|189:7|146:43|146:43|113:10|113:10|73:32|30:17,1,253.499988395691,8|2,0:0|0:1,0:0:0:0:
202,97,108850,1,2,0:0:0:0:
366,14,109015,54,0,P|417:10|457:45,1,97.5,4|0,0:1|0:0,0:0:0:0:
473,75,109264,1,0,0:0:0:0:
473,118,109347,1,2,0:1:0:0:
455,157,109430,1,0,0:0:0:0:
420,184,109513,1,2,0:0:0:0:
377,193,109595,1,0,0:0:0:0:
332,187,109678,1,8,0:0:0:0:
296,160,109761,1,0,0:0:0:0:
279,119,109844,1,2,0:0:0:0:
281,75,109927,1,0,0:0:0:0:
307,40,110010,1,2,0:1:0:0:
344,62,110093,1,0,0:0:0:0:
365,100,110175,1,2,0:0:0:0:
371,143,110258,1,0,0:0:0:0:
357,185,110341,5,6,0:1:0:0:
327,216,110424,1,0,0:0:0:0:
309,256,110507,1,0,0:0:0:0:
304,299,110590,1,0,0:0:0:0:
316,341,110673,1,2,0:1:0:0:
345,372,110756,1,0,0:0:0:0:
386,384,110838,1,2,0:0:0:0:
429,382,110921,1,0,0:0:0:0:
469,364,111004,1,6,0:1:0:0:
493,326,111087,1,0,0:0:0:0:
498,282,111170,1,2,0:0:0:0:
485,239,111253,1,0,0:0:0:0:
455,206,111336,1,2,0:1:0:0:
407,184,111419,1,0,0:0:0:0:
355,176,111501,1,2,0:0:0:0:
302,181,111584,1,0,0:0:0:0:
256,202,111667,21,4,0:1:0:0:
256,202,111999,1,0,0:0:0:0:
71,115,112164,1,0,0:0:0:0:
256,202,112330,2,0,B|263:249|263:249|256:277,1,73.1250027894975,2|0,0:1|0:0,0:0:0:0:
71,115,112662,2,0,B|64:67|64:67|71:40,1,73.1250027894975,8|0,0:1|0:0,0:0:0:0:
120,251,112993,2,0,B|72:258|72:258|45:251,1,73.1250027894975,2|0,0:0|0:0,0:0:0:0:
207,66,113325,2,0,B|254:59|254:59|282:66,1,73.1250027894975,2|0,0:0|0:0,0:0:0:0:
120,251,113656,5,8,0:0:0:0:
207,66,113822,1,0,0:0:0:0:
71,115,113988,1,2,0:1:0:0:
256,202,114153,1,4,0:0:0:0:
256,202,114484,5,0,0:0:0:0:
425,88,114650,1,0,0:0:0:0:
256,202,114815,2,0,P|251:239|264:272,1,73.1250027894975,2|0,0:1|0:0,0:0:0:0:
278,60,115147,2,0,P|241:55|208:68,1,73.1250027894975,8|0,0:1|0:0,0:0:0:0:
425,88,115478,2,0,P|430:51|417:18,1,73.1250027894975,2|0,0:0|0:0,0:0:0:0:
392,229,115810,2,0,P|429:234|462:221,1,73.1250027894975,2|0,0:0|0:0,0:0:0:0:
256,202,116141,69,8,0:0:0:0:
425,88,116307,1,0,0:0:0:0:
392,229,116473,1,2,0:1:0:0:
278,60,116639,1,4,0:0:0:0:
278,60,116970,5,0,0:0:0:0:
312,307,117136,1,0,0:0:0:0:
278,60,117301,2,0,L|216:50,1,48.75,2|0,0:1|0:0,0:0:0:0:
311,306,117633,2,0,L|360:299,1,48.75,8|0,0:1|0:0,0:0:0:0:
179,137,117964,2,0,L|130:144,1,48.75,2|0,0:0|0:0,0:0:0:0:
36,351,118296,2,0,L|98:361,1,48.75,2|0,0:0|0:0,0:0:0:0:
28,199,118627,5,8,0:0:0:0:
268,47,118793,1,8,0:0:0:0:
289,316,118959,1,8,0:0:0:0:
148,122,119125,21,4,0:0:0:0:
284,184,119290,1,8,0:0:0:0:
163,265,119456,1,8,0:1:0:0:
148,122,119622,1,8,0:1:0:0:
407,98,119787,5,2,0:1:0:0:
284,184,119953,1,8,0:1:0:0:
275,39,120119,1,2,0:1:0:0:
407,98,120285,1,8,0:1:0:0:
298,333,120450,5,2,0:0:0:0:
284,184,120616,1,8,0:0:0:0:
414,249,120782,1,2,0:0:0:0:
298,333,120948,1,8,0:0:0:0:
148,122,121113,69,2,0:0:0:0:
407,98,121279,1,8,0:0:0:0:
298,333,121445,1,12,0:0:0:0:
397,8,121784,6,0,P|435:9|457:24,1,58.4999982147217,4|0,0:1|0:0,0:0:0:0:
479,54,121949,1,0,0:0:0:0:
490,99,122032,1,0,0:0:0:0:
476,143,122115,1,10,0:0:0:0:
442,174,122198,1,0,0:0:0:0:
397,184,122281,1,2,0:0:0:0:
353,167,122364,1,0,0:0:0:0:
322,134,122446,5,8,0:0:0:0:
365,122,122529,1,0,0:0:0:0:
411,134,122612,1,0,0:0:0:0:
441,167,122695,1,0,0:0:0:0:
452,212,122778,1,10,0:0:0:0:
437,257,122861,1,0,0:0:0:0:
402,287,122944,1,2,0:0:0:0:
357,296,123027,1,0,0:0:0:0:
314,275,123109,69,10,0:0:0:0:
311,247,123192,1,0,0:0:0:0:
326,221,123275,2,0,P|350:210|381:212,1,58.4999982147217
438,363,123441,5,10,0:0:0:0:
414,380,123524,1,0,0:0:0:0:
384,380,123607,2,0,P|362:364|348:336,1,58.4999982147217
452,212,123772,5,10,0:0:0:0:
479,224,123855,1,0,0:0:0:0:
494,250,123938,2,0,P|491:276|474:302,1,58.4999982147217,2|0,0:0|0:0,0:0:0:0:
241,190,124104,70,0,B|209:153|225:96|225:96|292:77|351:122,1,234,10|0,0:0|0:3,0:0:0:0:
388,239,124435,5,4,0:1:0:0:
355,209,124518,1,0,0:0:0:0:
343,166,124601,1,0,0:0:0:0:
351,122,124684,1,0,0:0:0:0:
381,90,124767,2,0,P|412:76|456:82,1,58.4999982147217,10|0,0:0|0:0,0:0:0:0:
343,166,124933,2,0,P|307:169|273:155,1,58.4999982147217,2|0,0:0|0:0,0:0:0:0:
197,58,125098,5,8,0:0:0:0:
162,30,125181,1,0,0:0:0:0:
118,23,125264,1,0,0:0:0:0:
75,33,125347,1,0,0:0:0:0:
45,65,125430,2,0,P|33:89|37:121,1,58.4999982147217,10|0,0:0|0:0,0:0:0:0:
204,113,125596,2,0,P|208:84|196:57,1,58.4999982147217,2|0,0:0|0:0,0:0:0:0:
143,242,125761,70,0,B|182:266|238:257|254:215|244:186|244:186|215:202|199:245|218:317|302:332,1,350.99998928833,4|2,0:1|0:0,0:0:0:0:
383,332,126342,1,0,0:0:0:0:
383,332,126424,2,0,P|424:292|431:235,1,116.999996429443,8|0,0:3|0:0,0:0:0:0:
406,167,126673,1,0,0:0:0:0:
406,167,126756,2,0,P|362:130|302:138,1,116.999996429443,8|0,0:0|0:0,0:0:0:0:
143,242,127087,6,0,B|133:294|133:294|142:359,1,116.999996429443,4|0,0:1|0:0,0:0:0:0:
184,56,127419,2,0,P|123:38|69:136,1,175.499994644165,8|0,0:0|0:0,0:0:0:0:
183,161,127750,2,0,P|205:101|182:54,1,116.999996429443,2|0,0:0|0:0,0:0:0:0:
135,107,127999,1,0,0:0:0:0:
134,110,128082,1,8,0:0:0:0:
302,269,128248,1,0,0:0:0:0:
392,125,128413,6,0,B|404:70|373:17|373:17|420:32|449:76|451:107,1,233.999992858887,4|8,0:0|0:0,0:0:0:0:
424,305,128911,1,0,0:0:0:0:
281,87,129076,2,0,P|227:58|171:78,1,116.999996429443,2|0,0:0|0:0,0:0:0:0:
120,131,129325,1,0,0:0:0:0:
120,131,129408,1,8,0:0:0:0:
221,326,129574,1,0,0:0:0:0:
391,182,129739,70,0,P|402:77|297:80,1,233.999992858887,4|8,0:1|0:0,0:0:0:0:
221,326,130237,1,0,0:0:0:0:
221,326,130319,1,0,0:0:0:0:
221,326,130402,2,0,P|276:349|332:311,1,116.999996429443,2|0,0:0|0:0,0:0:0:0:
178,155,130734,2,0,B|123:163|123:163|93:180|93:180|63:174,1,116.999996429443,8|0,0:0|0:0,0:0:0:0:
339,91,131065,6,0,B|349:51|349:51|341:13,2,77.999997619629,12|8|4,0:1|0:3|0:3,0:1:0:0:
180,250,131397,2,0,B|170:210|170:210|178:172,2,77.999997619629,8|2|2,0:3|0:3|0:3,0:0:0:0:
337,357,131728,2,0,P|407:375|465:300,1,175.499994644165,4|0,0:1|0:0,0:0:0:0:
326,344,132060,2,0,P|264:368|212:342,1,116.999996429443,8|2,0:0|0:0,0:0:0:0:
332,325,132308,1,0,0:0:0:0:
337,306,132391,22,0,B|350:237|350:237|341:188,1,116.999996429443,4|0,0:1|0:0,0:0:0:0:
282,55,132723,1,8,0:0:0:0:
185,219,132888,1,0,0:0:0:0:
52,129,133054,2,0,P|32:67|57:21,1,116.999996429443,2|0,0:0|0:0,0:0:0:0:
191,225,133386,1,8,0:0:0:0:
191,225,133469,1,0,0:0:0:0:
191,225,133551,1,0,0:0:0:0:
287,86,133717,6,0,P|349:66|395:91,1,116.999996429443,2|0,0:0|0:0,0:0:0:0:
298,357,134049,2,0,P|233:348|202:306,1,116.999996429443,8|0,0:0|0:0,0:0:0:0:
413,262,134380,2,0,P|429:321|298:357,1,233.999992858887,2|8,0:0|0:0,0:0:0:0:
279,284,134795,1,0,0:0:0:0:
279,284,134877,1,0,0:0:0:0:
421,147,135043,5,4,0:1:0:0:
276,107,135209,2,0,P|264:50|300:4,1,116.999996429443,0|8,0:0|0:0,0:0:0:0:
421,147,135540,2,0,B|438:196|399:241|399:241|397:273|415:299|415:299|393:329|400:370,1,233.999992858887,2|0,0:0|0:0,0:0:0:0:
484,84,136038,1,8,0:0:0:0:
496,273,136203,1,2,0:0:0:0:
340,174,136369,70,0,B|305:153|248:158|213:198|213:198|171:167|123:186,1,233.999992858887,4|8,0:1|0:0,0:0:0:0:
47,219,136784,1,0,0:0:0:0:
47,219,136866,2,0,P|110:210|85:75,1,233.999992858887,2|0,0:0|0:0,0:0:0:0:
134,340,137364,2,0,B|200:354|200:354|253:344,1,116.999996429443,8|2,0:0|0:0,0:0:0:0:
443,223,137695,5,4,0:1:0:0:
384,348,137861,1,0,0:0:0:0:
384,348,137944,1,0,0:0:0:0:
384,348,138027,1,8,0:0:0:0:
303,112,138192,2,0,P|348:56|451:137,1,233.999992858887,2|0,0:0|0:0,0:0:0:0:
384,348,138690,1,8,0:0:0:0:
226,227,138855,1,2,0:0:0:0:
377,124,139021,5,2,0:0:0:0:
334,225,139187,1,0,0:0:0:0:
334,225,139270,1,0,0:0:0:0:
334,225,139353,1,8,0:0:0:0:
489,185,139518,1,2,0:0:0:0:
423,59,139684,69,8,0:3:0:0:
392,45,139767,1,2,0:3:0:0:
358,48,139850,2,0,P|324:62|312:80,1,58.4999982147217,4|0,0:1|0:0,0:0:0:0:
257,213,140016,1,8,0:1:0:0:
226,227,140098,1,4,0:3:0:0:
192,224,140181,2,0,P|158:209|146:191,1,58.4999982147217,2|0,0:3|0:0,0:0:0:0:
131,72,140347,53,4,0:1:0:0:
159,94,140430,1,0,0:0:0:0:
172,127,140513,1,0,0:0:0:0:
168,164,140596,1,0,0:0:0:0:
147,193,140679,1,2,0:0:0:0:
114,209,140761,1,0,0:0:0:0:
71,202,140844,5,4,0:1:0:0:
101,178,140927,1,0,0:0:0:0:
140,172,141010,1,2,0:0:0:0:
177,186,141093,1,0,0:0:0:0:
202,218,141176,1,2,0:0:0:0:
210,255,141259,1,0,0:0:0:0:
186,290,141342,5,4,0:1:0:0:
167,251,141424,1,0,0:0:0:0:
173,207,141507,1,0,0:0:0:0:
200,171,141590,1,0,0:0:0:0:
241,153,141673,69,4,0:1:0:0:
282,172,141756,1,0,0:0:0:0:
305,209,141839,1,0,0:0:0:0:
315,253,141922,1,0,0:0:0:0:
306,298,142004,1,2,0:0:0:0:
284,338,142087,1,0,0:0:0:0:
247,365,142170,1,2,0:0:0:0:
205,378,142253,1,0,0:0:0:0:
159,376,142336,1,0,0:0:0:0:
118,360,142419,1,0,0:0:0:0:
85,324,142502,1,2,0:0:0:0:
69,282,142585,1,0,0:0:0:0:
72,236,142667,5,4,0:1:0:0:
108,208,142750,1,0,0:0:0:0:
133,168,142833,1,2,0:0:0:0:
146,125,142916,1,0,0:0:0:0:
141,79,142999,6,0,P|88:47|37:61,1,116.999996429443,4|0,0:1|0:0,0:0:0:0:
56,213,143248,1,0,0:0:0:0:
72,236,143330,2,0,P|105:252|128:252,1,58.4999982147217,8|0,0:0|0:0,0:0:0:0:
246,185,143496,1,2,0:0:0:0:
269,149,143579,1,0,0:0:0:0:
276,107,143662,1,2,0:0:0:0:
269,65,143745,1,0,0:0:0:0:
250,26,143828,1,0,0:0:0:0:
208,30,143911,1,0,0:0:0:0:
195,69,143993,1,8,0:0:0:0:
231,90,144076,1,0,0:0:0:0:
269,65,144159,1,0,0:0:0:0:
310,59,144242,1,0,0:0:0:0:
350,69,144325,70,0,P|380:73|414:62,3,58.4999982147217,4|0|0|0,0:0|0:0|0:0|0:0,0:0:0:0:
502,157,144656,2,0,P|471:161|438:150,3,58.4999982147217,8|0|0|0,0:0|0:0|0:0|0:0,0:0:0:0:
348,215,144988,5,2,0:0:0:0:
344,249,145071,1,0,0:0:0:0:
378,254,145154,1,2,0:0:0:0:
382,220,145237,1,0,0:0:0:0:
348,215,145319,1,8,0:0:0:0:
344,249,145402,1,0,0:0:0:0:
378,254,145485,1,2,0:0:0:0:
382,220,145568,1,0,0:0:0:0:
348,215,145651,6,0,B|289:202|289:202|235:218,1,116.999996429443,4|0,0:0|0:0,0:0:0:0:
202,232,145900,1,0,0:0:0:0:
170,246,145982,1,8,0:0:0:0:
138,260,146065,1,0,0:0:0:0:
106,275,146148,2,0,B|74:278|74:278|45:267,1,58.4999982147217,2|0,0:0|0:0,0:0:0:0:
22,164,146314,1,2,0:0:0:0:
52,146,146397,1,0,0:0:0:0:
86,140,146480,1,2,0:0:0:0:
120,145,146563,1,0,0:0:0:0:
151,158,146645,1,8,0:0:0:0:
186,157,146728,1,0,0:0:0:0:
219,144,146811,1,0,0:0:0:0:
247,122,146894,1,0,0:0:0:0:
268,94,146977,69,4,0:0:0:0:
237,77,147060,1,0,0:0:0:0:
201,77,147143,1,0,0:0:0:0:
167,87,147225,1,0,0:0:0:0:
138,108,147308,1,8,0:0:0:0:
118,137,147391,1,0,0:0:0:0:
108,170,147474,2,0,P|108:208|127:238,1,58.4999982147217,2|0,0:0|0:0,0:0:0:0:
256,283,147640,6,0,B|300:230|268:140|268:140|262:117|269:94|269:94|325:115|355:159|349:228,1,365.625,2|2,0:0|0:0,0:0:0:0:
167,357,148303,5,4,0:1:0:0:
380,335,148469,1,0,0:0:0:0:
380,335,148551,1,0,0:0:0:0:
380,335,148634,1,8,0:0:0:0:
61,222,148800,1,0,0:0:0:0:
61,222,148883,1,0,0:0:0:0:
61,222,148966,1,2,0:0:0:0:
398,119,149132,1,0,0:0:0:0:
398,119,149214,1,0,0:0:0:0:
398,119,149297,1,8,0:0:0:0:
214,295,149463,1,0,0:0:0:0:
132,99,149629,69,4,0:0:0:0:
147,55,149712,1,0,0:0:0:0:
182,24,149795,1,2,0:0:0:0:
227,15,149877,1,0,0:0:0:0:
271,29,149960,1,8,0:0:0:0:
303,62,150043,1,0,0:0:0:0:
314,107,150126,1,2,0:0:0:0:
302,152,150209,1,0,0:0:0:0:
268,185,150292,1,2,0:0:0:0:
240,222,150375,1,0,0:0:0:0:
233,268,150458,1,0,0:0:0:0:
248,312,150540,1,0,0:0:0:0:
281,344,150623,1,8,0:0:0:0:
326,357,150706,1,0,0:0:0:0:
371,348,150789,1,2,0:0:0:0:
408,319,150872,1,0,0:0:0:0:
427,277,150955,6,0,B|425:226|425:226|415:197|415:197|415:155,1,116.999996429443,4|0,0:1|0:0,0:0:0:0:
333,62,151203,1,0,0:0:0:0:
360,24,151286,1,8,0:0:0:0:
405,38,151369,1,0,0:0:0:0:
405,85,151452,1,2,0:0:0:0:
361,99,151535,1,0,0:0:0:0:
333,62,151618,2,0,P|274:51|224:77,1,116.999996429443,4|0,0:0|0:0,0:0:0:0:
169,239,151866,5,0,0:0:0:0:
196,277,151949,1,8,0:0:0:0:
241,263,152032,1,0,0:0:0:0:
241,216,152115,1,2,0:0:0:0:
197,202,152198,1,0,0:0:0:0:
169,239,152281,2,0,P|110:250|60:224,1,116.999996429443,4|0,0:1|0:0,0:0:0:0:
24,106,152529,1,0,0:0:0:0:
60,134,152612,1,8,0:0:0:0:
69,179,152695,1,0,0:0:0:0:
61,225,152778,1,2,0:0:0:0:
31,261,152861,1,0,0:0:0:0:
14,217,152944,70,0,P|71:246|45:344,1,175.499994644165,4|0,0:0|0:0,0:0:0:0:
24,360,153275,2,0,P|68:349|126:384,1,116.999996429443,8|2,0:0|0:0,0:0:0:0:
307,165,153607,37,4,0:0:0:0:
307,165,153772,1,8,0:1:0:0:
257,350,153938,1,8,0:0:0:0:
307,165,154104,1,8,0:1:0:0:
425,263,154270,2,0,P|476:268|516:239,1,97.5,2|8,0:1|0:1,0:0:0:0:
307,165,154601,1,8,0:1:0:0:
130,57,154767,5,2,0:1:0:0:
130,57,154933,1,8,0:1:0:0:
307,165,155098,1,8,0:1:0:0:
387,21,155264,1,8,0:0:0:0:
307,165,155430,1,8,0:3:0:0:
130,57,155596,2,0,P|74:45|35:64,1,97.5,10|2,0:1|0:0,0:0:0:0:
8,275,155927,1,8,0:1:0:0:
188,166,156093,1,8,0:1:0:0:
291,360,156259,5,2,0:1:0:0:
291,360,156424,1,8,0:1:0:0:
122,258,156590,1,2,0:1:0:0:
300,188,156756,1,8,0:1:0:0:
122,258,156922,1,8,0:1:0:0:
300,188,157087,2,0,P|315:149|298:96,1,97.5,2|8,0:1|0:1,0:0:0:0:
160,12,157419,1,8,0:1:0:0:
55,126,157585,1,2,0:1:0:0:
160,12,157750,1,2,0:0:0:0:
205,220,157916,69,2,0:1:0:0:
233,246,157999,1,2,0:1:0:0:
270,255,158082,1,8,0:1:0:0:
309,253,158165,1,8,0:1:0:0:
345,240,158248,1,8,0:1:0:0:
371,211,158330,1,8,0:1:0:0:
405,192,158413,1,2,0:1:0:0:
444,192,158496,1,2,0:1:0:0:
479,208,158579,2,0,P|497:255|481:302,1,97.5,2|8,0:0|0:1,0:0:0:0:
283,157,158911,5,2,0:1:0:0:
283,157,159076,1,8,0:1:0:0:
153,340,159242,2,0,P|104:346|62:320,1,97.5,2|8,0:1|0:1,0:0:0:0:
134,166,159574,1,8,0:1:0:0:
292,330,159739,2,0,P|332:347|383:338,1,97.5,2|8,0:1|0:1,0:0:0:0:
496,213,160071,1,8,0:1:0:0:
397,55,160237,1,2,0:1:0:0:
283,157,160402,1,8,0:3:0:0:
397,55,160568,6,0,P|441:37|490:50,1,97.5,10|2,0:1|0:0,0:0:0:0:
479,301,160900,1,8,0:1:0:0:
373,277,161065,1,8,0:1:0:0:
272,256,161231,69,2,0:1:0:0:
272,256,161397,1,8,0:1:0:0:
485,164,161563,1,2,0:1:0:0:
423,364,161728,1,8,0:1:0:0:
283,157,161894,2,0,P|239:140|190:154,1,97.5,8|2,0:1|0:1,0:0:0:0:
55,326,162225,5,4,0:0:0:0:
345,204,162391,2,0,P|362:156|347:109,1,97.5,8|8,0:1|0:1,0:0:0:0:
94,40,162723,1,4,0:0:0:0:
181,312,162888,2,0,P|232:333|278:326,1,97.5,8|8,0:1|0:1,0:0:0:0:
174,52,163220,6,0,P|99:36|53:129,1,195,4|4,0:0|0:1,0:0:0:0:
53,129,163633,1,0,0:0:0:0:
53,129,163716,1,2,0:0:0:0:
166,192,164048,1,2,0:0:0:0:
166,192,164131,1,0,0:0:0:0:
166,192,164213,1,8,0:3:0:0:
248,114,164379,70,0,P|297:93|372:136,1,146.25,2|0,0:0|0:0,0:0:0:0:
236,111,164711,2,0,P|214:65|226:18,1,97.5,2|8,0:0|0:3,0:0:0:0:
301,169,165042,2,0,L|289:270,1,97.5,2|2,0:0|0:3,0:0:0:0:
132,354,165374,1,2,0:0:0:0:
301,169,165539,1,8,0:1:0:0:
324,162,165622,1,8,0:1:0:0:
348,161,165705,1,2,0:0:0:0:
372,163,165788,1,8,0:3:0:0:
395,169,165871,6,0,P|452:163|446:46,1,195,4|4,0:0|0:1,0:0:0:0:
452,49,166285,1,0,0:0:0:0:
452,49,166368,1,2,0:0:0:0:
332,18,166700,1,2,0:0:0:0:
332,18,166783,1,0,0:0:0:0:
332,18,166865,1,8,0:3:0:0:
229,98,167031,6,0,B|209:177|209:177|224:246,1,146.25,2|0,0:0|0:0,0:0:0:0:
236,86,167363,2,0,B|171:71|171:71|137:78,1,97.5,2|8,0:0|0:3,0:0:0:0:
300,312,167694,2,0,B|364:321|364:321|400:311,1,97.5,2|2,0:0|0:3,0:0:0:0:
239,211,168026,1,2,0:0:0:0:
205,216,168109,1,2,0:3:0:0:
174,230,168191,1,8,0:1:0:0:
142,217,168274,1,8,0:1:0:0:
123,188,168357,1,2,0:0:0:0:
89,181,168440,1,8,0:3:0:0:
55,186,168523,70,0,P|121:144|83:47,1,195,4|4,0:0|0:1,0:0:0:0:
86,48,168937,1,0,0:0:0:0:
86,48,169020,1,2,0:0:0:0:
237,121,169352,1,2,0:0:0:0:
237,121,169434,1,0,0:0:0:0:
237,121,169517,1,8,0:3:0:0:
348,40,169683,6,0,P|412:30|467:88,1,146.25,2|0,0:0|0:0,0:0:0:0:
444,159,170015,1,2,0:0:0:0:
444,159,170097,2,0,B|430:237|430:237|443:314,1,146.25,0|2,0:0|0:0,0:0:0:0:
477,359,170429,1,0,0:0:0:0:
467,326,170512,1,8,0:1:0:0:
441,303,170595,1,8,0:1:0:0:
407,297,170678,1,2,0:0:0:0:
373,302,170760,1,8,0:3:0:0:
346,323,170843,1,8,0:3:0:0:
387,337,170926,1,2,0:3:0:0:
430,331,171009,1,2,0:0:0:0:
463,302,171092,1,2,0:3:0:0:
473,259,171175,6,0,P|423:169|344:189,1,195,4|4,0:0|0:1,0:0:0:0:
354,192,171589,1,0,0:0:0:0:
354,192,171672,2,0,P|368:136|353:102,1,97.5,2|8,0:0|0:3,0:0:0:0:
279,40,171921,1,0,0:0:0:0:
249,43,172004,1,2,0:0:0:0:
220,47,172086,1,0,0:0:0:0:
191,51,172169,70,0,L|94:65,1,97.5,8|2,0:3|0:0,0:0:0:0:
30,138,172418,1,0,0:0:0:0:
16,164,172501,1,8,0:3:0:0:
11,193,172584,1,0,0:0:0:0:
16,221,172667,1,2,0:0:0:0:
33,243,172749,1,0,0:0:0:0:
59,254,172832,5,8,0:1:0:0:
89,280,172915,1,8,0:1:0:0:
78,317,172998,1,2,0:0:0:0:
39,316,173081,1,8,0:1:0:0:
28,278,173164,1,8,0:3:0:0:
59,254,173247,1,8,0:3:0:0:
97,248,173330,1,2,0:0:0:0:
134,256,173412,1,2,0:3:0:0:
165,278,173495,5,8,0:0:0:0:
346,225,173661,1,8,0:3:0:0:
279,334,173827,1,2,0:3:0:0:
236,75,173992,1,2,0:0:0:0:
487,157,174158,1,4,0:1:0:0:
402,261,174324,5,2,0:0:0:0:
260,168,174490,2,0,B|245:121|245:121|244:104|244:104|234:69,1,97.5,8|0,0:3|0:0,0:0:0:0:
368,329,174821,2,0,P|409:337|460:313,1,97.5,4|0,0:0|0:0,0:0:0:0:
325,88,175153,2,0,P|282:66|235:74,1,97.5,2|0,0:0|0:0,0:0:0:0:
87,315,175484,2,0,P|135:319|177:295,1,97.5,4|0,0:1|0:0,0:0:0:0:
13,183,175816,5,8,0:0:0:0:
235,224,175981,1,0,0:0:0:0:
235,224,176064,1,0,0:0:0:0:
235,224,176147,1,8,0:1:0:0:
141,81,176313,1,2,0:0:0:0:
217,344,176479,1,2,0:3:0:0:
318,137,176644,1,0,0:0:0:0:
201,358,176810,86,0,P|147:368|111:350,1,97.5,4|0,0:1|0:0,0:0:0:0:
292,269,177142,1,8,0:0:0:0:
417,346,177307,1,0,0:0:0:0:
417,346,177390,1,0,0:0:0:0:
417,346,177473,1,8,0:1:0:0:
479,204,177639,1,2,0:0:0:0:
292,269,177805,1,2,0:3:0:0:
509,310,177970,1,2,0:0:0:0:
254,77,178136,5,4,0:0:0:0:
394,231,178302,1,0,0:0:0:0:
394,231,178385,1,0,0:0:0:0:
394,231,178468,1,8,0:0:0:0:
472,48,178633,1,2,0:0:0:0:
276,177,178799,1,8,0:1:0:0:
494,205,178965,1,8,0:3:0:0:
263,175,179131,1,8,0:1:0:0:
506,206,179296,1,2,0:3:0:0:
249,174,179462,86,0,P|166:270|279:331,1,292.5,4|0,0:1|0:0,0:0:0:0:
278,331,180042,1,0,0:0:0:0:
278,331,180125,1,8,0:3:0:0:
401,236,180291,1,2,0:3:0:0:
486,353,180457,1,8,0:1:0:0:
387,217,180622,2,0,P|379:165|502:149,1,195,4|0,0:0|0:0,0:0:0:0:
486,353,181120,1,2,0:0:0:0:
486,353,181451,2,0,P|441:369|395:350,1,97.5,4|0,0:0|0:0,0:0:0:0:
265,49,181783,2,0,P|311:40|354:66,1,97.5,2|0,0:0|0:0,0:0:0:0:
154,326,182114,6,0,L|50:331,1,97.5,4|0,0:1|0:0,0:0:0:0:
214,237,182446,1,8,0:0:0:0:
298,360,182611,1,0,0:0:0:0:
298,360,182694,1,0,0:0:0:0:
298,360,182777,1,2,0:0:0:0:
373,190,182943,1,8,0:3:0:0:
499,364,183109,1,4,0:0:0:0:
310,257,183274,1,2,0:3:0:0:
442,127,183440,86,0,P|454:69|412:17,1,130,4|2,0:1|0:1,0:0:0:0:
334,4,183771,5,2,0:1:0:0:
261,27,183882,1,8,0:1:0:0:
224,93,183992,1,8,0:1:0:0:
243,167,184103,5,2,0:1:0:0:
307,208,184213,1,2,0:3:0:0:
382,194,184324,1,2,0:3:0:0:
475,166,184434,6,0,B|420:162|381:195|381:195|441:215|461:251|461:251|424:285|438:342,1,292.50001115799,10|4,0:3|0:1,0:0:0:0:
488,154,184932,53,0,0:0:0:0:
449,353,185097,1,8,0:3:0:0:
449,353,185180,1,0,0:0:0:0:
449,353,185263,1,0,0:0:0:0:
486,140,185429,2,0,L|477:40,1,97.5,4|0,0:0|0:0,0:0:0:0:
305,159,185760,2,0,L|313:256,1,97.5,2|0,0:0|0:0,0:0:0:0:
140,372,186092,2,0,L|132:275,1,97.5,4|0,0:1|0:0,0:0:0:0:
48,42,186423,5,8,0:0:0:0:
218,186,186589,1,2,0:1:0:0:
363,42,186755,2,0,P|407:31|455:51,1,97.5,2|2,0:1|0:0,0:0:0:0:
204,188,187086,2,0,L|101:197,1,97.5,2|0,0:1|0:0,0:0:0:0:
406,333,187418,85,4,0:1:0:0:
313,205,187584,1,2,0:0:0:0:
463,254,187749,1,8,0:0:0:0:
313,302,187915,1,2,0:0:0:0:
406,175,188081,5,2,0:1:0:0:
478,368,188247,1,0,0:0:0:0:
408,161,188412,1,2,0:1:0:0:
490,370,188578,1,0,0:0:0:0:
199,290,188744,85,4,0:0:0:0:
270,60,188910,1,0,0:0:0:0:
270,60,188992,1,0,0:0:0:0:
270,60,189075,1,2,0:1:0:0:
199,290,189241,1,0,0:0:0:0:
74,139,189407,1,8,0:1:0:0:
305,203,189573,1,2,0:3:0:0:
64,151,189738,1,8,0:1:0:0:
306,218,189904,1,8,0:3:0:0:
55,164,190070,6,0,P|31:89|162:55,1,248.625004742146,4|0,0:1|0:0,0:0:0:0:
161,54,190650,1,0,0:0:0:0:
161,54,190733,1,2,0:1:0:0:
339,57,190899,1,2,0:3:0:0:
275,219,191064,1,2,0:1:0:0:
339,57,191230,86,0,P|411:42|446:140,1,195,4|0,0:0|0:0,0:0:0:0:
446,139,191727,1,8,0:0:0:0:
275,219,191893,1,2,0:1:0:0:
275,219,191976,1,2,0:1:0:0:
275,219,192059,1,2,0:1:0:0:
326,344,192225,1,2,0:3:0:0:
425,262,192390,2,0,P|474:253|520:281,1,97.5,8|2,0:1|0:3,0:0:0:0:
314,350,192722,6,0,B|271:352|239:332|239:332|191:344|191:344|162:326|122:327,1,195,4|8,0:1|0:0,0:0:0:0:
330,223,193219,1,0,0:0:0:0:
330,223,193302,1,0,0:0:0:0:
330,223,193385,2,0,P|356:158|314:102,1,146.25,2|0,0:1|0:0,0:0:0:0:
285,166,193716,2,0,P|250:176|206:170,2,65,2|8|2,0:1|0:3|0:3,0:0:0:0:
361,347,194048,6,0,P|418:349|450:320,1,97.5,4|4,0:1|0:3,0:0:0:0:
466,290,194296,1,0,0:0:0:0:
470,251,194379,1,8,0:1:0:0:
452,216,194462,1,8,0:1:0:0:
421,191,194545,1,2,0:3:0:0:
382,185,194628,1,2,0:3:0:0:
344,194,194711,5,2,0:1:0:0:
339,232,194794,1,8,0:1:0:0:
373,249,194876,1,8,0:1:0:0:
399,220,194959,1,8,0:3:0:0:
382,185,195042,1,2,0:1:0:0:
350,162,195125,1,8,0:1:0:0:
312,152,195208,1,2,0:1:0:0:
272,153,195291,1,2,0:1:0:0:
236,168,195374,54,0,P|208:210|214:258,1,97.5,4|0,0:1|0:0,0:0:0:0:
259,354,195705,1,8,0:3:0:0:
259,354,195871,1,2,0:0:0:0:
310,158,196037,2,0,P|247:92|166:134,1,195,8|8,0:0|0:3,0:0:0:0:
166,133,196534,1,2,0:0:0:0:
179,363,196700,69,8,0:3:0:0:
55,325,196865,1,0,0:0:0:0:
166,228,197031,2,0,P|182:182|169:136,1,97.5,10|0,0:0|0:0,0:0:0:0:
115,74,197280,1,0,0:0:0:0:
115,74,197363,1,2,0:1:0:0:
258,20,197528,1,2,0:1:0:0:
115,74,197694,2,0,L|15:64,1,97.5,2|2,0:0|0:1,0:0:0:0:
271,307,198026,22,0,L|380:295,1,97.5,4|0,0:1|0:0,0:0:0:0:
481,215,198357,1,2,0:0:0:0:
481,215,198523,1,0,0:0:0:0:
341,133,198689,2,0,P|312:64|407:13,1,195,2|8,0:1|0:3,0:0:0:0:
399,10,199186,1,2,0:0:0:0:
476,130,199352,69,2,0:3:0:0:
299,207,199517,1,0,0:0:0:0:
456,280,199683,2,0,P|472:333|455:375,1,97.5,8|0,0:0|0:0,0:0:0:0:
379,246,199932,1,0,0:0:0:0:
379,246,200015,2,0,L|406:146,1,97.5,2|8,0:1|0:1,0:0:0:0:
343,342,200346,1,8,0:3:0:0:
235,119,200512,1,2,0:0:0:0:
117,308,200678,22,0,P|70:311|32:280,1,97.5,4|0,0:1|0:0,0:0:0:0:
235,119,201009,2,0,P|188:111|147:137,1,97.5,8|0,0:3|0:0,0:0:0:0:
393,336,201341,2,0,P|347:348|304:326,1,97.5,2|0,0:1|0:0,0:0:0:0:
499,117,201672,2,0,P|458:92|410:103,1,97.5,8|0,0:0|0:0,0:0:0:0:
348,150,201921,1,0,0:0:0:0:
348,150,202004,69,2,0:0:0:0:
304,326,202169,1,0,0:0:0:0:
417,259,202335,1,8,0:0:0:0:
235,217,202501,1,0,0:0:0:0:
235,217,202584,1,0,0:0:0:0:
235,217,202667,2,0,L|131:227,1,97.5,2|2,0:1|0:1,0:0:0:0:
22,357,202998,1,2,0:0:0:0:
48,135,203164,1,2,0:1:0:0:
274,280,203330,22,0,P|312:214|237:140,1,195,4|8,0:1|0:0,0:0:0:0:
84,265,203827,1,0,0:0:0:0:
84,265,203910,1,0,0:0:0:0:
84,265,203992,2,0,P|127:260|184:279,1,97.5,2|0,0:0|0:0,0:0:0:0:
238,140,204324,2,0,P|195:135|138:154,1,97.5,2|0,0:0|0:0,0:0:0:0:
74,349,204655,69,4,0:0:0:0:
289,328,204821,1,2,0:3:0:0:
289,328,204904,1,2,0:3:0:0:
289,327,204987,2,0,P|302:281|285:236,1,97.5,8|0,0:3|0:0,0:0:0:0:
112,29,205318,1,8,0:3:0:0:
112,29,205484,1,2,0:3:0:0:
28,281,205650,1,8,0:3:0:0:
28,281,205816,1,2,0:3:0:0:
272,87,205981,22,0,P|330:71|401:166,1,195,4|8,0:1|0:3,0:0:0:0:
349,313,206479,1,0,0:0:0:0:
349,313,206562,1,0,0:0:0:0:
349,313,206644,2,0,P|291:323|258:306,1,97.5,2|0,0:1|0:0,0:0:0:0:
158,203,206976,1,2,0:0:0:0:
83,321,207142,1,0,0:0:0:0:
310,252,207307,70,0,B|325:192|325:192|319:151,1,97.5,2|0,0:0|0:0,0:0:0:0:
248,37,207639,1,2,0:1:0:0:
395,101,207805,1,0,0:0:0:0:
395,101,207888,1,0,0:0:0:0:
395,101,207970,1,2,0:1:0:0:
209,140,208136,1,2,0:1:0:0:
395,101,208302,2,0,L|492:113,1,97.5,2|2,0:0|0:1,0:0:0:0:
176,208,208633,22,0,P|133:156|197:66,1,195,4|8,0:1|0:3,0:0:0:0:
190,213,209131,1,0,0:0:0:0:
288,144,209296,2,0,P|336:138|378:159,1,97.5,2|0,0:1|0:0,0:0:0:0:
291,353,209628,2,0,P|243:359|201:338,1,97.5,2|0,0:0|0:0,0:0:0:0:
119,146,209959,69,2,0:0:0:0:
26,329,210125,1,0,0:0:0:0:
257,287,210291,2,0,B|279:230|279:230|275:189,1,97.5,8|0,0:3|0:0,0:0:0:0:
261,116,210539,1,0,0:0:0:0:
261,116,210622,1,2,0:1:0:0:
138,36,210788,1,8,0:3:0:0:
328,18,210954,1,2,0:3:0:0:
109,199,211120,1,2,0:0:0:0:
327,151,211285,22,0,P|334:103|311:61,1,97.5,4|0,0:1|0:0,0:0:0:0:
36,219,211617,2,0,P|60:259|105:277,1,97.5,8|0,0:3|0:0,0:0:0:0:
155,72,211948,2,0,P|70:37|13:108,1,195,2|8,0:1|0:0,0:0:0:0:
105,277,212446,1,0,0:0:0:0:
345,200,212611,70,0,P|355:146|337:109,1,97.5,2|0,0:0|0:0,0:0:0:0:
205,214,212943,2,0,L|198:311,1,97.5,8|0,0:3|0:0,0:0:0:0:
231,382,213191,1,0,0:0:0:0:
231,382,213274,1,2,0:1:0:0:
374,325,213440,1,2,0:1:0:0:
507,378,213606,1,2,0:0:0:0:
507,378,213771,1,2,0:1:0:0:
311,162,213937,22,0,P|261:146|219:159,1,97.5,4|0,0:1|0:0,0:0:0:0:
129,233,214269,1,8,0:3:0:0:
320,150,214434,1,0,0:0:0:0:
329,138,214517,1,0,0:0:0:0:
338,126,214600,2,0,L|318:28,1,97.5,2|0,0:0|0:0,0:0:0:0:
454,254,214932,2,0,L|434:352,1,97.5,8|0,0:0|0:0,0:0:0:0:
449,123,215263,69,12,0:0:0:0:
305,260,215429,1,2,0:3:0:0:
179,111,215595,1,8,0:0:0:0:
39,299,215760,1,2,0:3:0:0:
263,171,215926,1,2,0:1:0:0:
48,50,216092,5,2,0:1:0:0:
48,50,216175,1,2,0:1:0:0:
48,50,216258,1,2,0:1:0:0:
48,50,216341,1,2,0:1:0:0:
48,50,216423,1,2,0:1:0:0:
48,50,216506,1,2,0:1:0:0:
48,50,216589,21,4,0:1:0:0:
167,329,216755,1,4,0:1:0:0:
174,336,218081,1,0,0:0:0:0:
174,336,218164,1,0,0:0:0:0:
174,336,218247,1,8,0:0:0:0:
412,51,218578,5,4,0:1:0:0:
110,186,218744,1,4,0:1:0:0:
117,193,220070,1,0,0:0:0:0:
117,193,220153,1,0,0:0:0:0:
117,193,220236,1,2,0:1:0:0:
381,322,220567,5,4,0:1:0:0:
289,75,220733,1,0,0:0:0:0:
415,175,220899,1,2,0:0:0:0:
172,324,221064,1,4,0:1:0:0:
289,75,221230,1,0,0:0:0:0:
290,229,221396,1,2,0:0:0:0:
59,158,221562,69,4,0:1:0:0:
39,123,221644,1,8,0:0:0:0:
37,84,221727,1,8,0:0:0:0:
52,48,221810,1,8,0:0:0:0:
81,23,221893,2,0,P|103:15|127:11,1,48.75,8|0,0:0|0:0,0:0:0:0:
289,75,222059,5,8,0:1:0:0:
309,110,222142,1,8,0:0:0:0:
311,149,222225,1,8,0:3:0:0:
296,185,222307,1,8,0:0:0:0:
267,209,222390,2,0,P|245:217|221:221,1,48.75,2|2,0:3|0:3,0:0:0:0:
69,168,222556,5,2,0:1:0:0:
69,168,222639,1,8,0:0:0:0:
69,168,222722,2,0,L|61:118,1,48.75,2|4,0:3|0:3,0:0:0:0:
31,256,222888,1,2,0:1:0:0:
31,256,222970,1,8,0:0:0:0:
31,256,223053,2,0,L|23:304,1,48.75,8|2,0:3|0:3,0:0:0:0:
106,373,223219,69,4,0:1:0:0:
179,239,223385,1,4,0:1:0:0:
238,229,223468,1,2,0:1:0:0:
298,217,223550,1,2,0:1:0:0:
358,205,223633,1,2,0:1:0:0:
418,194,223716,1,2,0:1:0:0:
275,338,223882,5,2,0:1:0:0:
286,277,223965,1,2,0:1:0:0:
298,217,224048,1,2,0:1:0:0:
310,157,224131,1,2,0:1:0:0:
320,95,224213,2,0,B|330:45|365:16|365:16|383:35|386:58|386:58|363:100|357:150,1,233.999992858887,4|0,0:1|0:0,0:0:0:0:
61,353,224711,5,2,0:1:0:0:
28,289,224794,1,2,0:1:0:0:
78,238,224876,1,2,0:1:0:0:
141,272,224959,1,2,0:1:0:0:
132,342,225042,2,0,P|52:350|78:239,1,233.999992858887,4|0,0:1|0:0,0:0:0:0:
141,272,225457,1,0,0:0:0:0:
198,235,225539,1,4,0:1:0:0:
375,357,225871,70,0,P|406:358|431:349,1,58.4999982147217,4|0,0:1|0:0,0:0:0:0:
512,272,226037,2,0,P|478:273|455:264,1,58.4999982147217
367,188,226202,1,10,0:0:0:0:
336,152,226285,1,0,0:0:0:0:
329,105,226368,1,2,0:0:0:0:
340,59,226451,1,0,0:0:0:0:
373,26,226534,1,8,0:0:0:0:
416,44,226617,1,0,0:0:0:0:
410,90,226700,1,0,0:0:0:0:
364,99,226783,1,0,0:0:0:0:
340,59,226865,1,10,0:0:0:0:
294,49,226948,1,0,0:0:0:0:
247,54,227031,2,0,P|214:62|192:77,1,58.4999982147217,2|0,0:0|0:0,0:0:0:0:
204,248,227197,5,10,0:0:0:0:
241,264,227280,1,0,0:0:0:0:
281,261,227363,2,0,P|308:250|327:223,1,58.4999982147217
246,132,227528,5,10,0:0:0:0:
213,156,227611,1,0,0:0:0:0:
196,192,227694,2,0,P|192:220|205:250,1,58.4999982147217
326,227,227860,69,10,0:0:0:0:
321,186,227943,1,0,0:0:0:0:
299,153,228026,2,0,P|275:135|243:132,1,58.4999982147217,2|0,0:0|0:0,0:0:0:0:
195,328,228191,2,0,B|242:358|291:334|291:334|320:355|346:360|346:360|377:353|402:357,1,219.375008368492,10|0,0:0|0:0,0:0:0:0:
466,285,228523,5,4,0:1:0:0:
484,248,228606,1,0,0:0:0:0:
477,207,228689,1,0,0:0:0:0:
453,173,228771,1,0,0:0:0:0:
415,158,228854,2,0,P|383:158|357:167,1,58.4999982147217,10|0,0:0|0:0,0:0:0:0:
203,271,229020,2,0,P|194:298|194:327,1,58.4999982147217,2|0,0:0|0:0,0:0:0:0:
85,220,229186,5,8,0:0:0:0:
63,185,229269,1,0,0:0:0:0:
63,143,229352,1,0,0:0:0:0:
82,107,229434,1,0,0:0:0:0:
118,88,229517,2,0,P|145:84|176:90,1,58.4999982147217,10|0,0:0|0:0,0:0:0:0:
315,173,229683,1,2,0:0:0:0:
315,173,229766,1,0,0:0:0:0:
315,173,229849,70,0,B|370:189|446:158|469:98|469:98|424:108|389:165|393:233,1,350.99998928833,4|2,0:1|0:0,0:0:0:0:
412,311,230429,1,0,0:0:0:0:
412,311,230512,2,0,P|442:343|513:347,1,116.999996429443,8|0,0:3|0:0,0:0:0:0:
397,232,230760,1,0,0:0:0:0:
397,232,230843,2,0,P|317:223|292:244,1,116.999996429443,8|0,0:0|0:0,0:0:0:0:
83,137,231175,6,0,B|106:60|106:60|100:18,1,116.999996429443,4|0,0:1|0:0,0:0:0:0:
43,248,231506,2,0,P|91:278|171:203,1,175.499994644165,8|0,0:0|0:0,0:0:0:0:
35,234,231838,2,0,P|15:291|42:339,1,116.999996429443,2|0,0:0|0:0,0:0:0:0:
115,372,232086,1,0,0:0:0:0:
115,372,232169,1,8,0:0:0:0:
283,233,232335,1,0,0:0:0:0:
123,115,232501,6,0,P|106:66|239:30,1,233.999992858887,4|8,0:0|0:0,0:0:0:0:
283,233,232998,1,0,0:0:0:0:
473,137,233164,2,0,B|483:77|483:77|471:22,1,116.999996429443,2|0,0:0|0:0,0:0:0:0:
471,22,233412,1,0,0:0:0:0:
471,22,233495,1,8,0:0:0:0:
408,245,233661,1,0,0:0:0:0:
230,68,233827,70,0,B|168:43|111:75|111:75|76:130|101:182,1,233.999992858887,4|8,0:1|0:0,0:0:0:0:
209,331,234324,1,0,0:0:0:0:
209,331,234407,1,0,0:0:0:0:
209,331,234490,2,0,B|272:348|272:348|323:340,1,116.999996429443,2|0,0:0|0:0,0:0:0:0:
448,184,234821,1,8,0:0:0:0:
448,184,234904,1,0,0:0:0:0:
448,184,234987,1,0,0:0:0:0:
254,101,235153,6,0,P|244:60|254:26,2,77.999997619629,12|8|4,0:1|0:3|0:3,0:0:0:0:
448,184,235484,2,0,P|458:143|448:109,2,77.999997619629,8|2|2,0:3|0:3|0:3,0:0:0:0:
293,305,235816,2,0,P|246:317|189:278,1,116.999996429443,4|0,0:1|0:0,0:0:0:0:
175,202,236064,1,0,0:1:0:0:
175,202,236147,1,2,0:1:0:0:
34,329,236313,1,2,0:0:0:0:
254,245,236479,22,0,B|268:167|268:167|261:129,1,116.999996429443,4|0,0:1|0:0,0:0:0:0:
234,48,236727,1,0,0:0:0:0:
234,48,236810,1,10,0:0:0:0:
55,188,236976,1,0,0:0:0:0:
55,188,237059,1,0,0:0:0:0:
55,188,237142,1,10,0:0:0:0:
263,253,237307,1,0,0:0:0:0:
263,253,237390,1,0,0:0:0:0:
263,253,237473,2,0,L|379:235,1,116.999996429443,10|0,0:0|0:0,0:0:0:0:
234,48,237805,6,0,B|115:31|115:31|59:44,1,175.499994644165,10|0,0:0|0:0,0:0:0:0:
238,64,238136,2,0,L|354:46,1,116.999996429443,10|0,0:0|0:0,0:0:0:0:
434,31,238385,1,0,0:0:0:0:
434,31,238468,2,0,P|470:83|455:132,1,116.999996429443,10|0,0:0|0:0,0:0:0:0:
169,203,238799,1,10,0:0:0:0:
164,163,238882,1,0,0:0:0:0:
159,123,238965,1,0,0:0:0:0:
154,83,239048,1,0,0:0:0:0:
150,43,239131,5,12,0:0:0:0:
44,269,239296,1,0,0:0:0:0:
44,269,239379,1,0,0:0:0:0:
44,269,239462,1,10,0:0:0:0:
252,329,239628,1,0,0:0:0:0:
252,329,239711,1,0,0:0:0:0:
252,329,239794,1,10,0:0:0:0:
378,162,239959,1,0,0:0:0:0:
378,162,240042,1,0,0:0:0:0:
378,162,240125,2,0,P|434:151|483:184,1,116.999996429443,10|0,0:0|0:0,0:0:0:0:
252,329,240457,70,0,B|196:353|139:344|139:344|119:327|85:318|85:318|63:342|35:348,1,233.999992858887,10|10,0:0|0:0,0:0:0:0:
298,237,240954,1,0,0:0:0:0:
298,237,241037,1,0,0:0:0:0:
298,237,241120,2,0,B|306:183|306:183|299:161,2,77.999997619629,10|0|0,0:0|0:0|0:3,0:0:0:0:
397,356,241451,2,0,B|389:302|389:302|396:280,2,77.999997619629,10|0|0,0:0|0:0|0:3,0:0:0:0:
349,109,241783,6,0,P|284:91|243:114,1,116.999996429443,4|0,0:1|0:0,0:0:0:0:
133,261,242114,1,10,0:0:0:0:
30,126,242280,1,0,0:0:0:0:
30,126,242363,1,0,0:0:0:0:
30,126,242446,2,0,B|19:64|19:64|31:9,1,116.999996429443,10|0,0:0|0:0,0:0:0:0:
133,261,242777,1,10,0:0:0:0:
161,290,242860,1,0,0:0:0:0:
200,300,242943,1,0,0:0:0:0:
240,295,243026,1,0,0:0:0:0:
275,273,243109,6,0,P|321:259|379:292,1,116.999996429443,10|0,0:0|0:0,0:0:0:0:
412,366,243357,1,0,0:0:0:0:
412,366,243440,1,10,0:0:0:0:
209,220,243606,1,0,0:0:0:0:
209,220,243689,1,0,0:0:0:0:
209,220,243771,2,0,P|196:168|229:118,1,116.999996429443,10|0,0:0|0:0,0:0:0:0:
444,211,244103,1,10,0:0:0:0:
465,250,244186,1,0,0:0:0:0:
466,296,244269,1,0,0:0:0:0:
450,340,244352,1,0,0:0:0:0:
412,366,244434,70,0,B|354:380|354:380|291:368,1,116.999996429443,10|0,0:0|0:0,0:0:0:0:
127,275,244766,1,10,0:0:0:0:
320,184,244932,1,0,0:0:0:0:
320,184,245015,1,0,0:0:0:0:
320,184,245097,2,0,B|316:109|316:109|300:68|300:68|320:8,1,175.499994644165,10|0,0:0|0:0,0:0:0:0:
340,192,245429,2,0,L|324:308,1,116.999996429443,10|0,0:0|0:0,0:0:0:0:
444,73,245760,5,12,0:0:0:0:
474,267,245926,1,0,0:0:0:0:
474,267,246009,1,0,0:0:0:0:
474,267,246092,2,0,L|477:306,3,38.9999988098145,10|0|0|0,0:0|0:0|0:0|0:0,0:0:0:0:
397,315,246341,1,0,0:0:0:0:
397,315,246423,2,0,L|384:372,3,58.4999982147217,0|10|0|0,0:0|0:0|0:0|0:0,0:0:0:0:
359,203,246755,1,10,0:0:0:0:
324,171,246838,1,0,0:0:0:0:
277,165,246921,1,0,0:0:0:0:
232,180,247004,1,0,0:0:0:0:
206,218,247086,38,0,P|198:252|204:281,1,58.4999982147217,12|0,0:0|0:0,0:0:0:0:
363,259,247252,1,0,0:0:0:0:
363,259,247335,2,0,P|366:230|358:202,1,58.4999982147217,0|10,0:0|0:0,0:0:0:0:
299,331,247501,1,0,0:0:0:0:
341,350,247584,1,2,0:0:0:0:
387,349,247667,1,0,0:0:0:0:
428,329,247749,6,0,P|450:304|460:277,1,58.4999982147217,10|0,0:0|0:0,0:0:0:0:
470,158,247915,1,0,0:0:0:0:
470,158,247998,1,0,0:0:0:0:
470,158,248081,2,0,P|469:122|458:96,1,58.4999982147217,10|0,0:0|0:0,0:0:0:0:
297,126,248247,1,0,0:0:0:0:
297,126,248330,2,0,P|298:162|309:188,2,58.4999982147217,0|10|0,0:0|0:0|0:0,0:0:0:0:
363,34,248578,2,0,P|331:16|303:13,1,58.4999982147217
371,141,248744,1,10,0:0:0:0:
405,135,248827,1,0,0:0:0:0:
439,129,248910,1,0,0:0:0:0:
473,123,248992,1,0,0:0:0:0:
507,117,249075,6,0,P|511:86|502:58,1,58.4999982147217,10|0,0:0|0:0,0:0:0:0:
323,67,249241,1,2,0:0:0:0:
306,95,249324,1,0,0:0:0:0:
297,126,249407,2,0,P|298:162|309:188,3,58.4999982147217,10|0|0|0,0:0|0:0|0:0|0:0,0:0:0:0:
192,327,249738,70,0,P|161:336|129:328,1,58.4999982147217,12|0,0:0|0:0,0:0:0:0:
38,212,249904,2,0,P|62:233|94:239,1,58.4999982147217
223,235,250070,1,10,0:0:0:0:
251,214,250153,1,0,0:0:0:0:
265,182,250236,1,2,0:0:0:0:
268,147,250318,1,0,0:0:0:0:
255,114,250401,6,0,P|235:99|197:92,1,58.4999982147217,10|0,0:0|0:0,0:0:0:0:
38,212,250567,1,0,0:0:0:0:
66,232,250650,1,0,0:0:0:0:
101,237,250733,2,0,P|123:227|149:197,1,58.4999982147217,10|0,0:0|0:0,0:0:0:0:
164,24,250899,1,0,0:0:0:0:
112,22,250981,1,0,0:0:0:0:
67,50,251064,6,0,P|58:108|90:161,1,116.999996429443,10|0,0:0|0:0,0:0:0:0:
168,233,251313,1,0,0:0:0:0:
213,244,251396,1,8,0:0:0:0:
258,231,251479,1,0,0:0:0:0:
287,194,251562,1,2,0:0:0:0:
294,148,251644,1,0,0:0:0:0:
273,105,251727,70,0,P|249:85|212:82,3,58.4999982147217,10|0|0|0,0:0|0:0|0:0|0:0,0:0:0:0:
258,231,252059,1,10,0:0:0:0:
307,263,252142,1,0,0:0:0:0:
365,262,252225,1,0,0:0:0:0:
418,239,252307,1,0,0:0:0:0:
447,188,252390,6,0,P|451:164|442:128,1,58.4999982147217,12|0,0:0|0:0,0:0:0:0:
316,140,252556,2,0,P|334:155|370:165,1,58.4999982147217
423,50,252722,2,0,P|400:58|373:84,1,58.4999982147217,10|0,0:0|0:0,0:0:0:0:
365,262,252888,1,2,0:0:0:0:
400,290,252970,1,0,0:0:0:0:
446,295,253053,1,10,0:0:0:0:
487,274,253136,1,0,0:0:0:0:
510,234,253219,1,0,0:0:0:0:
508,188,253302,1,0,0:0:0:0:
481,150,253385,1,10,0:0:0:0:
434,142,253468,1,0,0:0:0:0:
397,114,253550,1,0,0:0:0:0:
382,69,253633,1,0,0:0:0:0:
392,23,253716,6,0,P|416:12|450:13,1,58.4999982147217,10|0,0:0|0:0,0:0:0:0:
397,114,253882,2,0,P|373:103|339:104,1,58.4999982147217
222,168,254048,1,10,0:0:0:0:
196,206,254131,1,0,0:0:0:0:
193,252,254213,1,2,0:0:0:0:
213,293,254296,1,0,0:0:0:0:
251,319,254379,70,0,P|278:328|308:325,3,58.4999982147217,10|0|0|0,0:0|0:0|0:0|0:0,0:0:0:0:
465,239,254711,2,0,P|438:248|408:245,3,58.4999982147217,10|0|0|0,0:0|0:0|0:0|0:0,0:0:0:0:
294,149,255042,5,12,0:0:0:0:
252,127,255125,1,0,0:0:0:0:
205,122,255208,1,0,0:0:0:0:
159,132,255291,1,0,0:0:0:0:
122,161,255374,1,10,0:0:0:0:
75,154,255457,1,0,0:0:0:0:
42,117,255539,1,2,0:0:0:0:
33,71,255622,1,0,0:0:0:0:
45,27,255705,6,0,P|79:21|105:29,1,58.4999982147217,10|0,0:0|0:0,0:0:0:0:
215,214,255871,1,0,0:0:0:0:
215,214,255954,1,0,0:0:0:0:
215,214,256037,2,0,P|206:247|187:267,1,58.4999982147217,10|0,0:0|0:0,0:0:0:0:
61,345,256202,1,0,0:0:0:0:
61,345,256285,1,0,0:0:0:0:
61,345,256368,70,0,B|117:366|117:366|174:353,1,116.999996429443,12|0,0:0|0:0,0:0:0:0:
294,316,256617,1,0,0:0:0:0:
336,295,256700,1,8,0:0:0:0:
369,261,256783,1,8,0:3:0:0:
378,215,256865,1,8,0:3:0:0:
364,170,256948,1,2,0:3:0:0:
331,135,257031,5,8,0:0:0:0:
286,173,257114,1,2,0:3:0:0:
266,228,257197,1,2,0:3:0:0:
275,285,257280,1,8,0:3:0:0:
311,330,257363,1,8,0:0:0:0:
364,353,257446,1,8,0:3:0:0:
422,347,257528,1,8,0:3:0:0:
469,314,257611,1,2,0:3:0:0:
496,262,257694,22,0,B|505:195|505:195|495:144,1,116.999996429443,4|0,0:1|0:0,0:0:0:0:
473,69,257943,1,0,0:0:0:0:
473,69,258026,1,8,0:0:0:0:
384,237,258191,1,2,0:0:0:0:
234,81,258357,1,8,0:0:0:0:
196,54,258440,1,0,0:0:0:0:
150,47,258523,1,0,0:0:0:0:
106,61,258606,1,0,0:0:0:0:
73,94,258689,1,10,0:0:0:0:
59,138,258771,1,0,0:0:0:0:
66,184,258854,1,2,0:0:0:0:
93,222,258937,1,0,0:0:0:0:
137,237,259020,6,0,L|195:223,1,58.4999982147217,12|0,0:0|0:0,0:0:0:0:
127,348,259186,2,0,L|8:329,1,116.999996429443,0|8,0:0|0:0,0:0:0:0:
237,329,259517,1,2,0:0:0:0:
432,232,259683,1,8,0:0:0:0:
451,189,259766,1,0,0:0:0:0:
455,142,259849,1,0,0:0:0:0:
445,96,259932,1,0,0:0:0:0:
419,56,260015,1,10,0:0:0:0:
372,59,260097,1,0,0:0:0:0:
330,81,260180,1,10,0:0:0:0:
303,119,260263,1,0,0:0:0:0:
288,163,260346,6,0,B|284:203|300:225|300:225|290:252|301:283,1,116.999996429443,4|0,0:1|0:0,0:0:0:0:
323,357,260595,1,0,0:0:0:0:
323,357,260678,1,8,0:0:0:0:
368,174,260843,1,2,0:0:0:0:
163,137,261009,2,0,P|131:85|199:2,1,175.499994644165,8|8,0:3|0:3,0:0:0:0:
181,145,261341,2,0,P|125:178|75:166,1,116.999996429443,2|2,0:3|0:0,0:0:0:0:
204,76,261672,70,0,B|256:89|296:60|296:60|329:71|353:88|353:88|388:82|429:100,1,233.999992858887,12|8,0:0|0:0,0:0:0:0:
195,70,262169,1,0,0:0:0:0:
346,212,262335,1,2,0:1:0:0:
364,254,262418,1,2,0:1:0:0:
361,300,262501,1,2,0:1:0:0:
332,337,262584,1,8,0:3:0:0:
287,352,262667,5,4,0:0:0:0:
290,305,262749,1,2,0:3:0:0:
319,268,262832,1,8,0:3:0:0:
364,254,262915,1,2,0:3:0:0:
410,259,262998,6,0,P|461:240|398:119,1,233.999992858887,4|8,0:1|0:0,0:0:0:0:
216,220,263495,1,0,0:0:0:0:
216,220,263578,1,0,0:0:0:0:
216,220,263661,2,0,B|196:283|196:283|203:338,1,116.999996429443,8|0,0:3|0:0,0:0:0:0:
263,155,263992,2,0,P|206:135|155:157,1,116.999996429443,8|2,0:0|0:0,0:0:0:0:
355,352,264324,70,0,P|414:364|457:332,1,116.999996429443,12|0,0:0|0:0,0:0:0:0:
486,258,264573,1,0,0:0:0:0:
486,258,264655,1,8,0:0:0:0:
357,121,264821,1,2,0:0:0:0:
244,263,264987,2,0,P|184:289|137:268,1,116.999996429443,8|0,0:3|0:0,0:0:0:0:
259,83,265318,2,0,P|315:80|356:120,1,116.999996429443,8|2,0:0|0:0,0:0:0:0:
42,161,265650,6,0,P|12:98|131:39,1,233.999992858887,4|8,0:1|0:0,0:0:0:0:
189,215,266147,1,0,0:0:0:0:
342,141,266313,2,0,P|353:88|318:41,1,116.999996429443,8|0,0:3|0:0,0:0:0:0:
242,21,266562,1,0,0:0:0:0:
242,21,266644,1,8,0:0:0:0:
189,215,266810,1,2,0:0:0:0:
88,101,266976,6,0,B|41:91|41:91|11:99,2,77.999997619629,4|8|8,0:0|0:1|0:3,0:0:0:0:
189,215,267307,2,0,B|142:225|142:225|112:217,2,77.999997619629,2|2|8,0:1|0:3|0:3,0:0:0:0:
328,115,267639,2,0,P|373:106|432:141,1,116.999996429443,2|0,0:1|0:0,0:0:0:0:
455,222,267888,1,0,0:0:0:0:
455,222,267970,1,2,0:1:0:0:
208,124,268136,1,0,0:0:0:0:
208,124,268219,1,0,0:0:0:0:
208,124,268302,70,0,L|195:64,1,58.4999982147217,4|0,0:1|0:0,0:0:0:0:
278,218,268468,2,0,L|261:334,1,116.999996429443,0|8,0:0|0:0,0:0:0:0:
386,160,268799,1,0,0:0:0:0:
386,160,268882,1,0,0:0:0:0:
386,160,268965,2,0,P|443:148|495:181,1,116.999996429443,8|0,0:3|0:0,0:0:0:0:
332,360,269296,2,0,P|286:367|260:352,2,77.999997619629,10|0|0,0:0|0:0|0:0,0:0:0:0:
188,253,269628,6,0,P|131:248|86:285,1,116.999996429443,10|0,0:0|0:0,0:0:0:0:
46,360,269876,1,0,0:0:0:0:
46,360,269959,1,8,0:0:0:0:
161,131,270125,1,0,0:0:0:0:
161,131,270208,1,0,0:0:0:0:
161,131,270291,2,0,P|122:76|30:108,1,175.499994644165,10|0,0:0|0:0,0:0:0:0:
161,153,270622,2,0,P|207:182|262:162,1,116.999996429443,10|0,0:0|0:0,0:0:0:0:
429,14,270954,6,0,P|378:57|472:152,1,233.999992858887,12|8,0:0|0:0,0:0:0:0:
467,153,271368,1,0,0:0:0:0:
467,153,271451,1,0,0:0:0:0:
259,40,271617,2,0,P|219:34|185:46,2,77.999997619629,8|0|0,0:3|0:3|0:3,0:0:0:0:
386,280,271948,2,0,P|350:288|310:279,2,77.999997619629,10|0|8,0:0|0:0|0:0,0:0:0:0:
196,190,272280,70,0,B|130:184|130:184|26:226,1,175.499994644165,4|0,0:0|0:0,0:0:0:0:
203,213,272611,2,0,L|319:204,1,116.999996429443,8|0,0:0|0:0,0:0:0:0:
157,298,272943,1,8,0:0:0:0:
120,269,273026,1,8,0:3:0:0:
106,224,273109,1,8,0:3:0:0:
113,178,273191,1,2,0:3:0:0:
143,142,273274,2,0,P|163:83|140:35,1,116.999996429443,12|0,0:0|0:0,0:0:0:0:
27,155,273523,1,0,0:0:0:0:
27,155,273606,6,0,B|20:220|20:220|35:276,1,116.999996429443,4|0,0:1|0:0,0:0:0:0:
161,360,273937,1,8,0:0:0:0:
291,240,274103,1,0,0:0:0:0:
291,240,274186,1,0,0:0:0:0:
291,240,274269,2,0,P|353:222|407:251,1,116.999996429443,8|0,0:3|0:0,0:0:0:0:
161,360,274600,2,0,L|42:369,1,116.999996429443,10|0,0:0|0:0,0:0:0:0:
291,240,274932,6,0,P|308:179|279:135,1,116.999996429443,2|0,0:0|0:0,0:0:0:0:
205,103,275180,1,0,0:0:0:0:
205,103,275263,1,8,0:0:0:0:
281,258,275429,1,0,0:0:0:0:
455,170,275595,2,0,B|477:91|477:91|455:-2,1,175.499994644165,4|0,0:0|0:0,0:0:0:0:
433,182,275926,2,0,L|446:299,1,116.999996429443,10|0,0:0|0:0,0:0:0:0:
323,93,276258,21,4,0:1:0:0:
288,87,276341,1,0,0:0:0:0:
253,81,276423,1,0,0:0:0:0:
218,75,276506,1,0,0:0:0:0:
183,69,276589,2,0,L|125:60,1,58.4999982147217,10|0,0:0|0:0,0:0:0:0:
233,219,276755,5,10,0:0:0:0:
280,210,276838,1,0,0:0:0:0:
328,202,276921,1,0,0:0:0:0:
376,194,277004,1,0,0:0:0:0:
424,186,277086,2,0,L|503:173,1,58.4999982147217,12|0,0:0|0:0,0:0:0:0:
330,348,277252,5,4,0:1:0:0:
271,342,277335,1,0,0:0:0:0:
212,336,277418,1,0,0:0:0:0:
153,331,277501,1,0,0:0:0:0:
94,325,277584,6,0,P|63:262|86:213,2,126.749994197846,4|0|8,0:1|0:0|0:0,0:0:0:0:
418,132,278081,1,2,0:0:0:0:
330,348,278247,5,2,0:0:0:0:
185,72,278412,1,8,0:0:0:0:
185,72,278495,1,0,0:1:0:0:
185,72,278578,1,8,0:3:0:0:
94,325,278744,1,2,0:3:0:0:
475,177,278910,22,0,P|405:60|377:194,1,350.99998928833,4|0,0:1|0:0,0:0:0:0:
377,194,279490,1,0,0:0:0:0:
377,194,279573,1,4,0:1:0:0:
90,57,279904,1,4,0:1:0:0:
297,357,280236,69,4,0:1:0:0:
370,378,280346,1,0,0:0:0:0:
440,348,280457,1,0,0:0:0:0:
477,281,280567,5,0,0:0:0:0:
462,206,280678,1,0,0:0:0:0:
404,156,280788,1,0,0:0:0:0:
327,155,280899,6,0,B|286:160|286:160|253:175,2,77.999997619629
183,291,281230,2,0,B|141:286|141:286|108:271,2,77.999997619629,8|8|0,0:0|0:0|0:1,0:0:0:0:
329,282,281562,69,4,0:1:0:0:
86,152,281727,2,0,B|64:123|61:94|61:94|74:66|77:13|77:13|89:31|97:52|97:52|87:71|90:98,1,233.999992858887
86,152,282142,1,0,0:0:0:0:
86,152,282225,1,8,0:0:0:0:
215,72,282390,2,0,P|254:56|321:88,1,116.999996429443,2|8,0:1|0:0,0:0:0:0:
378,221,282722,1,0,0:0:0:0:
378,221,282805,1,0,0:0:0:0:
378,221,282888,21,8,0:0:0:0:
487,122,283053,2,0,B|495:51|495:51|475:11,1,116.999996429443,2|0,0:1|0:0,0:0:0:0:
378,221,283385,1,0,0:0:0:0:
421,360,283550,1,2,0:0:0:0:
290,324,283716,1,0,0:0:0:0:
494,208,283882,1,10,0:0:0:0:
421,360,284048,1,2,0:0:0:0:
259,158,284213,70,0,P|184:139|154:265,1,233.999992858887,4|0,0:1|0:0,0:0:0:0:
343,136,284711,1,0,0:0:0:0:
343,136,284794,1,0,0:0:0:0:
343,136,284876,2,0,P|400:128|450:166,1,116.999996429443,8|0,0:0|0:0,0:0:0:0:
206,208,285208,1,2,0:1:0:0:
146,39,285374,1,0,0:0:0:0:
345,237,285539,21,4,0:1:0:0:
174,125,285705,1,0,0:0:0:0:
174,125,285788,1,0,0:0:0:0:
174,125,285871,1,8,0:3:0:0:
88,318,286037,1,8,0:3:0:0:
260,185,286202,1,2,0:3:0:0:
22,145,286368,1,8,0:3:0:0:
194,352,286534,1,8,0:3:0:0:
350,157,286700,1,2,0:3:0:0:
55,288,286865,69,4,0:1:0:0:
171,152,287031,2,0,P|186:93|55:66,1,233.999992858887,8|0,0:0|0:0,0:0:0:0:
55,288,287528,1,2,0:1:0:0:
61,308,287860,1,2,0:0:0:0:
219,233,288026,1,8,0:0:0:0:
332,364,288191,21,4,0:1:0:0:
457,182,288357,1,8,0:3:0:0:
483,350,288523,1,8,0:3:0:0:
297,151,288689,1,2,0:3:0:0:
492,266,288854,1,2,0:3:0:0:
247,350,289020,1,8,0:3:0:0:
395,142,289186,1,8,0:3:0:0:
414,367,289352,1,10,0:0:0:0:
164,163,289517,6,0,P|149:114|173:67,1,107.25000327301,4|0,0:1|0:0,0:0:0:0:
372,230,289849,2,0,P|336:268|284:270,1,107.25000327301,4|0,0:1|0:0,0:0:0:0:
366,141,290097,1,0,0:0:0:0:
366,141,290180,2,0,B|426:152|426:152|468:178,1,107.25000327301,4|0,0:1|0:0,0:0:0:0:
272,32,290512,2,0,B|212:43|212:43|170:69,1,107.25000327301,4|0,0:1|0:0,0:0:0:0:
54,335,290843,5,4,0:1:0:0:
16,273,290954,1,0,0:0:0:0:
27,202,291064,1,0,0:0:0:0:
85,159,291175,5,4,0:1:0:0:
156,159,291285,1,0,0:0:0:0:
207,208,291396,1,0,0:0:0:0:
245,268,291506,2,0,P|305:284|349:263,1,107.25000327301,4|2,0:1|0:1,0:0:0:0:
399,196,291755,1,0,0:0:0:0:
399,196,291838,2,0,B|384:126|384:126|363:90,1,107.25000327301,4|2,0:1|0:1,0:0:0:0:
118,257,292169,6,0,L|97:366,1,107.25000327301,4|0,0:1|0:0,0:0:0:0:
419,301,292501,2,0,L|399:196,1,107.25000327301,4|0,0:1|0:0,0:0:0:0:
296,275,292749,1,0,0:0:0:0:
296,275,292832,2,0,L|275:380,1,107.25000327301,4|0,0:1|0:0,0:0:0:0:
456,155,293164,2,0,P|412:126|361:135,1,107.25000327301,4|0,0:1|0:0,0:0:0:0:
114,259,293495,6,0,P|154:264|210:222,1,107.25000327301,4|2,0:1|0:1,0:0:0:0:
262,71,293827,1,4,0:1:0:0:
262,71,293910,1,0,0:0:0:0:
262,71,293992,1,0,0:0:0:0:
71,38,294158,2,0,B|127:24|127:24|177:33,1,107.25000327301,4|2,0:1|0:1,0:0:0:0:
341,212,294490,1,4,0:1:0:0:
477,49,294655,1,2,0:1:0:0:
286,158,294821,22,0,P|265:221|374:281,1,214.500006546021,4|8,0:1|0:0,0:0:0:0:
459,171,295318,1,0,0:0:0:0:
459,171,295401,1,0,0:0:0:0:
459,171,295484,1,4,0:0:0:0:
479,308,295650,1,0,0:0:0:0:
459,171,295816,2,0,L|483:62,1,107.25000327301,8|0,0:0|0:0,0:0:0:0:
341,362,296147,70,0,B|279:368|236:324|236:324|183:318|143:351,1,214.500006546021,4|8,0:1|0:0,0:0:0:0:
17,241,296644,1,0,0:0:0:0:
17,241,296727,1,0,0:0:0:0:
17,241,296810,1,4,0:0:0:0:
99,85,296976,1,0,0:0:0:0:
106,182,297142,1,8,0:0:0:0:
26,35,297307,1,0,0:0:0:0:
238,64,297473,22,0,B|283:60|319:82|319:82|364:74|364:74|405:97|446:89,1,214.500006546021,4|2,0:1|0:0,0:0:0:0:
489,236,297970,1,0,0:0:0:0:
489,236,298053,1,0,0:0:0:0:
489,236,298136,2,0,B|497:291|497:291|480:345,1,107.25000327301,4|0,0:0|0:0,0:0:0:0:
295,191,298468,1,8,0:0:0:0:
445,89,298633,1,0,0:0:0:0:
325,337,298799,70,0,P|279:350|229:324,1,107.25000327301,4|0,0:1|0:0,0:0:0:0:
198,247,299048,1,0,0:0:0:0:
198,247,299131,1,8,0:0:0:0:
62,363,299296,1,0,0:0:0:0:
342,323,299462,2,0,B|357:262|357:262|350:213,1,107.25000327301,2|8,0:1|0:3,0:0:0:0:
160,39,299794,1,8,0:3:0:0:
77,236,299959,1,2,0:3:0:0:
328,79,300125,38,0,P|379:62|428:80,1,107.25000327301,4|0,0:1|0:0,0:0:0:0:
126,172,300457,2,0,P|75:155|26:173,1,107.25000327301,4|0,0:1|0:0,0:0:0:0:
183,241,300705,1,0,0:0:0:0:
183,241,300788,2,0,B|246:229|246:229|279:198,1,107.25000327301,4|0,0:1|0:0,0:0:0:0:
216,59,301120,1,4,0:1:0:0:
216,59,301202,1,0,0:1:0:0:
216,59,301285,1,0,0:1:0:0:
52,221,301451,6,0,P|40:274|65:320,1,107.25000327301,4|0,0:1|0:0,0:0:0:0:
339,240,301783,2,0,P|349:187|325:141,1,107.25000327301,4|0,0:1|0:0,0:0:0:0:
153,40,302114,2,0,B|88:26|88:26|45:33,1,107.25000327301,4|0,0:1|0:0,0:0:0:0:
172,120,302363,1,0,0:0:0:0:
172,120,302446,2,0,L|279:103,1,107.25000327301,4|0,0:1|0:0,0:0:0:0:
370,256,302777,6,0,P|352:305|373:353,1,107.25000327301,4|0,0:1|0:0,0:0:0:0:
497,149,303109,2,0,P|463:108|411:103,1,107.25000327301,4|0,0:1|0:0,0:0:0:0:
218,283,303440,2,0,P|177:315|125:311,1,107.25000327301,4|0,0:1|0:0,0:0:0:0:
84,35,303771,2,0,P|135:26|178:56,1,107.25000327301,4|0,0:1|0:0,0:0:0:0:
195,136,304020,1,0,0:0:0:0:
195,136,304103,5,2,0:1:0:0:
408,42,304269,1,8,0:0:0:0:
278,37,304434,1,8,0:3:0:0:
463,178,304600,1,8,0:3:0:0:
273,355,304766,1,2,0:3:0:0:
326,148,304932,1,8,0:3:0:0:
481,353,305097,1,2,0:3:0:0:
108,298,305263,1,8,0:3:0:0:
409,103,305429,37,4,0:1:0:0:
256,192,305512,12,0,310733,0:0:0:0:
