osu file format v14

[General]
AudioFilename: audio.mp3
AudioLeadIn: 0
PreviewTime: 134039
Countdown: 0
SampleSet: Soft
StackLeniency: 0.7
Mode: 0
LetterboxInBreaks: 0
WidescreenStoryboard: 0

[Editor]
Bookmarks: 1177,10777,20377,39577,58777,77977,97177,116377,135577,145177,154777,171277,173977,193177,212377,221977,231577,250777,269977,289177,303577,308377,313177
DistanceSpacing: 0.9
BeatDivisor: 8
GridSize: 4
TimelineZoom: 4.199999

[Metadata]
Title:lullaby (feat. KIRA) (uet Remix)
TitleUnicode:ララバイ (feat. KIRA) (uet Remix)
Artist:HISATOMI
ArtistUnicode:HISATOMI
Creator:she luv lando
Version:one more before i go...
Source:
Tags:ネッタイヤ NETTAIYA Hardcore Teknology Hardtek doujin JUNGLETEK jungle breakcore electronic Japanese -doodle dooe Elusaka Saka
BeatmapID:3099626
BeatmapSetID:1513975

[Difficulty]
HPDrainRate:6
CircleSize:4
OverallDifficulty:9.8
ApproachRate:9.7
SliderMultiplier:1.4
SliderTickRate:1

[Events]
//Background and Video events
0,0,"88333635_p0.jpg",0,0
//Break Periods
2,136226,139582
2,141045,144382
//Storyboard Layer 0 (Background)
//Storyboard Layer 1 (Fail)
//Storyboard Layer 2 (Pass)
//Storyboard Layer 3 (Foreground)
//Storyboard Layer 4 (Overlay)
//Storyboard Sound Samples

[TimingPoints]
577,300,4,2,1,60,1,0
577,-243.90243902439,4,2,1,60,0,0
1177,-82.6446280991736,4,2,1,60,0,0
1327,-123.456790123457,4,2,1,60,0,0
1477,-123.456790123457,4,2,1,60,0,0
1627,-82.6446280991736,4,2,1,60,0,0
2077,-123.456790123457,4,2,1,60,0,0
2227,-123.456790123457,4,2,1,60,0,0
2377,-82.6446280991736,4,2,1,60,0,0
2677,-82.6446280991736,4,2,1,60,0,0
2977,-82.6446280991736,4,2,1,60,0,0
3277,-82.6446280991736,4,2,1,60,0,0
3727,-82.6446280991736,4,2,1,60,0,0
4027,-82.6446280991736,4,2,1,60,0,0
4327,-82.6446280991736,4,2,1,60,0,0
4477,-82.6446280991736,4,2,1,60,0,0
4627,-82.6446280991736,4,2,1,60,0,0
4777,-82.6446280991736,4,2,1,60,0,0
5077,-82.6446280991736,4,2,1,60,0,0
5377,-82.6446280991736,4,2,1,60,0,0
5977,-62.111801242236,4,2,1,70,0,0
6127,-62.111801242236,4,2,1,70,0,0
6277,-62.111801242236,4,2,1,70,0,0
6877,-62.111801242236,4,2,1,70,0,0
7027,-62.111801242236,4,2,1,70,0,0
7177,-62.111801242236,4,2,1,70,0,0
7477,-62.111801242236,4,2,1,70,0,0
7777,-62.111801242236,4,2,1,70,0,0
8077,-62.111801242236,4,2,1,70,0,0
8527,-62.111801242236,4,2,1,70,0,0
8827,-62.111801242236,4,2,1,70,0,0
9127,-62.111801242236,4,2,1,70,0,0
9277,-62.111801242236,4,2,1,70,0,0
9427,-62.111801242236,4,2,1,70,0,0
9577,-62.111801242236,4,2,1,70,0,0
9877,-62.111801242236,4,2,1,70,0,0
10177,-62.111801242236,4,2,1,70,0,0
11077,-123.456790123457,4,2,1,70,0,0
11227,-123.456790123457,4,2,1,70,0,0
11377,-62.111801242236,4,2,1,70,0,0
11527,-62.111801242236,4,2,1,70,0,0
11677,-123.456790123457,4,2,1,70,0,0
11827,-62.111801242236,4,2,1,70,0,0
11977,-62.111801242236,4,2,1,70,0,0
12277,-62.111801242236,4,2,1,70,0,0
12427,-62.111801242236,4,2,1,70,0,0
12877,-82.6446280991736,4,2,1,70,0,0
13027,-82.6446280991736,4,2,1,70,0,0
13177,-82.6446280991736,4,2,1,70,0,0
13327,-62.111801242236,4,2,1,70,0,0
13477,-62.111801242236,4,2,1,70,0,0
14077,-62.111801242236,4,2,1,70,0,0
14377,-62.111801242236,4,2,1,70,0,0
14527,-82.6446280991736,4,2,1,70,0,0
14677,-82.6446280991736,4,2,1,70,0,0
14977,-82.6446280991736,4,2,1,70,0,0
15277,-82.6446280991736,4,2,1,70,0,0
15577,-82.6446280991736,4,2,1,70,0,0
17977,-476.190476190476,4,2,1,70,0,0
19177,-82.6446280991736,4,2,1,10,0,0
19327,-82.6446280991736,4,2,1,15,0,0
19477,-82.6446280991736,4,2,1,20,0,0
19627,-82.6446280991736,4,2,1,25,0,0
19777,-55.2486187845304,4,2,1,30,0,0
19852,-55.2486187845304,4,2,1,35,0,0
19927,-55.2486187845304,4,2,1,40,0,0
20002,-55.2486187845304,4,2,1,45,0,0
20077,-55.2486187845304,4,2,1,50,0,0
20152,-55.2486187845304,4,2,1,55,0,0
20227,-55.2486187845304,4,2,1,60,0,0
20302,-55.2486187845304,4,2,1,65,0,0
20377,-45.2488687782805,4,2,1,70,0,0
20527,-45.2488687782805,4,2,1,70,0,0
20977,-38.3141762452107,4,2,1,70,0,0
21277,-45.2488687782805,4,2,1,70,0,0
21427,-45.2488687782805,4,2,1,70,0,0
21727,-45.2488687782805,4,2,1,70,0,0
21877,-45.2488687782805,4,2,1,70,0,0
22027,-45.2488687782805,4,2,1,70,0,0
22177,-38.3141762452107,4,2,1,70,0,0
22402,-38.3141762452107,4,2,1,5,0,0
22477,-38.3141762452107,4,2,1,70,0,0
23077,-38.3141762452107,4,2,1,70,0,0
23227,-45.2488687782805,4,2,1,70,0,0
23377,-45.2488687782805,4,2,1,70,0,0
23677,-45.2488687782805,4,2,1,70,0,0
23827,-45.2488687782805,4,2,1,70,0,0
24127,-45.2488687782805,4,2,1,70,0,0
24277,-45.2488687782805,4,2,1,70,0,0
24427,-45.2488687782805,4,2,1,70,0,0
24577,-35.5871886120996,4,2,1,70,0,0
24802,-35.5871886120996,4,2,1,70,0,0
24877,-38.3141762452107,4,2,1,70,0,0
25177,-45.2488687782805,4,2,1,70,0,0
25327,-45.2488687782805,4,2,1,70,0,0
25477,-45.2488687782805,4,2,1,70,0,0
26227,-45.2488687782805,4,2,1,70,0,0
26377,-45.2488687782805,4,2,1,70,0,0
26527,-45.2488687782805,4,2,1,70,0,0
26677,-38.3141762452107,4,2,1,70,0,0
26827,-38.3141762452107,4,2,1,70,0,0
26977,-35.5871886120996,4,2,1,70,0,0
27277,-35.5871886120996,4,2,1,70,0,0
27577,-45.2488687782805,4,2,1,70,0,0
27727,-45.2488687782805,4,2,1,70,0,0
28027,-45.2488687782805,4,2,1,70,0,0
28627,-38.3141762452107,4,2,1,70,0,0
28777,-38.3141762452107,4,2,1,70,0,0
28927,-38.3141762452107,4,2,1,70,0,0
29077,-38.3141762452107,4,2,1,70,0,0
29527,-82.6446280991736,4,2,1,70,0,0
29677,-38.3141762452107,4,2,1,70,0,0
29977,-33.2225913621262,4,2,1,70,0,0
30277,-45.2488687782805,4,2,1,70,0,0
30427,-45.2488687782805,4,2,1,70,0,0
30727,-45.2488687782805,4,2,1,70,0,0
30877,-45.2488687782805,4,2,1,70,0,0
31027,-38.3141762452107,4,2,1,70,0,0
31177,-38.3141762452107,4,2,1,70,0,0
31327,-38.3141762452107,4,2,1,70,0,0
31477,-38.3141762452107,4,2,1,70,0,0
31777,-45.2488687782805,4,2,1,70,0,0
31927,-38.3141762452107,4,2,1,70,0,0
32077,-38.3141762452107,4,2,1,70,0,0
32377,-55.2486187845304,4,2,1,70,0,0
32527,-55.2486187845304,4,2,1,70,0,0
32677,-45.2488687782805,4,2,1,70,0,0
32827,-45.2488687782805,4,2,1,70,0,0
32977,-38.3141762452107,4,2,1,70,0,0
33127,-38.3141762452107,4,2,1,70,0,0
33277,-45.2488687782805,4,2,1,70,0,0
33427,-45.2488687782805,4,2,1,70,0,0
33577,-45.2488687782805,4,2,1,70,0,0
33877,-35.5871886120996,4,2,1,70,0,0
34177,-35.5871886120996,4,2,1,70,0,0
34327,-35.5871886120996,4,2,1,70,0,0
34777,-45.2488687782805,4,2,1,70,0,0
34927,-45.2488687782805,4,2,1,70,0,0
35227,-38.3141762452107,4,2,1,70,0,0
35527,-82.6446280991736,4,2,1,70,0,0
35677,-45.2488687782805,4,2,1,70,0,0
35827,-38.3141762452107,4,2,1,70,0,0
35977,-38.3141762452107,4,2,1,70,0,0
36127,-45.2488687782805,4,2,1,70,0,0
36277,-35.5871886120996,4,2,1,70,0,0
36577,-45.2488687782805,4,2,1,70,0,0
36727,-45.2488687782805,4,2,1,70,0,0
36877,-38.3141762452107,4,2,1,70,0,0
37027,-38.3141762452107,4,2,1,70,0,0
37177,-38.3141762452107,4,2,1,70,0,0
37627,-38.3141762452107,4,2,1,70,0,0
37777,-55.2486187845304,4,2,1,70,0,0
37927,-55.2486187845304,4,2,1,70,0,0
38077,-55.2486187845304,4,2,1,70,0,0
38677,-55.2486187845304,4,2,1,70,0,0
38827,-55.2486187845304,4,2,1,70,0,0
38977,-70.9219858156028,4,2,1,70,0,0
39127,-38.3141762452107,4,2,1,70,0,0
39277,-70.9219858156028,4,2,1,70,0,0
39427,-70.9219858156028,4,2,1,70,0,0
40777,-55.2486187845304,4,2,1,70,0,0
40927,-55.2486187845304,4,2,1,70,0,0
41077,-55.2486187845304,4,2,1,70,0,0
41227,-55.2486187845304,4,2,1,70,0,0
41377,-55.2486187845304,4,2,1,70,0,0
41677,-70.9219858156028,4,2,1,70,0,0
41827,-55.2486187845304,4,2,1,70,0,0
41977,-45.2488687782805,4,2,1,70,0,0
42127,-45.2488687782805,4,2,1,70,0,0
42427,-45.2488687782805,4,2,1,70,0,0
42727,-55.2486187845304,4,2,1,70,0,0
42877,-45.2488687782805,4,2,1,70,0,0
43027,-45.2488687782805,4,2,1,70,0,0
43177,-45.2488687782805,4,2,1,70,0,0
43477,-45.2488687782805,4,2,1,70,0,0
43927,-45.2488687782805,4,2,1,70,0,0
44077,-38.3141762452107,4,2,1,70,0,0
44377,-38.3141762452107,4,2,1,70,0,0
44527,-45.2488687782805,4,2,1,70,0,0
44677,-45.2488687782805,4,2,1,70,0,0
45577,-38.3141762452107,4,2,1,70,0,0
45727,-38.3141762452107,4,2,1,70,0,0
45877,-45.2488687782805,4,2,1,70,0,0
46027,-45.2488687782805,4,2,1,70,0,0
46177,-45.2488687782805,4,2,1,70,0,0
46327,-45.2488687782805,4,2,1,70,0,0
46552,-45.2488687782805,4,2,1,70,0,0
46777,-45.2488687782805,4,2,1,70,0,0
47227,-45.2488687782805,4,2,1,70,0,0
47377,-45.2488687782805,4,2,1,70,0,0
48127,-45.2488687782805,4,2,1,70,0,0
48277,-45.2488687782805,4,2,1,70,0,0
48427,-45.2488687782805,4,2,1,70,0,0
48577,-45.2488687782805,4,2,1,70,0,0
48727,-82.6446280991736,4,2,1,70,0,0
48877,-38.3141762452107,4,2,1,70,0,0
49177,-45.2488687782805,4,2,1,70,0,0
49327,-45.2488687782805,4,2,1,70,0,0
50227,-45.2488687782805,4,2,1,70,0,0
50377,-45.2488687782805,4,2,1,70,0,0
50827,-45.2488687782805,4,2,1,70,0,0
50977,-62.111801242236,4,2,1,70,0,0
51127,-62.111801242236,4,2,1,70,0,0
51277,-62.111801242236,4,2,1,70,0,0
52777,-45.2488687782805,4,2,1,70,0,0
52927,-62.111801242236,4,2,1,70,0,0
53077,-45.2488687782805,4,2,1,70,0,0
53227,-62.111801242236,4,2,1,70,0,0
53377,-45.2488687782805,4,2,1,70,0,0
53527,-45.2488687782805,4,2,1,70,0,0
53677,-62.111801242236,4,2,1,70,0,0
53827,-62.111801242236,4,2,1,70,0,0
53977,-62.111801242236,4,2,1,70,0,0
56377,-82.6446280991736,4,2,1,60,0,0
56677,-82.6446280991736,4,2,1,60,0,0
56977,-82.6446280991736,4,2,1,60,0,0
57277,-82.6446280991736,4,2,1,60,0,0
57577,-82.6446280991736,4,2,1,10,0,0
57727,-82.6446280991736,4,2,1,15,0,0
57877,-82.6446280991736,4,2,1,20,0,0
58027,-82.6446280991736,4,2,1,24,0,0
58177,-82.6446280991736,4,2,1,25,0,0
58252,-82.6446280991736,4,2,1,30,0,0
58327,-82.6446280991736,4,2,1,35,0,0
58402,-82.6446280991736,4,2,1,40,0,0
58477,-82.6446280991736,4,2,1,45,0,0
58552,-82.6446280991736,4,2,1,50,0,0
58627,-82.6446280991736,4,2,1,55,0,0
58702,-82.6446280991736,4,2,1,60,0,0
58777,-45.2488687782805,4,2,1,70,0,0
58852,-45.2488687782805,4,2,1,5,0,0
58927,-45.2488687782805,4,2,1,70,0,0
59152,-45.2488687782805,4,2,1,5,0,0
59227,-45.2488687782805,4,2,1,70,0,0
59752,-45.2488687782805,4,2,1,5,0,0
59827,-45.2488687782805,4,2,1,70,0,0
59902,-45.2488687782805,4,2,1,5,0,0
59977,-45.2488687782805,4,2,1,70,0,0
60052,-45.2488687782805,4,2,1,5,0,0
60127,-45.2488687782805,4,2,1,70,0,0
60202,-45.2488687782805,4,2,1,5,0,0
60277,-45.2488687782805,4,2,1,70,0,0
60352,-45.2488687782805,4,2,1,5,0,0
60427,-45.2488687782805,4,2,1,70,0,0
60652,-45.2488687782805,4,2,1,70,0,0
60952,-45.2488687782805,4,2,1,5,0,0
61027,-45.2488687782805,4,2,1,70,0,0
61552,-45.2488687782805,4,2,1,5,0,0
61627,-45.2488687782805,4,2,1,70,0,0
61702,-45.2488687782805,4,2,1,5,0,0
61777,-45.2488687782805,4,2,1,70,0,0
62152,-45.2488687782805,4,2,1,5,0,0
62227,-45.2488687782805,4,2,1,70,0,0
62302,-45.2488687782805,4,2,1,5,0,0
62377,-45.2488687782805,4,2,1,70,0,0
62902,-45.2488687782805,4,2,1,70,0,0
62977,-38.3141762452107,4,2,1,70,0,0
63202,-38.3141762452107,4,2,1,5,0,0
63277,-45.2488687782805,4,2,1,70,0,0
63352,-45.2488687782805,4,2,1,5,0,0
63427,-45.2488687782805,4,2,1,70,0,0
63502,-45.2488687782805,4,2,1,5,0,0
63577,-45.2488687782805,4,2,1,70,0,0
63652,-45.2488687782805,4,2,1,5,0,0
63727,-45.2488687782805,4,2,1,70,0,0
63952,-45.2488687782805,4,2,1,5,0,0
64027,-45.2488687782805,4,2,1,70,0,0
64252,-45.2488687782805,4,2,1,5,0,0
64327,-45.2488687782805,4,2,1,70,0,0
64402,-45.2488687782805,4,2,1,5,0,0
64477,-45.2488687782805,4,2,1,70,0,0
64702,-45.2488687782805,4,2,1,5,0,0
64777,-45.2488687782805,4,2,1,70,0,0
64852,-45.2488687782805,4,2,1,5,0,0
64927,-45.2488687782805,4,2,1,70,0,0
65002,-45.2488687782805,4,2,1,5,0,0
65077,-45.2488687782805,4,2,1,70,0,0
65152,-45.2488687782805,4,2,1,5,0,0
65227,-45.2488687782805,4,2,1,70,0,0
65452,-45.2488687782805,4,2,1,70,0,0
65752,-45.2488687782805,4,2,1,5,0,0
65827,-45.2488687782805,4,2,1,70,0,0
66427,-45.2488687782805,4,2,1,70,0,0
66502,-45.2488687782805,4,2,1,5,0,0
66577,-45.2488687782805,4,2,1,70,0,0
66952,-45.2488687782805,4,2,1,5,0,0
67027,-45.2488687782805,4,2,1,70,0,0
67102,-45.2488687782805,4,2,1,5,0,0
67177,-45.2488687782805,4,2,1,70,0,0
67252,-45.2488687782805,4,2,1,5,0,0
67327,-45.2488687782805,4,2,1,70,0,0
67477,-38.3141762452107,4,2,1,70,0,0
67552,-38.3141762452107,4,2,1,5,0,0
67627,-38.3141762452107,4,2,1,70,0,0
67702,-38.3141762452107,4,2,1,5,0,0
67777,-45.2488687782805,4,2,1,70,0,0
67852,-45.2488687782805,4,2,1,5,0,0
67927,-45.2488687782805,4,2,1,70,0,0
68002,-45.2488687782805,4,2,1,5,0,0
68077,-45.2488687782805,4,2,1,70,0,0
68452,-45.2488687782805,4,2,1,5,0,0
68527,-45.2488687782805,4,2,1,70,0,0
68752,-45.2488687782805,4,2,1,5,0,0
68827,-45.2488687782805,4,2,1,70,0,0
69352,-45.2488687782805,4,2,1,5,0,0
69427,-45.2488687782805,4,2,1,70,0,0
69577,-35.5871886120996,4,2,1,70,0,0
69802,-38.3141762452107,4,2,1,70,0,0
69877,-45.2488687782805,4,2,1,70,0,0
69952,-45.2488687782805,4,2,1,5,0,0
70027,-45.2488687782805,4,2,1,70,0,0
70252,-45.2488687782805,4,2,1,70,0,0
71227,-45.2488687782805,4,2,1,70,0,0
71302,-45.2488687782805,4,2,1,5,0,0
71377,-45.2488687782805,4,2,1,70,0,0
71527,-41.49377593361,4,2,1,70,0,0
71752,-41.49377593361,4,2,1,5,0,0
71827,-45.2488687782805,4,2,1,70,0,0
71902,-45.2488687782805,4,2,1,5,0,0
71977,-45.2488687782805,4,2,1,70,0,0
72202,-45.2488687782805,4,2,1,5,0,0
72277,-45.2488687782805,4,2,1,70,0,0
72352,-45.2488687782805,4,2,1,5,0,0
72427,-45.2488687782805,4,2,1,70,0,0
72502,-45.2488687782805,4,2,1,5,0,0
72577,-38.3141762452107,4,2,1,70,0,0
72802,-38.3141762452107,4,2,1,5,0,0
72877,-38.3141762452107,4,2,1,70,0,0
72952,-38.3141762452107,4,2,1,5,0,0
73027,-38.3141762452107,4,2,1,70,0,0
73102,-38.3141762452107,4,2,1,5,0,0
73177,-32.1543408360129,4,2,1,70,0,0
73401,-32.1543408360129,4,2,1,5,0,0
73477,-38.3141762452107,4,2,1,70,0,0
73552,-38.3141762452107,4,2,1,5,0,0
73627,-45.2488687782805,4,2,1,70,0,0
73702,-45.2488687782805,4,2,1,5,0,0
73777,-35.5871886120996,4,2,1,70,0,0
74001,-35.5871886120996,4,2,1,5,0,0
74077,-35.5871886120996,4,2,1,70,0,0
74227,-45.2488687782805,4,2,1,70,0,0
74302,-45.2488687782805,4,2,1,5,0,0
74377,-45.2488687782805,4,2,1,70,0,0
74752,-45.2488687782805,4,2,1,5,0,0
74827,-45.2488687782805,4,2,1,70,0,0
74902,-45.2488687782805,4,2,1,5,0,0
74977,-45.2488687782805,4,2,1,70,0,0
75202,-45.2488687782805,4,2,1,5,0,0
75277,-45.2488687782805,4,2,1,70,0,0
75352,-45.2488687782805,4,2,1,5,0,0
75427,-45.2488687782805,4,2,1,70,0,0
75502,-45.2488687782805,4,2,1,5,0,0
75577,-45.2488687782805,4,2,1,70,0,0
75877,-38.3141762452107,4,2,1,70,0,0
76027,-38.3141762452107,4,2,1,70,0,0
76177,-55.2486187845304,4,2,1,70,0,0
76327,-55.2486187845304,4,2,1,70,0,0
76477,-55.2486187845304,4,2,1,70,0,0
77077,-55.2486187845304,4,2,1,70,0,0
77227,-55.2486187845304,4,2,1,70,0,0
77377,-70.9219858156028,4,2,1,70,0,0
77527,-38.3141762452107,4,2,1,70,0,0
77677,-70.9219858156028,4,2,1,70,0,0
77827,-70.9219858156028,4,2,1,70,0,0
79027,-70.9219858156028,4,2,1,70,0,0
79177,-70.9219858156028,4,2,1,70,0,0
80227,-70.9219858156028,4,2,1,70,0,0
80377,-70.9219858156028,4,2,1,70,0,0
81427,-70.9219858156028,4,2,1,70,0,0
81577,-38.3141762452107,4,2,1,70,0,0
81727,-38.3141762452107,4,2,1,70,0,0
81877,-38.3141762452107,4,2,1,70,0,0
82027,-38.3141762452107,4,2,1,70,0,0
82177,-38.3141762452107,4,2,1,70,0,0
82777,-45.2488687782805,4,2,1,70,0,0
82927,-45.2488687782805,4,2,1,70,0,0
83677,-70.9219858156028,4,2,1,70,0,0
83827,-70.9219858156028,4,2,1,70,0,0
83977,-70.9219858156028,4,2,1,70,0,0
85027,-70.9219858156028,4,2,1,70,0,0
85177,-70.9219858156028,4,2,1,70,0,0
86077,-70.9219858156028,4,2,1,70,0,0
86227,-70.9219858156028,4,2,1,70,0,0
86377,-38.3141762452107,4,2,1,70,0,0
86527,-38.3141762452107,4,2,1,70,0,0
86677,-45.2488687782805,4,2,1,70,0,0
86827,-45.2488687782805,4,2,1,70,0,0
86977,-45.2488687782805,4,2,1,70,0,0
87427,-45.2488687782805,4,2,1,70,0,0
87577,-45.2488687782805,4,2,1,70,0,0
87727,-45.2488687782805,4,2,1,70,0,0
88477,-70.9219858156028,4,2,1,70,0,0
88627,-70.9219858156028,4,2,1,70,0,0
88777,-70.9219858156028,4,2,1,70,0,0
89827,-70.9219858156028,4,2,1,70,0,0
89977,-70.9219858156028,4,2,1,70,0,0
91027,-70.9219858156028,4,2,1,70,0,0
91177,-38.3141762452107,4,2,1,70,0,0
91327,-38.3141762452107,4,2,1,70,0,0
91477,-38.3141762452107,4,2,1,70,0,0
91627,-38.3141762452107,4,2,1,70,0,0
91777,-38.3141762452107,4,2,1,70,0,0
92377,-45.2488687782805,4,2,1,70,0,0
92527,-55.2486187845304,4,2,1,70,0,0
92677,-55.2486187845304,4,2,1,70,0,0
92827,-45.2488687782805,4,2,1,70,0,0
92977,-45.2488687782805,4,2,1,70,0,0
93202,-38.3141762452107,4,2,1,70,0,0
93427,-45.2488687782805,4,2,1,70,0,0
93577,-45.2488687782805,4,2,1,70,0,0
93727,-38.3141762452107,4,2,1,70,0,0
93877,-38.3141762452107,4,2,1,70,0,0
94177,-38.3141762452107,4,2,1,70,0,0
94327,-45.2488687782805,4,2,1,70,0,0
94477,-45.2488687782805,4,2,1,70,0,0
94777,-82.6446280991736,4,2,1,70,0,0
95077,-82.6446280991736,4,2,1,70,0,0
95377,-62.111801242236,4,2,1,70,0,0
95677,-62.111801242236,4,2,1,70,0,0
95977,-82.6446280991736,4,2,1,10,0,0
96127,-82.6446280991736,4,2,1,15,0,0
96277,-82.6446280991736,4,2,1,20,0,0
96427,-82.6446280991736,4,2,1,24,0,0
96577,-82.6446280991736,4,2,1,25,0,0
96652,-82.6446280991736,4,2,1,30,0,0
96727,-82.6446280991736,4,2,1,35,0,0
96802,-82.6446280991736,4,2,1,40,0,0
96877,-82.6446280991736,4,2,1,45,0,0
96952,-82.6446280991736,4,2,1,50,0,0
97027,-82.6446280991736,4,2,1,55,0,0
97102,-82.6446280991736,4,2,1,60,0,0
97177,-45.2488687782805,4,2,1,70,0,0
97252,-45.2488687782805,4,2,1,5,0,0
97327,-45.2488687782805,4,2,1,70,0,0
97852,-45.2488687782805,4,2,1,5,0,0
97927,-45.2488687782805,4,2,1,70,0,0
98002,-45.2488687782805,4,2,1,5,0,0
98077,-45.2488687782805,4,2,1,70,0,0
99202,-45.2488687782805,4,2,1,5,0,0
99277,-45.2488687782805,4,2,1,70,0,0
99352,-45.2488687782805,4,2,1,5,0,0
99427,-45.2488687782805,4,2,1,70,0,0
99502,-45.2488687782805,4,2,1,5,0,0
99577,-38.3141762452107,4,2,1,70,0,0
99802,-38.3141762452107,4,2,1,5,0,0
99877,-38.3141762452107,4,2,1,70,0,0
100027,-45.2488687782805,4,2,1,70,0,0
100102,-45.2488687782805,4,2,1,5,0,0
100177,-45.2488687782805,4,2,1,70,0,0
100852,-45.2488687782805,4,2,1,5,0,0
100927,-45.2488687782805,4,2,1,70,0,0
101002,-45.2488687782805,4,2,1,5,0,0
101077,-38.3141762452107,4,2,1,70,0,0
101302,-38.3141762452107,4,2,1,5,0,0
101377,-38.3141762452107,4,2,1,70,0,0
101602,-38.3141762452107,4,2,1,5,0,0
101677,-45.2488687782805,4,2,1,70,0,0
101752,-45.2488687782805,4,2,1,5,0,0
101827,-45.2488687782805,4,2,1,70,0,0
101902,-45.2488687782805,4,2,1,5,0,0
101977,-45.2488687782805,4,2,1,70,0,0
102652,-45.2488687782805,4,2,1,5,0,0
102727,-45.2488687782805,4,2,1,70,0,0
102802,-45.2488687782805,4,2,1,5,0,0
102877,-45.2488687782805,4,2,1,70,0,0
103177,-38.3141762452107,4,2,1,70,0,0
103402,-38.3141762452107,4,2,1,5,0,0
103477,-38.3141762452107,4,2,1,70,0,0
103627,-45.2488687782805,4,2,1,70,0,0
103852,-45.2488687782805,4,2,1,5,0,0
103927,-45.2488687782805,4,2,1,70,0,0
104002,-45.2488687782805,4,2,1,5,0,0
104077,-45.2488687782805,4,2,1,70,0,0
104152,-45.2488687782805,4,2,1,5,0,0
104227,-45.2488687782805,4,2,1,70,0,0
104302,-45.2488687782805,4,2,1,5,0,0
104377,-45.2488687782805,4,2,1,70,0,0
105052,-45.2488687782805,4,2,1,5,0,0
105127,-45.2488687782805,4,2,1,70,0,0
105352,-45.2488687782805,4,2,1,5,0,0
105427,-45.2488687782805,4,2,1,70,0,0
105502,-45.2488687782805,4,2,1,5,0,0
105577,-41.49377593361,4,2,1,70,0,0
105877,-38.3141762452107,4,2,1,70,0,0
106102,-38.3141762452107,4,2,1,5,0,0
106177,-38.3141762452107,4,2,1,70,0,0
106402,-38.3141762452107,4,2,1,5,0,0
106477,-38.3141762452107,4,2,1,70,0,0
107377,-45.2488687782805,4,2,1,70,0,0
107452,-45.2488687782805,4,2,1,5,0,0
107527,-45.2488687782805,4,2,1,70,0,0
107827,-45.2488687782805,4,2,1,70,0,0
107977,-38.3141762452107,4,2,1,70,0,0
108577,-38.3141762452107,4,2,1,70,0,0
108727,-45.2488687782805,4,2,1,70,0,0
108802,-45.2488687782805,4,2,1,5,0,0
108877,-45.2488687782805,4,2,1,70,0,0
108952,-45.2488687782805,4,2,1,5,0,0
109027,-45.2488687782805,4,2,1,70,0,0
109102,-45.2488687782805,4,2,1,5,0,0
109177,-38.3141762452107,4,2,1,70,0,0
109327,-38.3141762452107,4,2,1,5,0,0
109402,-38.3141762452107,4,2,1,70,0,0
109477,-35.5871886120996,4,2,1,70,0,0
109551,-35.5871886120996,4,2,1,5,0,0
109627,-45.2488687782805,4,2,1,70,0,0
109702,-45.2488687782805,4,2,1,5,0,0
109777,-35.5871886120996,4,2,1,70,0,0
109926,-35.5871886120996,4,2,1,5,0,0
110002,-35.5871886120996,4,2,1,70,0,0
110151,-35.5871886120996,4,2,1,5,0,0
110227,-45.2488687782805,4,2,1,70,0,0
110302,-45.2488687782805,4,2,1,5,0,0
110377,-45.2488687782805,4,2,1,70,0,0
111202,-45.2488687782805,4,2,1,5,0,0
111277,-55.2486187845304,4,2,1,70,0,0
111351,-55.2486187845304,4,2,1,5,0,0
111427,-55.2486187845304,4,2,1,70,0,0
111501,-55.2486187845304,4,2,1,5,0,0
111577,-35.5871886120996,4,2,1,70,0,0
111801,-35.5871886120996,4,2,1,5,0,0
111877,-45.2488687782805,4,2,1,70,0,0
111952,-45.2488687782805,4,2,1,5,0,0
112027,-45.2488687782805,4,2,1,70,0,0
112102,-45.2488687782805,4,2,1,5,0,0
112177,-38.3141762452107,4,2,1,70,0,0
112402,-38.3141762452107,4,2,1,5,0,0
112477,-45.2488687782805,4,2,1,70,0,0
112552,-45.2488687782805,4,2,1,5,0,0
112627,-45.2488687782805,4,2,1,70,0,0
112702,-45.2488687782805,4,2,1,5,0,0
112777,-38.3141762452107,4,2,1,70,0,0
113302,-38.3141762452107,4,2,1,70,0,0
113602,-38.3141762452107,4,2,1,5,0,0
113677,-45.2488687782805,4,2,1,70,0,0
113752,-45.2488687782805,4,2,1,5,0,0
113827,-45.2488687782805,4,2,1,70,0,0
113902,-45.2488687782805,4,2,1,5,0,0
113977,-45.2488687782805,4,2,2,90,0,0
114427,-45.2488687782805,4,2,3,90,0,0
114877,-45.2488687782805,4,2,4,90,0,0
115177,-45.2488687782805,4,2,98,50,0,0
115477,-45.2488687782805,4,2,99,55,0,0
115777,-45.2488687782805,4,2,1,60,0,0
116077,-45.2488687782805,4,2,1,65,0,0
116377,-123.456790123457,4,2,1,70,0,0
117277,-123.456790123457,4,2,1,70,0,0
117577,-45.2488687782805,4,2,1,70,0,0
117727,-45.2488687782805,4,2,1,70,0,0
117877,-45.2488687782805,4,2,1,70,0,0
118477,-45.2488687782805,4,2,1,70,0,0
118627,-45.2488687782805,4,2,1,70,0,0
118777,-45.2488687782805,4,2,1,70,0,0
119227,-45.2488687782805,4,2,1,70,0,0
119827,-45.2488687782805,4,2,1,70,0,0
119977,-45.2488687782805,4,2,1,70,0,0
120427,-45.2488687782805,4,2,1,70,0,0
120577,-45.2488687782805,4,2,1,70,0,0
120877,-38.3141762452107,4,2,1,70,0,0
121177,-45.2488687782805,4,2,1,70,0,0
121327,-45.2488687782805,4,2,1,70,0,0
121477,-38.3141762452107,4,2,1,70,0,0
121627,-38.3141762452107,4,2,1,70,0,0
121777,-55.2486187845304,4,2,1,70,0,0
121927,-55.2486187845304,4,2,1,70,0,0
122077,-45.2488687782805,4,2,1,70,0,0
122227,-45.2488687782805,4,2,1,70,0,0
122377,-45.2488687782805,4,2,1,70,0,0
122827,-45.2488687782805,4,2,1,70,0,0
123202,-45.2488687782805,4,2,1,70,0,0
123427,-45.2488687782805,4,2,1,70,0,0
123577,-45.2488687782805,4,2,1,70,0,0
123727,-45.2488687782805,4,2,1,70,0,0
123877,-38.3141762452107,4,2,1,70,0,0
124027,-38.3141762452107,4,2,1,70,0,0
124177,-38.3141762452107,4,2,1,70,0,0
124777,-45.2488687782805,4,2,1,70,0,0
124927,-45.2488687782805,4,2,1,70,0,0
125077,-38.3141762452107,4,2,1,70,0,0
125377,-38.3141762452107,4,2,1,70,0,0
125977,-45.2488687782805,4,2,1,70,0,0
126127,-45.2488687782805,4,2,1,70,0,0
126277,-45.2488687782805,4,2,1,70,0,0
126877,-45.2488687782805,4,2,1,70,0,0
127177,-45.2488687782805,4,2,1,70,0,0
127327,-45.2488687782805,4,2,1,70,0,0
127477,-45.2488687782805,4,2,1,70,0,0
127927,-55.2486187845304,4,2,1,70,0,0
128077,-55.2486187845304,4,2,1,70,0,0
128227,-55.2486187845304,4,2,1,70,0,0
128677,-55.2486187845304,4,2,1,70,0,0
128827,-55.2486187845304,4,2,1,70,0,0
129127,-55.2486187845304,4,2,1,70,0,0
129427,-55.2486187845304,4,2,1,70,0,0
129577,-55.2486187845304,4,2,1,70,0,0
130027,-55.2486187845304,4,2,1,70,0,0
130177,-55.2486187845304,4,2,1,70,0,0
130627,-55.2486187845304,4,2,1,70,0,0
130777,-55.2486187845304,4,2,1,70,0,0
131977,-55.2486187845304,4,2,1,70,0,0
133177,-70.9219858156028,4,2,1,70,0,0
133477,-70.9219858156028,4,2,1,70,0,0
133777,-70.9219858156028,4,2,1,70,0,0
134077,-70.9219858156028,4,2,1,70,0,0
134377,-70.9219858156028,4,2,1,10,0,0
134452,-70.9219858156028,4,2,1,15,0,0
134677,-70.9219858156028,4,2,1,20,0,0
134827,-70.9219858156028,4,2,1,26,0,0
134977,-70.9219858156028,4,2,1,25,0,0
135052,-70.9219858156028,4,2,1,30,0,0
135127,-70.9219858156028,4,2,1,35,0,0
135202,-70.9219858156028,4,2,1,40,0,0
135277,-70.9219858156028,4,2,1,45,0,0
135352,-70.9219858156028,4,2,1,50,0,0
135427,-70.9219858156028,4,2,1,56,0,0
135502,-70.9219858156028,4,2,1,61,0,0
135577,-99.009900990099,4,2,43,70,0,0
136027,-70.9219858156028,4,2,1,61,0,0
140077,-99.009900990099,4,2,1,60,0,0
140377,-476.190476190476,4,2,1,60,0,0
144877,-476.190476190476,4,2,1,60,0,0
145177,-123.456790123457,4,2,1,50,0,0
145327,-123.456790123457,4,2,1,50,0,0
145477,-123.456790123457,4,2,1,50,0,0
145627,-123.456790123457,4,2,1,50,0,0
146077,-123.456790123457,4,2,1,50,0,0
146227,-123.456790123457,4,2,1,50,0,0
146377,-123.456790123457,4,2,1,50,0,0
146452,-123.456790123457,4,2,1,20,0,0
146527,-123.456790123457,4,2,1,30,0,0
146602,-123.456790123457,4,2,1,40,0,0
146677,-123.456790123457,4,2,1,50,0,0
147277,-123.456790123457,4,2,1,50,0,0
147577,-99.0099009900991,4,2,1,55,0,0
147727,-99.0099009900991,4,2,1,55,0,0
148027,-99.0099009900991,4,2,1,55,0,0
148177,-82.6446280991736,4,2,1,55,0,0
148327,-82.6446280991736,4,2,1,55,0,0
148627,-82.6446280991736,4,2,1,55,0,0
148777,-82.6446280991736,4,2,1,55,0,0
149527,-62.111801242236,4,2,1,50,0,0
149677,-62.111801242236,4,2,1,50,0,0
149977,-62.111801242236,4,2,1,60,0,0
150877,-62.111801242236,4,2,1,60,0,0
151177,-62.111801242236,4,2,1,60,0,0
151627,-62.111801242236,4,2,1,60,0,0
151777,-62.111801242236,4,2,1,60,0,0
153577,-62.111801242236,4,2,1,10,0,0
153727,-62.111801242236,4,2,1,15,0,0
153877,-62.111801242236,4,2,1,20,0,0
154027,-62.111801242236,4,2,1,25,0,0
154177,-62.111801242236,4,2,1,25,0,0
154252,-62.111801242236,4,2,1,30,0,0
154327,-62.111801242236,4,2,1,35,0,0
154402,-62.111801242236,4,2,1,40,0,0
154477,-62.111801242236,4,2,1,45,0,0
154552,-62.111801242236,4,2,1,50,0,0
154627,-62.111801242236,4,2,1,54,0,0
154702,-62.111801242236,4,2,1,60,0,0
154777,-62.111801242236,4,2,1,50,0,0
169177,-45.2488687782805,4,2,1,70,0,0
169327,-45.2488687782805,4,2,1,70,0,0
169477,-45.2488687782805,4,2,1,70,0,0
169777,-45.2488687782805,4,2,1,70,0,0
170377,-45.2488687782805,4,2,1,70,0,0
170827,-45.2488687782805,4,2,1,70,0,0
170977,-45.2488687782805,4,2,1,70,0,0
171127,-38.3141762452107,4,2,1,70,0,0
171277,-38.3141762452107,4,2,1,70,0,0
171502,-38.3141762452107,4,2,1,5,0,0
171577,-38.3141762452107,4,2,2,70,0,0
172027,-38.3141762452107,4,2,3,70,0,0
172477,-38.3141762452107,4,2,4,70,0,0
172777,-38.3141762452107,4,2,1,30,0,0
173077,-38.3141762452107,4,2,1,40,0,0
173377,-45.2488687782805,4,2,1,40,0,0
173977,-45.2488687782805,4,2,1,70,0,0
174052,-45.2488687782805,4,2,1,5,0,0
174127,-45.2488687782805,4,2,1,70,0,0
174502,-45.2488687782805,4,2,1,5,0,0
174577,-45.2488687782805,4,2,1,70,0,0
174802,-45.2488687782805,4,2,1,5,0,0
174877,-45.2488687782805,4,2,1,70,0,0
174952,-45.2488687782805,4,2,1,5,0,0
175027,-45.2488687782805,4,2,1,70,0,0
175102,-45.2488687782805,4,2,1,5,0,0
175177,-35.5871886120996,4,2,1,70,0,0
175401,-35.5871886120996,4,2,1,5,0,0
175477,-35.5871886120996,4,2,1,70,0,0
175627,-38.3141762452107,4,2,1,70,0,0
175927,-38.3141762452107,4,2,1,70,0,0
176002,-38.3141762452107,4,2,1,5,0,0
176077,-38.3141762452107,4,2,1,70,0,0
176302,-38.3141762452107,4,2,1,5,0,0
176377,-38.3141762452107,4,2,1,70,0,0
176827,-45.2488687782805,4,2,1,70,0,0
177052,-45.2488687782805,4,2,1,5,0,0
177127,-45.2488687782805,4,2,1,70,0,0
177202,-45.2488687782805,4,2,1,5,0,0
177277,-45.2488687782805,4,2,1,70,0,0
177652,-45.2488687782805,4,2,1,5,0,0
177727,-45.2488687782805,4,2,1,70,0,0
177952,-45.2488687782805,4,2,1,5,0,0
178027,-45.2488687782805,4,2,1,70,0,0
178252,-45.2488687782805,4,2,1,5,0,0
178327,-45.2488687782805,4,2,1,70,0,0
178402,-45.2488687782805,4,2,1,5,0,0
178477,-45.2488687782805,4,2,1,70,0,0
178702,-45.2488687782805,4,2,1,5,0,0
178777,-45.2488687782805,4,2,1,70,0,0
179452,-45.2488687782805,4,2,1,5,0,0
179527,-45.2488687782805,4,2,1,70,0,0
179602,-45.2488687782805,4,2,1,5,0,0
179677,-45.2488687782805,4,2,1,70,0,0
179902,-45.2488687782805,4,2,1,5,0,0
179977,-45.2488687782805,4,2,1,70,0,0
180202,-45.2488687782805,4,2,1,5,0,0
180277,-45.2488687782805,4,2,1,70,0,0
180652,-45.2488687782805,4,2,1,5,0,0
180727,-38.3141762452107,4,2,1,70,0,0
180952,-38.3141762452107,4,2,1,5,0,0
181027,-45.2488687782805,4,2,1,70,0,0
181102,-45.2488687782805,4,2,1,5,0,0
181177,-45.2488687782805,4,2,1,70,0,0
181702,-45.2488687782805,4,2,1,5,0,0
181777,-45.2488687782805,4,2,1,70,0,0
182002,-45.2488687782805,4,2,1,5,0,0
182077,-38.3141762452107,4,2,1,70,0,0
182227,-38.3141762452107,4,2,1,5,0,0
182302,-38.3141762452107,4,2,1,70,0,0
182452,-38.3141762452107,4,2,1,5,0,0
182527,-38.3141762452107,4,2,1,70,0,0
182602,-38.3141762452107,4,2,1,5,0,0
182677,-38.3141762452107,4,2,1,70,0,0
183052,-38.3141762452107,4,2,1,5,0,0
183127,-38.3141762452107,4,2,1,70,0,0
183202,-38.3141762452107,4,2,1,5,0,0
183277,-38.3141762452107,4,2,1,70,0,0
183577,-45.2488687782805,4,2,1,70,0,0
183652,-45.2488687782805,4,2,1,5,0,0
183727,-45.2488687782805,4,2,1,70,0,0
184102,-45.2488687782805,4,2,1,5,0,0
184177,-45.2488687782805,4,2,1,70,0,0
184402,-45.2488687782805,4,2,1,5,0,0
184477,-45.2488687782805,4,2,1,70,0,0
184627,-38.3141762452107,4,2,1,70,0,0
184702,-38.3141762452107,4,2,1,5,0,0
184777,-38.3141762452107,4,2,1,70,0,0
185002,-38.3141762452107,4,2,1,5,0,0
185077,-45.2488687782805,4,2,1,70,0,0
185152,-45.2488687782805,4,2,1,5,0,0
185227,-38.3141762452107,4,2,1,70,0,0
185452,-38.3141762452107,4,2,1,5,0,0
185527,-38.3141762452107,4,2,1,70,0,0
185752,-38.3141762452107,4,2,1,5,0,0
185827,-38.3141762452107,4,2,1,70,0,0
185977,-35.5871886120996,4,2,1,70,0,0
186126,-35.5871886120996,4,2,1,5,0,0
186277,-35.5871886120996,4,2,1,70,0,0
186351,-35.5871886120996,4,2,1,5,0,0
186427,-35.5871886120996,4,2,1,70,0,0
186651,-35.5871886120996,4,2,1,5,0,0
186727,-35.5871886120996,4,2,1,70,0,0
186877,-45.2488687782805,4,2,1,70,0,0
186952,-45.2488687782805,4,2,1,5,0,0
187027,-45.2488687782805,4,2,1,70,0,0
187102,-45.2488687782805,4,2,1,5,0,0
187177,-45.2488687782805,4,2,1,70,0,0
187252,-45.2488687782805,4,2,1,5,0,0
187327,-38.3141762452107,4,2,1,70,0,0
187552,-38.3141762452107,4,2,1,5,0,0
187627,-45.2488687782805,4,2,1,70,0,0
187702,-45.2488687782805,4,2,1,5,0,0
187777,-45.2488687782805,4,2,1,70,0,0
188077,-38.3141762452107,4,2,1,70,0,0
188152,-38.3141762452107,4,2,1,5,0,0
188227,-38.3141762452107,4,2,1,70,0,0
188302,-38.3141762452107,4,2,1,5,0,0
188377,-38.3141762452107,4,2,1,70,0,0
189052,-38.3141762452107,4,2,1,5,0,0
189127,-45.2488687782805,4,2,1,70,0,0
189202,-45.2488687782805,4,2,1,5,0,0
189277,-49.7512437810945,4,2,1,70,0,0
189352,-49.7512437810945,4,2,1,5,0,0
189427,-55.2486187845304,4,2,1,70,0,0
189501,-55.2486187845304,4,2,1,5,0,0
189577,-33.2225913621262,4,2,1,70,0,0
189801,-33.2225913621262,4,2,1,5,0,0
189877,-45.2488687782805,4,2,1,70,0,0
189952,-45.2488687782805,4,2,1,5,0,0
190027,-45.2488687782805,4,2,1,70,0,0
190327,-62.111801242236,4,2,1,70,0,0
190402,-62.111801242236,4,2,1,5,0,0
190477,-38.3141762452107,4,2,1,70,0,0
190702,-38.3141762452107,4,2,1,5,0,0
190777,-38.3141762452107,4,2,2,70,0,0
191227,-38.3141762452107,4,2,3,70,0,0
191677,-38.3141762452107,4,2,4,70,0,0
191977,-38.3141762452107,4,2,1,30,0,0
192277,-38.3141762452107,4,2,1,35,0,0
192577,-62.111801242236,4,2,1,40,0,0
192877,-62.111801242236,4,2,1,50,0,0
193177,-62.111801242236,4,2,1,70,0,0
193477,-45.2488687782805,4,2,1,70,0,0
193552,-45.2488687782805,4,2,1,5,0,0
193627,-45.2488687782805,4,2,1,70,0,0
193702,-45.2488687782805,4,2,1,5,0,0
193777,-45.2488687782805,4,2,1,70,0,0
194002,-45.2488687782805,4,2,1,5,0,0
194077,-45.2488687782805,4,2,1,70,0,0
194152,-45.2488687782805,4,2,1,5,0,0
194227,-45.2488687782805,4,2,1,70,0,0
194302,-45.2488687782805,4,2,1,5,0,0
194377,-45.2488687782805,4,2,1,70,0,0
194602,-45.2488687782805,4,2,1,5,0,0
194677,-45.2488687782805,4,2,1,70,0,0
194902,-45.2488687782805,4,2,1,5,0,0
194977,-45.2488687782805,4,2,1,70,0,0
195202,-45.2488687782805,4,2,1,5,0,0
195277,-45.2488687782805,4,2,1,70,0,0
195502,-45.2488687782805,4,2,1,5,0,0
195577,-45.2488687782805,4,2,1,70,0,0
196177,-45.2488687782805,4,2,1,70,0,0
196477,-45.2488687782805,4,2,1,70,0,0
197002,-45.2488687782805,4,2,1,5,0,0
197077,-45.2488687782805,4,2,1,70,0,0
197152,-45.2488687782805,4,2,1,5,0,0
197227,-45.2488687782805,4,2,1,70,0,0
197302,-45.2488687782805,4,2,1,5,0,0
197377,-45.2488687782805,4,2,1,70,0,0
197602,-45.2488687782805,4,2,1,5,0,0
197677,-45.2488687782805,4,2,1,70,0,0
197752,-45.2488687782805,4,2,1,5,0,0
197827,-45.2488687782805,4,2,1,70,0,0
198202,-45.2488687782805,4,2,1,5,0,0
198277,-45.2488687782805,4,2,1,70,0,0
198502,-45.2488687782805,4,2,1,5,0,0
198577,-45.2488687782805,4,2,1,70,0,0
198727,-45.2488687782805,4,2,1,70,0,0
198952,-45.2488687782805,4,2,1,70,0,0
199102,-45.2488687782805,4,2,1,5,0,0
199177,-45.2488687782805,4,2,1,70,0,0
199402,-45.2488687782805,4,2,1,5,0,0
199477,-45.2488687782805,4,2,1,70,0,0
199627,-45.2488687782805,4,2,1,5,0,0
199702,-45.2488687782805,4,2,1,70,0,0
200302,-45.2488687782805,4,2,1,5,0,0
200377,-45.2488687782805,4,2,1,70,0,0
200602,-45.2488687782805,4,2,1,5,0,0
200677,-45.2488687782805,4,2,1,70,0,0
200902,-45.2488687782805,4,2,1,5,0,0
200977,-45.2488687782805,4,2,1,70,0,0
201577,-38.3141762452107,4,2,1,70,0,0
201802,-38.3141762452107,4,2,1,5,0,0
201877,-38.3141762452107,4,2,1,70,0,0
201952,-38.3141762452107,4,2,1,5,0,0
202027,-45.2488687782805,4,2,1,70,0,0
202102,-45.2488687782805,4,2,1,5,0,0
202177,-45.2488687782805,4,2,1,70,0,0
202402,-45.2488687782805,4,2,1,5,0,0
202477,-45.2488687782805,4,2,1,70,0,0
203152,-45.2488687782805,4,2,1,5,0,0
203227,-45.2488687782805,4,2,1,70,0,0
203302,-45.2488687782805,4,2,1,5,0,0
203377,-45.2488687782805,4,2,1,70,0,0
203602,-45.2488687782805,4,2,1,5,0,0
203677,-45.2488687782805,4,2,1,70,0,0
203752,-45.2488687782805,4,2,1,5,0,0
203827,-45.2488687782805,4,2,1,70,0,0
203902,-45.2488687782805,4,2,1,5,0,0
203977,-45.2488687782805,4,2,1,70,0,0
204202,-45.2488687782805,4,2,1,5,0,0
204277,-45.2488687782805,4,2,1,70,0,0
204502,-45.2488687782805,4,2,1,5,0,0
204577,-45.2488687782805,4,2,1,70,0,0
204802,-45.2488687782805,4,2,1,5,0,0
204877,-45.2488687782805,4,2,1,70,0,0
205102,-45.2488687782805,4,2,1,5,0,0
205177,-45.2488687782805,4,2,1,70,0,0
205777,-45.2488687782805,4,2,1,70,0,0
206077,-45.2488687782805,4,2,1,70,0,0
206602,-45.2488687782805,4,2,1,5,0,0
206677,-45.2488687782805,4,2,1,70,0,0
206752,-45.2488687782805,4,2,1,5,0,0
206827,-45.2488687782805,4,2,1,70,0,0
206902,-45.2488687782805,4,2,1,5,0,0
206977,-45.2488687782805,4,2,1,70,0,0
207202,-45.2488687782805,4,2,1,5,0,0
207277,-45.2488687782805,4,2,1,70,0,0
207352,-45.2488687782805,4,2,1,5,0,0
207427,-38.3141762452107,4,2,1,70,0,0
207502,-38.3141762452107,4,2,1,5,0,0
207577,-38.3141762452107,4,2,1,70,0,0
208027,-45.2488687782805,4,2,1,70,0,0
208177,-45.2488687782805,4,2,1,70,0,0
208477,-45.2488687782805,4,2,1,70,0,0
208627,-45.2488687782805,4,2,1,70,0,0
208777,-45.2488687782805,4,2,1,70,0,0
209827,-45.2488687782805,4,2,1,70,0,0
209977,-45.2488687782805,4,2,2,70,0,0
210427,-45.2488687782805,4,2,3,70,0,0
210877,-45.2488687782805,4,2,4,70,0,0
211177,-45.2488687782805,4,2,1,30,0,0
211477,-45.2488687782805,4,2,1,35,0,0
211777,-82.6446280991736,4,2,1,40,0,0
212077,-82.6446280991736,4,2,1,50,0,0
212377,-82.6446280991736,4,2,15,70,0,0
212677,-123.456790123457,4,2,1,50,0,0
213877,-123.456790123457,4,2,1,50,0,0
214327,-243.90243902439,4,2,1,50,0,0
215077,-123.456790123457,4,2,1,50,0,0
216277,-123.456790123457,4,2,1,50,0,0
216727,-243.90243902439,4,2,1,50,0,0
217477,-123.456790123457,4,2,1,50,0,0
218677,-123.456790123457,4,2,1,50,0,0
219127,-243.90243902439,4,2,1,50,0,0
219877,-123.456790123457,4,2,1,50,0,0
221077,-123.456790123457,4,2,1,50,0,0
221377,-243.90243902439,4,2,1,50,0,0
221677,-243.90243902439,4,2,1,50,0,0
221977,-123.456790123457,4,2,1,50,0,0
222127,-123.456790123457,4,2,1,50,0,0
222277,-123.456790123457,4,2,1,50,0,0
222427,-123.456790123457,4,2,1,50,0,0
222877,-123.456790123457,4,2,1,50,0,0
223028,-123.456790123457,4,2,1,50,0,0
223327,-82.6446280991736,4,2,1,50,0,0
223477,-82.6446280991736,4,2,1,50,0,0
224077,-82.6446280991736,4,2,1,50,0,0
224677,-82.6446280991736,4,2,1,50,0,0
225277,-82.6446280991736,4,2,1,50,0,0
225877,-82.6446280991736,4,2,1,50,0,0
226477,-82.6446280991736,4,2,1,50,0,0
227077,-82.6446280991736,4,2,1,60,0,0
227677,-82.6446280991736,4,2,1,60,0,0
228277,-82.6446280991736,4,2,1,60,0,0
228577,-62.111801242236,4,2,1,60,0,0
228877,-62.111801242236,4,2,1,60,0,0
229177,-163.934426229508,4,2,1,40,0,0
229627,-163.934426229508,4,2,1,40,0,0
230077,-163.934426229508,4,2,1,40,0,0
230377,-82.6446280991736,4,2,1,10,0,0
230527,-82.6446280991736,4,2,1,15,0,0
230677,-82.6446280991736,4,2,1,21,0,0
230827,-82.6446280991736,4,2,1,26,0,0
230977,-62.111801242236,4,2,1,30,0,0
231052,-62.111801242236,4,2,1,37,0,0
231127,-62.111801242236,4,2,1,41,0,0
231202,-62.111801242236,4,2,1,45,0,0
231277,-62.111801242236,4,2,1,50,0,0
231352,-62.111801242236,4,2,1,56,0,0
231427,-62.111801242236,4,2,1,61,0,0
231502,-62.111801242236,4,2,1,64,0,0
231577,-45.2488687782805,4,2,1,70,0,0
231652,-45.2488687782805,4,2,1,5,0,0
231727,-45.2488687782805,4,2,1,70,0,0
231952,-45.2488687782805,4,2,1,5,0,0
232027,-45.2488687782805,4,2,1,70,0,0
232552,-45.2488687782805,4,2,1,5,0,0
232627,-45.2488687782805,4,2,1,70,0,0
232702,-45.2488687782805,4,2,1,5,0,0
232777,-45.2488687782805,4,2,1,70,0,0
232852,-45.2488687782805,4,2,1,5,0,0
232927,-45.2488687782805,4,2,1,70,0,0
233152,-45.2488687782805,4,2,1,5,0,0
233227,-45.2488687782805,4,2,1,70,0,0
233602,-45.2488687782805,4,2,1,5,0,0
233677,-45.2488687782805,4,2,1,70,0,0
233752,-45.2488687782805,4,2,1,5,0,0
233827,-45.2488687782805,4,2,1,70,0,0
234127,-38.3141762452107,4,2,1,70,0,0
234352,-38.3141762452107,4,2,1,5,0,0
234427,-38.3141762452107,4,2,1,70,0,0
234652,-38.3141762452107,4,2,1,5,0,0
234727,-38.3141762452107,4,2,1,70,0,0
234802,-38.3141762452107,4,2,1,5,0,0
234877,-38.3141762452107,4,2,1,70,0,0
235177,-45.2488687782805,4,2,1,70,0,0
235327,-45.2488687782805,4,2,1,5,0,0
235402,-45.2488687782805,4,2,1,70,0,0
235702,-45.2488687782805,4,2,1,70,0,0
235777,-38.3141762452107,4,2,1,70,0,0
236002,-38.3141762452107,4,2,1,5,0,0
236077,-38.3141762452107,4,2,1,70,0,0
236152,-38.3141762452107,4,2,1,5,0,0
236227,-38.3141762452107,4,2,1,70,0,0
236302,-38.3141762452107,4,2,1,5,0,0
236377,-45.2488687782805,4,2,1,70,0,0
236452,-45.2488687782805,4,2,1,5,0,0
236527,-45.2488687782805,4,2,1,70,0,0
236752,-45.2488687782805,4,2,1,5,0,0
236827,-45.2488687782805,4,2,1,70,0,0
236977,-38.3141762452107,4,2,1,70,0,0
237052,-38.3141762452107,4,2,1,5,0,0
237127,-38.3141762452107,4,2,1,70,0,0
237202,-38.3141762452107,4,2,1,5,0,0
237277,-38.3141762452107,4,2,1,70,0,0
237352,-38.3141762452107,4,2,1,5,0,0
237427,-38.3141762452107,4,2,1,70,0,0
237502,-38.3141762452107,4,2,1,5,0,0
237577,-45.2488687782805,4,2,1,70,0,0
237652,-45.2488687782805,4,2,1,5,0,0
237727,-45.2488687782805,4,2,1,70,0,0
237952,-45.2488687782805,4,2,1,5,0,0
238027,-45.2488687782805,4,2,1,70,0,0
238177,-38.3141762452107,4,2,1,70,0,0
238402,-38.3141762452107,4,2,1,70,0,0
238552,-38.3141762452107,4,2,1,5,0,0
238627,-38.3141762452107,4,2,1,70,0,0
238702,-38.3141762452107,4,2,1,5,0,0
238777,-38.3141762452107,4,2,1,70,0,0
239152,-38.3141762452107,4,2,1,5,0,0
239227,-38.3141762452107,4,2,1,70,0,0
239302,-38.3141762452107,4,2,1,5,0,0
239377,-38.3141762452107,4,2,1,70,0,0
239527,-45.2488687782805,4,2,1,70,0,0
239602,-45.2488687782805,4,2,1,5,0,0
239677,-45.2488687782805,4,2,1,70,0,0
239752,-45.2488687782805,4,2,1,5,0,0
239827,-45.2488687782805,4,2,1,70,0,0
239977,-38.3141762452107,4,2,1,70,0,0
240202,-38.3141762452107,4,2,1,5,0,0
240277,-45.2488687782805,4,2,1,70,0,0
240352,-45.2488687782805,4,2,1,5,0,0
240427,-45.2488687782805,4,2,1,70,0,0
240502,-45.2488687782805,4,2,1,5,0,0
240577,-45.2488687782805,4,2,1,70,0,0
240652,-45.2488687782805,4,2,1,5,0,0
240727,-45.2488687782805,4,2,1,70,0,0
240802,-45.2488687782805,4,2,1,5,0,0
240877,-45.2488687782805,4,2,1,70,0,0
241252,-45.2488687782805,4,2,1,5,0,0
241327,-45.2488687782805,4,2,1,70,0,0
241552,-45.2488687782805,4,2,1,5,0,0
241627,-45.2488687782805,4,2,1,70,0,0
242152,-45.2488687782805,4,2,1,5,0,0
242227,-45.2488687782805,4,2,1,70,0,0
242452,-45.2488687782805,4,2,1,5,0,0
242527,-45.2488687782805,4,2,1,70,0,0
242752,-45.2488687782805,4,2,1,5,0,0
242827,-45.2488687782805,4,2,1,70,0,0
243052,-45.2488687782805,4,2,1,70,0,0
243202,-45.2488687782805,4,2,1,5,0,0
243277,-38.3141762452107,4,2,1,70,0,0
243502,-38.3141762452107,4,2,1,5,0,0
243577,-38.3141762452107,4,2,1,70,0,0
243652,-38.3141762452107,4,2,1,5,0,0
243727,-38.3141762452107,4,2,1,70,0,0
243952,-38.3141762452107,4,2,1,5,0,0
244027,-38.3141762452107,4,2,1,70,0,0
244177,-45.2488687782805,4,2,1,70,0,0
244252,-45.2488687782805,4,2,1,5,0,0
244327,-45.2488687782805,4,2,1,70,0,0
244402,-45.2488687782805,4,2,1,5,0,0
244477,-45.2488687782805,4,2,1,70,0,0
244777,-38.3141762452107,4,2,1,70,0,0
245002,-38.3141762452107,4,2,1,70,0,0
245152,-38.3141762452107,4,2,1,5,0,0
245227,-38.3141762452107,4,2,1,70,0,0
245302,-38.3141762452107,4,2,1,5,0,0
245377,-38.3141762452107,4,2,1,70,0,0
245602,-38.3141762452107,4,2,1,5,0,0
245677,-38.3141762452107,4,2,1,70,0,0
245752,-38.3141762452107,4,2,1,5,0,0
245827,-38.3141762452107,4,2,1,70,0,0
245977,-32.1543408360129,4,2,1,70,0,0
246201,-32.1543408360129,4,2,1,5,0,0
246277,-35.5871886120996,4,2,1,70,0,0
246351,-35.5871886120996,4,2,1,5,0,0
246427,-45.2488687782805,4,2,1,70,0,0
246502,-45.2488687782805,4,2,1,5,0,0
246577,-35.5871886120996,4,2,1,70,0,0
246801,-35.5871886120996,4,2,1,5,0,0
246877,-35.5871886120996,4,2,1,70,0,0
247027,-45.2488687782805,4,2,1,70,0,0
247102,-45.2488687782805,4,2,1,5,0,0
247177,-45.2488687782805,4,2,1,70,0,0
247552,-45.2488687782805,4,2,1,5,0,0
247627,-45.2488687782805,4,2,1,70,0,0
247702,-45.2488687782805,4,2,1,5,0,0
247777,-45.2488687782805,4,2,1,70,0,0
248002,-45.2488687782805,4,2,1,5,0,0
248077,-45.2488687782805,4,2,1,70,0,0
248152,-45.2488687782805,4,2,1,5,0,0
248227,-45.2488687782805,4,2,1,70,0,0
248302,-45.2488687782805,4,2,1,5,0,0
248377,-45.2488687782805,4,2,1,70,0,0
248677,-38.3141762452107,4,2,1,70,0,0
248827,-38.3141762452107,4,2,1,70,0,0
248977,-55.2486187845304,4,2,1,70,0,0
249127,-55.2486187845304,4,2,1,70,0,0
249277,-55.2486187845304,4,2,1,70,0,0
249877,-55.2486187845304,4,2,1,70,0,0
250027,-70.9219858156028,4,2,1,70,0,0
250177,-70.9219858156028,4,2,1,70,0,0
250327,-38.3141762452107,4,2,1,70,0,0
250477,-55.2486187845304,4,2,1,70,0,0
250627,-55.2486187845304,4,2,1,70,0,0
251827,-55.2486187845304,4,2,1,70,0,0
251977,-55.2486187845304,4,2,1,70,0,0
253027,-55.2486187845304,4,2,1,70,0,0
253177,-55.2486187845304,4,2,1,70,0,0
254227,-55.2486187845304,4,2,1,70,0,0
254377,-45.2488687782805,4,2,1,70,0,0
254527,-45.2488687782805,4,2,1,70,0,0
254677,-45.2488687782805,4,2,1,70,0,0
254827,-45.2488687782805,4,2,1,70,0,0
254977,-45.2488687782805,4,2,1,70,0,0
255277,-38.3141762452107,4,2,1,70,0,0
255577,-45.2488687782805,4,2,1,70,0,0
255727,-45.2488687782805,4,2,1,70,0,0
256477,-55.2486187845304,4,2,1,70,0,0
256627,-55.2486187845304,4,2,1,70,0,0
256777,-55.2486187845304,4,2,1,70,0,0
257827,-55.2486187845304,4,2,1,70,0,0
257977,-55.2486187845304,4,2,1,70,0,0
259027,-55.2486187845304,4,2,1,70,0,0
259177,-45.2488687782805,4,2,1,70,0,0
259327,-45.2488687782805,4,2,1,70,0,0
259477,-45.2488687782805,4,2,1,70,0,0
259627,-45.2488687782805,4,2,1,70,0,0
259777,-45.2488687782805,4,2,1,70,0,0
260227,-45.2488687782805,4,2,1,70,0,0
260377,-38.3141762452107,4,2,1,70,0,0
260527,-38.3141762452107,4,2,1,70,0,0
261277,-55.2486187845304,4,2,1,70,0,0
261427,-55.2486187845304,4,2,1,70,0,0
261577,-55.2486187845304,4,2,1,70,0,0
262627,-55.2486187845304,4,2,1,70,0,0
262777,-55.2486187845304,4,2,1,70,0,0
263677,-45.2488687782805,4,2,1,70,0,0
263827,-45.2488687782805,4,2,1,70,0,0
263977,-45.2488687782805,4,2,1,70,0,0
264277,-45.2488687782805,4,2,1,70,0,0
264427,-45.2488687782805,4,2,1,70,0,0
264577,-45.2488687782805,4,2,1,70,0,0
264877,-38.3141762452107,4,2,1,70,0,0
265177,-45.2488687782805,4,2,1,70,0,0
265327,-45.2488687782805,4,2,1,70,0,0
265477,-45.2488687782805,4,2,1,70,0,0
265627,-38.3141762452107,4,2,1,70,0,0
265777,-38.3141762452107,4,2,1,70,0,0
266002,-38.3141762452107,4,2,1,70,0,0
266227,-45.2488687782805,4,2,1,70,0,0
266377,-45.2488687782805,4,2,1,70,0,0
266527,-38.3141762452107,4,2,1,70,0,0
266677,-38.3141762452107,4,2,1,70,0,0
266977,-38.3141762452107,4,2,1,70,0,0
267277,-38.3141762452107,4,2,1,70,0,0
267577,-82.6446280991736,4,2,1,70,0,0
267877,-82.6446280991736,4,2,1,70,0,0
268177,-62.111801242236,4,2,1,70,0,0
268477,-62.111801242236,4,2,1,70,0,0
268777,-82.6446280991736,4,2,1,10,0,0
268927,-82.6446280991736,4,2,1,15,0,0
269077,-82.6446280991736,4,2,1,20,0,0
269227,-82.6446280991736,4,2,1,26,0,0
269377,-82.6446280991736,4,2,1,25,0,0
269452,-82.6446280991736,4,2,1,30,0,0
269527,-82.6446280991736,4,2,1,34,0,0
269602,-82.6446280991736,4,2,1,40,0,0
269677,-82.6446280991736,4,2,1,46,0,0
269752,-82.6446280991736,4,2,1,50,0,0
269827,-82.6446280991736,4,2,1,55,0,0
269902,-82.6446280991736,4,2,1,60,0,0
269977,-45.2488687782805,4,2,1,70,0,0
270052,-45.2488687782805,4,2,1,5,0,0
270127,-45.2488687782805,4,2,1,70,0,0
270502,-45.2488687782805,4,2,1,5,0,0
270577,-45.2488687782805,4,2,1,70,0,0
270652,-45.2488687782805,4,2,1,5,0,0
270727,-45.2488687782805,4,2,1,70,0,0
270802,-45.2488687782805,4,2,1,5,0,0
270877,-38.3141762452107,4,2,1,70,0,0
270952,-38.3141762452107,4,2,1,5,0,0
271027,-45.2488687782805,4,2,1,70,0,0
271102,-45.2488687782805,4,2,1,5,0,0
271177,-45.2488687782805,4,2,1,70,0,0
271252,-45.2488687782805,4,2,1,5,0,0
271327,-45.2488687782805,4,2,1,70,0,0
271402,-45.2488687782805,4,2,1,5,0,0
271477,-45.2488687782805,4,2,1,70,0,0
271552,-45.2488687782805,4,2,1,5,0,0
271627,-45.2488687782805,4,2,1,70,0,0
271702,-45.2488687782805,4,2,1,5,0,0
271777,-38.3141762452107,4,2,1,70,0,0
272002,-38.3141762452107,4,2,1,70,0,0
272077,-45.2488687782805,4,2,1,70,0,0
272152,-45.2488687782805,4,2,1,5,0,0
272227,-45.2488687782805,4,2,1,70,0,0
272302,-45.2488687782805,4,2,1,5,0,0
272377,-38.3141762452107,4,2,1,70,0,0
272452,-38.3141762452107,4,2,1,5,0,0
272527,-38.3141762452107,4,2,1,70,0,0
272602,-38.3141762452107,4,2,1,5,0,0
272677,-38.3141762452107,4,2,1,70,0,0
272902,-38.3141762452107,4,2,1,5,0,0
272977,-38.3141762452107,4,2,1,70,0,0
273052,-38.3141762452107,4,2,1,5,0,0
273127,-38.3141762452107,4,2,1,70,0,0
273202,-38.3141762452107,4,2,1,5,0,0
273277,-38.3141762452107,4,2,1,70,0,0
273427,-45.2488687782805,4,2,1,70,0,0
273502,-45.2488687782805,4,2,1,5,0,0
273577,-38.3141762452107,4,2,1,70,0,0
273652,-38.3141762452107,4,2,1,5,0,0
273727,-38.3141762452107,4,2,1,70,0,0
273802,-38.3141762452107,4,2,1,5,0,0
273877,-38.3141762452107,4,2,1,70,0,0
273952,-38.3141762452107,4,2,1,5,0,0
274027,-38.3141762452107,4,2,1,70,0,0
274102,-38.3141762452107,4,2,1,5,0,0
274177,-38.3141762452107,4,2,1,70,0,0
274402,-38.3141762452107,4,2,1,5,0,0
274477,-38.3141762452107,4,2,1,70,0,0
274552,-38.3141762452107,4,2,1,5,0,0
274627,-38.3141762452107,4,2,1,70,0,0
274702,-38.3141762452107,4,2,1,5,0,0
274777,-38.3141762452107,4,2,1,70,0,0
275077,-45.2488687782805,4,2,1,70,0,0
275152,-45.2488687782805,4,2,1,5,0,0
275227,-45.2488687782805,4,2,1,70,0,0
275302,-45.2488687782805,4,2,1,5,0,0
275377,-38.3141762452107,4,2,1,70,0,0
275452,-38.3141762452107,4,2,1,5,0,0
275527,-38.3141762452107,4,2,1,70,0,0
275827,-45.2488687782805,4,2,1,70,0,0
275902,-45.2488687782805,4,2,1,5,0,0
275977,-38.3141762452107,4,2,1,70,0,0
276052,-38.3141762452107,4,2,1,5,0,0
276127,-38.3141762452107,4,2,1,70,0,0
276202,-38.3141762452107,4,2,1,5,0,0
276277,-38.3141762452107,4,2,1,70,0,0
276427,-33.2225913621262,4,2,1,70,0,0
276651,-33.2225913621262,4,2,1,5,0,0
276727,-45.2488687782805,4,2,1,70,0,0
276802,-45.2488687782805,4,2,1,5,0,0
276877,-45.2488687782805,4,2,1,70,0,0
276952,-45.2488687782805,4,2,1,5,0,0
277027,-45.2488687782805,4,2,1,70,0,0
277252,-45.2488687782805,4,2,1,5,0,0
277327,-45.2488687782805,4,2,1,70,0,0
277402,-45.2488687782805,4,2,1,5,0,0
277477,-45.2488687782805,4,2,1,70,0,0
277552,-45.2488687782805,4,2,1,5,0,0
277627,-45.2488687782805,4,2,1,70,0,0
277702,-45.2488687782805,4,2,1,5,0,0
277777,-45.2488687782805,4,2,1,70,0,0
277852,-45.2488687782805,4,2,1,5,0,0
277927,-45.2488687782805,4,2,1,70,0,0
278002,-45.2488687782805,4,2,1,5,0,0
278077,-45.2488687782805,4,2,1,70,0,0
278377,-38.3141762452107,4,2,1,70,0,0
278452,-38.3141762452107,4,2,1,5,0,0
278527,-99.009900990099,4,2,1,70,0,0
278601,-99.009900990099,4,2,1,5,0,0
278677,-38.3141762452107,4,2,1,70,0,0
278752,-38.3141762452107,4,2,1,5,0,0
278827,-99.009900990099,4,2,1,70,0,0
278901,-99.009900990099,4,2,1,5,0,0
278977,-33.2225913621262,4,2,1,70,0,0
279201,-33.2225913621262,4,2,1,5,0,0
279277,-33.2225913621262,4,2,1,70,0,0
279577,-35.5871886120996,4,2,1,70,0,0
279802,-35.5871886120996,4,2,1,70,0,0
279877,-45.2488687782805,4,2,1,70,0,0
279952,-45.2488687782805,4,2,1,5,0,0
280027,-45.2488687782805,4,2,1,70,0,0
280102,-45.2488687782805,4,2,1,5,0,0
280177,-38.3141762452107,4,2,1,70,0,0
280402,-38.3141762452107,4,2,1,5,0,0
280477,-45.2488687782805,4,2,1,70,0,0
280552,-45.2488687782805,4,2,1,5,0,0
280627,-45.2488687782805,4,2,1,70,0,0
280702,-45.2488687782805,4,2,1,5,0,0
280777,-38.3141762452107,4,2,1,70,0,0
281002,-38.3141762452107,4,2,1,5,0,0
281077,-38.3141762452107,4,2,1,70,0,0
281152,-38.3141762452107,4,2,1,5,0,0
281227,-38.3141762452107,4,2,1,70,0,0
281302,-38.3141762452107,4,2,1,5,0,0
281377,-38.3141762452107,4,2,1,70,0,0
281602,-38.3141762452107,4,2,1,70,0,0
281677,-45.2488687782805,4,2,1,70,0,0
281752,-45.2488687782805,4,2,1,5,0,0
281827,-45.2488687782805,4,2,1,70,0,0
281902,-45.2488687782805,4,2,1,5,0,0
281977,-38.3141762452107,4,2,1,70,0,0
282202,-38.3141762452107,4,2,1,5,0,0
282277,-45.2488687782805,4,2,1,70,0,0
282352,-45.2488687782805,4,2,1,5,0,0
282427,-45.2488687782805,4,2,1,70,0,0
282502,-45.2488687782805,4,2,1,5,0,0
282577,-38.3141762452107,4,2,1,70,0,0
282802,-38.3141762452107,4,2,1,5,0,0
282877,-45.2488687782805,4,2,1,70,0,0
282952,-45.2488687782805,4,2,1,5,0,0
283027,-45.2488687782805,4,2,1,70,0,0
283102,-45.2488687782805,4,2,1,5,0,0
283177,-38.3141762452107,4,2,1,70,0,0
283252,-38.3141762452107,4,2,1,5,0,0
283327,-38.3141762452107,4,2,1,70,0,0
283552,-38.3141762452107,4,2,1,5,0,0
283627,-38.3141762452107,4,2,1,70,0,0
283702,-38.3141762452107,4,2,1,5,0,0
283777,-33.2225913621262,4,2,1,70,0,0
284001,-33.2225913621262,4,2,1,5,0,0
284077,-99.009900990099,4,2,1,70,0,0
284151,-99.009900990099,4,2,1,5,0,0
284227,-99.009900990099,4,2,1,70,0,0
284301,-99.009900990099,4,2,1,5,0,0
284377,-38.3141762452107,4,2,1,70,0,0
284452,-38.3141762452107,4,2,1,5,0,0
284527,-38.3141762452107,4,2,1,70,0,0
284827,-45.2488687782805,4,2,1,70,0,0
284902,-45.2488687782805,4,2,1,5,0,0
284977,-45.2488687782805,4,2,1,70,0,0
285052,-45.2488687782805,4,2,1,5,0,0
285127,-45.2488687782805,4,2,1,70,0,0
285277,-38.3141762452107,4,2,1,70,0,0
285577,-38.3141762452107,4,2,1,70,0,0
285802,-38.3141762452107,4,2,1,5,0,0
285877,-45.2488687782805,4,2,1,70,0,0
285952,-45.2488687782805,4,2,1,5,0,0
286027,-45.2488687782805,4,2,1,70,0,0
286102,-45.2488687782805,4,2,1,5,0,0
286177,-45.2488687782805,4,2,1,70,0,0
286402,-45.2488687782805,4,2,1,5,0,0
286477,-45.2488687782805,4,2,1,70,0,0
286552,-45.2488687782805,4,2,1,5,0,0
286627,-45.2488687782805,4,2,1,70,0,0
286702,-45.2488687782805,4,2,1,5,0,0
286777,-45.2488687782805,4,2,2,70,0,0
287227,-45.2488687782805,4,2,3,70,0,0
287677,-45.2488687782805,4,2,4,70,0,0
287977,-45.2488687782805,4,2,1,50,0,0
288277,-45.2488687782805,4,2,1,55,0,0
288577,-62.111801242236,4,2,1,60,0,0
288877,-62.111801242236,4,2,1,65,0,0
289177,-62.111801242236,4,2,1,70,0,0
289477,-45.2488687782805,4,2,1,70,0,0
289552,-45.2488687782805,4,2,1,5,0,0
289627,-45.2488687782805,4,2,1,70,0,0
289702,-45.2488687782805,4,2,1,5,0,0
289777,-45.2488687782805,4,2,1,70,0,0
290002,-45.2488687782805,4,2,1,5,0,0
290077,-45.2488687782805,4,2,1,70,0,0
290152,-45.2488687782805,4,2,1,5,0,0
290227,-45.2488687782805,4,2,1,70,0,0
290302,-45.2488687782805,4,2,1,5,0,0
290377,-45.2488687782805,4,2,1,70,0,0
290602,-45.2488687782805,4,2,1,5,0,0
290677,-45.2488687782805,4,2,1,70,0,0
290902,-45.2488687782805,4,2,1,5,0,0
290977,-45.2488687782805,4,2,1,70,0,0
291202,-45.2488687782805,4,2,1,5,0,0
291277,-45.2488687782805,4,2,1,70,0,0
291502,-45.2488687782805,4,2,1,5,0,0
291577,-45.2488687782805,4,2,1,70,0,0
292177,-45.2488687782805,4,2,1,70,0,0
292477,-45.2488687782805,4,2,1,70,0,0
293002,-45.2488687782805,4,2,1,5,0,0
293077,-45.2488687782805,4,2,1,70,0,0
293152,-45.2488687782805,4,2,1,5,0,0
293227,-45.2488687782805,4,2,1,70,0,0
293302,-45.2488687782805,4,2,1,5,0,0
293377,-45.2488687782805,4,2,1,70,0,0
293602,-45.2488687782805,4,2,1,5,0,0
293677,-45.2488687782805,4,2,1,70,0,0
293752,-45.2488687782805,4,2,1,5,0,0
293827,-45.2488687782805,4,2,1,70,0,0
294202,-45.2488687782805,4,2,1,5,0,0
294277,-45.2488687782805,4,2,1,70,0,0
294502,-45.2488687782805,4,2,1,5,0,0
294577,-45.2488687782805,4,2,1,70,0,0
294727,-45.2488687782805,4,2,1,70,0,0
294952,-45.2488687782805,4,2,1,70,0,0
295102,-45.2488687782805,4,2,1,5,0,0
295177,-45.2488687782805,4,2,1,70,0,0
295402,-45.2488687782805,4,2,1,5,0,0
295477,-45.2488687782805,4,2,1,70,0,0
295627,-45.2488687782805,4,2,1,5,0,0
295702,-45.2488687782805,4,2,1,70,0,0
296302,-45.2488687782805,4,2,1,5,0,0
296377,-45.2488687782805,4,2,1,70,0,0
296602,-45.2488687782805,4,2,1,5,0,0
296677,-45.2488687782805,4,2,1,70,0,0
296902,-45.2488687782805,4,2,1,5,0,0
296977,-45.2488687782805,4,2,1,70,0,0
297577,-38.3141762452107,4,2,1,70,0,0
297802,-38.3141762452107,4,2,1,5,0,0
297877,-38.3141762452107,4,2,1,70,0,0
297952,-38.3141762452107,4,2,1,5,0,0
298027,-45.2488687782805,4,2,1,70,0,0
298102,-45.2488687782805,4,2,1,5,0,0
298177,-45.2488687782805,4,2,1,70,0,0
298402,-45.2488687782805,4,2,1,5,0,0
298477,-45.2488687782805,4,2,1,70,0,0
299152,-45.2488687782805,4,2,1,5,0,0
299227,-45.2488687782805,4,2,1,70,0,0
299302,-45.2488687782805,4,2,1,5,0,0
299377,-45.2488687782805,4,2,1,70,0,0
299602,-45.2488687782805,4,2,1,5,0,0
299677,-45.2488687782805,4,2,1,70,0,0
299752,-45.2488687782805,4,2,1,5,0,0
299827,-45.2488687782805,4,2,1,70,0,0
299902,-45.2488687782805,4,2,1,5,0,0
299977,-45.2488687782805,4,2,1,70,0,0
300202,-45.2488687782805,4,2,1,5,0,0
300277,-45.2488687782805,4,2,1,70,0,0
300502,-45.2488687782805,4,2,1,5,0,0
300577,-45.2488687782805,4,2,1,70,0,0
300802,-45.2488687782805,4,2,1,5,0,0
300877,-45.2488687782805,4,2,1,70,0,0
301102,-45.2488687782805,4,2,1,5,0,0
301177,-45.2488687782805,4,2,1,70,0,0
301777,-45.2488687782805,4,2,1,70,0,0
302077,-45.2488687782805,4,2,1,70,0,0
302602,-45.2488687782805,4,2,1,5,0,0
302677,-45.2488687782805,4,2,1,70,0,0
302752,-45.2488687782805,4,2,1,5,0,0
302827,-45.2488687782805,4,2,1,70,0,0
302902,-45.2488687782805,4,2,1,5,0,0
302977,-45.2488687782805,4,2,1,70,0,0
303202,-45.2488687782805,4,2,1,5,0,0
303277,-45.2488687782805,4,2,1,70,0,0
303352,-45.2488687782805,4,2,1,5,0,0
303427,-38.3141762452107,4,2,1,70,0,0
303502,-38.3141762452107,4,2,1,5,0,0
303577,-38.3141762452107,4,2,1,70,0,0
303877,-55.2486187845304,4,2,1,70,0,0
304027,-55.2486187845304,4,2,1,70,0,0
304627,-55.2486187845304,4,2,1,70,0,0
304927,-55.2486187845304,4,2,1,70,0,0
305077,-55.2486187845304,4,2,1,70,0,0
305227,-55.2486187845304,4,2,1,70,0,0
305827,-55.2486187845304,4,2,1,70,0,0
305977,-55.2486187845304,4,2,2,70,0,0
306427,-55.2486187845304,4,2,3,70,0,0
306877,-55.2486187845304,4,2,4,70,0,0
307177,-55.2486187845304,4,2,1,50,0,0
307477,-99.009900990099,4,2,1,55,0,0
307777,-82.6446280991736,4,2,1,60,0,0
308077,-70.9219858156028,4,2,12,70,0,0
308377,-70.9219858156028,4,2,12,70,0,0
313177,-70.9219858156028,4,2,12,5,0,0

[Colours]
Combo1 : 201,201,201
Combo2 : 255,145,145
Combo3 : 211,211,211
Combo4 : 238,87,87

[HitObjects]
185,0,577,6,0,L|198:59,1,57.4000008758545,2|2,2:0|2:0,2:0:0:0:
197,56,1177,6,0,L|184:108,1,42.3499988045121,2|0,1:2|2:0,2:0:0:0:
295,26,1327,2,0,L|330:39,1,28.3500006921387,0|0,2:0|2:0,2:0:0:0:
371,96,1477,2,0,L|406:109,1,28.3500006921387,8|0,2:0|2:0,2:0:0:0:
452,165,1627,2,0,L|445:215,5,42.3499988045121,0|0|0|0|0|0,1:0|2:0|2:0|2:0|2:0|2:0,2:0:0:0:
405,97,2077,2,0,L|378:87,1,28.3500006921387,8|0,2:0|2:0,2:0:0:0:
331,31,2227,2,0,L|304:22,1,28.3500006921387,0|0,2:0|2:0,2:0:0:0:
189,67,2377,6,0,L|176:116,3,42.3499988045121,2|0|0|0,3:2|2:0|2:0|2:0,2:0:0:0:
251,148,2677,2,0,L|268:199,3,42.3499988045121,8|0|0|0,2:0|2:0|2:0|2:0,2:0:0:0:
209,255,2977,2,0,L|192:305,3,42.3499988045121,0|0|0|0,2:0|2:0|2:0|2:0,2:0:0:0:
238,366,3277,5,8,2:0:0:0:
221,373,3352,1,0,2:0:0:0:
200,379,3427,1,0,2:0:0:0:
184,381,3502,1,0,2:0:0:0:
171,376,3577,6,0,P|138:358|119:358,1,42.3499988045121,2|0,1:2|2:0,2:0:0:0:
26,276,3727,2,0,P|32:304|42:327,3,42.3499988045121,2|0|8|0,2:0|2:0|2:0|2:0,2:0:0:0:
81,211,4027,2,0,P|96:186|105:163,3,42.3499988045121,2|0|0|0,1:2|2:0|2:0|2:0,2:0:0:0:
14,142,4327,6,0,P|1:113|0:93,1,42.3499988045121,2|0,2:0|2:0,2:0:0:0:
166,221,4477,2,0,L|211:237,1,42.3499988045121,8|0,2:0|2:0,2:0:0:0:
78,94,4627,6,0,P|87:68|103:53,1,42.3499988045121,2|0,2:0|2:0,2:0:0:0:
112,288,4777,2,0,L|204:320,1,84.6999976090241,0|0,3:0|2:0,2:0:0:0:
356,373,5077,1,8,2:0:0:0:
356,373,5227,2,0,L|308:386,1,42.3499988045121,0|0,2:0|2:0,2:0:0:0:
416,155,5377,5,2,2:0:0:0:
455,153,5452,1,0,2:0:0:0:
482,177,5527,1,0,2:0:0:0:
489,212,5602,1,0,2:0:0:0:
469,243,5677,2,0,L|427:227,3,42.3499988045121,10|0|0|0,2:0|2:0|2:0|2:0,2:0:0:0:
306,238,5977,6,0,P|340:223|349:184,1,56.3500000859833,2|0,1:2|2:0,2:0:0:0:
450,322,6127,2,0,L|390:299,1,56.3500000859833,0|0,2:0|2:0,2:0:0:0:
277,161,6277,5,8,2:0:0:0:
406,10,6427,1,0,1:0:0:0:
440,7,6502,1,0,2:0:0:0:
458,22,6577,2,0,P|450:55|436:81,3,56.3500000859833,0|0|0|0,2:0|2:0|2:0|2:0,2:0:0:0:
356,73,6877,6,0,L|294:58,1,56.3500000859833,8|0,2:0|2:0,2:0:0:0:
136,7,7027,2,0,P|98:29|92:51,1,56.3500000859833,0|0,2:0|2:0,2:0:0:0:
9,169,7177,5,2,3:2:0:0:
21,178,7252,1,0,2:0:0:0:
35,189,7327,2,0,L|95:174,1,56.3500000859833,0|0,2:0|2:0,2:0:0:0:
143,100,7477,1,8,2:0:0:0:
155,91,7552,1,0,2:0:0:0:
169,80,7627,2,0,L|229:95,1,56.3500000859833,0|0,2:0|2:0,2:0:0:0:
401,142,7777,6,0,L|460:121,3,56.3500000859833,0|0|0|0,2:0|2:0|2:0|2:0,2:0:0:0:
297,149,8077,1,8,2:0:0:0:
255,164,8152,1,0,2:0:0:0:
231,200,8227,1,0,2:0:0:0:
236,241,8302,1,0,2:0:0:0:
259,273,8377,6,0,L|321:253,1,56.3500000859833,2|0,1:2|2:0,2:0:0:0:
147,104,8527,2,0,L|28:87,1,112.700000171967,2|8,2:0|2:0,2:0:0:0:
366,196,8827,5,2,1:2:0:0:
389,215,8902,1,0,2:0:0:0:
398,243,8977,2,0,P|396:282|384:306,1,56.3500000859833,0|0,2:0|2:0,2:0:0:0:
215,344,9127,2,0,L|148:333,1,56.3500000859833,2|0,2:0|2:0,2:0:0:0:
422,137,9277,6,0,P|450:163|461:188,1,56.3500000859833,8|0,2:0|2:0,2:0:0:0:
347,368,9427,2,0,L|272:356,1,56.3500000859833,2|0,2:0|2:0,2:0:0:0:
79,323,9577,5,2,3:2:0:0:
79,323,9652,1,0,2:0:0:0:
79,323,9727,2,0,L|64:259,1,56.3500000859833,0|0,2:0|2:0,2:0:0:0:
215,136,9877,1,8,2:0:0:0:
215,136,9952,1,0,2:0:0:0:
215,136,10027,2,0,L|200:200,1,56.3500000859833,8|0,2:0|2:0,2:0:0:0:
0,50,10177,5,2,2:0:0:0:
25,87,10252,1,0,2:0:0:0:
73,99,10327,1,0,2:0:0:0:
123,87,10402,1,0,2:0:0:0:
166,53,10477,1,2,1:2:0:0:
221,46,10552,1,0,2:0:0:0:
274,68,10627,1,0,2:0:0:0:
301,112,10702,1,0,2:0:0:0:
299,161,10777,6,0,L|281:227,3,56.3500000859833,6|0|0|0,1:0|2:0|2:0|2:0,2:0:0:0:
225,384,11077,2,0,L|213:349,1,28.3500006921387,8|0,1:2|2:0,2:0:0:0:
376,140,11227,5,2,2:0:0:0:
392,124,11302,1,0,2:0:0:0:
413,116,11377,2,0,L|492:100,1,56.3500000859833,0|0,1:0|2:0,2:0:0:0:
223,278,11527,2,0,L|144:262,1,56.3500000859833,0|0,2:0|2:0,2:0:0:0:
299,341,11677,6,0,L|305:309,1,28.3500006921387,8|0,1:2|2:0,2:0:0:0:
165,186,11827,2,0,L|94:173,1,56.3500000859833,2|0,2:0|2:0,2:0:0:0:
364,256,11977,5,2,1:2:0:0:
400,268,12052,1,0,2:0:0:0:
436,259,12127,2,0,L|506:238,1,56.3500000859833,0|0,2:0|2:0,2:0:0:0:
215,357,12277,2,0,L|143:343,1,56.3500000859833,8|0,1:2|2:0,2:0:0:0:
156,101,12427,1,0,2:0:0:0:
197,104,12502,1,0,2:0:0:0:
232,132,12577,1,0,1:0:0:0:
247,165,12652,1,0,2:0:0:0:
246,202,12727,1,0,2:0:0:0:
39,10,12877,6,0,L|95:-5,1,42.3499988045121,8|0,1:2|2:0,2:0:0:0:
233,39,13027,2,0,L|275:46,1,42.3499988045121,0|0,2:0|2:0,2:0:0:0:
418,20,13177,5,2,1:2:0:0:
265,240,13327,2,0,L|332:225,1,56.3500000859833,2|0,2:0|2:0,2:0:0:0:
397,210,13477,1,8,1:2:0:0:
211,31,13627,5,2,2:0:0:0:
173,29,13702,1,0,2:0:0:0:
144,49,13777,1,0,1:0:0:0:
131,80,13852,1,0,2:0:0:0:
138,113,13927,2,0,L|196:130,1,56.3500000859833,2|0,2:0|2:0,2:0:0:0:
157,261,14077,5,8,1:2:0:0:
397,210,14227,2,0,L|466:191,1,56.3500000859833,2|0,2:0|2:0,2:0:0:0:
120,384,14377,5,0,1:0:0:0:
120,384,14452,1,0,2:0:0:0:
120,384,14527,2,0,L|107:329,1,42.3499988045121,0|0,2:0|2:0,2:0:0:0:
254,218,14677,1,8,1:2:0:0:
254,218,14752,1,0,2:0:0:0:
254,218,14827,2,0,L|241:273,1,42.3499988045121,0|0,2:0|2:0,2:0:0:0:
38,359,14977,5,2,1:2:0:0:
36,347,15052,1,0,2:0:0:0:
35,337,15127,2,0,L|22:282,1,42.3499988045121,0|0,2:0|2:0,2:0:0:0:
330,250,15277,1,10,1:2:0:0:
331,264,15352,1,0,2:0:0:0:
330,276,15427,2,0,L|317:331,1,42.3499988045121,0|0,2:0|2:0,2:0:0:0:
70,152,15577,5,0,1:0:0:0:
239,346,15727,1,0,1:0:0:0:
204,73,15877,1,8,1:2:0:0:
118,323,16027,1,0,1:0:0:0:
332,68,16177,5,0,1:0:0:0:
201,262,16327,1,0,1:0:0:0:
148,8,16477,1,8,1:2:0:0:
298,208,16627,1,2,1:0:0:0:
71,62,16777,5,0,1:0:0:0:
387,156,16927,1,0,1:0:0:0:
44,239,17077,1,8,1:2:0:0:
371,148,17227,1,0,1:0:0:0:
182,384,17377,5,0,1:0:0:0:
267,57,17527,1,0,1:0:0:0:
324,384,17677,1,8,1:2:0:0:
265,41,17827,1,0,1:0:0:0:
85,322,17977,6,0,L|-2:345,1,88.1999973083497,4|0,3:2|2:0,2:0:0:0:
144,384,19177,2,0,L|152:358,14,21.174999402256,4|4|4|4|4|4|4|4|4|4|4|4|4|4|4,2:3|2:3|2:3|2:3|2:3|2:3|2:3|2:3|2:3|2:3|2:3|2:3|2:3|2:3|2:3,2:0:0:0:
207,307,19777,6,0,L|191:258,1,31.6749998308373,4|4,2:3|2:3,2:0:0:0:
213,297,19852,2,0,L|197:248,1,31.6749998308373,4|4,2:3|2:3,2:0:0:0:
218,288,19927,2,0,L|202:239,1,31.6749998308373,4|4,2:3|2:3,2:0:0:0:
224,278,20002,2,0,L|208:229,1,31.6749998308373,4|4,2:3|2:3,2:0:0:0:
230,269,20077,2,0,L|214:220,1,31.6749998308373,4|4,2:3|2:3,2:0:0:0:
236,259,20152,2,0,L|220:210,1,31.6749998308373,4|4,2:3|2:3,2:0:0:0:
241,250,20227,2,0,L|225:201,1,31.6749998308373,4|4,2:3|2:3,2:0:0:0:
247,240,20302,2,0,L|231:191,1,31.6749998308373,4|4,2:3|2:3,2:0:0:0:
307,181,20377,6,0,L|285:279,1,77.3500029801751,6|0,1:0|2:0,2:0:0:0:
260,382,20527,1,2,1:2:0:0:
149,191,20677,5,8,2:3:0:0:
451,384,20827,1,0,2:0:0:0:
451,384,20902,1,0,2:0:0:0:
451,384,20977,2,0,L|380:199,1,182.700007596703,0|0,2:0|1:0,2:0:0:0:
178,95,21277,6,0,P|214:130|247:127,1,77.3500029801751,10|0,2:3|2:0,2:0:0:0:
311,185,21427,1,2,2:0:0:0:
180,263,21577,6,0,P|217:231|216:185,1,77.3500029801751,2|0,1:2|2:0,2:0:0:0:
332,8,21727,2,0,P|290:40|289:87,1,77.3500029801751,2|0,1:2|2:0,2:0:0:0:
76,178,21877,2,0,P|120:196|164:168,1,77.3500029801751,10|0,2:3|2:0,2:0:0:0:
433,91,22027,2,0,P|381:79|345:108,1,77.3500029801751,2|0,2:0|2:0,2:0:0:0:
196,14,22177,6,0,L|262:290,1,274.050011395054,2|0,2:0|2:0,2:0:0:0:
264,294,22477,1,10,2:3:0:0:
119,94,22627,1,2,2:0:0:0:
284,61,22777,5,2,1:2:0:0:
113,319,22927,2,0,P|159:312|175:270,1,91.3500037983515,2|0,1:2|2:0,2:0:0:0:
30,82,23077,2,0,P|13:125|41:160,1,91.3500037983515,10|0,2:3|2:0,2:0:0:0:
192,199,23227,2,0,L|117:184,1,77.3500029801751,2|0,2:0|2:0,2:0:0:0:
87,17,23377,5,2,2:0:0:0:
0,233,23527,2,0,L|83:251,1,77.3500029801751,0|0,1:0|2:0,2:0:0:0:
272,191,23677,6,0,P|271:146|249:121,1,77.3500029801751,10|0,2:3|2:0,2:0:0:0:
195,67,23827,1,2,2:0:0:0:
320,315,23977,6,0,L|344:231,1,77.3500029801751,2|0,1:2|2:0,2:0:0:0:
456,78,24127,2,0,L|478:153,1,77.3500029801751,2|0,1:2|2:0,2:0:0:0:
386,374,24277,6,0,L|410:290,1,77.3500029801751,10|0,2:3|2:0,2:0:0:0:
385,126,24427,2,0,L|361:42,1,77.3500029801751,2|0,2:0|2:0,2:0:0:0:
491,235,24577,6,0,B|427:241|399:192|413:187|371:142|316:163,1,196.699999399719,2|0,2:0|1:0,2:0:0:0:
231,324,24802,1,0,1:0:0:0:
231,324,24877,6,0,L|512:227,1,274.050011395054,8|0,2:3|2:0,2:0:0:0:
342,384,25177,6,0,P|309:346|312:318,1,77.3500029801751,2|0,1:3|2:0,2:0:0:0:
235,157,25327,2,0,L|216:249,1,77.3500029801751,2|0,1:2|2:0,2:0:0:0:
152,384,25477,5,8,2:3:0:0:
23,275,25627,1,2,2:0:0:0:
45,238,25702,1,0,2:0:0:0:
84,231,25777,1,0,2:0:0:0:
0,176,25927,5,0,1:0:0:0:
234,317,26077,6,0,P|179:306|166:276,1,77.3500029801751,10|0,2:3|2:0,2:0:0:0:
91,71,26227,2,0,L|68:161,1,77.3500029801751,2|0,2:0|2:0,2:0:0:0:
36,354,26377,6,0,P|67:347|96:305,1,77.3500029801751,2|0,1:2|2:0,2:0:0:0:
159,131,26527,2,0,P|201:151|214:199,1,77.3500029801751,2|0,1:2|2:0,2:0:0:0:
321,305,26677,6,0,P|297:257|256:239,1,91.3500037983515,10|0,2:3|2:0,2:0:0:0:
137,208,26827,2,0,P|78:229|34:212,1,91.3500037983515,2|0,2:0|2:0,2:0:0:0:
291,372,26977,6,0,B|320:311|374:318|367:336|455:370|507:293|440:196|377:242,1,295.049999099579,2|0,2:0|2:0,2:0:0:0:
384,240,27277,1,10,2:3:0:0:
428,344,27427,1,2,2:0:0:0:
454,364,27502,1,0,2:0:0:0:
477,369,27577,6,0,P|489:331|467:292,1,77.3500029801751,2|0,1:2|2:0,2:0:0:0:
320,177,27727,1,2,1:2:0:0:
485,101,27877,6,0,P|456:60|419:58,1,77.3500029801751,10|0,2:3|2:0,2:0:0:0:
306,184,28027,1,2,2:0:0:0:
331,17,28177,5,2,2:0:0:0:
393,249,28327,1,2,1:2:0:0:
393,249,28402,1,0,2:0:0:0:
393,249,28477,2,0,L|416:354,1,77.3500029801751,10|0,2:3|2:0,2:0:0:0:
474,121,28627,2,0,P|420:127|400:164,1,91.3500037983515,2|0,2:0|2:0,2:0:0:0:
293,377,28777,6,0,P|313:313|291:282,1,91.3500037983515,2|0,1:2|2:0,2:0:0:0:
176,94,28927,2,0,P|156:158|178:189,1,91.3500037983515,2|0,1:2|2:0,2:0:0:0:
413,329,29077,5,10,2:3:0:0:
240,230,29227,1,2,2:0:0:0:
72,307,29377,5,2,1:2:0:0:
72,307,29452,1,0,1:0:0:0:
72,307,29527,2,0,L|80:339,2,21.174999402256,0|0|0,2:1|2:0|2:0,2:0:0:0:
91,211,29677,6,0,P|55:305|32:394,1,182.700007596703,8|0,2:3|2:0,2:0:0:0:
10,196,29977,6,0,B|76:206|101:149|95:144|91:135|121:80|187:95,1,210.699999758873,2|0,1:2|1:0,2:0:0:0:
310,10,30202,1,0,0:0:0:0:
317,21,30277,2,0,P|301:70|294:105,1,77.3500029801751,10|0,2:3|2:3,2:3:0:0:
247,192,30427,1,2,2:0:0:0:
270,208,30502,1,0,2:0:0:0:
303,215,30577,6,0,P|343:208|367:176,1,77.3500029801751,2|0,2:0|2:0,2:0:0:0:
440,155,30727,2,0,P|427:119|442:83,1,77.3500029801751,0|0,1:0|2:0,2:0:0:0:
214,112,30877,5,10,2:3:0:0:
426,238,31027,2,0,L|530:204,1,91.3500037983515,2|0,2:0|2:0,2:0:0:0:
411,384,31177,6,0,P|384:334|406:296,1,91.3500037983515,2|0,1:2|2:0,2:0:0:0:
357,44,31327,2,0,P|327:92|283:92,1,91.3500037983515,2|0,1:2|2:0,2:0:0:0:
246,312,31477,6,0,B|328:315|360:242|335:230|356:144|444:156,1,274.050011395054,10|0,2:3|2:0,2:0:0:0:
306,217,31777,2,0,L|216:193,1,77.3500029801751,2|0,2:0|2:0,2:0:0:0:
3,274,31927,2,0,P|24:231|75:225,1,91.3500037983515,2|0,1:2|2:0,2:0:0:0:
149,248,32077,5,10,2:3:0:0:
76,384,32227,2,0,P|65:327|95:297,1,91.3500037983515,2|0,2:0|2:0,2:0:0:0:
354,150,32377,6,0,L|337:85,1,63.3499996616745,2|0,1:2|2:0,2:0:0:0:
343,78,32527,2,0,L|360:143,1,63.3499996616745,2|0,1:2|2:0,2:0:0:0:
195,45,32677,6,0,P|243:42|264:70,1,77.3500029801751,10|0,2:3|2:0,2:0:0:0:
503,143,32827,2,0,P|455:146|434:118,1,77.3500029801751,2|0,2:0|2:0,2:0:0:0:
486,2,32977,6,0,P|438:16|423:60,1,91.3500037983515,2|0,2:0|2:0,2:0:0:0:
239,264,33127,2,0,P|287:250|302:206,1,91.3500037983515,0|0,1:0|2:0,2:0:0:0:
324,2,33277,6,0,L|346:91,1,77.3500029801751,10|0,2:3|2:0,2:0:0:0:
361,150,33427,2,0,L|383:239,1,77.3500029801751,2|0,2:0|2:0,2:0:0:0:
404,343,33577,5,2,1:2:0:0:
226,177,33727,1,2,1:2:0:0:
226,177,33802,1,2,2:0:0:0:
226,177,33877,2,0,L|521:105,1,295.049999099579,10|0,2:3|2:0,2:0:0:0:
421,155,34177,6,0,L|315:129,1,98.3499996998596,2|0,2:0|2:0,2:0:0:0:
120,67,34327,1,0,1:0:0:0:
90,59,34402,1,0,1:0:0:0:
75,30,34477,6,0,B|56:-13|145:-39|203:4|177:137|63:158,1,295.049999099579,8|0,2:3|2:0,2:0:0:0:
0,86,34777,6,0,P|41:124|39:155,1,77.3500029801751,2|0,1:2|2:0,2:0:0:0:
83,375,34927,1,2,1:2:0:0:
143,142,35077,6,0,P|140:197|115:216,1,77.3500029801751,10|0,2:3|2:0,2:0:0:0:
5,346,35227,6,0,B|36:275|8:210|8:210|35:271|112:296,1,274.050011395054,2|0,2:0|0:0,0:0:0:0:
180,342,35527,2,0,L|167:387,1,42.3499988045121,2|0,2:2|2:0,0:0:0:0:
250,283,35677,6,0,L|220:186,1,77.3500029801751,10|0,2:3|2:0,2:0:0:0:
336,67,35827,2,0,P|359:38|418:37,1,91.3500037983515,2|0,2:0|2:0,2:0:0:0:
92,46,35977,6,0,L|196:69,1,91.3500037983515,2|0,1:2|2:0,2:0:0:0:
234,126,36127,2,0,L|328:149,1,77.3500029801751,2|0,1:2|2:0,2:0:0:0:
42,142,36277,6,0,L|341:71,1,295.049999099579,10|0,2:3|2:0,2:0:0:0:
458,101,36577,2,0,P|414:128|380:117,1,77.3500029801751,2|0,2:0|2:0,2:0:0:0:
247,32,36727,2,0,P|209:30|180:54,1,77.3500029801751,2|0,1:2|2:0,2:0:0:0:
35,214,36877,6,0,P|80:204|114:160,1,91.3500037983515,10|0,2:3|2:0,2:0:0:0:
322,0,37027,2,0,P|368:7|400:47,1,91.3500037983515,2|0,2:0|2:0,2:0:0:0:
505,301,37177,5,0,1:0:0:0:
505,301,37327,1,2,1:2:0:0:
455,242,37477,6,0,L|474:304,2,45.6750018991757,10|8|8,2:0|2:0|2:0,2:0:0:0:
504,174,37627,1,10,2:1:0:0:
504,174,37702,1,8,2:1:0:0:
504,174,37777,6,0,L|480:244,1,63.3499996616745,8|0,2:1|2:0,2:0:0:0:
416,382,37927,2,0,L|397:310,1,63.3499996616745,0|8,1:0|2:1,2:0:0:0:
237,211,38077,1,2,1:2:0:0:
278,220,38152,1,0,2:0:0:0:
321,230,38227,1,8,2:1:0:0:
367,243,38302,1,8,2:1:0:0:
403,175,38377,5,10,1:2:0:0:
403,175,38452,1,8,2:0:0:0:
403,175,38527,2,0,L|383:116,2,31.6749998308373,10|8|8,1:2|2:0|2:0,2:0:0:0:
460,93,38677,6,0,L|474:29,1,63.3499996616745,2|0,1:0|2:0,2:0:0:0:
226,196,38827,2,0,L|246:137,2,31.6749998308373,10|8|8,2:0|2:0|2:0,2:0:0:0:
452,68,38977,6,0,L|466:-1,1,49.349997477379,2|0,2:0|2:0,2:0:0:0:
279,47,39127,2,0,L|298:101,2,45.6750018991757,8|8|8,2:0|2:0|2:0,2:0:0:0:
360,140,39277,2,0,L|354:166,2,24.6749987386895,10|8|8,2:0|2:0|2:0,2:0:0:0:
490,214,39427,5,8,2:0:0:0:
495,227,39502,1,8,2:0:0:0:
499,239,39577,5,4,1:0:0:0:
465,285,39652,1,0,2:0:0:0:
410,300,39727,1,2,1:2:0:0:
359,280,39802,1,0,2:0:0:0:
319,241,39877,1,10,2:3:0:0:
265,220,39952,1,0,2:0:0:0:
209,227,40027,1,2,2:0:0:0:
170,266,40102,1,0,2:0:0:0:
171,321,40177,5,2,2:0:0:0:
216,316,40252,1,0,2:0:0:0:
253,283,40327,1,0,1:0:0:0:
255,234,40402,1,0,2:0:0:0:
227,200,40477,1,10,2:3:0:0:
177,186,40552,1,0,2:0:0:0:
131,148,40627,1,2,2:0:0:0:
115,101,40702,1,0,2:0:0:0:
134,51,40777,6,0,P|166:35|203:40,1,63.3499996616745,2|0,1:2|2:0,2:0:0:0:
72,198,40927,2,0,P|40:214|-5:211,1,63.3499996616745,0|0,1:2|2:0,2:0:0:0:
233,104,41077,6,0,L|321:122,1,63.3499996616745,10|0,2:3|2:0,2:0:0:0:
371,133,41227,2,0,L|456:151,1,63.3499996616745,2|0,2:0|2:0,2:0:0:0:
165,376,41377,5,2,2:0:0:0:
123,343,41452,1,0,2:0:0:0:
114,292,41527,1,0,1:0:0:0:
146,243,41602,1,0,2:0:0:0:
195,229,41677,2,0,L|207:296,1,49.349997477379,10|0,2:3|2:0,2:0:0:0:
318,373,41827,2,0,P|306:333|276:310,1,63.3499996616745,2|0,2:0|2:0,2:0:0:0:
204,214,41977,6,0,L|286:191,1,77.3500029801751,2|0,1:2|2:0,2:0:0:0:
433,147,42127,1,2,1:2:0:0:
111,111,42277,6,0,L|206:125,1,77.3500029801751,10|0,2:3|2:0,2:0:0:0:
450,166,42427,1,2,2:0:0:0:
464,198,42502,1,0,2:0:0:0:
456,234,42577,1,2,2:0:0:0:
430,258,42652,1,0,2:0:0:0:
400,264,42727,2,0,L|321:243,1,63.3499996616745,2|0,1:2|2:0,2:0:0:0:
94,119,42877,6,0,P|130:159|126:191,1,77.3500029801751,10|0,2:3|2:0,2:0:0:0:
148,360,43027,2,0,P|94:355|75:329,1,77.3500029801751,0|0,2:0|2:0,2:0:0:0:
0,305,43177,5,0,1:0:0:0:
6,290,43252,1,0,2:0:0:0:
13,277,43327,2,0,L|92:253,1,77.3500029801751,0|0,1:0|2:0,2:0:0:0:
331,65,43477,1,10,2:3:0:0:
341,114,43552,1,0,2:0:0:0:
307,159,43627,1,0,2:0:0:0:
257,178,43702,1,0,2:0:0:0:
209,149,43777,6,0,L|230:58,1,77.3500029801751,2|0,2:0|2:0,2:0:0:0:
243,272,43927,1,0,1:0:0:0:
243,272,44002,1,0,1:0:0:0:
243,272,44077,6,0,B|280:177|200:148|190:172|118:126|157:31,1,274.050011395054,10|0,2:3|2:0,2:0:0:0:
384,38,44377,6,0,P|382:83|352:116,1,91.3500037983515,2|0,1:2|2:0,2:0:0:0:
300,50,44527,2,0,L|214:77,1,77.3500029801751,2|0,1:2|2:0,2:0:0:0:
459,124,44677,5,8,2:3:0:0:
496,164,44752,1,0,2:0:0:0:
493,221,44827,1,2,2:0:0:0:
458,263,44902,1,0,2:0:0:0:
403,270,44977,1,2,2:0:0:0:
354,235,45052,1,0,2:0:0:0:
322,192,45127,1,0,1:0:0:0:
268,175,45202,1,0,2:0:0:0:
222,193,45277,1,10,2:3:0:0:
195,237,45352,1,0,2:0:0:0:
190,287,45427,2,0,L|216:365,1,77.3500029801751,2|0,2:0|2:0,2:0:0:0:
420,197,45577,6,0,P|418:144|371:112,1,91.3500037983515,2|0,1:2|2:0,2:0:0:0:
182,16,45727,2,0,P|184:69|231:101,1,91.3500037983515,2|0,1:2|2:0,2:0:0:0:
442,54,45877,6,0,P|403:37|351:61,1,77.3500029801751,10|0,2:3|2:0,2:0:0:0:
62,118,46027,2,0,P|99:139|151:115,1,77.3500029801751,2|0,2:0|2:0,2:0:0:0:
296,7,46177,6,0,L|280:119,1,77.3500029801751,2|0,2:0|2:0,2:0:0:0:
196,178,46327,2,0,L|223:354,1,154.70000596035,0|10,1:0|2:3,2:0:0:0:
222,340,46552,1,0,2:0:0:0:
223,351,46627,2,0,P|269:378|299:370,1,77.3500029801751,2|0,2:0|2:0,2:0:0:0:
297,165,46777,5,2,1:2:0:0:
152,384,46927,1,2,1:2:0:0:
152,384,47002,1,0,2:0:0:0:
152,384,47077,2,0,L|62:360,1,77.3500029801751,10|0,2:3|2:0,2:0:0:0:
72,245,47227,2,0,P|118:269|123:312,1,77.3500029801751,2|0,2:0|2:0,2:0:0:0:
362,341,47377,5,2,2:0:0:0:
371,121,47527,1,2,1:2:0:0:
349,88,47602,1,0,2:0:0:0:
307,71,47677,1,10,2:3:0:0:
269,76,47752,1,0,2:0:0:0:
231,103,47827,1,0,2:0:0:0:
215,145,47902,1,0,2:0:0:0:
218,184,47977,6,0,L|238:269,1,77.3500029801751,2|0,1:2|2:0,2:0:0:0:
71,62,48127,2,0,P|113:66|134:119,1,77.3500029801751,2|0,1:2|2:0,2:0:0:0:
232,192,48277,6,0,L|252:277,1,77.3500029801751,10|0,2:3|2:0,2:0:0:0:
451,198,48427,2,0,P|409:202|388:255,1,77.3500029801751,0|0,2:0|2:0,2:0:0:0:
207,339,48577,1,2,1:2:0:0:
207,339,48652,1,0,1:0:0:0:
207,339,48727,2,0,L|164:353,1,42.3499988045121,0|0,1:0|2:0,2:0:0:0:
0,175,48877,6,0,B|65:158|139:197|140:272|140:272|101:286|87:328,1,274.050011395054,8|0,2:3|2:0,2:0:0:0:
342,384,49177,2,0,P|315:343|286:338,1,77.3500029801751,2|0,1:2|2:0,2:0:0:0:
382,128,49327,5,0,1:0:0:0:
362,78,49402,1,0,2:0:0:0:
318,54,49477,1,8,2:3:0:0:
267,65,49552,1,0,2:0:0:0:
230,109,49627,1,2,2:0:0:0:
198,155,49702,1,0,2:0:0:0:
150,186,49777,1,2,2:0:0:0:
98,180,49852,1,0,2:0:0:0:
60,143,49927,1,2,1:2:0:0:
57,97,50002,1,0,2:0:0:0:
85,62,50077,6,0,P|125:80|137:118,1,77.3500029801751,10|0,2:3|2:0,2:0:0:0:
305,138,50227,2,0,L|410:108,1,77.3500029801751,2|0,2:0|2:0,2:0:0:0:
283,296,50377,5,2,1:2:0:0:
132,267,50527,1,2,1:2:0:0:
132,267,50602,1,0,1:0:0:0:
132,267,50677,2,0,P|97:293|100:337,1,77.3500029801751,10|0,2:3|2:0,2:0:0:0:
292,311,50827,2,0,L|401:336,1,77.3500029801751,2|0,2:0|2:0,2:0:0:0:
60,143,50977,6,0,L|74:211,1,56.3500000859833,2|0,2:0|2:0,2:0:0:0:
185,384,51127,2,0,L|199:316,1,56.3500000859833,0|0,1:0|2:0,2:0:0:0:
245,150,51277,1,10,2:3:0:0:
231,107,51352,1,0,2:0:0:0:
187,94,51427,1,2,2:0:0:0:
151,121,51502,1,0,2:0:0:0:
144,165,51577,5,2,1:2:0:0:
187,200,51652,1,0,1:0:0:0:
243,202,51727,1,2,1:2:0:0:
291,173,51802,1,0,1:0:0:0:
345,158,51877,1,10,2:3:0:0:
396,179,51952,1,0,2:0:0:0:
426,221,52027,1,2,2:0:0:0:
417,271,52102,1,0,2:0:0:0:
381,309,52177,5,2,2:0:0:0:
344,283,52252,1,0,2:0:0:0:
335,231,52327,1,2,1:2:0:0:
362,183,52402,1,0,2:0:0:0:
405,149,52477,1,10,2:3:0:0:
425,99,52552,1,0,2:0:0:0:
421,44,52627,1,2,2:0:0:0:
375,13,52702,1,0,2:0:0:0:
320,22,52777,6,0,P|292:56|295:103,1,77.3500029801751,2|0,1:2|1:0,2:0:0:0:
415,247,52927,2,0,L|485:264,1,56.3500000859833,0|0,1:0|1:0,2:0:0:0:
190,75,53077,6,0,P|198:118|235:146,1,77.3500029801751,10|0,2:3|2:0,2:0:0:0:
414,328,53227,2,0,L|484:345,1,56.3500000859833,2|0,2:0|2:0,2:0:0:0:
175,210,53377,6,0,P|210:226|256:215,1,77.3500029801751,2|0,2:0|2:0,2:0:0:0:
474,178,53527,1,0,1:0:0:0:
474,178,53602,1,0,1:0:0:0:
474,178,53677,6,0,L|419:164,1,56.3500000859833,8|0,2:3|2:0,2:0:0:0:
190,75,53827,2,0,L|135:61,1,56.3500000859833,0|0,2:0|2:0,2:0:0:0:
361,16,53977,5,4,1:3:0:0:
358,31,54052,1,4,3:0:0:0:
355,47,54127,1,4,3:0:0:0:
352,62,54202,1,4,3:0:0:0:
349,78,54277,1,8,3:0:0:0:
346,93,54352,1,4,3:0:0:0:
343,109,54427,1,4,3:0:0:0:
340,125,54502,1,4,3:0:0:0:
302,190,54577,5,4,3:0:0:0:
305,205,54652,1,4,3:0:0:0:
308,221,54727,1,4,1:3:0:0:
311,236,54802,1,4,3:0:0:0:
314,252,54877,1,8,3:0:0:0:
317,267,54952,1,4,3:0:0:0:
320,283,55027,1,4,3:0:0:0:
323,299,55102,1,4,3:0:0:0:
369,366,55177,5,4,1:3:0:0:
409,357,55252,1,4,3:0:0:0:
430,321,55327,1,4,3:0:0:0:
425,281,55402,1,4,3:0:0:0:
391,256,55477,1,8,3:0:0:0:
345,260,55552,1,4,3:0:0:0:
306,295,55627,1,4,3:0:0:0:
264,335,55702,1,4,3:0:0:0:
208,343,55777,1,4,3:0:0:0:
155,320,55852,1,4,3:0:0:0:
131,270,55927,1,4,1:3:0:0:
142,216,56002,1,4,3:0:0:0:
178,174,56077,1,8,3:0:0:0:
229,160,56152,1,4,3:0:0:0:
288,166,56227,1,4,3:0:0:0:
337,137,56302,1,4,3:0:0:0:
365,88,56377,6,0,L|354:46,3,42.3499988045121,4|4|4|4,2:3|2:3|2:3|2:3,2:0:0:0:
433,42,56677,2,0,L|444:0,3,42.3499988045121,4|4|4|4,2:3|2:3|2:3|2:3,2:0:0:0:
356,101,56977,2,0,L|345:60,3,42.3499988045121,4|4|4|4,2:3|2:3|2:3|2:3,2:0:0:0:
443,40,57277,2,0,L|453:0,3,42.3499988045121,4|4|4|4,2:3|2:3|2:3|2:3,2:0:0:0:
436,128,57577,6,0,L|449:165,14,21.174999402256,4|4|4|4|4|4|4|4|4|4|4|4|4|4|4,2:3|2:3|2:3|2:3|2:3|2:3|2:3|2:3|2:3|2:3|2:3|2:3|2:3|2:3|2:3,2:0:0:0:
493,213,58177,2,0,L|489:227,28,10.587499701128,4|4|4|4|4|4|4|4|4|4|4|4|4|4|4|4|4|4|4|4|4|4|4|4|4|4|4|4|0,2:3|2:3|2:3|2:3|2:3|2:3|2:3|2:3|2:3|2:3|2:3|2:3|2:3|2:3|2:3|2:3|2:3|2:3|2:3|2:3|2:3|2:3|2:3|2:3|2:3|2:3|2:3|2:3|2:0,2:0:0:0:
504,191,58777,6,0,L|400:164,1,77.3500029801751,6|0,1:0|2:0,2:0:0:0:
150,106,58927,1,0,2:0:0:0:
451,50,59077,6,0,P|393:16|371:28,1,77.3500029801751,8|0,2:3|2:0,2:0:0:0:
182,184,59227,1,0,2:0:0:0:
134,189,59302,1,0,2:0:0:0:
90,165,59377,1,0,1:0:0:0:
69,123,59452,1,0,2:0:0:0:
75,74,59527,1,0,2:0:0:0:
286,208,59677,6,0,P|344:174|345:149,1,77.3500029801751,8|0,2:3|2:0,2:0:0:0:
295,49,59827,2,0,L|270:139,1,77.3500029801751,0|0,2:0|2:0,2:0:0:0:
504,191,59977,6,0,L|420:212,1,77.3500029801751,2|0,1:2|2:0,2:0:0:0:
281,311,60127,2,0,L|193:286,1,77.3500029801751,0|0,2:0|2:0,2:0:0:0:
512,376,60277,6,0,P|507:329|480:305,1,77.3500029801751,8|0,2:3|2:0,2:0:0:0:
289,226,60427,2,0,L|126:175,1,154.70000596035,2|0,2:0|1:0,2:0:0:0:
59,160,60652,1,0,2:0:0:0:
49,155,60727,1,2,2:0:0:0:
348,0,60877,2,0,P|343:47|316:71,1,77.3500029801751,10|0,2:3|2:0,2:0:0:0:
133,320,61027,1,0,2:0:0:0:
92,290,61102,1,0,2:0:0:0:
83,239,61177,5,2,1:2:0:0:
356,265,61327,1,2,2:0:0:0:
210,334,61477,2,0,P|251:357|260:384,1,77.3500029801751,8|0,2:3|2:0,2:0:0:0:
497,197,61627,6,0,P|453:215|442:261,1,77.3500029801751,2|0,2:0|2:0,2:0:0:0:
406,384,61777,1,0,1:0:0:0:
217,156,61927,6,0,L|263:397,1,232.050008940525,2|0,2:0|2:0,2:0:0:0:
335,339,62227,2,0,L|360:249,1,77.3500029801751,2|0,2:0|2:0,2:0:0:0:
411,35,62377,1,0,1:0:0:0:
135,127,62527,5,0,2:0:0:0:
135,127,62602,1,0,2:0:0:0:
135,127,62677,2,0,B|166:88|166:88|52:141,1,154.70000596035,10|0,2:3|2:0,2:0:0:0:
14,38,62902,1,0,2:0:0:0:
14,38,62977,6,0,B|74:54|74:54|122:196|122:196|197:219,1,274.050011395054,2|0,1:2|2:0,2:0:0:0:
209,328,63277,2,0,P|240:295|235:252,1,77.3500029801751,10|0,2:3|2:0,2:0:0:0:
0,141,63427,2,0,P|13:184|52:201,1,77.3500029801751,0|0,1:0|2:0,2:0:0:0:
255,183,63577,6,0,L|344:155,1,77.3500029801751,2|0,1:2|2:0,2:0:0:0:
486,112,63727,1,0,2:0:0:0:
160,45,63877,6,0,P|197:13|230:19,1,77.3500029801751,8|0,2:3|2:0,2:0:0:0:
512,188,64027,1,0,2:0:0:0:
498,205,64102,1,0,2:0:0:0:
474,209,64177,2,0,P|427:192|416:161,1,77.3500029801751,0|0,1:0|2:0,2:0:0:0:
320,1,64327,2,0,L|295:90,1,77.3500029801751,0|0,2:0|2:0,2:0:0:0:
220,335,64477,5,8,2:3:0:0:
461,322,64627,2,0,P|438:291|401:282,1,77.3500029801751,0|0,2:0|2:0,2:0:0:0:
29,152,64777,6,0,L|125:171,1,77.3500029801751,2|0,1:2|2:0,2:0:0:0:
329,306,64927,2,0,L|414:279,1,77.3500029801751,0|0,2:0|2:0,2:0:0:0:
40,384,65077,6,0,P|50:337|86:317,1,77.3500029801751,8|0,2:3|2:0,2:0:0:0:
312,227,65227,2,0,L|481:178,1,154.70000596035,2|0,2:0|1:0,2:0:0:0:
499,112,65452,1,0,2:0:0:0:
501,101,65527,1,2,2:0:0:0:
166,69,65677,2,0,P|176:116|212:136,1,77.3500029801751,10|0,2:3|2:0,2:0:0:0:
420,90,65827,1,0,2:0:0:0:
421,39,65902,1,0,2:0:0:0:
381,0,65977,5,2,1:2:0:0:
239,212,66127,2,0,B|216:253|241:287|250:283|275:316|251:360,1,154.70000596035,2|8,2:0|2:3,2:0:0:0:
43,147,66427,6,0,P|96:158|110:185,1,77.3500029801751,2|0,2:0|2:0,2:0:0:0:
150,243,66577,1,0,1:0:0:0:
349,147,66727,6,0,L|239:389,1,232.050008940525,2|0,2:0|2:0,2:0:0:0:
169,330,67027,2,0,L|94:314,1,77.3500029801751,2|0,2:0|2:0,2:0:0:0:
328,383,67177,2,0,L|436:359,1,77.3500029801751,2|0,1:2|2:0,2:0:0:0:
504,252,67327,1,0,2:0:0:0:
496,236,67402,1,0,2:0:0:0:
480,232,67477,6,0,P|433:254|423:294,1,91.3500037983515,8|0,2:3|2:0,2:0:0:0:
336,157,67627,2,0,P|322:207|346:240,1,91.3500037983515,2|0,2:0|2:0,2:0:0:0:
337,48,67777,6,0,L|261:31,1,77.3500029801751,2|0,2:0|2:0,2:0:0:0:
488,81,67927,2,0,L|412:64,1,77.3500029801751,2|0,2:0|2:0,2:0:0:0:
181,19,68077,5,10,2:3:0:0:
181,19,68152,1,0,1:0:0:0:
181,19,68227,1,0,1:0:0:0:
266,277,68377,6,0,L|237:369,1,77.3500029801751,2|0,1:2|2:0,2:0:0:0:
82,200,68527,1,0,2:0:0:0:
342,237,68677,6,0,P|314:198|279:193,1,77.3500029801751,8|0,2:3|2:0,2:0:0:0:
0,200,68827,1,0,2:0:0:0:
16,244,68902,1,0,2:0:0:0:
49,273,68977,1,0,1:0:0:0:
97,278,69052,1,0,2:0:0:0:
139,261,69127,1,0,2:0:0:0:
92,41,69277,6,0,P|82:87|107:122,1,77.3500029801751,8|0,2:3|2:0,2:0:0:0:
190,330,69427,1,0,2:0:0:0:
228,349,69502,1,0,2:0:0:0:
273,354,69577,6,0,B|336:361|355:301|337:298|364:241|419:245,1,196.699999399719,2|0,1:2|0:0,2:0:0:0:
512,357,69802,1,0,2:0:0:0:
489,358,69877,2,0,P|430:329|421:295,1,77.3500029801751,8|0,2:3|2:0,2:0:0:0:
320,93,70027,6,0,L|155:53,1,154.70000596035,2|0,2:0|2:0,2:0:0:0:
92,41,70252,1,0,2:0:0:0:
68,36,70327,1,2,2:0:0:0:
512,5,70477,5,8,2:3:0:0:
256,230,70627,1,0,2:0:0:0:
274,272,70702,1,0,2:0:0:0:
311,290,70777,5,2,1:2:0:0:
492,178,70927,2,0,L|314:222,1,154.70000596035,2|8,2:0|2:3,2:0:0:0:
159,116,71227,2,0,P|206:125|226:165,1,77.3500029801751,2|0,2:0|2:0,2:0:0:0:
313,384,71377,1,0,1:0:0:0:
500,254,71527,6,0,B|424:260|407:189|409:183|409:177|375:111|298:139,1,253.050009266968,2|0,2:0|2:0,2:0:0:0:
117,245,71827,2,0,P|164:236|184:196,1,77.3500029801751,2|0,2:0|2:0,2:0:0:0:
489,169,71977,6,0,L|233:228,1,232.050008940525,0|0,1:0|2:0,2:0:0:0:
23,148,72277,2,0,P|53:144|94:167,1,77.3500029801751,10|0,0:3|0:0,0:0:0:0:
159,116,72427,2,0,P|199:92|201:47,1,77.3500029801751,2|0,0:0|0:0,0:0:0:0:
348,14,72577,6,0,B|288:87|349:137|354:140|360:140|433:187|384:263,1,274.050011395054,2|0,1:2|2:0,2:0:0:0:
299,293,72877,2,0,P|291:242|318:207,1,91.3500037983515,10|0,2:3|2:0,2:0:0:0:
397,146,73027,2,0,P|422:102|410:59,1,91.3500037983515,0|0,1:0|2:0,2:0:0:0:
111,192,73177,6,0,B|154:244|290:202|316:66|169:26|157:125,1,326.549981563798,2|0,1:2|0:0,0:0:0:0:
11,75,73477,2,0,P|76:108|68:148,1,91.3500037983515,8|0,0:3|0:0,0:0:0:0:
66,332,73627,6,0,P|106:315|116:276,1,77.3500029801751,2|0,2:0|2:0,2:0:0:0:
339,89,73777,2,0,P|236:226|167:380,1,295.049999099579,2|0,1:2|2:0,2:0:0:0:
241,384,74077,5,10,2:3:0:0:
414,200,74227,2,0,P|395:239|361:256,1,77.3500029801751,2|0,2:0|2:0,2:0:0:0:
66,332,74377,5,0,1:0:0:0:
400,380,74527,2,0,P|375:301|237:268,1,232.050008940525,2|0,2:0|2:0,2:0:0:0:
153,384,74827,2,0,P|158:343|188:309,1,77.3500029801751,2|0,2:0|2:0,2:0:0:0:
263,160,74977,2,0,L|325:399,1,232.050008940525,2|0,1:2|2:0,2:0:0:0:
503,283,75277,6,0,P|460:285|422:319,1,77.3500029801751,10|0,2:3|2:0,2:0:0:0:
249,335,75427,2,0,P|206:333|168:299,1,77.3500029801751,2|0,2:0|2:0,2:0:0:0:
67,139,75577,5,0,1:0:0:0:
67,139,75727,1,0,1:0:0:0:
123,82,75877,6,0,L|106:154,2,45.6750018991757,8|8|8,2:0|2:0|2:0,2:0:0:0:
30,263,76027,5,8,2:1:0:0:
30,263,76102,1,8,2:1:0:0:
30,263,76177,2,0,L|11:193,1,63.3499996616745,8|0,2:1|2:0,2:0:0:0:
61,0,76327,2,0,L|42:70,1,63.3499996616745,0|8,1:0|2:1,2:0:0:0:
102,215,76477,5,0,1:0:0:0:
136,225,76552,1,0,2:0:0:0:
168,237,76627,1,8,2:1:0:0:
197,245,76702,1,8,2:1:0:0:
259,198,76777,5,8,1:2:0:0:
259,198,76852,1,8,2:0:0:0:
259,198,76927,2,0,L|247:164,2,31.6749998308373,8|8|8,1:2|2:0|2:0,2:0:0:0:
306,111,77077,2,0,L|326:28,1,63.3499996616745,0|0,1:0|2:0,2:0:0:0:
94,197,77227,2,0,L|110:146,2,31.6749998308373,8|8|8,2:0|2:0|2:0,2:0:0:0:
261,0,77377,6,0,L|278:64,1,49.349997477379,0|0,2:0|2:0,2:0:0:0:
176,106,77527,2,0,L|132:91,2,45.6750018991757,8|8|8,2:0|2:0|2:0,2:0:0:0:
175,17,77677,2,0,L|151:-8,2,24.6749987386895,8|8|8,2:0|2:0|2:0,2:0:0:0:
393,31,77827,1,8,1:2:0:0:
405,24,77902,1,8,1:2:0:0:
419,17,77977,5,4,1:0:0:0:
467,30,78052,1,0,2:0:0:0:
500,64,78127,1,0,1:0:0:0:
502,113,78202,1,0,2:0:0:0:
473,154,78277,1,8,2:3:0:0:
426,171,78352,1,0,2:0:0:0:
383,158,78427,1,0,2:0:0:0:
335,149,78502,1,0,2:0:0:0:
285,164,78577,1,0,2:0:0:0:
256,207,78652,1,0,2:0:0:0:
257,257,78727,1,0,1:0:0:0:
289,297,78802,1,0,2:0:0:0:
330,301,78877,6,0,L|354:236,1,49.349997477379,10|0,2:3|2:0,2:0:0:0:
157,177,79027,2,0,L|176:228,1,49.349997477379,2|0,2:0|2:0,2:0:0:0:
426,381,79177,5,2,1:2:0:0:
461,358,79252,1,0,2:0:0:0:
468,313,79327,1,0,1:0:0:0:
451,273,79402,1,0,2:0:0:0:
407,258,79477,1,8,2:3:0:0:
364,278,79552,1,0,2:0:0:0:
337,316,79627,1,2,2:0:0:0:
284,332,79702,1,0,2:0:0:0:
233,302,79777,1,0,2:0:0:0:
215,253,79852,1,0,2:0:0:0:
241,211,79927,1,0,1:0:0:0:
288,200,80002,1,0,2:0:0:0:
326,235,80077,6,0,L|292:296,1,49.349997477379,10|0,2:3|2:0,2:0:0:0:
158,185,80227,2,0,L|134:131,1,49.349997477379,2|0,2:0|2:0,2:0:0:0:
317,75,80377,5,2,1:2:0:0:
351,99,80452,1,0,2:0:0:0:
367,146,80527,1,0,1:0:0:0:
356,196,80602,1,0,2:0:0:0:
326,235,80677,1,8,2:3:0:0:
324,285,80752,1,0,2:0:0:0:
348,330,80827,1,2,2:0:0:0:
395,351,80902,1,0,2:0:0:0:
443,338,80977,1,0,2:0:0:0:
477,295,81052,1,0,2:0:0:0:
472,242,81127,1,0,1:0:0:0:
463,188,81202,1,0,2:0:0:0:
486,142,81277,6,0,L|509:97,1,49.349997477379,10|0,2:3|2:0,2:0:0:0:
309,188,81427,2,0,L|330:248,1,49.349997477379,2|0,2:0|2:0,2:0:0:0:
278,24,81577,6,0,P|277:89|246:105,1,91.3500037983515,0|0,1:2|2:0,2:0:0:0:
194,291,81727,2,0,P|138:257|139:222,1,91.3500037983515,2|0,1:2|2:0,2:0:0:0:
111,149,81877,6,0,L|219:169,1,91.3500037983515,10|0,2:3|2:0,2:0:0:0:
310,195,82027,2,0,L|418:215,1,91.3500037983515,2|0,2:0|2:0,2:0:0:0:
305,380,82177,5,2,2:0:0:0:
373,70,82327,1,0,1:0:0:0:
373,70,82402,1,0,1:0:0:0:
373,70,82477,2,0,B|419:123|370:205|353:182|284:267|372:342,1,274.050011395054,10|0,2:3|2:0,2:0:0:0:
404,384,82777,6,0,P|436:351|429:318,1,77.3500029801751,2|0,1:2|2:0,2:0:0:0:
250,246,82927,5,0,1:0:0:0:
209,260,83002,1,0,2:0:0:0:
186,297,83077,1,8,2:3:0:0:
150,327,83152,1,0,2:0:0:0:
101,327,83227,1,0,2:0:0:0:
66,293,83302,1,0,2:0:0:0:
62,248,83377,1,0,2:0:0:0:
97,213,83452,1,0,2:0:0:0:
143,197,83527,1,0,1:0:0:0:
174,156,83602,1,0,2:0:0:0:
180,108,83677,6,0,L|155:50,1,49.349997477379,10|0,2:3|2:0,2:0:0:0:
18,156,83827,2,0,L|-9:223,1,49.349997477379,2|0,2:0|2:0,2:0:0:0:
255,180,83977,5,2,1:2:0:0:
282,150,84052,1,0,2:0:0:0:
327,132,84127,1,0,1:0:0:0:
370,136,84202,1,0,2:0:0:0:
411,156,84277,1,8,2:3:0:0:
461,157,84352,1,0,2:0:0:0:
497,124,84427,1,2,2:0:0:0:
505,73,84502,1,0,2:0:0:0:
478,28,84577,1,0,2:0:0:0:
425,20,84652,1,0,2:0:0:0:
379,46,84727,1,0,1:0:0:0:
368,97,84802,1,0,2:0:0:0:
380,146,84877,6,0,L|400:205,1,49.349997477379,10|0,2:3|2:0,2:0:0:0:
488,276,85027,2,0,L|507:221,1,49.349997477379,2|0,2:0|2:0,2:0:0:0:
222,300,85177,5,2,1:2:0:0:
266,312,85252,1,0,2:0:0:0:
307,292,85327,1,0,1:0:0:0:
322,246,85402,1,0,2:0:0:0:
300,200,85477,1,8,2:3:0:0:
250,191,85552,1,0,2:0:0:0:
199,213,85627,1,2,2:0:0:0:
151,238,85702,1,0,2:0:0:0:
107,260,85777,1,0,2:0:0:0:
60,282,85852,1,0,2:0:0:0:
15,308,85927,2,0,L|33:373,1,49.349997477379,2|0,1:2|2:0,2:0:0:0:
276,171,86077,6,0,L|256:241,1,49.349997477379,10|0,2:3|2:0,2:0:0:0:
167,306,86227,2,0,L|147:236,1,49.349997477379,2|0,2:0|2:0,2:0:0:0:
297,67,86377,6,0,P|247:73|226:114,1,91.3500037983515,2|0,1:2|2:0,2:0:0:0:
117,131,86527,2,0,P|147:171|193:168,1,91.3500037983515,2|0,1:2|2:0,2:0:0:0:
231,383,86677,6,0,L|251:300,1,77.3500029801751,10|0,2:3|2:0,2:0:0:0:
270,233,86827,2,0,L|291:150,1,77.3500029801751,2|0,2:0|2:0,2:0:0:0:
158,27,86977,5,0,1:0:0:0:
158,27,87052,1,0,1:0:0:0:
158,27,87127,1,0,1:0:0:0:
307,146,87277,6,0,L|286:230,1,77.3500029801751,10|0,2:3|2:0,2:0:0:0:
270,304,87427,2,0,L|251:391,1,77.3500029801751,2|0,2:0|2:0,2:0:0:0:
396,123,87577,6,0,P|368:76|331:72,1,77.3500029801751,2|0,1:2|2:0,2:0:0:0:
68,0,87727,5,0,1:0:0:0:
21,28,87802,1,0,2:0:0:0:
11,79,87877,1,8,2:3:0:0:
36,118,87952,1,0,2:0:0:0:
80,133,88027,1,2,2:0:0:0:
123,121,88102,1,0,2:0:0:0:
169,108,88177,1,0,2:0:0:0:
218,120,88252,1,0,2:0:0:0:
247,159,88327,1,0,1:0:0:0:
240,207,88402,1,0,2:0:0:0:
204,238,88477,6,0,L|142:215,1,49.349997477379,10|0,2:3|2:0,2:0:0:0:
214,37,88627,2,0,L|269:19,1,49.349997477379,2|0,2:0|2:0,2:0:0:0:
510,93,88777,5,2,1:2:0:0:
470,117,88852,1,0,2:0:0:0:
421,117,88927,1,0,1:0:0:0:
388,80,89002,1,0,2:0:0:0:
358,38,89077,1,8,2:3:0:0:
310,20,89152,1,0,2:0:0:0:
257,31,89227,1,2,2:0:0:0:
231,72,89302,1,0,2:0:0:0:
238,121,89377,1,0,2:0:0:0:
274,149,89452,1,0,2:0:0:0:
325,150,89527,1,0,1:0:0:0:
358,113,89602,1,0,2:0:0:0:
377,69,89677,6,0,L|358:11,1,49.349997477379,10|0,2:3|2:0,2:0:0:0:
507,177,89827,2,0,L|486:221,1,49.349997477379,2|0,2:0|2:0,2:0:0:0:
209,308,89977,5,2,1:2:0:0:
223,266,90052,1,0,2:0:0:0:
264,250,90127,1,0,1:0:0:0:
310,260,90202,1,0,2:0:0:0:
351,296,90277,1,8,2:3:0:0:
401,303,90352,1,0,2:0:0:0:
445,273,90427,1,2,2:0:0:0:
458,221,90502,1,0,2:0:0:0:
428,180,90577,1,0,2:0:0:0:
382,169,90652,1,0,2:0:0:0:
328,173,90727,1,2,1:2:0:0:
285,138,90802,1,0,2:0:0:0:
277,84,90877,6,0,L|327:64,1,49.349997477379,10|0,2:3|2:0,2:0:0:0:
219,193,91027,2,0,L|163:175,1,49.349997477379,2|0,2:0|2:0,2:0:0:0:
21,150,91177,6,0,P|66:158|82:203,1,91.3500037983515,2|0,1:2|2:0,2:0:0:0:
259,384,91327,2,0,P|214:371|204:323,1,91.3500037983515,2|0,1:2|2:0,2:0:0:0:
194,13,91477,6,0,L|179:108,1,91.3500037983515,10|0,2:3|2:0,2:0:0:0:
166,184,91627,2,0,L|151:279,1,91.3500037983515,2|0,2:0|2:0,2:0:0:0:
39,0,91777,5,2,2:0:0:0:
237,249,91927,1,0,1:0:0:0:
237,249,92002,1,0,1:0:0:0:
237,249,92077,2,0,B|243:201|243:201|105:97|105:97|114:30,1,274.050011395054,10|0,2:3|2:0,2:0:0:0:
204,6,92377,6,0,L|292:25,1,77.3500029801751,6|4,1:3|3:0,2:0:0:0:
75,180,92527,2,0,L|-5:196,1,63.3499996616745,4|4,1:3|3:0,2:0:0:0:
364,15,92677,5,10,3:0:0:0:
372,24,92752,1,4,3:0:0:0:
376,34,92827,2,0,P|377:74|335:94,1,77.3500029801751,4|4,3:0|3:0,2:0:0:0:
488,194,92977,1,6,3:0:0:0:
477,209,93052,2,0,P|423:221|396:200,1,77.3500029801751,4|4,3:0|1:3,2:0:0:0:
250,100,93202,6,0,L|444:141,1,182.700007596703,6|4,3:0|3:0,2:0:0:0:
512,73,93427,2,0,L|488:-3,1,77.3500029801751,6|4,3:0|3:0,2:0:0:0:
259,191,93577,5,6,1:3:0:0:
259,191,93652,1,4,3:0:0:0:
259,191,93727,2,0,P|294:240|337:241,1,91.3500037983515,4|4,1:3|3:0,2:0:0:0:
512,359,93877,1,10,3:0:0:0:
512,359,93952,1,4,3:0:0:0:
512,359,94027,2,0,P|477:310|434:309,1,91.3500037983515,6|4,3:0|3:0,2:0:0:0:
180,143,94177,5,6,3:0:0:0:
173,153,94252,1,4,1:3:0:0:
167,162,94327,2,0,L|81:179,1,77.3500029801751,4|8,3:0|3:0,2:0:0:0:
264,35,94477,1,4,3:0:0:0:
273,30,94552,1,4,3:0:0:0:
283,26,94627,2,0,L|369:44,1,77.3500029801751,4|4,3:0|2:3,2:0:0:0:
10,0,94777,6,0,L|-4:53,3,42.3499988045121,4|4|4|4,2:3|2:3|2:3|2:3,2:0:0:0:
67,91,95077,2,0,L|81:144,3,42.3499988045121,4|4|4|4,2:3|2:3|2:3|2:3,2:0:0:0:
19,188,95377,6,0,L|3:254,3,56.3500000859833,4|4|4|4,2:3|2:3|2:3|2:3,2:0:0:0:
61,298,95677,2,0,L|83:374,3,56.3500000859833,4|4|4|0,2:3|2:3|2:3|2:0,2:0:0:0:
94,228,95977,6,0,L|100:208,14,21.174999402256,4|4|4|4|4|4|4|4|4|4|4|4|4|4|4,2:3|2:3|2:3|2:3|2:3|2:3|2:3|2:3|2:3|2:3|2:3|2:3|2:3|2:3|2:3,2:0:0:0:
166,166,96577,2,0,L|161:148,28,10.587499701128,4|4|4|4|4|4|4|4|4|4|4|4|4|4|4|4|4|4|4|4|4|4|4|4|4|4|4|4|4,2:3|2:3|2:3|2:3|2:3|2:3|2:3|2:3|2:3|2:3|2:3|2:3|2:3|2:3|2:3|2:3|2:3|2:3|2:3|2:3|2:3|2:3|2:3|2:3|2:3|2:3|2:3|2:3|2:3,2:0:0:0:
167,249,97177,6,0,L|137:164,1,77.3500029801751,6|0,1:0|2:0,2:0:0:0:
4,55,97327,1,2,2:0:0:0:
11,23,97402,1,0,2:0:0:0:
39,0,97477,1,8,2:3:0:0:
333,60,97627,5,2,2:0:0:0:
3,158,97777,2,0,P|43:131|78:143,1,77.3500029801751,2|0,1:2|2:0,2:0:0:0:
80,61,97927,2,0,P|126:74|139:108,1,77.3500029801751,2|0,2:0|2:0,2:0:0:0:
184,7,98077,5,10,2:3:0:0:
11,242,98227,1,2,2:0:0:0:
314,269,98377,5,2,1:2:0:0:
92,212,98527,1,2,2:0:0:0:
335,275,98677,1,10,2:3:0:0:
138,98,98827,1,2,2:0:0:0:
257,356,98977,1,2,1:2:0:0:
454,173,99127,6,0,P|435:209|392:213,1,77.3500029801751,2|0,2:0|2:0,2:0:0:0:
418,291,99277,2,0,P|378:299|347:269,1,77.3500029801751,10|0,2:3|2:0,2:0:0:0:
235,361,99427,2,0,L|154:376,1,77.3500029801751,2|0,2:0|2:0,2:0:0:0:
491,96,99577,6,0,L|448:371,1,274.050011395054,2|0,1:2|2:0,2:0:0:0:
445,379,99877,1,10,2:3:0:0:
282,241,100027,2,0,L|298:148,1,77.3500029801751,2|0,2:0|2:0,2:0:0:0:
161,21,100177,5,2,1:2:0:0:
460,19,100327,1,2,2:0:0:0:
209,163,100477,1,10,2:3:0:0:
437,24,100627,1,2,2:0:0:0:
242,20,100777,6,0,P|233:55|271:106,1,77.3500029801751,2|0,1:2|2:0,2:0:0:0:
295,164,100927,2,0,L|278:259,1,77.3500029801751,2|0,2:0|2:0,2:0:0:0:
149,97,101077,6,0,B|76:97|88:-4|150:-19|235:4|254:112,1,274.050011395054,10|0,2:3|2:0,2:0:0:0:
295,164,101377,2,0,L|19:86,1,274.050011395054,2|0,1:2|2:0,2:0:0:0:
0,177,101677,6,0,L|86:153,1,77.3500029801751,8|0,2:3|2:0,2:0:0:0:
306,171,101827,2,0,L|392:147,1,77.3500029801751,0|0,1:0|2:0,2:0:0:0:
31,89,101977,5,2,1:2:0:0:
148,214,102127,1,2,2:0:0:0:
175,232,102202,1,0,2:0:0:0:
186,265,102277,1,10,2:3:0:0:
248,91,102427,5,2,2:0:0:0:
67,238,102577,2,0,P|81:278|114:287,1,77.3500029801751,2|0,1:2|2:0,2:0:0:0:
94,363,102727,2,0,P|136:371|161:348,1,77.3500029801751,2|0,2:0|2:0,2:0:0:0:
236,370,102877,5,10,2:3:0:0:
15,324,103027,1,2,2:0:0:0:
249,381,103177,6,0,B|262:333|333:277|413:290|413:290|412:336|444:367,1,274.050011395054,2|0,1:2|2:0,2:0:0:0:
495,303,103477,1,10,2:3:0:0:
249,381,103627,6,0,B|209:318|241:262|262:285|301:219|247:160,1,232.050008940525,2|0,2:0|2:0,2:0:0:0:
239,154,103927,6,0,P|199:189|199:224,1,77.3500029801751,2|0,2:0|2:0,2:0:0:0:
398,384,104077,2,0,P|387:331|357:314,1,77.3500029801751,10|0,2:3|2:0,2:0:0:0:
158,279,104227,2,0,L|59:265,1,77.3500029801751,2|0,2:0|2:0,2:0:0:0:
413,111,104377,5,2,1:2:0:0:
292,273,104527,1,2,2:0:0:0:
268,17,104677,1,10,2:3:0:0:
304,257,104827,1,2,2:0:0:0:
481,90,104977,6,0,P|435:116|391:93,1,77.3500029801751,2|0,1:2|2:0,2:0:0:0:
512,177,105127,2,0,L|271:91,1,232.050008940525,2|0,2:0|2:0,2:0:0:0:
281,97,105427,2,0,L|204:114,1,77.3500029801751,2|0,2:0|2:0,2:0:0:0:
29,180,105577,6,0,B|57:162|88:169|102:184|107:193|123:212|158:216|185:198,1,168.700006177979,2|0,1:2|2:0,2:0:0:0:
10,267,105877,6,0,B|93:281|123:189|92:185|128:98|214:114,1,274.050011395054,10|0,2:3|2:0,2:0:0:0:
79,19,106177,6,0,L|152:297,1,274.050011395054,2|0,1:2|2:0,2:0:0:0:
151,362,106477,5,8,2:3:0:0:
113,358,106552,1,0,1:0:0:0:
90,335,106627,1,0,1:0:0:0:
436,257,106777,5,0,1:0:0:0:
223,316,106927,1,0,2:0:0:0:
352,113,107077,1,10,2:3:0:0:
422,365,107227,1,2,2:0:0:0:
422,365,107302,1,0,2:0:0:0:
422,365,107377,6,0,P|381:333|386:286,1,77.3500029801751,2|0,1:2|2:0,2:0:0:0:
442,240,107527,2,0,L|469:153,2,77.3500029801751,2|0|10,2:0|2:0|2:3,2:0:0:0:
352,113,107827,1,2,2:0:0:0:
496,380,107977,6,0,B|510:333|510:333|363:238|363:238|385:168,2,274.050011395054,2|0|0,1:2|2:0|2:0,2:0:0:0:
512,98,108577,1,2,1:2:0:0:
297,280,108727,6,0,P|244:269|227:237,1,77.3500029801751,2|0,2:0|2:0,2:0:0:0:
207,103,108877,2,0,P|223:154|204:185,1,77.3500029801751,10|0,2:3|2:0,2:0:0:0:
99,267,109027,2,0,P|135:227|171:228,1,77.3500029801751,2|0,2:0|2:0,2:0:0:0:
284,5,109177,6,0,L|208:187,1,182.700007596703,2|0,1:2|2:0,2:0:0:0:
133,143,109402,1,2,2:0:0:0:
133,143,109477,2,0,L|95:32,1,98.3499996998596,8|0,2:3|2:0,2:0:0:0:
231,252,109627,2,0,P|259:278|297:280,1,77.3500029801751,2|0,2:0|2:0,2:0:0:0:
14,316,109777,6,0,P|60:234|155:224,1,196.699999399719,2|0,1:2|2:0,2:0:0:0:
302,197,110002,1,2,2:0:0:0:
302,197,110077,2,0,P|256:210|231:252,1,98.3499996998596,8|0,2:3|2:0,2:0:0:0:
102,309,110227,2,0,P|100:337|135:383,1,77.3500029801751,2|0,2:0|2:0,2:0:0:0:
319,108,110377,5,2,1:2:0:0:
191,327,110527,1,0,2:0:0:0:
191,327,110602,1,2,2:0:0:0:
191,327,110677,5,8,2:3:0:0:
144,131,110827,1,2,2:0:0:0:
429,221,110977,2,0,B|464:242|509:215|494:142|419:108|353:184,1,232.050008940525,2|0,1:2|2:0,2:0:0:0:
348,197,111277,6,0,L|274:181,1,63.3499996616745,8|0,2:3|2:0,2:0:0:0:
215,221,111427,2,0,L|141:205,1,63.3499996616745,0|0,1:0|2:0,2:0:0:0:
441,300,111577,6,0,B|361:306|319:224|354:211|313:119|210:145,1,295.049999099579,2|0,1:2|2:0,2:0:0:0:
144,131,111877,2,0,P|105:129|76:99,1,77.3500029801751,10|0,2:3|2:0,2:0:0:0:
277,268,112027,2,0,L|299:358,1,77.3500029801751,2|0,2:0|2:0,2:0:0:0:
225,30,112177,6,0,L|170:303,1,274.050011395054,2|0,1:2|2:0,2:0:0:0:
28,241,112477,2,0,P|75:239|99:271,1,77.3500029801751,10|0,2:3|2:0,2:0:0:0:
182,378,112627,2,0,P|156:338|172:301,1,77.3500029801751,2|0,2:0|2:0,2:0:0:0:
295,69,112777,6,0,B|353:57|390:94|373:106|443:159|528:76|468:-8|415:29,2,274.050011395054,2|2|2,1:2|2:0|2:0,2:0:0:0:
157,85,113302,1,0,2:0:0:0:
157,85,113377,6,0,L|424:25,1,274.050011395054,2|0,1:2|2:0,2:0:0:0:
508,116,113677,2,0,L|419:99,1,77.3500029801751,8|0,2:3|2:0,2:0:0:0:
230,20,113827,2,0,L|151:5,1,77.3500029801751,0|0,2:0|2:0,2:0:0:0:
455,263,113977,5,10,2:0:0:0:
112,187,114427,5,10,2:0:0:0:
358,334,114877,5,10,2:0:0:0:
246,381,115177,5,2,3:0:0:0:
235,365,115252,1,2,3:0:0:0:
241,349,115327,1,2,3:0:0:0:
252,340,115402,1,2,3:0:0:0:
231,268,115477,5,2,3:0:0:0:
249,254,115552,1,2,3:0:0:0:
275,248,115627,1,2,3:0:0:0:
296,252,115702,1,2,3:0:0:0:
374,218,115777,6,0,L|355:140,3,77.3500029801751,4|4|4|4,2:3|2:3|2:3|2:3,2:0:0:0:
413,89,116077,2,0,L|427:21,6,38.6750014900876,4|4|4|4|4|4|4,2:3|2:3|2:3|2:3|2:3|2:3|2:3,2:0:0:0:
353,6,116377,2,0,B|384:137|384:137|386:172|386:172|394:181|394:181|419:288,1,283.500006921387,4|0,3:2|1:0,2:0:0:0:
433,360,117277,5,8,2:3:0:0:
433,360,117577,2,0,P|386:359|369:321,1,77.3500029801751,6|0,1:0|2:0,2:0:0:0:
207,264,117727,2,0,P|230:224|272:228,1,77.3500029801751,2|0,1:2|2:0,2:0:0:0:
334,261,117877,5,10,2:3:0:0:
72,340,118027,1,0,2:0:0:0:
32,323,118102,1,0,2:0:0:0:
14,283,118177,1,2,2:0:0:0:
22,246,118252,1,0,2:0:0:0:
54,211,118327,2,0,L|136:233,1,77.3500029801751,2|0,1:2|2:0,2:0:0:0:
392,150,118477,2,0,P|414:190|390:224,1,77.3500029801751,8|0,2:3|2:0,2:0:0:0:
164,384,118627,2,0,L|137:298,1,77.3500029801751,2|0,2:0|2:0,2:0:0:0:
66,70,118777,5,2,1:2:0:0:
207,264,118927,1,0,1:0:0:0:
207,264,119002,1,2,2:0:0:0:
207,264,119077,2,0,L|234:178,1,77.3500029801751,8|0,2:3|2:0,2:0:0:0:
283,6,119227,1,2,2:0:0:0:
54,211,119377,5,2,2:0:0:0:
246,346,119527,1,0,1:0:0:0:
246,346,119602,1,0,2:0:0:0:
246,346,119677,2,0,L|344:366,1,77.3500029801751,8|0,2:3|2:0,2:0:0:0:
477,200,119827,2,0,L|379:220,1,77.3500029801751,2|0,2:0|2:0,2:0:0:0:
140,310,119977,5,2,1:2:0:0:
413,361,120127,1,0,1:0:0:0:
413,361,120202,1,2,2:0:0:0:
413,361,120277,2,0,P|399:306|368:298,1,77.3500029801751,8|0,2:3|2:0,2:0:0:0:
401,215,120427,2,0,P|349:190|323:208,1,77.3500029801751,2|0,2:0|2:0,2:0:0:0:
305,283,120577,5,2,2:0:0:0:
456,148,120727,1,0,1:0:0:0:
456,148,120802,1,0,1:0:0:0:
456,148,120877,2,0,B|463:236|387:267|383:230|297:278|325:381,1,274.050011395054,8|0,2:3|2:0,2:0:0:0:
441,384,121177,6,0,P|456:343|435:299,1,77.3500029801751,0|0,1:0|2:0,2:0:0:0:
345,167,121327,2,0,P|354:124|396:98,1,77.3500029801751,0|0,1:0|2:0,2:0:0:0:
512,15,121477,6,0,P|473:63|425:48,1,91.3500037983515,10|0,2:3|2:0,2:0:0:0:
267,25,121627,2,0,L|177:8,1,91.3500037983515,2|0,2:0|2:0,2:0:0:0:
0,166,121777,6,0,P|28:126|61:124,1,63.3499996616745,2|0,2:0|2:0,2:0:0:0:
124,106,121927,2,0,L|200:87,1,63.3499996616745,0|0,1:0|2:0,2:0:0:0:
346,0,122077,6,0,P|368:41|357:74,1,77.3500029801751,10|0,2:3|2:0,2:0:0:0:
283,102,122227,2,0,P|261:143|272:176,1,77.3500029801751,2|0,2:0|2:0,2:0:0:0:
332,222,122377,5,0,1:0:0:0:
84,190,122527,1,0,1:0:0:0:
366,367,122677,6,0,P|379:318|362:292,1,77.3500029801751,10|0,2:3|2:0,2:0:0:0:
211,281,122827,2,0,B|279:210|371:249|354:274|416:339|494:289,1,309.400011920701,2|0,2:0|1:0,2:0:0:0:
512,200,123202,1,0,2:0:0:0:
500,197,123277,6,0,L|419:225,1,77.3500029801751,10|0,2:3|2:0,2:0:0:0:
291,339,123427,2,0,L|210:367,1,77.3500029801751,0|0,2:0|2:0,2:0:0:0:
2,245,123577,6,0,P|40:282|35:315,1,77.3500029801751,0|0,1:0|2:0,2:0:0:0:
111,384,123727,2,0,P|124:332|155:319,1,77.3500029801751,0|0,1:0|2:0,2:0:0:0:
271,236,123877,6,0,P|317:266|356:257,1,91.3500037983515,10|0,2:3|2:0,2:0:0:0:
422,55,124027,2,0,L|400:171,1,91.3500037983515,2|0,2:0|2:0,2:0:0:0:
425,300,124177,5,2,2:0:0:0:
510,25,124327,1,0,1:0:0:0:
510,25,124402,1,0,2:0:0:0:
510,25,124477,2,0,B|500:79|500:79|337:145|337:145|328:191,1,274.050011395054,10|0,2:3|2:0,2:0:0:0:
512,256,124777,6,0,P|487:213|457:205,1,77.3500029801751,0|0,1:0|2:0,2:0:0:0:
275,80,124927,2,0,P|250:123|258:153,1,77.3500029801751,0|0,1:0|2:0,2:0:0:0:
162,206,125077,2,0,B|92:204|78:306|170:331|232:303|255:227,1,274.050011395054,10|0,2:3|2:0,2:0:0:0:
179,124,125377,5,0,1:0:0:0:
170,105,125452,1,0,1:0:0:0:
162,88,125527,1,0,1:0:0:0:
35,258,125677,6,0,L|324:324,1,274.050011395054,10|0,2:3|2:0,2:0:0:0:
371,350,125977,2,0,P|380:305|352:273,1,77.3500029801751,0|0,1:0|2:0,2:0:0:0:
97,140,126127,2,0,P|53:153|39:193,1,77.3500029801751,0|0,1:0|2:0,2:0:0:0:
231,384,126277,5,8,2:3:0:0:
324,99,126427,1,0,2:0:0:0:
358,82,126502,1,0,2:0:0:0:
399,89,126577,1,0,2:0:0:0:
427,113,126652,1,0,2:0:0:0:
440,151,126727,2,0,L|418:236,1,77.3500029801751,0|0,1:0|2:0,2:0:0:0:
224,371,126877,5,8,2:3:0:0:
96,53,127027,2,0,L|105:135,1,77.3500029801751,2|0,2:0|2:0,2:0:0:0:
25,252,127177,6,0,P|61:232|61:185,1,77.3500029801751,0|0,1:0|2:0,2:0:0:0:
217,0,127327,2,0,P|181:20|181:67,1,77.3500029801751,0|2,1:0|2:0,2:0:0:0:
0,82,127477,5,8,2:3:0:0:
155,201,127627,1,2,2:0:0:0:
201,215,127702,1,0,2:0:0:0:
246,200,127777,1,2,2:0:0:0:
278,161,127852,1,0,2:0:0:0:
285,118,127927,6,0,L|268:52,1,63.3499996616745,0|2,1:0|2:0,2:0:0:0:
435,0,128077,2,0,L|424:66,1,63.3499996616745,8|0,2:3|2:0,2:0:0:0:
379,276,128227,1,2,2:0:0:0:
91,158,128377,5,2,1:2:0:0:
110,127,128452,1,0,2:0:0:0:
137,115,128527,2,0,P|174:113|196:133,1,63.3499996616745,0|0,1:0|2:0,2:0:0:0:
387,157,128677,2,0,P|369:190|341:199,1,63.3499996616745,8|0,2:3|2:0,2:0:0:0:
16,171,128827,6,0,L|224:132,1,190.049998985024,2|0,2:0|2:0,2:0:0:0:
255,194,129127,1,0,1:0:0:0:
261,207,129202,1,0,2:0:0:0:
268,221,129277,2,0,L|257:298,1,63.3499996616745,8|0,2:3|2:0,2:0:0:0:
43,85,129427,2,0,L|28:4,1,63.3499996616745,2|0,2:0|2:0,2:0:0:0:
345,279,129577,5,2,1:2:0:0:
371,273,129652,1,0,2:0:0:0:
392,263,129727,1,0,1:0:0:0:
407,250,129802,1,2,2:0:0:0:
417,236,129877,2,0,P|415:204|381:182,1,63.3499996616745,8|0,2:3|2:0,2:0:0:0:
432,116,130027,2,0,P|406:96|367:108,1,63.3499996616745,2|0,2:0|2:0,2:0:0:0:
165,4,130177,5,2,2:0:0:0:
182,42,130252,1,0,2:0:0:0:
219,60,130327,1,2,1:2:0:0:
260,59,130402,1,0,1:0:0:0:
288,41,130477,2,0,L|356:19,1,63.3499996616745,10|0,2:3|2:0,2:0:0:0:
176,215,130627,2,0,L|108:193,1,63.3499996616745,2|0,2:0|2:0,2:0:0:0:
424,26,130777,5,4,1:3:0:0:
478,41,130852,1,4,3:0:0:0:
508,89,130927,1,4,1:3:0:0:
508,147,131002,1,4,3:0:0:0:
472,190,131077,1,8,3:0:0:0:
416,195,131152,1,4,3:0:0:0:
365,168,131227,1,4,3:0:0:0:
307,166,131302,1,4,3:0:0:0:
258,199,131377,1,4,3:0:0:0:
236,252,131452,1,4,3:0:0:0:
250,307,131527,1,4,1:3:0:0:
297,339,131602,1,4,3:0:0:0:
352,335,131677,1,8,3:0:0:0:
388,297,131752,1,4,3:0:0:0:
384,245,131827,6,0,L|366:171,1,63.3499996616745,4|4,3:0|3:0,2:0:0:0:
225,28,131977,1,4,1:3:0:0:
199,33,132052,1,4,3:0:0:0:
183,47,132127,1,4,1:3:0:0:
177,67,132202,1,4,3:0:0:0:
104,86,132277,5,8,3:0:0:0:
94,106,132352,1,4,3:0:0:0:
93,130,132427,1,4,3:0:0:0:
105,150,132502,1,4,3:0:0:0:
50,213,132577,5,4,3:0:0:0:
54,229,132652,1,4,3:0:0:0:
58,247,132727,1,4,1:3:0:0:
63,261,132802,1,4,3:0:0:0:
128,309,132877,5,8,3:0:0:0:
124,325,132952,1,4,3:0:0:0:
120,343,133027,1,4,3:0:0:0:
115,357,133102,1,4,3:0:0:0:
38,384,133177,6,0,L|20:314,3,49.349997477379,4|4|4|4,2:3|2:3|2:3|2:3,2:0:0:0:
141,233,133477,2,0,L|168:177,3,49.349997477379,4|4|4|4,2:3|2:3|2:3|2:3,2:0:0:0:
27,374,133777,2,0,L|9:304,3,49.349997477379,4|4|4|4,2:3|2:3|2:3|2:3,2:0:0:0:
156,228,134077,2,0,L|183:172,3,49.349997477379,4|4|4|4,2:3|2:3|2:3|2:3,2:0:0:0:
120,124,134377,6,0,L|110:81,14,24.6749987386895,4|4|4|4|4|4|4|4|4|4|4|4|4|4|4,2:3|2:3|2:3|2:3|2:3|2:3|2:3|2:3|2:3|2:3|2:3|2:3|2:3|2:3|2:3,2:0:0:0:
42,61,134977,2,0,L|49:41,28,12.3374993693447,4|4|4|4|4|4|4|4|4|4|4|4|4|4|4|4|4|4|4|4|4|4|4|4|4|4|4|4|4,2:3|2:3|2:3|2:3|2:3|2:3|2:3|2:3|2:3|2:3|2:3|2:3|2:3|2:3|2:3|2:3|2:3|2:3|2:3|2:3|2:3|2:3|2:3|2:3|2:3|2:3|2:3|2:3|2:3,2:0:0:0:
117,0,135577,6,0,L|53:216,1,212.099995792694,6|0,3:1|1:0,2:0:0:0:
117,0,140077,5,0,1:0:0:0:
326,125,140377,2,0,L|316:169,1,45.9374985980988,0|0,1:0|1:0,2:0:0:0:
326,125,144877,5,0,1:0:0:0:
177,360,145177,6,0,L|165:323,1,28.3500006921387,2|0,1:2|2:0,2:0:0:0:
250,240,145327,2,0,L|287:252,1,28.3500006921387,8|0,2:1|2:0,2:0:0:0:
348,271,145477,2,0,L|385:283,1,28.3500006921387,8|0,2:0|2:0,2:0:0:0:
440,331,145627,2,0,L|448:357,5,28.3500006921387,8|0|0|0|0|0,1:0|2:0|2:0|2:0|2:0|2:0,2:0:0:0:
376,262,146077,2,0,L|349:253,1,28.3500006921387,8|0,1:2|2:0,2:0:0:0:
275,232,146227,2,0,L|248:223,1,28.3500006921387,0|0,2:0|2:0,2:0:0:0:
67,116,146377,5,10,1:0:0:0:
58,129,146452,1,4,2:3:0:0:
55,145,146527,1,4,2:3:0:0:
58,160,146602,1,4,2:3:0:0:
67,171,146677,1,4,2:3:0:0:
81,177,146752,1,4,2:3:0:0:
96,180,146827,2,0,L|130:167,5,28.3500006921387,8|4|4|4|4|4,1:0|2:3|2:3|2:3|2:3|2:3,2:0:0:0:
166,89,147277,2,0,L|204:100,3,28.3500006921387,8|4|4|4,1:2|2:3|2:3|2:3,2:0:0:0:
326,1,147577,6,0,L|314:49,1,35.3499992987824,10|4,1:0|2:3,2:0:0:0:
276,167,147727,1,4,2:3:0:0:
276,167,147802,1,6,2:3:0:0:
276,167,147877,2,0,L|288:215,1,35.3499992987824,4|4,2:3|2:3,2:0:0:0:
440,117,148027,5,10,1:0:0:0:
440,117,148102,1,4,2:3:0:0:
440,117,148177,2,0,P|419:139|412:169,1,42.3499988045121,4|4,2:3|2:3,2:0:0:0:
249,274,148327,1,6,2:3:0:0:
249,274,148402,1,4,2:3:0:0:
249,274,148477,2,0,P|278:281|308:272,1,42.3499988045121,8|4,1:2|2:3,2:0:0:0:
479,334,148627,2,0,P|470:304|447:283,1,42.3499988045121,6|4,2:3|2:3,2:0:0:0:
146,384,148777,5,10,1:0:0:0:
143,358,148852,1,4,2:3:0:0:
141,338,148927,1,4,2:3:0:0:
139,319,149002,1,4,2:3:0:0:
136,299,149077,1,4,2:3:0:0:
134,281,149152,1,4,2:3:0:0:
133,263,149227,1,8,1:0:0:0:
131,242,149302,1,4,2:3:0:0:
205,200,149377,5,6,2:3:0:0:
205,200,149452,1,4,2:3:0:0:
205,200,149527,2,0,L|225:137,1,56.3500000859833,4|4,2:3|2:3,2:0:0:0:
17,69,149677,1,10,1:2:0:0:
17,69,149752,1,4,2:3:0:0:
17,69,149827,2,0,L|37:132,1,56.3500000859833,4|4,2:3|2:3,2:0:0:0:
156,20,149977,5,10,1:0:0:0:
192,6,150052,1,4,2:3:0:0:
231,10,150127,1,4,2:3:0:0:
261,34,150202,1,4,2:3:0:0:
284,65,150277,1,6,2:3:0:0:
314,90,150352,1,4,2:3:0:0:
353,94,150427,1,10,1:0:0:0:
391,84,150502,1,4,2:3:0:0:
417,55,150577,2,0,L|400:-6,3,56.3500000859833,6|4|4|4,2:3|2:3|2:3|2:3,2:0:0:0:
501,87,150877,2,0,L|484:148,3,56.3500000859833,10|4|6|4,1:2|2:3|2:3|2:3,2:0:0:0:
408,161,151177,5,8,1:0:0:0:
416,197,151252,1,4,2:3:0:0:
424,233,151327,1,6,2:3:0:0:
432,272,151402,1,4,2:3:0:0:
440,310,151477,2,0,L|504:326,1,56.3500000859833,4|4,2:3|2:3,2:0:0:0:
325,167,151627,2,0,L|267:184,1,56.3500000859833,10|4,1:0|2:3,2:0:0:0:
200,127,151777,5,6,2:3:0:0:
155,107,151852,1,4,2:3:0:0:
106,114,151927,1,4,2:3:0:0:
70,148,152002,1,4,2:3:0:0:
58,196,152077,1,8,1:2:0:0:
70,237,152152,1,4,2:3:0:0:
104,268,152227,1,4,2:3:0:0:
137,311,152302,1,4,2:3:0:0:
154,359,152377,6,0,L|99:343,15,56.3500000859833,4|4|4|4|4|4|4|4|4|4|4|4|4|4|4|4,2:3|2:3|2:3|2:3|2:3|2:3|2:3|2:3|2:3|2:3|2:3|2:3|2:3|2:3|2:3|2:3,2:0:0:0:
228,315,153577,6,0,L|255:308,14,28.1750000429916,4|4|4|4|4|4|4|4|4|4|4|4|4|4|4,2:3|2:3|2:3|2:3|2:3|2:3|2:3|2:3|2:3|2:3|2:3|2:3|2:3|2:3|2:3,2:0:0:0:
308,240,154177,2,0,L|326:225,28,14.0875000214958,4|4|4|4|4|4|4|4|4|4|4|4|4|4|4|4|4|4|4|4|4|4|4|4|4|4|4|4|0,2:3|2:3|2:3|2:3|2:3|2:3|2:3|2:3|2:3|2:3|2:3|2:3|2:3|2:3|2:3|2:3|2:3|2:3|2:3|2:3|2:3|2:3|2:3|2:3|2:3|2:3|2:3|2:3|2:0,2:0:0:0:
311,152,154777,5,6,1:0:0:0:
348,82,154927,1,0,2:0:0:0:
427,77,155077,1,10,2:3:0:0:
245,4,155227,1,0,2:0:0:0:
397,152,155377,5,0,1:3:0:0:
261,82,155527,1,0,2:0:0:0:
196,266,155677,1,10,2:3:0:0:
196,266,155827,1,2,2:0:0:0:
0,84,155977,5,2,1:2:0:0:
75,69,156127,1,0,2:0:0:0:
143,110,156277,1,8,2:3:0:0:
154,188,156427,1,0,2:0:0:0:
111,255,156577,1,0,1:0:0:0:
36,270,156727,1,0,2:0:0:0:
196,266,156877,5,10,2:3:0:0:
196,266,157027,1,2,2:0:0:0:
355,337,157177,5,2,1:2:0:0:
419,291,157327,1,0,2:0:0:0:
355,337,157477,1,8,2:3:0:0:
419,291,157627,1,0,2:0:0:0:
355,337,157777,1,0,1:0:0:0:
371,159,157927,5,2,2:0:0:0:
428,378,158077,1,10,2:3:0:0:
270,318,158227,1,2,2:0:0:0:
437,214,158377,5,2,1:2:0:0:
412,81,158527,1,2,2:0:0:0:
172,0,158677,5,10,2:3:0:0:
195,78,158827,1,2,2:0:0:0:
482,137,158977,5,2,1:2:0:0:
460,8,159127,1,2,2:0:0:0:
134,145,159277,5,10,2:3:0:0:
184,292,159427,1,2,1:2:0:0:
369,384,159577,5,2,1:2:0:0:
376,308,159727,1,0,2:0:0:0:
315,262,159877,1,8,2:3:0:0:
511,303,160027,1,0,2:0:0:0:
301,338,160177,5,0,1:0:0:0:
446,354,160327,1,0,2:0:0:0:
344,116,160477,1,10,2:3:0:0:
344,116,160627,1,2,2:0:0:0:
99,250,160777,5,2,1:2:0:0:
171,273,160927,1,0,2:0:0:0:
239,241,161077,1,8,2:3:0:0:
274,170,161227,1,0,2:0:0:0:
257,96,161377,1,0,1:0:0:0:
198,45,161527,1,0,2:0:0:0:
344,116,161677,5,10,2:3:0:0:
344,116,161827,1,2,2:0:0:0:
174,384,161977,5,2,1:2:0:0:
110,338,162127,1,0,2:0:0:0:
174,384,162277,1,8,2:3:0:0:
110,338,162427,1,0,2:0:0:0:
174,384,162577,1,2,1:2:0:0:
128,185,162727,5,2,2:0:0:0:
33,355,162877,1,10,2:3:0:0:
187,302,163027,1,2,2:0:0:0:
48,202,163177,5,2,1:2:0:0:
116,107,163327,1,2,2:0:0:0:
362,0,163477,5,10,2:3:0:0:
340,75,163627,1,2,2:0:0:0:
100,23,163777,5,2,1:2:0:0:
29,114,163927,1,2,2:0:0:0:
399,147,164077,5,8,2:3:0:0:
399,147,164152,1,0,1:0:0:0:
399,147,164227,1,0,1:0:0:0:
261,323,164377,5,2,1:2:0:0:
187,302,164527,1,0,2:0:0:0:
133,356,164677,1,8,2:3:0:0:
188,183,164827,1,0,2:0:0:0:
208,379,164977,5,0,1:0:0:0:
243,243,165127,1,0,2:0:0:0:
487,300,165277,1,10,2:3:0:0:
487,300,165427,1,2,2:0:0:0:
338,22,165577,5,2,1:2:0:0:
306,92,165727,1,0,2:0:0:0:
427,360,165877,5,10,2:3:0:0:
427,360,166027,1,2,2:0:0:0:
331,166,166177,5,2,1:2:0:0:
399,207,166327,1,0,2:0:0:0:
345,363,166477,5,10,2:3:0:0:
345,363,166627,1,2,2:0:0:0:
338,22,166777,5,2,1:2:0:0:
306,92,166927,1,0,2:0:0:0:
331,166,167077,1,8,2:3:0:0:
399,207,167227,1,0,2:0:0:0:
479,197,167377,1,0,1:0:0:0:
324,246,167527,5,2,2:0:0:0:
279,312,167677,1,10,2:3:0:0:
294,384,167827,1,2,2:0:0:0:
479,197,167977,5,2,1:2:0:0:
507,90,168127,1,2,2:0:0:0:
220,173,168277,5,10,2:3:0:0:
195,282,168427,1,2,2:0:0:0:
304,199,168577,5,2,1:2:0:0:
67,279,168727,1,2,2:0:0:0:
141,139,168877,5,10,2:3:0:0:
190,300,169027,1,2,1:2:0:0:
377,82,169177,6,0,P|349:59|304:56,1,77.3500029801751,2|0,1:0|2:0,2:0:0:0:
233,14,169327,2,0,P|199:26|173:64,1,77.3500029801751,0|0,2:0|2:0,2:0:0:0:
16,141,169477,2,0,L|262:91,1,232.050008940525,10|0,2:3|2:0,2:0:0:0:
309,54,169777,5,2,2:0:0:0:
90,208,169927,1,0,1:0:0:0:
65,244,170002,1,0,2:0:0:0:
69,283,170077,1,10,2:3:0:0:
97,312,170152,1,0,2:0:0:0:
134,320,170227,2,0,L|210:301,1,77.3500029801751,2|0,2:0|2:0,2:0:0:0:
441,128,170377,5,2,1:2:0:0:
296,380,170527,1,0,1:0:0:0:
296,380,170602,1,0,2:0:0:0:
296,380,170677,2,0,P|281:341|299:298,1,77.3500029801751,10|0,2:3|2:0,2:0:0:0:
512,167,170827,2,0,P|485:199|439:205,1,77.3500029801751,2|0,2:0|2:0,2:0:0:0:
223,0,170977,5,2,2:0:0:0:
246,4,171052,1,0,2:0:0:0:
261,24,171127,2,0,L|221:125,1,91.3500037983515,0|0,1:0|2:0,2:0:0:0:
362,338,171277,1,8,2:3:0:0:
381,313,171352,1,0,2:0:0:0:
386,280,171427,2,0,L|328:182,1,91.3500037983515,0|0,2:0|2:0,2:0:0:0:
143,33,171577,5,10,2:0:0:0:
459,116,172027,5,10,2:0:0:0:
165,118,172477,5,10,2:0:0:0:
289,187,172777,5,4,2:3:0:0:
264,179,172852,1,4,2:3:0:0:
243,189,172927,1,4,2:3:0:0:
233,208,173002,1,4,2:3:0:0:
151,200,173077,5,4,2:3:0:0:
142,227,173152,1,4,2:3:0:0:
150,257,173227,1,4,2:3:0:0:
173,276,173302,1,4,2:3:0:0:
251,289,173377,6,0,L|261:339,14,38.6750014900876,4|4|4|4|4|4|4|4|4|4|4|4|4|4|4,2:3|2:3|2:3|2:3|2:3|2:3|2:3|2:3|2:3|2:3|2:3|2:3|2:3|2:3|2:3,2:0:0:0:
197,384,173977,6,0,L|218:289,1,77.3500029801751,4|0,1:0|2:0,2:0:0:0:
233,92,174127,1,0,2:0:0:0:
264,96,174202,1,0,2:0:0:0:
290,111,174277,1,8,2:3:0:0:
85,333,174427,6,0,L|55:247,1,77.3500029801751,2|0,2:0|2:0,2:0:0:0:
36,191,174577,1,0,1:0:0:0:
220,169,174727,6,0,P|176:177|147:154,1,77.3500029801751,2|0,2:0|2:0,2:0:0:0:
187,21,174877,2,0,P|215:55|210:92,1,77.3500029801751,8|0,2:3|2:0,2:0:0:0:
78,114,175027,2,0,P|93:71|128:57,1,77.3500029801751,2|0,2:0|2:0,2:0:0:0:
31,15,175177,6,0,B|90:-11|187:28|206:86|206:86|192:135|222:171,1,295.049999099579,2|0,1:2|2:0,2:0:0:0:
287,116,175477,5,8,2:3:0:0:
229,260,175627,2,0,P|306:299|361:414,1,182.700007596703,2|0,2:2|1:3,2:0:0:0:
422,109,175927,6,0,P|396:150|391:201,1,91.3500037983515,2|0,2:0|2:0,2:0:0:0:
356,380,176077,2,0,L|281:94,1,274.050011395054,8|0,2:3|2:0,2:0:0:0:
207,98,176377,5,2,1:2:0:0:
391,192,176527,1,0,2:0:0:0:
159,222,176677,1,8,2:3:0:0:
395,7,176827,6,0,B|375:53|316:48|327:37|284:13|228:28|197:80|207:127,1,232.050008940525,2|0,2:0|2:0,2:0:0:0:
78,168,177127,2,0,P|114:145|126:98,1,77.3500029801751,2|0,2:0|2:0,2:0:0:0:
302,304,177277,5,8,2:3:0:0:
207,98,177427,1,2,2:0:0:0:
115,318,177577,2,0,L|213:342,1,77.3500029801751,2|0,1:2|2:0,2:0:0:0:
5,327,177727,6,0,L|238:258,1,232.050008940525,0|0,2:0|2:0,2:0:0:0:
291,210,178027,1,2,2:0:0:0:
264,185,178102,1,0,2:0:0:0:
233,178,178177,2,0,P|190:186|156:213,1,77.3500029801751,0|0,1:0|2:0,2:0:0:0:
91,384,178327,2,0,P|105:342|99:299,1,77.3500029801751,2|0,2:0|2:0,2:0:0:0:
59,155,178477,5,8,2:3:0:0:
86,228,178627,2,0,L|57:149,1,77.3500029801751,0|0,1:0|2:0,2:0:0:0:
295,0,178777,5,2,1:2:0:0:
141,125,178927,1,0,2:0:0:0:
148,92,179002,1,0,2:0:0:0:
171,72,179077,1,8,2:3:0:0:
447,184,179227,5,2,2:0:0:0:
447,184,179377,2,0,P|396:187|368:212,1,77.3500029801751,0|0,1:0|2:0,2:0:0:0:
375,34,179527,2,0,L|353:108,1,77.3500029801751,2|0,2:0|2:0,2:0:0:0:
297,259,179677,5,8,2:3:0:0:
233,121,179827,2,0,P|273:151|279:197,1,77.3500029801751,2|0,1:2|2:0,2:0:0:0:
115,374,179977,6,0,B|141:303|209:304|205:334|286:314|298:253,1,232.050008940525,2|0,1:2|2:0,2:0:0:0:
200,198,180277,1,8,2:3:0:0:
374,279,180427,1,2,2:0:0:0:
409,281,180502,1,0,2:0:0:0:
429,261,180577,2,0,L|449:181,1,77.3500029801751,0|0,1:0|2:0,2:0:0:0:
272,383,180727,6,0,P|219:269|126:145,1,274.050011395054,2|0,2:0|2:0,2:0:0:0:
1,207,181027,2,0,P|53:227|85:207,1,77.3500029801751,2|0,2:0|2:0,2:0:0:0:
281,176,181177,5,2,1:2:0:0:
49,145,181327,1,0,2:0:0:0:
22,120,181402,1,0,2:0:0:0:
16,88,181477,1,8,2:3:0:0:
38,55,181552,1,0,2:0:0:0:
69,42,181627,2,0,L|143:70,1,77.3500029801751,2|0,2:0|2:0,2:0:0:0:
389,200,181777,2,0,B|376:128|286:104|286:104|254:135|208:127,1,232.050008940525,0|0,1:0|2:0,2:0:0:0:
131,151,182077,6,0,L|168:336,1,182.700007596703,8|2,2:3|2:0,2:0:0:0:
110,384,182302,1,0,2:0:0:0:
94,364,182377,2,0,P|93:306|126:272,1,91.3500037983515,2|0,1:2|2:0,2:0:0:0:
190,210,182527,2,0,P|215:161|205:116,1,91.3500037983515,0|0,2:0|2:0,2:0:0:0:
226,45,182677,1,8,2:3:0:0:
239,283,182827,5,2,2:0:0:0:
272,297,182902,1,0,2:0:0:0:
304,291,182977,2,0,P|343:258|344:212,1,91.3500037983515,0|0,1:0|2:0,2:0:0:0:
430,32,183127,2,0,L|455:134,1,91.3500037983515,2|0,2:0|2:0,2:0:0:0:
500,317,183277,1,8,2:3:0:0:
500,317,183352,1,0,1:0:0:0:
500,317,183427,1,0,1:0:0:0:
200,172,183577,6,0,P|242:176|274:206,1,77.3500029801751,2|0,1:2|2:0,2:0:0:0:
418,263,183727,1,0,2:0:0:0:
435,235,183802,1,0,2:0:0:0:
430,200,183877,1,8,2:3:0:0:
124,267,184027,6,0,L|206:249,1,77.3500029801751,2|0,2:0|2:0,2:0:0:0:
346,220,184177,1,0,1:0:0:0:
44,143,184327,6,0,L|139:168,1,77.3500029801751,2|0,2:0|2:0,2:0:0:0:
268,197,184477,1,8,2:3:0:0:
230,46,184627,6,0,P|189:81|136:80,1,91.3500037983515,0|0,2:0|2:0,2:0:0:0:
15,232,184777,2,0,B|90:202|86:121|46:126|52:28|126:4,1,274.050011395054,2|0,1:2|2:0,2:0:0:0:
236,52,185077,2,0,P|286:60|327:40,1,77.3500029801751,8|0,2:3|2:0,2:0:0:0:
489,0,185227,6,0,B|496:67|414:126|365:112|365:112|396:76|387:35,1,274.050011395054,2|0,2:0|2:0,2:0:0:0:
241,123,185527,2,0,B|183:73|199:-7|199:-7|250:55|313:50,1,274.050011395054,2|0,2:0|2:0,2:0:0:0:
386,33,185827,1,2,2:0:0:0:
402,207,185977,6,0,P|358:255|316:388,1,196.699999399719,2|0,1:2|2:0,2:0:0:0:
206,256,186277,2,0,P|253:268|281:317,1,98.3499996998596,8|0,2:3|2:0,2:0:0:0:
490,281,186427,6,0,L|181:342,1,295.049999099579,2|0,2:0|2:0,2:0:0:0:
123,351,186727,1,2,2:0:0:0:
317,378,186877,6,0,P|368:353|376:327,1,77.3500029801751,8|0,2:3|2:0,2:0:0:0:
506,128,187027,2,0,P|502:184|520:204,1,77.3500029801751,0|0,1:0|2:0,2:0:0:0:
512,356,187177,6,0,L|487:271,1,77.3500029801751,2|0,1:2|2:0,2:0:0:0:
336,26,187327,2,0,P|372:136|502:81,1,274.050011395054,0|0,2:0|2:0,2:0:0:0:
479,20,187627,2,0,P|436:39|416:71,1,77.3500029801751,2|0,2:0|2:0,2:0:0:0:
229,230,187777,1,0,1:0:0:0:
239,267,187852,1,0,2:0:0:0:
248,305,187927,1,2,2:0:0:0:
250,154,188077,6,0,B|203:150|203:150|165:183,1,91.3500037983515,8|0,2:3|2:0,2:0:0:0:
225,384,188227,2,0,B|272:388|272:388|310:355,1,91.3500037983515,0|0,1:0|2:0,2:0:0:0:
384,145,188377,5,2,1:2:0:0:
156,263,188527,1,0,2:0:0:0:
124,255,188602,1,0,2:0:0:0:
105,231,188677,1,8,2:3:0:0:
317,223,188827,6,0,L|33:173,1,274.050011395054,2|0,2:0|2:0,2:0:0:0:
38,102,189127,6,0,P|89:112|109:135,1,77.3500029801751,2|0,2:0|2:0,2:0:0:0:
167,78,189277,2,0,P|157:45|132:22,1,70.350000268364,8|0,2:3|2:0,2:0:0:0:
245,0,189427,2,0,P|253:51|244:72,1,63.3499996616745,2|0,2:0|2:0,2:0:0:0:
27,247,189577,6,0,B|46:284|132:263|156:204|156:194|157:186|181:134|253:116|289:153,1,316.049999638309,2|0,1:2|2:0,2:0:0:0:
295,161,189877,2,0,P|330:186|369:185,1,77.3500029801751,8|0,2:3|2:0,2:0:0:0:
467,27,190027,1,2,2:0:0:0:
420,3,190102,1,0,2:0:0:0:
374,16,190177,1,0,1:0:0:0:
349,60,190252,1,0,2:0:0:0:
360,104,190327,6,0,L|431:92,1,56.3500000859833,2|0,2:0|2:0,2:0:0:0:
512,136,190477,2,0,B|446:144|446:144|340:46|340:46|263:59,1,274.050011395054,8|0,2:3|2:0,2:0:0:0:
204,22,190777,5,10,2:0:0:0:
436,176,191227,5,2,2:0:0:0:
150,292,191677,5,2,2:0:0:0:
392,384,191977,5,4,2:3:0:0:
401,359,192052,1,4,2:3:0:0:
393,337,192127,1,4,2:3:0:0:
374,326,192202,1,4,2:3:0:0:
352,246,192277,5,4,2:3:0:0:
326,235,192352,1,4,2:3:0:0:
295,241,192427,1,4,2:3:0:0:
275,263,192502,1,4,2:3:0:0:
222,327,192577,6,0,L|237:374,6,28.1750000429916,4|4|4|4|4|4|4,2:3|2:3|2:3|2:3|2:3|2:3|2:3,2:0:0:0:
150,292,192877,6,0,L|135:339,6,28.1750000429916,4|4|4|4|4|4|4,2:3|2:3|2:3|2:3|2:3|2:3|2:3,2:3:0:0:
71,367,193177,5,6,1:0:0:0:
266,117,193327,1,2,2:0:0:0:
250,122,193402,1,2,2:0:0:0:
235,126,193477,2,0,L|211:221,1,77.3500029801751,10|0,2:3|2:0,2:0:0:0:
219,135,193627,2,0,L|198:214,1,77.3500029801751,2|0,2:0|2:0,2:0:0:0:
421,313,193777,5,0,1:0:0:0:
452,384,193927,2,0,L|414:297,1,77.3500029801751,2|0,2:0|2:0,2:0:0:0:
471,172,194077,2,0,L|414:248,1,77.3500029801751,10|0,2:3|2:0,2:0:0:0:
275,261,194227,2,0,L|369:271,1,77.3500029801751,2|0,2:0|2:0,2:0:0:0:
353,183,194377,5,0,1:0:0:0:
353,183,194527,2,0,L|382:85,1,77.3500029801751,2|0,2:0|2:0,2:0:0:0:
329,23,194677,5,8,2:3:0:0:
346,168,194827,2,0,L|375:70,1,77.3500029801751,2|0,2:0|2:0,2:0:0:0:
471,172,194977,5,0,1:0:0:0:
280,89,195127,2,0,L|185:107,1,77.3500029801751,2|0,2:0|2:0,2:0:0:0:
492,61,195277,5,8,2:3:0:0:
271,103,195427,2,0,L|192:120,1,77.3500029801751,2|0,2:0|2:0,2:0:0:0:
10,53,195577,5,0,1:0:0:0:
37,36,195652,1,2,2:0:0:0:
72,39,195727,1,2,2:0:0:0:
96,60,195802,1,2,2:0:0:0:
111,96,195877,1,10,2:3:0:0:
111,96,195952,1,2,2:0:0:0:
111,96,196027,2,0,L|93:145,2,38.6750014900876,2|0|2,2:0|2:0|2:0,2:0:0:0:
212,298,196177,5,0,1:0:0:0:
31,175,196327,2,0,L|44:214,2,38.6750014900876,2|2|2,2:0|2:0|2:0,2:0:0:0:
6,356,196477,5,10,2:3:0:0:
12,317,196552,1,2,2:0:0:0:
45,290,196627,1,2,2:0:0:0:
89,296,196702,1,2,2:0:0:0:
117,318,196777,5,2,1:2:0:0:
312,177,196927,2,0,L|277:269,1,77.3500029801751,2|0,2:0|2:0,2:0:0:0:
210,370,197077,6,0,P|200:323|219:290,1,77.3500029801751,8|0,2:3|2:0,2:0:0:0:
451,161,197227,2,0,P|415:193|377:193,1,77.3500029801751,2|0,2:0|2:0,2:0:0:0:
256,36,197377,6,0,B|301:75|276:151|246:131|229:203|291:255,1,232.050008940525,2|0,1:2|2:0,2:0:0:0:
384,342,197677,2,0,P|380:291|347:265,1,77.3500029801751,10|0,2:3|2:0,2:0:0:0:
176,188,197827,1,0,1:0:0:0:
350,43,197977,5,2,1:2:0:0:
165,202,198127,2,0,L|79:180,1,77.3500029801751,2|0,2:0|2:0,2:0:0:0:
363,273,198277,5,10,2:3:0:0:
155,216,198427,2,0,L|69:194,1,77.3500029801751,2|0,2:0|2:0,2:0:0:0:
343,126,198577,6,0,P|354:174|334:207,1,77.3500029801751,2|0,1:2|2:0,2:0:0:0:
226,296,198727,1,2,2:0:0:0:
223,286,198802,2,0,P|258:250|298:251,1,77.3500029801751,2|10,2:0|2:3,2:0:0:0:
432,299,198952,1,0,2:0:0:0:
426,307,199027,2,0,P|377:292|358:258,1,77.3500029801751,2|0,2:0|2:0,2:0:0:0:
269,164,199177,5,2,1:2:0:0:
512,313,199327,2,0,L|476:400,1,77.3500029801751,2|0,2:0|2:0,2:0:0:0:
512,87,199477,5,10,2:3:0:0:
500,84,199552,2,0,P|460:98|443:136,1,77.3500029801751,0|0,2:0|2:0,2:0:0:0:
426,202,199702,1,2,2:0:0:0:
432,223,199777,5,0,1:0:0:0:
254,42,199927,1,2,2:0:0:0:
285,10,200002,1,0,2:0:0:0:
334,24,200077,5,8,2:3:0:0:
334,24,200152,1,2,2:0:0:0:
334,24,200227,2,0,L|353:103,1,77.3500029801751,2|0,2:0|2:0,2:0:0:0:
264,192,200377,5,2,1:2:0:0:
349,31,200527,2,0,L|371:115,1,77.3500029801751,2|0,2:0|2:0,2:0:0:0:
177,198,200677,5,10,2:3:0:0:
365,40,200827,2,0,L|386:119,1,77.3500029801751,2|0,2:0|2:0,2:0:0:0:
68,190,200977,5,2,1:2:0:0:
32,200,201052,1,2,2:0:0:0:
4,180,201127,2,0,P|5:123|34:108,1,77.3500029801751,2|2,2:0|2:0,0:0:0:0:
150,101,201277,1,10,2:3:0:0:
190,111,201352,1,2,2:0:0:0:
222,78,201427,1,2,2:0:0:0:
229,38,201502,1,2,2:0:0:0:
199,0,201577,6,0,L|137:280,1,274.050011395054,2|0,1:2|2:0,2:0:0:0:
219,300,201877,2,0,P|217:248|188:212,1,91.3500037983515,10|0,2:3|2:0,2:0:0:0:
18,114,202027,2,0,P|45:152|77:157,1,77.3500029801751,2|0,2:0|2:0,2:0:0:0:
299,129,202177,5,2,1:2:0:0:
90,384,202327,2,0,L|70:309,1,77.3500029801751,2|0,2:0|2:0,2:0:0:0:
6,262,202477,5,8,2:3:0:0:
42,229,202552,1,0,1:0:0:0:
90,234,202627,1,0,1:0:0:0:
270,365,202777,5,2,1:2:0:0:
388,160,202927,1,2,2:0:0:0:
397,170,203002,1,2,2:0:0:0:
406,180,203077,2,0,L|389:273,1,77.3500029801751,10|0,2:3|2:0,2:0:0:0:
416,197,203227,2,0,L|404:276,1,77.3500029801751,2|0,2:0|2:0,2:0:0:0:
451,338,203377,5,2,1:2:0:0:
218,190,203527,2,0,L|304:169,1,77.3500029801751,2|0,2:0|2:0,2:0:0:0:
270,26,203677,2,0,L|245:110,1,77.3500029801751,10|0,2:3|2:0,2:0:0:0:
388,160,203827,2,0,L|326:96,1,77.3500029801751,2|0,2:0|2:0,2:0:0:0:
134,152,203977,5,2,1:2:0:0:
134,152,204127,2,0,L|57:125,1,77.3500029801751,2|0,2:0|2:0,2:0:0:0:
34,50,204277,5,8,2:3:0:0:
153,143,204427,2,0,L|65:112,1,77.3500029801751,2|0,2:0|2:0,2:0:0:0:
247,100,204577,5,2,1:2:0:0:
161,230,204727,2,0,L|183:314,1,77.3500029801751,2|0,2:0|2:0,2:0:0:0:
116,43,204877,5,10,2:3:0:0:
153,248,205027,2,0,L|174:332,1,77.3500029801751,2|0,2:0|2:0,2:0:0:0:
412,380,205177,1,2,1:2:0:0:
425,340,205252,1,2,2:0:0:0:
408,300,205327,1,2,2:0:0:0:
362,283,205402,1,2,2:0:0:0:
327,308,205477,1,8,2:3:0:0:
327,308,205552,1,2,2:0:0:0:
327,308,205627,2,0,L|315:352,2,38.6750014900876,2|0|0,2:0|2:0|2:0,2:0:0:0:
360,131,205777,5,2,1:2:0:0:
255,206,205927,2,0,L|267:250,2,38.6750014900876,2|2|2,2:0|2:0|2:0,2:0:0:0:
103,79,206077,1,10,2:3:0:0:
112,114,206152,1,2,2:0:0:0:
147,141,206227,1,2,2:0:0:0:
186,148,206302,1,2,2:0:0:0:
226,131,206377,5,2,1:2:0:0:
337,205,206527,2,0,L|362:127,1,77.3500029801751,2|0,2:0|2:0,2:0:0:0:
211,3,206677,6,0,P|180:56|193:89,1,77.3500029801751,10|0,2:3|2:0,2:0:0:0:
141,277,206827,2,0,P|110:223|75:218,1,77.3500029801751,2|0,2:0|2:0,2:0:0:0:
8,124,206977,6,0,B|60:162|124:137|102:109|174:85|231:135,1,232.050008940525,2|0,1:2|2:0,2:0:0:0:
337,205,207277,2,0,P|302:182|302:149,1,77.3500029801751,8|0,2:3|2:0,2:0:0:0:
445,14,207427,2,0,P|451:63|421:90,1,91.3500037983515,0|0,1:0|2:0,2:0:0:0:
427,367,207577,5,0,1:0:0:0:
228,215,207727,1,0,2:0:0:0:
257,189,207802,1,0,2:0:0:0:
300,185,207877,1,10,2:3:0:0:
336,203,207952,1,0,2:0:0:0:
359,239,208027,2,0,L|336:322,1,77.3500029801751,2|0,2:0|2:0,2:0:0:0:
512,184,208177,5,2,2:0:0:0:
506,151,208252,1,0,2:0:0:0:
481,135,208327,2,0,P|431:144|408:167,1,77.3500029801751,2|0,1:2|2:0,2:0:0:0:
242,384,208477,2,0,P|258:336|249:304,1,77.3500029801751,10|0,2:3|2:0,2:0:0:0:
128,92,208627,2,0,L|153:184,1,77.3500029801751,2|0,2:0|2:0,2:0:0:0:
338,313,208777,5,2,1:2:0:0:
27,205,208927,1,2,1:2:0:0:
294,115,209077,1,8,2:3:0:0:
177,363,209227,1,2,2:0:0:0:
131,370,209302,1,0,2:0:0:0:
90,349,209377,1,2,2:0:0:0:
67,313,209452,1,0,2:0:0:0:
72,268,209527,1,2,1:2:0:0:
191,22,209677,6,0,P|217:72|214:100,1,77.3500029801751,10|0,2:3|2:0,2:0:0:0:
147,293,209827,2,0,P|177:245|203:234,1,77.3500029801751,2|0,2:0|2:0,2:0:0:0:
366,163,209977,5,10,2:0:0:0:
38,51,210427,5,2,1:2:0:0:
296,328,210877,5,2,2:0:0:0:
381,2,211177,5,4,2:3:0:0:
363,22,211252,1,4,2:3:0:0:
362,45,211327,1,4,2:3:0:0:
372,62,211402,1,4,2:3:0:0:
448,80,211477,5,4,2:3:0:0:
470,90,211552,1,4,2:3:0:0:
483,116,211627,1,4,2:3:0:0:
484,141,211702,1,4,2:3:0:0:
438,206,211777,6,0,L|430:242,6,21.174999402256,4|4|4|4|4|4|4,2:3|2:3|2:3|2:3|2:3|2:3|2:3,2:0:0:0:
490,285,212077,6,0,L|498:321,6,21.174999402256,4|4|4|4|4|4|4,2:3|2:3|2:3|2:3|2:3|2:3|2:3,2:0:0:0:
450,372,212377,5,4,1:0:0:0:
251,193,212677,2,0,L|271:129,1,56.7000013842774,2|2,2:0|2:0,2:0:0:0:
267,138,213877,2,0,L|251:193,1,56.7000013842774,2|2,2:0|2:0,2:0:0:0:
166,51,214327,2,0,L|158:21,1,28.7000004379273,2|2,2:0|2:0,2:0:0:0:
267,138,215077,2,0,L|251:193,1,56.7000013842774,2|2,2:0|2:0,2:0:0:0:
251,193,216277,2,0,L|271:129,1,56.7000013842774,2|2,2:0|2:0,2:0:0:0:
158,23,216727,2,0,L|166:51,1,28.7000004379273,2|2,2:0|2:0,2:0:0:0:
251,193,217477,2,0,L|267:138,1,56.7000013842774,2|2,2:0|2:0,2:0:0:0:
267,138,218677,2,0,L|251:193,1,56.7000013842774,2|2,2:0|2:0,2:0:0:0:
166,51,219127,2,0,L|158:23,1,28.7000004379273,2|2,2:0|2:0,2:0:0:0:
267,138,219877,2,0,L|251:193,1,56.7000013842774,2|2,2:0|2:0,2:0:0:0:
251,193,221077,2,0,L|267:138,1,56.7000013842774,2|2,2:0|2:0,2:0:0:0:
166,51,221377,2,0,L|158:23,1,28.7000004379273,2|2,2:0|2:0,2:0:0:0:
126,126,221677,2,0,L|133:153,1,28.7000004379273,2|2,2:0|2:0,2:0:0:0:
108,384,221977,6,0,L|98:350,1,28.3500006921387,0|0,1:0|2:0,2:0:0:0:
0,216,222127,2,0,L|34:226,1,28.3500006921387,0|0,2:0|2:0,2:0:0:0:
103,245,222277,2,0,L|137:255,1,28.3500006921387,10|0,2:0|2:0,2:0:0:0:
212,281,222427,2,0,L|246:291,5,28.3500006921387,2|0|0|0|0|0,2:0|2:0|2:0|2:0|2:0|2:0,2:0:0:0:
140,244,222877,2,0,L|112:236,1,28.3500006921387,8|0,2:0|2:0,2:0:0:0:
36,215,223028,2,0,L|8:207,1,28.3500006921387,2|0,2:0|2:0,2:0:0:0:
128,5,223177,5,4,0:3:0:0:
128,5,223252,1,4,2:3:0:0:
128,5,223327,2,0,L|144:50,1,42.3499988045121,4|4,2:3|2:3,2:0:0:0:
250,99,223477,1,8,2:0:0:0:
250,99,223552,1,4,2:3:0:0:
250,99,223627,2,0,L|203:90,1,42.3499988045121,4|4,2:3|2:3,2:0:0:0:
103,158,223777,1,6,2:3:0:0:
103,158,223852,1,4,2:3:0:0:
103,158,223927,2,0,L|133:121,1,42.3499988045121,4|4,2:3|2:3,2:0:0:0:
307,24,224077,5,8,2:0:0:0:
338,13,224152,1,4,2:3:0:0:
367,24,224227,1,4,2:3:0:0:
381,48,224302,1,4,2:3:0:0:
386,75,224377,2,4,L|369:121,3,42.3499988045121,6|4|4|4,1:3|2:3|2:3|2:3,2:3:0:0:
436,165,224677,2,4,L|453:211,3,42.3499988045121,12|4|6|4,2:3|2:3|2:3|2:3,2:3:0:0:
220,315,224977,5,4,2:3:0:0:
213,296,225052,1,4,2:3:0:0:
222,275,225127,2,0,P|251:281|267:302,1,42.3499988045121,4|4,2:3|2:3,2:0:0:0:
367,366,225277,1,10,2:0:0:0:
354,381,225352,1,4,2:3:0:0:
331,384,225427,2,0,P|321:355|331:331,1,42.3499988045121,4|4,2:3|2:3,2:0:0:0:
344,263,225577,1,6,1:3:0:0:
349,255,225652,1,4,2:3:0:0:
355,248,225727,1,4,2:3:0:0:
361,240,225802,1,4,2:3:0:0:
369,230,225877,6,4,P|353:191|342:175,1,42.3499988045121,10|4,2:0|2:3,2:3:0:0:
222,98,226027,2,0,L|208:142,3,42.3499988045121,6|4|4|4,2:3|2:3|2:3|2:3,2:0:0:0:
271,9,226327,6,0,L|289:51,1,42.3499988045121,6|4,2:3|2:3,2:0:0:0:
143,179,226477,2,0,L|125:228,3,42.3499988045121,10|4|4|4,2:0|2:3|2:3|2:3,2:0:0:0:
42,36,226777,5,4,1:3:0:0:
49,27,226852,1,4,2:3:0:0:
63,24,226927,1,4,2:3:0:0:
72,32,227002,1,4,2:3:0:0:
77,42,227077,1,10,2:0:0:0:
77,58,227152,1,4,2:3:0:0:
67,74,227227,1,6,2:3:0:0:
54,89,227302,1,4,2:3:0:0:
42,115,227377,1,4,2:3:0:0:
39,141,227452,1,4,2:3:0:0:
46,168,227527,1,4,2:3:0:0:
65,194,227602,1,4,2:3:0:0:
100,210,227677,1,10,2:0:0:0:
133,203,227752,1,4,2:3:0:0:
165,175,227827,1,6,2:3:0:0:
170,135,227902,1,4,2:3:0:0:
148,97,227977,5,6,1:3:0:0:
128,136,228052,1,4,2:3:0:0:
126,194,228127,1,4,2:3:0:0:
165,235,228202,1,4,2:3:0:0:
221,246,228277,1,10,2:0:0:0:
271,223,228352,1,4,2:3:0:0:
298,176,228427,1,4,2:3:0:0:
296,122,228502,1,4,2:3:0:0:
262,81,228577,6,0,L|239:154,3,56.3500000859833,6|4|4|4,2:3|2:3|2:3|2:3,2:0:0:0:
337,6,228877,2,0,L|360:79,3,56.3500000859833,10|4|4|4,2:0|2:3|2:3|2:3,2:3:0:0:
512,240,229177,6,0,L|501:265,5,21.3499991204071,6|4|4|4|4|4,1:3|2:3|2:3|2:3|2:3|2:3,2:0:0:0:
438,194,229627,6,0,L|436:224,5,21.3499991204071,6|4|4|4|4|4,2:3|2:3|2:3|2:3|2:3|2:3,2:0:0:0:
347,182,230077,6,0,L|358:211,3,21.3499991204071,6|4|4|4,2:3|2:3|2:3|2:3,2:0:0:0:
257,199,230377,6,0,L|277:224,14,21.174999402256,4|4|4|4|4|4|4|4|4|4|4|4|4|4|4,2:3|2:3|2:3|2:3|2:3|2:3|2:3|2:3|2:3|2:3|2:3|2:3|2:3|2:3|2:3,2:0:0:0:
174,256,230977,6,4,L|218:278,14,28.1750000429916,6|4|4|4|4|4|4|4|6|4|4|4|4|4|4,2:3|2:3|2:3|2:3|2:3|2:3|2:3|2:3|2:3|2:3|2:3|2:3|2:3|2:3|2:3,2:3:0:0:
163,343,231577,6,0,L|133:240,1,77.3500029801751,6|0,1:0|2:0,2:0:0:0:
86,60,231727,1,0,2:0:0:0:
299,253,231877,6,0,P|278:206|245:198,1,77.3500029801751,8|0,2:3|2:0,2:0:0:0:
5,65,232027,1,0,2:0:0:0:
18,108,232102,1,0,2:0:0:0:
59,139,232177,1,0,1:0:0:0:
107,139,232252,1,0,2:0:0:0:
145,119,232327,1,0,2:0:0:0:
12,384,232477,6,0,P|57:350|85:351,1,77.3500029801751,8|0,2:3|2:0,2:0:0:0:
254,318,232627,2,0,P|302:337|338:327,1,77.3500029801751,0|0,2:0|2:0,2:0:0:0:
270,116,232777,6,0,L|243:203,1,77.3500029801751,2|0,1:2|2:0,2:0:0:0:
186,362,232927,1,0,2:0:0:0:
218,50,233077,6,0,P|251:30|298:42,1,77.3500029801751,8|0,2:3|2:0,2:0:0:0:
497,152,233227,1,0,2:0:0:0:
469,182,233302,1,0,2:0:0:0:
428,190,233377,1,0,1:0:0:0:
397,310,233527,6,0,L|416:385,1,77.3500029801751,0|0,2:0|2:0,2:0:0:0:
493,69,233677,2,0,P|442:87|424:128,1,77.3500029801751,8|0,2:3|2:0,2:0:0:0:
166,232,233827,1,0,2:0:0:0:
154,179,233902,1,0,2:0:0:0:
181,127,233977,5,2,1:2:0:0:
415,384,234127,2,0,B|448:321|385:256|370:277|306:225|356:132,1,274.050011395054,2|0,2:0|2:0,2:0:0:0:
429,104,234427,1,2,2:0:0:0:
462,116,234502,1,0,2:0:0:0:
481,146,234577,6,0,P|487:190|461:233,1,91.3500037983515,0|0,1:0|2:0,2:0:0:0:
331,348,234727,2,0,P|284:351|246:315,1,91.3500037983515,2|0,2:0|2:0,2:0:0:0:
501,305,234877,5,8,2:3:0:0:
173,240,235027,1,2,2:0:0:0:
173,240,235102,1,0,2:0:0:0:
173,240,235177,2,0,L|230:390,1,154.70000596035,0|0,1:0|2:0,2:0:0:0:
260,182,235402,1,0,2:0:0:0:
260,182,235477,6,0,B|229:143|229:143|343:196,1,154.70000596035,8|0,2:3|2:0,2:0:0:0:
372,91,235702,1,0,2:0:0:0:
372,91,235777,6,0,B|307:103|307:103|236:228|236:228|162:242,1,274.050011395054,2|0,1:2|2:0,2:0:0:0:
69,139,236077,2,0,P|122:138|156:167,1,91.3500037983515,10|0,2:3|2:0,2:0:0:0:
336,353,236227,2,0,P|308:307|316:263,1,91.3500037983515,0|0,1:0|2:0,2:0:0:0:
512,55,236377,6,0,L|414:34,1,77.3500029801751,2|0,1:2|2:0,2:0:0:0:
211,12,236527,1,0,2:0:0:0:
420,212,236677,6,0,P|362:182|353:152,1,77.3500029801751,8|0,2:3|2:0,2:0:0:0:
228,9,236827,1,0,2:0:0:0:
258,15,236902,1,0,2:0:0:0:
273,32,236977,2,0,L|246:138,1,91.3500037983515,0|0,1:0|2:0,2:0:0:0:
495,284,237127,6,0,P|447:299|427:335,1,91.3500037983515,0|0,2:0|2:0,2:0:0:0:
183,163,237277,2,0,P|219:197|261:196,1,91.3500037983515,8|0,2:3|2:0,2:0:0:0:
13,384,237427,2,0,P|26:336|2:299,1,91.3500037983515,0|0,2:0|2:0,2:0:0:0:
50,137,237577,6,0,L|78:229,1,77.3500029801751,2|0,1:2|2:0,2:0:0:0:
120,384,237727,1,0,2:0:0:0:
187,80,237877,6,0,P|136:91|118:126,1,77.3500029801751,8|0,2:3|2:0,2:0:0:0:
0,221,238027,1,0,2:0:0:0:
0,221,238102,1,0,2:0:0:0:
0,221,238177,2,0,L|179:261,1,182.700007596703,0|0,1:0|2:0,2:0:0:0:
187,257,238402,1,0,2:0:0:0:
201,251,238477,6,0,P|226:281|213:344,1,91.3500037983515,8|0,2:3|2:0,2:0:0:0:
363,209,238627,2,0,P|356:247|299:277,1,91.3500037983515,0|0,2:0|2:0,2:0:0:0:
312,133,238777,5,2,1:2:0:0:
476,347,238927,2,0,B|410:394|346:348|365:327|276:279|214:336,1,274.050011395054,0|0,2:0|2:0,2:0:0:0:
74,354,239227,2,0,P|121:383|156:378,1,91.3500037983515,2|0,2:0|2:0,2:0:0:0:
369,343,239377,5,0,1:0:0:0:
393,315,239452,1,0,2:0:0:0:
394,279,239527,2,0,L|358:198,1,77.3500029801751,2|0,2:0|2:0,2:0:0:0:
175,87,239677,2,0,P|211:130|237:133,1,77.3500029801751,8|0,2:3|2:0,2:0:0:0:
502,229,239827,1,2,2:0:0:0:
493,239,239902,1,0,2:0:0:0:
481,244,239977,6,0,B|430:192|373:170|299:172|299:172|280:206|241:211,1,274.050011395054,0|0,1:0|2:0,2:0:0:0:
114,384,240277,6,0,P|84:349|83:317,1,77.3500029801751,8|0,2:3|2:0,2:0:0:0:
164,314,240427,2,0,P|155:282|177:233,1,77.3500029801751,0|0,2:0|2:0,2:0:0:0:
228,133,240577,6,0,L|301:105,1,77.3500029801751,2|0,1:2|2:0,2:0:0:0:
82,192,240727,2,0,L|155:166,1,77.3500029801751,0|0,2:0|2:0,2:0:0:0:
384,72,240877,5,10,2:3:0:0:
384,72,240952,1,0,1:0:0:0:
384,72,241027,1,0,1:0:0:0:
49,25,241177,6,0,L|30:112,1,77.3500029801751,0|0,1:0|2:0,2:0:0:0:
0,247,241327,1,2,2:0:0:0:
195,0,241477,6,0,P|143:23|132:49,1,77.3500029801751,8|0,2:3|2:0,2:0:0:0:
0,197,241627,1,0,2:0:0:0:
9,240,241702,1,0,2:0:0:0:
46,264,241777,1,0,1:0:0:0:
87,273,241852,1,0,2:0:0:0:
125,259,241927,1,0,2:0:0:0:
210,83,242077,6,0,P|255:116|283:113,1,77.3500029801751,8|0,2:3|2:0,2:0:0:0:
428,290,242227,1,0,2:0:0:0:
428,290,242302,1,0,2:0:0:0:
428,290,242377,6,0,L|402:195,1,77.3500029801751,2|0,1:2|2:0,2:0:0:0:
358,74,242527,1,0,2:0:0:0:
152,211,242677,6,0,P|144:160|162:132,1,77.3500029801751,8|0,2:3|2:0,2:0:0:0:
388,0,242827,2,0,L|348:162,1,154.70000596035,0|0,2:0|1:0,2:0:0:0:
302,308,243052,1,0,2:0:0:0:
302,308,243127,6,0,L|324:390,1,77.3500029801751,0|0,2:0|2:0,2:0:0:0:
358,74,243277,2,0,B|315:36|243:28|193:60|193:60|243:99|237:146,1,274.050011395054,8|0,2:3|2:0,2:0:0:0:
415,193,243577,6,0,P|380:225|331:224,1,91.3500037983515,2|0,1:2|2:0,2:0:0:0:
89,67,243727,2,0,L|365:154,1,274.050011395054,0|0,2:0|2:0,2:0:0:0:
497,160,244027,1,2,2:0:0:0:
508,122,244102,1,0,2:0:0:0:
490,88,244177,2,0,P|451:88|419:118,1,77.3500029801751,0|0,1:0|2:0,2:0:0:0:
239,283,244327,2,0,P|258:249|248:206,1,77.3500029801751,2|0,2:0|2:0,2:0:0:0:
139,0,244477,5,8,2:3:0:0:
1,187,244627,1,2,2:0:0:0:
1,187,244702,1,0,2:0:0:0:
1,187,244777,2,0,B|12:231|12:231|95:272|95:272|105:329,1,182.700007596703,0|0,1:0|2:0,2:0:0:0:
58,381,245002,1,0,2:0:0:0:
35,367,245077,6,0,P|18:323|35:264,1,91.3500037983515,8|0,2:3|2:0,2:0:0:0:
86,177,245227,2,0,P|69:126|32:102,1,91.3500037983515,0|0,2:0|2:0,2:0:0:0:
361,62,245377,6,0,B|349:134|258:143|256:115|172:125|165:215,1,274.050011395054,2|0,1:2|2:0,2:0:0:0:
102,316,245677,2,0,L|207:291,1,91.3500037983515,10|0,2:3|2:0,2:0:0:0:
473,289,245827,1,0,1:0:0:0:
492,271,245902,1,0,2:0:0:0:
493,244,245977,6,0,B|407:281|390:365|390:365|408:280|363:209,1,326.549981563798,2|0,1:2|2:0,2:0:0:0:
437,179,246277,2,0,B|461:158|454:129|454:129|434:146|436:171,1,98.3499996998596,10|0,2:3|2:0,2:0:0:0:
310,322,246427,6,0,P|271:354|233:346,1,77.3500029801751,2|0,2:0|2:0,2:0:0:0:
512,361,246577,2,0,P|365:258|251:220,1,295.049999099579,2|0,1:2|2:0,2:0:0:0:
214,150,246877,5,10,2:3:0:0:
190,294,247027,2,0,L|171:209,1,77.3500029801751,2|0,2:0|2:0,2:0:0:0:
127,50,247177,5,0,1:0:0:0:
0,180,247327,2,0,P|96:167|115:28,1,232.050008940525,2|0,2:0|2:0,2:0:0:0:
48,26,247627,2,0,P|37:63|47:99,1,77.3500029801751,2|0,2:0|2:0,2:0:0:0:
240,51,247777,6,0,L|-11:-6,1,232.050008940525,2|0,1:2|2:0,2:0:0:0:
182,191,248077,2,0,P|162:146|179:102,1,77.3500029801751,10|0,2:3|2:0,2:0:0:0:
382,0,248227,2,0,P|352:38|305:46,1,77.3500029801751,2|0,2:0|2:0,2:0:0:0:
418,309,248377,5,4,1:0:0:0:
418,309,248527,1,0,1:0:0:0:
375,242,248677,6,0,L|395:317,2,45.6750018991757,10|8|8,2:0|2:0|2:0,2:0:0:0:
475,168,248827,5,10,2:1:0:0:
475,168,248902,1,8,2:1:0:0:
475,168,248977,2,0,L|456:238,1,63.3499996616745,10|0,2:1|2:0,2:0:0:0:
326,384,249127,2,0,L|307:314,1,63.3499996616745,0|0,1:0|2:0,2:0:0:0:
390,161,249277,5,2,1:2:0:0:
356,151,249352,1,0,2:0:0:0:
324,139,249427,1,10,2:1:0:0:
295,131,249502,1,8,2:1:0:0:
233,178,249577,5,10,2:1:0:0:
233,178,249652,1,8,2:0:0:0:
233,178,249727,2,0,L|245:212,2,31.6749998308373,8|8|8,2:0|2:0|2:0,2:0:0:0:
186,265,249877,2,0,L|166:348,1,63.3499996616745,0|0,1:0|2:0,2:0:0:0:
84,166,250027,2,0,L|69:114,1,49.349997477379,8|0,2:1|2:0,2:0:0:0:
194,285,250177,6,0,L|179:342,1,49.349997477379,0|0,2:0|2:0,2:0:0:0:
31,326,250327,6,0,L|-10:368,2,45.6750018991757,8|8|8,2:0|2:0|2:0,2:0:0:0:
102,247,250477,2,0,L|64:254,2,31.6749998308373,8|8|8,2:0|2:0|2:0,2:0:0:0:
346,368,250627,1,8,2:0:0:0:
358,376,250702,1,8,2:0:0:0:
371,384,250777,5,4,1:0:0:0:
420,375,250852,1,0,2:0:0:0:
457,340,250927,1,0,1:0:0:0:
462,289,251002,1,0,2:0:0:0:
435,245,251077,1,8,2:3:0:0:
387,226,251152,1,0,2:0:0:0:
337,234,251227,1,0,2:0:0:0:
287,243,251302,1,0,2:0:0:0:
240,223,251377,1,0,2:0:0:0:
214,179,251452,1,0,2:0:0:0:
218,128,251527,1,0,1:0:0:0:
248,87,251602,1,0,2:0:0:0:
298,79,251677,6,0,L|360:101,1,63.3499996616745,10|0,2:3|2:0,2:0:0:0:
121,0,251827,2,0,L|59:22,1,63.3499996616745,2|0,2:0|2:0,2:0:0:0:
438,121,251977,5,2,1:2:0:0:
412,165,252052,1,0,2:0:0:0:
364,183,252127,1,0,1:0:0:0:
314,170,252202,1,0,2:0:0:0:
277,134,252277,1,8,2:3:0:0:
234,107,252352,1,0,2:0:0:0:
183,111,252427,1,0,2:0:0:0:
140,139,252502,1,0,2:0:0:0:
119,185,252577,1,0,2:0:0:0:
128,234,252652,1,0,2:0:0:0:
161,271,252727,1,0,1:0:0:0:
208,277,252802,1,0,2:0:0:0:
242,255,252877,6,0,L|210:189,1,63.3499996616745,10|0,2:3|2:0,2:0:0:0:
391,323,253027,2,0,L|374:397,1,63.3499996616745,2|0,2:0|2:0,2:0:0:0:
33,280,253177,5,2,1:2:0:0:
69,245,253252,1,0,2:0:0:0:
119,249,253327,1,0,1:0:0:0:
160,278,253402,1,0,2:0:0:0:
183,322,253477,1,8,2:3:0:0:
228,344,253552,1,0,2:0:0:0:
278,341,253627,1,0,2:0:0:0:
315,306,253702,1,0,2:0:0:0:
327,256,253777,1,0,2:0:0:0:
306,211,253852,1,0,2:0:0:0:
261,187,253927,1,2,1:2:0:0:
212,200,254002,1,0,2:0:0:0:
177,247,254077,6,0,L|200:323,1,63.3499996616745,10|0,2:3|2:0,2:0:0:0:
389,177,254227,2,0,L|413:105,1,63.3499996616745,2|0,2:0|2:0,2:0:0:0:
87,99,254377,6,0,P|144:120|157:154,1,77.3500029801751,2|0,1:2|2:0,2:0:0:0:
461,221,254527,2,0,P|414:259|378:254,1,77.3500029801751,2|0,1:2|2:0,2:0:0:0:
181,384,254677,6,0,L|198:296,1,77.3500029801751,10|0,2:3|2:0,2:0:0:0:
214,226,254827,2,0,L|231:133,1,77.3500029801751,2|0,2:0|2:0,2:0:0:0:
303,120,254977,5,2,2:0:0:0:
66,272,255127,1,2,1:2:0:0:
69,289,255202,1,0,1:0:0:0:
78,301,255277,2,0,B|139:335|216:286|172:252|250:196|319:241,1,274.050011395054,10|0,2:3|2:0,2:0:0:0:
408,343,255577,6,0,P|355:332|331:306,1,77.3500029801751,2|0,1:2|2:0,2:0:0:0:
39,198,255727,5,0,1:0:0:0:
62,153,255802,1,0,2:0:0:0:
111,141,255877,1,8,2:3:0:0:
157,161,255952,1,0,2:0:0:0:
207,165,256027,1,0,2:0:0:0:
251,140,256102,1,0,2:0:0:0:
273,94,256177,1,0,2:0:0:0:
263,44,256252,1,0,2:0:0:0:
218,20,256327,1,0,1:0:0:0:
168,32,256402,1,0,2:0:0:0:
146,77,256477,6,0,L|169:139,1,63.3499996616745,10|0,2:3|2:0,2:0:0:0:
423,59,256627,2,0,L|446:-3,1,63.3499996616745,2|0,2:0|2:0,2:0:0:0:
323,174,256777,5,2,1:2:0:0:
303,220,256852,1,0,2:0:0:0:
303,270,256927,1,0,1:0:0:0:
322,316,257002,1,0,2:0:0:0:
364,344,257077,1,8,2:3:0:0:
414,345,257152,1,0,2:0:0:0:
461,327,257227,1,0,2:0:0:0:
490,286,257302,1,0,2:0:0:0:
502,236,257377,1,0,2:0:0:0:
481,189,257452,1,0,2:0:0:0:
440,158,257527,1,0,1:0:0:0:
390,149,257602,1,0,2:0:0:0:
342,165,257677,6,0,L|362:233,1,63.3499996616745,10|0,2:3|2:0,2:0:0:0:
202,384,257827,2,0,L|222:316,1,63.3499996616745,2|0,2:0|2:0,2:0:0:0:
13,224,257977,5,2,1:2:0:0:
43,176,258052,1,0,2:0:0:0:
97,157,258127,1,0,1:0:0:0:
151,173,258202,1,0,2:0:0:0:
207,174,258277,1,8,2:3:0:0:
257,147,258352,1,0,2:0:0:0:
276,93,258427,1,0,2:0:0:0:
249,42,258502,1,0,2:0:0:0:
192,32,258577,1,0,2:0:0:0:
147,73,258652,1,0,2:0:0:0:
147,130,258727,1,2,1:2:0:0:
192,165,258802,1,0,2:0:0:0:
241,159,258877,6,0,L|320:138,1,63.3499996616745,10|0,2:3|2:0,2:0:0:0:
103,16,259027,2,0,L|24:-5,1,63.3499996616745,2|0,2:0|2:0,2:0:0:0:
420,44,259177,6,0,P|362:72|354:101,1,77.3500029801751,2|0,1:2|2:0,2:0:0:0:
216,245,259327,2,0,L|237:328,1,77.3500029801751,2|0,1:2|2:0,2:0:0:0:
5,77,259477,6,0,P|52:86|74:111,1,77.3500029801751,10|0,2:3|2:0,2:0:0:0:
224,250,259627,2,0,L|245:332,1,77.3500029801751,2|0,2:0|2:0,2:0:0:0:
167,116,259777,5,2,1:2:0:0:
175,82,259852,1,0,1:0:0:0:
182,46,259927,1,2,1:2:0:0:
173,384,260077,6,0,L|151:291,1,77.3500029801751,10|0,2:3|2:0,2:0:0:0:
313,269,260227,2,0,L|287:163,1,77.3500029801751,2|0,2:0|2:0,2:0:0:0:
24,173,260377,6,0,P|52:230|81:239,1,91.3500037983515,2|0,1:2|2:0,2:0:0:0:
331,350,260527,5,0,1:0:0:0:
382,325,260602,1,0,2:0:0:0:
406,273,260677,1,8,2:3:0:0:
390,218,260752,1,0,2:0:0:0:
341,188,260827,1,0,2:0:0:0:
283,187,260902,1,0,2:0:0:0:
228,170,260977,1,0,2:0:0:0:
192,125,261052,1,0,2:0:0:0:
192,67,261127,1,0,1:0:0:0:
228,23,261202,1,0,2:0:0:0:
285,23,261277,6,0,L|301:97,1,63.3499996616745,10|0,2:3|2:0,2:0:0:0:
87,222,261427,2,0,L|112:138,1,63.3499996616745,2|0,2:0|2:0,2:0:0:0:
453,51,261577,5,2,1:2:0:0:
485,97,261652,1,0,2:0:0:0:
473,152,261727,1,0,1:0:0:0:
425,184,261802,1,0,2:0:0:0:
369,173,261877,1,10,2:3:0:0:
311,174,261952,1,0,2:0:0:0:
266,209,262027,1,2,2:0:0:0:
252,264,262102,1,0,2:0:0:0:
270,317,262177,1,2,2:0:0:0:
321,341,262252,1,0,2:0:0:0:
374,322,262327,1,0,1:0:0:0:
392,268,262402,1,0,2:0:0:0:
358,221,262477,6,0,L|334:296,1,63.3499996616745,10|0,2:3|2:0,2:0:0:0:
174,384,262627,2,0,L|152:312,1,63.3499996616745,2|0,2:0|2:0,2:0:0:0:
0,142,262777,5,2,1:2:0:0:
38,100,262852,1,0,2:0:0:0:
94,94,262927,1,0,1:0:0:0:
143,121,263002,1,0,2:0:0:0:
184,160,263077,1,8,2:3:0:0:
237,180,263152,1,0,2:0:0:0:
293,172,263227,1,0,2:0:0:0:
343,145,263302,1,0,2:0:0:0:
357,89,263377,1,0,2:0:0:0:
340,33,263452,1,0,2:0:0:0:
291,2,263527,1,2,1:2:0:0:
237,21,263602,1,0,2:0:0:0:
210,69,263677,6,0,L|237:156,1,77.3500029801751,10|0,2:3|2:0,2:0:0:0:
413,203,263827,2,0,L|436:110,1,77.3500029801751,2|0,2:0|2:0,2:0:0:0:
64,27,263977,6,0,P|107:65|146:65,1,77.3500029801751,2|0,1:2|1:0,2:0:0:0:
430,44,264127,2,0,P|375:62|356:96,1,77.3500029801751,2|0,1:2|1:0,2:0:0:0:
197,376,264277,6,0,L|180:291,1,77.3500029801751,10|0,2:3|2:0,2:0:0:0:
165,222,264427,2,0,L|148:137,1,77.3500029801751,2|0,2:0|2:0,2:0:0:0:
210,69,264577,5,2,2:0:0:0:
112,354,264727,1,2,1:2:0:0:
112,354,264802,1,0,1:0:0:0:
112,354,264877,2,0,B|104:307|104:307|240:186|240:186|232:138,1,274.050011395054,10|0,2:3|2:0,2:0:0:0:
292,86,265177,6,0,L|372:111,1,77.3500029801751,4|4,3:0|3:0,2:0:0:0:
82,217,265327,2,0,L|2:242,1,77.3500029801751,4|4,3:0|3:0,2:0:0:0:
369,383,265477,5,6,3:0:0:0:
389,384,265552,1,4,3:0:0:0:
402,373,265627,2,0,P|375:334|323:333,1,91.3500037983515,4|4,3:0|3:0,2:0:0:0:
344,203,265777,1,6,3:0:0:0:
333,193,265852,2,0,P|285:196|258:241,1,91.3500037983515,4|4,3:0|3:0,2:0:0:0:
226,321,266002,6,0,L|429:252,1,182.700007596703,6|4,3:0|3:0,2:0:0:0:
492,199,266227,2,0,L|511:115,1,77.3500029801751,6|4,3:0|3:0,2:0:0:0:
108,220,266377,5,6,3:0:0:0:
108,220,266452,1,4,3:0:0:0:
108,220,266527,2,0,P|144:257|186:254,1,91.3500037983515,4|4,3:0|3:0,2:0:0:0:
441,79,266677,1,6,3:0:0:0:
441,79,266752,1,4,3:0:0:0:
441,79,266827,2,0,P|390:91|372:129,1,91.3500037983515,6|4,3:0|3:0,2:0:0:0:
292,384,266977,5,6,3:0:0:0:
273,363,267052,1,4,3:0:0:0:
256,345,267127,2,0,L|284:248,1,91.3500037983515,4|4,3:0|3:0,2:0:0:0:
182,12,267277,1,4,3:0:0:0:
209,6,267352,1,4,3:0:0:0:
233,0,267427,2,0,L|303:72,1,91.3500037983515,4|4,3:0|3:0,2:0:0:0:
512,265,267577,6,0,L|453:252,3,42.3499988045121,6|4|4|6,2:3|2:3|2:3|2:3,2:0:0:0:
415,195,267877,2,0,L|356:208,3,42.3499988045121,4|4|4|4,2:3|2:3|2:3|2:3,2:0:0:0:
304,149,268177,6,0,L|243:179,3,56.3500000859833,6|4|4|4,2:3|2:3|2:3|2:3,2:0:0:0:
174,149,268477,2,0,L|143:208,3,56.3500000859833,6|4|6|4,2:3|2:3|2:3|2:3,2:0:0:0:
66,214,268777,6,0,L|62:248,14,21.174999402256,6|0|0|4|4|4|4|4|4|4|4|4|4|4|4,2:3|2:0|2:0|2:3|2:3|2:3|2:3|2:3|2:3|2:3|2:3|2:3|2:3|2:3|2:3,2:0:0:0:
4,292,269377,2,0,L|11:308,28,10.587499701128,4|4|4|4|4|4|4|4|4|4|4|4|4|4|4|4|4|4|4|4|4|4|4|4|4|4|4|4|4,2:3|2:3|2:3|2:3|2:3|2:3|2:3|2:3|2:3|2:3|2:3|2:3|2:3|2:3|2:3|2:3|2:3|2:3|2:3|2:3|2:3|2:3|2:3|2:3|2:3|2:3|2:3|2:3|2:3,2:0:0:0:
26,384,269977,6,0,L|54:274,1,77.3500029801751,6|0,1:0|2:0,2:0:0:0:
82,137,270127,1,2,2:0:0:0:
85,125,270202,1,0,2:0:0:0:
89,113,270277,1,10,2:3:0:0:
186,316,270427,6,0,P|137:294|125:263,1,77.3500029801751,2|0,2:0|2:0,2:0:0:0:
166,121,270577,2,0,P|171:174|150:200,1,77.3500029801751,2|0,1:2|2:0,2:0:0:0:
5,239,270727,2,0,P|48:207|81:212,1,77.3500029801751,2|0,2:0|2:0,2:0:0:0:
227,241,270877,6,0,B|317:289,1,91.3500037983515,10|0,2:3|2:0,2:0:0:0:
294,131,271027,2,0,B|325:208,1,77.3500029801751,2|0,2:0|2:0,2:0:0:0:
429,311,271177,6,0,P|389:284|380:245,1,77.3500029801751,2|0,1:2|2:0,2:0:0:0:
420,103,271327,2,0,L|390:205,1,77.3500029801751,2|0,2:0|2:0,2:0:0:0:
276,369,271477,6,0,P|304:340|310:296,1,77.3500029801751,10|0,2:3|2:0,2:0:0:0:
512,187,271627,2,0,L|448:242,1,77.3500029801751,2|0,2:0|2:0,2:0:0:0:
232,304,271777,6,0,L|29:340,1,182.700007596703,2|0,1:2|2:0,2:0:0:0:
16,273,272002,1,0,2:0:0:0:
40,263,272077,2,0,P|84:266|112:302,1,77.3500029801751,10|0,2:3|2:0,2:0:0:0:
276,369,272227,2,0,P|304:340|310:296,1,77.3500029801751,2|0,2:0|2:0,2:0:0:0:
108,104,272377,6,0,P|91:144|119:216,1,91.3500037983515,2|0,1:2|2:0,2:0:0:0:
162,384,272527,2,0,L|195:292,1,91.3500037983515,2|0,2:0|2:0,2:0:0:0:
397,171,272677,5,10,2:3:0:0:
175,219,272827,2,0,P|211:217|261:267,1,91.3500037983515,2|0,2:0|2:0,2:0:0:0:
389,292,272977,6,0,P|438:264|449:227,1,91.3500037983515,2|0,1:2|2:0,2:0:0:0:
397,171,273127,2,0,P|348:199|336:242,1,91.3500037983515,2|0,2:0|2:0,2:0:0:0:
311,304,273277,5,10,2:3:0:0:
202,68,273427,2,0,L|176:147,1,77.3500029801751,2|0,2:0|2:0,2:0:0:0:
17,229,273577,6,0,P|68:227|92:196,1,91.3500037983515,2|0,1:2|2:0,2:0:0:0:
326,0,273727,2,0,P|288:37|296:75,1,91.3500037983515,2|0,2:0|2:0,2:0:0:0:
15,140,273877,6,0,L|124:110,1,91.3500037983515,10|0,2:3|2:0,2:0:0:0:
267,162,274027,2,0,L|376:132,1,91.3500037983515,2|0,2:0|2:0,2:0:0:0:
124,44,274177,6,0,B|106:121|176:166|189:124|291:181|265:257,1,274.050011395054,2|0,1:2|2:0,2:0:0:0:
191,287,274477,2,0,P|180:238|200:191,1,91.3500037983515,8|0,2:3|2:0,2:0:0:0:
239,86,274627,2,0,P|246:32|224:-10,1,91.3500037983515,0|0,1:0|2:0,2:0:0:0:
85,331,274777,5,2,1:2:0:0:
267,247,274927,1,2,2:0:0:0:
299,241,275002,1,0,2:0:0:0:
337,250,275077,2,0,P|399:238|419:208,1,77.3500029801751,10|0,2:3|2:0,2:0:0:0:
174,357,275227,6,0,P|171:318|191:286,1,77.3500029801751,2|0,2:0|2:0,2:0:0:0:
369,82,275377,2,0,B|348:176,1,91.3500037983515,2|0,1:2|2:0,2:0:0:0:
299,325,275527,1,2,2:0:0:0:
192,204,275677,5,10,2:3:0:0:
375,332,275827,2,0,L|461:304,1,77.3500029801751,2|0,2:0|2:0,2:0:0:0:
245,89,275977,6,0,P|243:136|275:166,1,91.3500037983515,2|0,1:2|2:0,2:0:0:0:
512,87,276127,2,0,P|468:91|437:125,1,91.3500037983515,2|0,2:0|2:0,2:0:0:0:
308,242,276277,5,10,2:3:0:0:
405,19,276427,2,0,B|386:75|386:75|471:242|471:242|441:328,1,316.049999638309,2|0,2:0|2:0,2:0:0:0:
502,365,276727,6,0,P|463:387|419:378,1,77.3500029801751,2|0,2:0|2:0,2:0:0:0:
241,274,276877,2,0,P|200:269|159:290,1,77.3500029801751,10|0,2:3|2:0,2:0:0:0:
102,349,277027,1,2,2:0:0:0:
353,384,277177,6,0,L|367:301,1,77.3500029801751,2|0,1:2|2:0,2:0:0:0:
346,154,277327,2,0,P|295:150|271:169,1,77.3500029801751,2|0,2:0|2:0,2:0:0:0:
449,308,277477,6,0,L|439:216,1,77.3500029801751,10|0,2:3|2:0,2:0:0:0:
228,89,277627,2,0,P|195:123|195:162,1,77.3500029801751,0|0,2:0|2:0,2:0:0:0:
511,191,277777,6,0,L|470:112,1,77.3500029801751,2|0,1:2|2:0,2:0:0:0:
108,147,277927,2,0,P|120:200|146:217,1,77.3500029801751,2|0,2:0|2:0,2:0:0:0:
331,384,278077,5,10,2:3:0:0:
259,338,278227,1,2,2:0:0:0:
344,0,278377,6,0,L|304:99,1,91.3500037983515,2|0,1:2|2:0,2:0:0:0:
216,228,278527,2,0,L|228:267,1,35.3499992987824,2|0,2:0|2:0,2:0:0:0:
425,22,278677,6,0,L|385:121,1,91.3500037983515,10|0,2:3|2:0,2:0:0:0:
304,239,278827,2,0,L|316:278,1,35.3499992987824,2|0,2:0|2:0,2:0:0:0:
18,127,278977,6,0,B|65:98|128:155|105:167|132:241|214:248|294:182|241:127,1,316.049999638309,2|0,1:2|2:0,2:0:0:0:
225,68,279277,5,8,2:3:0:0:
194,81,279352,1,0,1:0:0:0:
180,108,279427,1,0,1:0:0:0:
31,207,279577,6,0,P|91:324|125:402,1,196.699999399719,2|2,1:2|2:0,2:0:0:0:
222,383,279802,1,0,2:0:0:0:
234,384,279877,6,0,L|261:308,1,77.3500029801751,10|0,2:3|2:0,2:0:0:0:
110,167,280027,2,0,L|145:241,1,77.3500029801751,2|0,2:0|2:0,2:0:0:0:
350,369,280177,6,0,B|376:290|314:235|291:260|220:219|253:131,1,274.050011395054,2|0,1:2|2:0,2:0:0:0:
287,64,280477,2,0,P|319:94|324:136,1,77.3500029801751,10|0,2:3|2:0,2:0:0:0:
437,167,280627,2,0,P|434:199|389:223,1,77.3500029801751,2|0,2:0|2:0,2:0:0:0:
234,384,280777,6,0,L|334:103,1,274.050011395054,2|0,1:2|2:0,2:0:0:0:
458,33,281077,2,0,P|420:84|376:83,1,91.3500037983515,10|0,2:3|2:0,2:0:0:0:
200,73,281227,2,0,P|143:72|110:104,1,91.3500037983515,0|0,2:0|2:0,2:0:0:0:
8,314,281377,6,0,B|20:259|76:249|72:263|122:269|142:201,1,182.700007596703,2|2,1:2|2:0,2:0:0:0:
133,210,281602,1,0,2:0:0:0:
127,216,281677,6,0,P|129:253|156:280,1,77.3500029801751,10|0,2:3|2:0,2:0:0:0:
49,79,281827,2,0,P|9:100|0:137,1,77.3500029801751,2|0,2:0|2:0,2:0:0:0:
147,384,281977,6,0,B|159:334|159:334|53:202|53:202|71:145,1,274.050011395054,2|0,1:2|2:0,2:0:0:0:
125,88,282277,2,0,P|120:36|97:15,1,77.3500029801751,10|0,2:3|2:0,2:0:0:0:
215,205,282427,2,0,P|261:225|290:216,1,77.3500029801751,2|0,2:0|2:0,2:0:0:0:
427,165,282577,6,0,B|391:137|400:82|412:102|431:35|372:2|372:2|277:87,1,274.050011395054,2|0,1:2|2:0,2:0:0:0:
219,67,282877,2,0,P|232:19|253:1,1,77.3500029801751,10|0,2:3|2:0,2:0:0:0:
512,77,283027,2,0,P|463:89|437:80,1,77.3500029801751,2|0,2:0|2:0,2:0:0:0:
296,384,283177,6,0,L|311:292,1,91.3500037983515,2|0,1:2|2:0,2:0:0:0:
362,227,283327,1,2,2:0:0:0:
473,327,283477,6,0,P|426:338|389:308,1,91.3500037983515,10|0,2:3|2:0,2:0:0:0:
255,144,283627,2,0,P|288:179|280:226,1,91.3500037983515,2|0,2:0|2:0,2:0:0:0:
122,338,283777,6,0,B|48:400|-55:339|-76:216|62:205|69:275,1,316.049999638309,2|0,1:2|2:0,2:0:0:0:
70,281,284077,6,0,L|55:330,1,35.3499992987824,8|0,2:3|2:0,2:0:0:0:
159,225,284227,2,0,L|148:263,1,35.3499992987824,0|0,1:2|2:0,2:0:0:0:
86,71,284377,6,0,B|93:116|127:101|133:146,1,91.3500037983515,2|0,1:2|2:0,2:0:0:0:
229,275,284527,1,2,2:0:0:0:
220,301,284602,1,0,2:0:0:0:
198,318,284677,1,10,2:3:0:0:
271,28,284827,6,0,P|215:43|202:76,1,77.3500029801751,2|0,2:0|2:0,2:0:0:0:
0,216,284977,2,0,L|81:199,1,77.3500029801751,2|0,1:2|2:0,2:0:0:0:
231,130,285127,5,2,2:0:0:0:
388,309,285277,2,0,B|374:246|324:244|325:257|267:267|253:211,1,182.700007596703,10|2,2:3|2:0,2:0:0:0:
126,53,285577,6,0,L|207:353,1,274.050011395054,2|0,1:2|2:0,2:0:0:0:
84,384,285877,2,0,P|102:329|135:311,1,77.3500029801751,10|0,2:3|2:0,2:0:0:0:
254,213,286027,2,0,P|298:250|303:286,1,77.3500029801751,2|0,2:0|2:0,2:0:0:0:
479,330,286177,5,2,1:2:0:0:
258,377,286327,2,0,L|344:361,1,77.3500029801751,2|0,2:0|2:0,2:0:0:0:
404,348,286477,2,0,L|486:329,1,77.3500029801751,10|0,2:3|2:0,2:0:0:0:
426,133,286627,6,0,P|374:156|362:190,1,77.3500029801751,2|0,2:0|2:0,2:0:0:0:
174,367,286777,5,2,2:0:0:0:
443,217,287227,5,2,2:0:0:0:
150,78,287677,5,2,2:0:0:0:
9,312,287977,5,4,2:3:0:0:
0,287,288052,1,4,2:3:0:0:
8,265,288127,1,4,2:3:0:0:
27,254,288202,1,4,2:3:0:0:
49,174,288277,5,4,2:3:0:0:
75,163,288352,1,4,2:3:0:0:
106,169,288427,1,4,2:3:0:0:
126,191,288502,1,4,2:3:0:0:
179,255,288577,6,0,L|164:302,6,28.1750000429916,4|4|4|4|4|4|4,2:3|2:3|2:3|2:3|2:3|2:3|2:3,2:0:0:0:
251,220,288877,6,0,L|266:267,6,28.1750000429916,4|4|4|4|4|4|4,2:3|2:3|2:3|2:3|2:3|2:3|2:3,2:0:0:0:
339,286,289177,5,4,1:0:0:0:
219,52,289327,1,2,2:0:0:0:
235,57,289402,1,2,2:0:0:0:
250,61,289477,2,0,L|274:156,1,77.3500029801751,10|0,2:3|2:0,2:0:0:0:
266,70,289627,2,0,L|287:149,1,77.3500029801751,2|0,2:0|2:0,2:0:0:0:
90,313,289777,5,0,1:0:0:0:
60,384,289927,2,0,L|98:297,1,77.3500029801751,2|0,2:0|2:0,2:0:0:0:
41,172,290077,2,0,L|98:248,1,77.3500029801751,8|0,2:3|2:0,2:0:0:0:
237,261,290227,2,0,L|143:271,1,77.3500029801751,2|0,2:0|2:0,2:0:0:0:
158,180,290377,5,0,1:0:0:0:
158,180,290527,2,0,L|129:82,1,77.3500029801751,2|0,2:0|2:0,2:0:0:0:
209,6,290677,5,8,2:3:0:0:
165,165,290827,2,0,L|136:67,1,77.3500029801751,2|0,2:0|2:0,2:0:0:0:
41,172,290977,5,0,1:0:0:0:
230,89,291127,2,0,L|325:107,1,77.3500029801751,2|0,2:0|2:0,2:0:0:0:
13,60,291277,5,8,2:3:0:0:
239,102,291427,2,0,L|318:119,1,77.3500029801751,2|0,2:0|2:0,2:0:0:0:
500,49,291577,5,0,1:0:0:0:
473,26,291652,1,2,2:0:0:0:
435,24,291727,1,2,2:0:0:0:
403,48,291802,1,2,2:0:0:0:
403,91,291877,1,10,2:3:0:0:
403,91,291952,1,2,2:0:0:0:
403,91,292027,2,0,L|421:140,2,38.6750014900876,2|0|0,2:0|2:0|2:0,2:0:0:0:
300,298,292177,5,0,1:0:0:0:
481,175,292327,2,0,L|468:214,2,38.6750014900876,2|2|2,2:0|2:0|2:0,2:0:0:0:
467,362,292477,5,8,2:3:0:0:
427,366,292552,1,2,2:0:0:0:
400,346,292627,1,2,2:0:0:0:
395,310,292702,1,2,2:0:0:0:
419,275,292777,5,0,1:0:0:0:
200,177,292927,2,0,L|235:269,1,77.3500029801751,2|0,2:0|2:0,2:0:0:0:
302,370,293077,6,0,P|312:323|293:290,1,77.3500029801751,8|0,2:3|2:0,2:0:0:0:
61,161,293227,2,0,P|97:193|135:193,1,77.3500029801751,2|0,2:0|2:0,2:0:0:0:
256,36,293377,6,0,B|211:75|236:151|266:131|283:203|221:255,1,232.050008940525,2|0,1:2|2:0,2:0:0:0:
132,342,293677,2,0,P|136:291|169:265,1,77.3500029801751,10|0,2:3|2:0,2:0:0:0:
349,178,293827,1,0,1:2:0:0:
162,44,293977,5,2,1:2:0:0:
360,192,294127,2,0,L|446:170,1,77.3500029801751,2|0,2:0|2:0,2:0:0:0:
153,273,294277,5,8,2:3:0:0:
370,206,294427,2,0,L|456:184,1,77.3500029801751,2|0,2:0|2:0,2:0:0:0:
169,125,294577,6,0,P|158:173|178:206,1,77.3500029801751,2|0,1:2|2:0,2:0:0:0:
284,297,294727,1,2,2:0:0:0:
287,287,294802,2,0,P|252:251|212:252,1,77.3500029801751,2|8,2:0|2:3,2:0:0:0:
83,299,294952,1,2,2:0:0:0:
89,307,295027,2,0,P|138:292|157:258,1,77.3500029801751,2|0,2:0|2:0,2:0:0:0:
244,164,295177,5,2,1:2:0:0:
1,312,295327,2,0,L|35:403,1,77.3500029801751,2|0,2:0|2:0,2:0:0:0:
0,79,295477,5,8,2:3:0:0:
17,71,295552,2,0,P|57:85|74:123,1,77.3500029801751,2|0,2:0|2:0,2:0:0:0:
93,191,295702,1,2,2:0:0:0:
87,212,295777,5,0,1:0:0:0:
253,33,295927,1,2,2:0:0:0:
220,9,296002,1,0,2:0:0:0:
178,24,296077,5,8,2:3:0:0:
178,24,296152,1,2,2:0:0:0:
178,24,296227,2,0,L|159:103,1,77.3500029801751,2|0,2:0|2:0,2:0:0:0:
248,192,296377,5,2,1:2:0:0:
163,31,296527,2,0,L|141:115,1,77.3500029801751,2|0,2:0|2:0,2:0:0:0:
335,198,296677,5,10,2:3:0:0:
147,40,296827,2,0,L|126:119,1,77.3500029801751,2|0,2:0|2:0,2:0:0:0:
449,201,296977,5,0,1:0:0:0:
488,200,297052,1,2,2:0:0:0:
512,182,297127,2,0,P|508:129|481:110,1,77.3500029801751,2|2,2:0|2:0,0:0:0:0:
364,112,297277,1,10,2:3:0:0:
320,112,297352,1,2,2:0:0:0:
288,79,297427,1,2,2:0:0:0:
286,38,297502,1,2,2:0:0:0:
313,0,297577,6,0,L|375:280,1,274.050011395054,2|0,1:2|2:0,2:0:0:0:
296,293,297877,2,0,P|298:241|327:205,1,91.3500037983515,10|0,2:3|2:0,2:0:0:0:
491,114,298027,2,0,P|464:152|432:157,1,77.3500029801751,2|0,2:0|2:0,2:0:0:0:
213,129,298177,5,0,1:0:0:0:
422,384,298327,2,0,L|442:309,1,77.3500029801751,2|0,2:0|2:0,2:0:0:0:
504,262,298477,5,8,2:3:0:0:
465,230,298552,1,0,1:0:0:0:
419,235,298627,1,0,1:0:0:0:
242,365,298777,5,2,1:2:0:0:
124,160,298927,1,2,2:0:0:0:
115,170,299002,1,2,2:0:0:0:
106,180,299077,2,0,L|123:273,1,77.3500029801751,10|2,2:3|2:0,2:0:0:0:
96,197,299227,2,0,L|108:276,1,77.3500029801751,2|0,2:0|2:0,2:0:0:0:
77,347,299377,5,0,1:0:0:0:
294,190,299527,2,0,L|208:169,1,77.3500029801751,2|0,2:0|2:0,2:0:0:0:
242,26,299677,2,0,L|267:110,1,77.3500029801751,10|0,2:3|2:0,2:0:0:0:
124,160,299827,2,0,L|186:96,1,77.3500029801751,2|0,2:0|2:0,2:0:0:0:
378,152,299977,5,0,1:0:0:0:
378,152,300127,2,0,L|455:125,1,77.3500029801751,2|0,2:0|2:0,2:0:0:0:
478,50,300277,5,8,2:3:0:0:
359,143,300427,2,0,L|447:112,1,77.3500029801751,2|0,2:0|2:0,2:0:0:0:
265,100,300577,5,0,1:0:0:0:
351,230,300727,2,0,L|329:314,1,77.3500029801751,2|0,2:0|2:0,2:0:0:0:
396,43,300877,5,8,2:3:0:0:
359,248,301027,2,0,L|338:332,1,77.3500029801751,2|0,2:0|2:0,2:0:0:0:
106,384,301177,1,0,1:0:0:0:
82,346,301252,1,2,2:0:0:0:
96,299,301327,1,2,2:0:0:0:
142,280,301402,1,2,2:0:0:0:
185,308,301477,1,10,2:3:0:0:
185,308,301552,1,2,2:0:0:0:
185,308,301627,2,0,L|197:352,2,38.6750014900876,2|0|0,2:0|2:0|2:0,2:0:0:0:
146,120,301777,5,0,1:0:0:0:
257,206,301927,2,0,L|245:250,2,38.6750014900876,2|2|2,2:0|2:0|2:0,2:0:0:0:
422,95,302077,1,8,2:3:0:0:
400,129,302152,1,2,2:0:0:0:
357,151,302227,1,2,2:0:0:0:
310,143,302302,1,2,2:0:0:0:
273,110,302377,5,2,1:2:0:0:
171,194,302527,2,0,L|146:116,1,77.3500029801751,2|0,2:0|2:0,2:0:0:0:
313,8,302677,6,0,P|344:61|331:94,1,77.3500029801751,10|2,2:3|2:0,2:0:0:0:
332,284,302827,2,0,P|363:230|398:225,1,77.3500029801751,2|0,2:0|2:0,2:0:0:0:
463,216,302977,6,0,B|398:222|356:167|389:155|340:97|265:111,1,232.050008940525,2|0,1:2|2:0,2:0:0:0:
147,120,303277,6,0,P|194:93|195:58,1,77.3500029801751,10|0,2:3|2:0,2:0:0:0:
41,21,303427,2,0,P|40:75|74:92,1,91.3500037983515,2|0,1:2|2:0,2:0:0:0:
68,353,303577,5,4,1:0:0:0:
68,353,303727,1,0,1:0:0:0:
205,173,303877,2,0,L|221:252,1,63.3499996616745,8|0,2:3|2:0,2:0:0:0:
302,369,304027,5,0,2:0:0:0:
345,373,304102,1,0,2:0:0:0:
386,350,304177,1,0,2:0:0:0:
405,305,304252,1,0,2:0:0:0:
399,259,304327,1,0,1:0:0:0:
137,238,304477,6,0,L|153:317,1,63.3499996616745,8|0,2:3|2:0,2:0:0:0:
321,293,304627,1,0,2:0:0:0:
491,123,304777,6,0,L|509:190,1,63.3499996616745,0|0,1:0|2:0,2:0:0:0:
478,262,304927,2,0,L|496:329,1,63.3499996616745,0|0,1:0|2:0,2:0:0:0:
313,144,305077,2,0,L|332:217,1,63.3499996616745,8|0,2:3|2:0,2:0:0:0:
511,44,305227,5,0,2:0:0:0:
467,43,305302,1,0,2:0:0:0:
424,70,305377,1,0,2:0:0:0:
407,108,305452,1,0,2:0:0:0:
409,153,305527,1,0,1:0:0:0:
219,73,305677,6,0,L|239:146,1,63.3499996616745,8|0,2:3|2:0,2:0:0:0:
400,239,305827,1,0,2:0:0:0:
411,266,305902,1,0,2:0:0:0:
406,299,305977,5,2,2:0:0:0:
142,194,306427,5,2,2:0:0:0:
344,28,306877,5,2,2:0:0:0:
217,383,307177,5,4,2:3:0:0:
203,364,307252,1,4,2:3:0:0:
211,337,307327,1,4,2:3:0:0:
233,328,307402,1,4,2:3:0:0:
256,336,307477,6,0,L|276:294,3,35.3499992987824,4|4|4|4,2:3|2:3|2:3|2:3,2:0:0:0:
229,243,307777,2,0,L|217:197,3,42.3499988045121,4|4|4|4,2:3|2:3|2:3|2:3,2:0:0:0:
267,139,308077,2,0,L|280:97,6,24.6749987386895,4|0|4|0|4|0|4,2:3|2:0|2:3|2:0|2:3|2:0|2:3,2:0:0:0:
249,41,308377,5,4,2:1:0:0:
256,192,308452,12,0,313177,2:0:0:0:
