osu file format v14

[General]
AudioFilename: audio.mp3
AudioLeadIn: 0
PreviewTime: 58106
Countdown: 0
SampleSet: Soft
StackLeniency: 0.7
Mode: 3
LetterboxInBreaks: 0
SpecialStyle: 0
WidescreenStoryboard: 0

[Editor]
DistanceSpacing: 1
BeatDivisor: 4
GridSize: 16
TimelineZoom: 1.9

[Metadata]
Title:lullaby (feat. KIRA) (uet Remix)
TitleUnicode:ララバイ (feat. KIRA) (uet Remix)
Artist:HISATOMI
ArtistUnicode:HISATOMI
Creator:SuzumeAyase
Version:Let me tell you something
Source:
Tags:ネッタイヤ NETTAIYA Hardcore Teknology Hardtek doujin JUNGLETEK jungle breakcore electronic Japanese
BeatmapID:4103376
BeatmapSetID:1976750

[Difficulty]
HPDrainRate:8
CircleSize:4
OverallDifficulty:8
ApproachRate:5
SliderMultiplier:1.4
SliderTickRate:1

[Events]
//Background and Video events
0,0,"wanna be my wife.jpg",0,0
//Break Periods
//Storyboard Layer 0 (Background)
//Storyboard Layer 1 (Fail)
//Storyboard Layer 2 (Pass)
//Storyboard Layer 3 (Foreground)
//Storyboard Layer 4 (Overlay)
//Storyboard Sound Samples

[TimingPoints]
581,300,4,2,1,40,1,0
1181,300,4,2,1,40,1,0
58781,-100,4,2,1,40,0,1
75581,-100,4,2,1,40,0,0
231581,-100,4,2,1,40,0,1
248381,-100,4,2,1,40,0,0

[HitObjects]
64,192,581,128,0,1181:0:0:0:0:
192,192,881,128,0,1181:0:0:0:0:
320,192,1181,1,0,0:0:0:0:
448,192,1181,1,0,0:0:0:0:
64,192,1256,1,0,0:0:0:0:
192,192,1331,1,0,0:0:0:0:
320,192,1406,1,0,0:0:0:0:
448,192,1481,1,0,0:0:0:0:
192,192,1481,1,0,0:0:0:0:
64,192,1556,1,0,0:0:0:0:
320,192,1631,1,0,0:0:0:0:
448,192,1631,1,0,0:0:0:0:
192,192,1706,1,0,0:0:0:0:
64,192,1781,1,0,0:0:0:0:
320,192,1856,1,0,0:0:0:0:
192,192,1931,1,0,0:0:0:0:
448,192,2006,1,0,0:0:0:0:
320,192,2081,1,0,0:0:0:0:
64,192,2081,1,0,0:0:0:0:
192,192,2156,1,0,0:0:0:0:
320,192,2231,1,0,0:0:0:0:
448,192,2306,1,0,0:0:0:0:
192,192,2381,1,0,0:0:0:0:
64,192,2381,1,0,0:0:0:0:
320,192,2456,1,0,0:0:0:0:
64,192,2531,1,0,0:0:0:0:
192,192,2606,1,0,0:0:0:0:
320,192,2681,1,0,0:0:0:0:
448,192,2681,1,0,0:0:0:0:
64,192,2756,1,0,0:0:0:0:
192,192,2831,1,0,0:0:0:0:
320,192,2831,1,0,0:0:0:0:
448,192,2906,1,0,0:0:0:0:
192,192,2981,1,0,0:0:0:0:
64,192,2981,1,0,0:0:0:0:
320,192,3056,1,0,0:0:0:0:
64,192,3131,1,0,0:0:0:0:
192,192,3206,1,0,0:0:0:0:
320,192,3281,1,0,0:0:0:0:
448,192,3281,1,0,0:0:0:0:
192,192,3356,1,0,0:0:0:0:
64,192,3431,1,0,0:0:0:0:
320,192,3506,1,0,0:0:0:0:
192,192,3581,1,0,0:0:0:0:
64,192,3581,1,0,0:0:0:0:
448,192,3656,1,0,0:0:0:0:
320,192,3731,1,0,0:0:0:0:
192,192,3806,1,0,0:0:0:0:
320,192,3881,1,0,0:0:0:0:
64,192,3881,1,0,0:0:0:0:
448,192,3956,1,0,0:0:0:0:
64,192,4031,1,0,0:0:0:0:
192,192,4031,1,0,0:0:0:0:
320,192,4106,1,0,0:0:0:0:
448,192,4181,1,0,0:0:0:0:
192,192,4256,1,0,0:0:0:0:
320,192,4331,1,0,0:0:0:0:
64,192,4406,1,0,0:0:0:0:
448,192,4481,1,0,0:0:0:0:
192,192,4481,1,0,0:0:0:0:
320,192,4556,1,0,0:0:0:0:
192,192,4631,1,0,0:0:0:0:
64,192,4706,1,0,0:0:0:0:
448,192,4781,1,0,0:0:0:0:
320,192,4781,1,0,0:0:0:0:
192,192,4856,1,0,0:0:0:0:
448,192,4931,1,0,0:0:0:0:
320,192,5006,1,0,0:0:0:0:
64,192,5081,1,0,0:0:0:0:
192,192,5081,1,0,0:0:0:0:
448,192,5156,1,0,0:0:0:0:
192,192,5231,1,0,0:0:0:0:
320,192,5231,1,0,0:0:0:0:
64,192,5306,1,0,0:0:0:0:
448,192,5381,1,0,0:0:0:0:
320,192,5381,1,0,0:0:0:0:
192,192,5456,1,0,0:0:0:0:
448,192,5531,1,0,0:0:0:0:
320,192,5606,1,0,0:0:0:0:
64,192,5681,1,0,0:0:0:0:
192,192,5681,1,0,0:0:0:0:
320,192,5756,1,0,0:0:0:0:
64,192,5831,1,0,0:0:0:0:
192,192,5906,1,0,0:0:0:0:
448,192,5981,1,0,0:0:0:0:
320,192,5981,1,0,0:0:0:0:
64,192,6056,1,0,0:0:0:0:
192,192,6131,1,0,0:0:0:0:
448,192,6206,1,0,0:0:0:0:
320,192,6281,1,0,0:0:0:0:
64,192,6281,1,0,0:0:0:0:
192,192,6356,1,0,0:0:0:0:
320,192,6431,1,0,0:0:0:0:
448,192,6431,1,0,0:0:0:0:
192,192,6506,1,0,0:0:0:0:
64,192,6581,1,0,0:0:0:0:
320,192,6656,1,0,0:0:0:0:
192,192,6731,1,0,0:0:0:0:
448,192,6806,1,0,0:0:0:0:
320,192,6881,1,0,0:0:0:0:
64,192,6881,1,0,0:0:0:0:
192,192,6956,1,0,0:0:0:0:
448,192,7031,1,0,0:0:0:0:
64,192,7106,1,0,0:0:0:0:
192,192,7181,1,0,0:0:0:0:
320,192,7181,1,0,0:0:0:0:
448,192,7256,1,0,0:0:0:0:
64,192,7331,1,0,0:0:0:0:
192,192,7406,1,0,0:0:0:0:
320,192,7481,1,0,0:0:0:0:
448,192,7481,1,0,0:0:0:0:
192,192,7556,1,0,0:0:0:0:
64,192,7631,1,0,0:0:0:0:
448,192,7631,1,0,0:0:0:0:
320,192,7706,1,0,0:0:0:0:
192,192,7781,1,0,0:0:0:0:
64,192,7781,1,0,0:0:0:0:
448,192,7856,1,0,0:0:0:0:
320,192,7931,1,0,0:0:0:0:
64,192,8006,1,0,0:0:0:0:
192,192,8081,1,0,0:0:0:0:
448,192,8081,1,0,0:0:0:0:
320,192,8156,1,0,0:0:0:0:
64,192,8231,1,0,0:0:0:0:
320,192,8306,1,0,0:0:0:0:
192,192,8381,1,0,0:0:0:0:
64,192,8381,1,0,0:0:0:0:
448,192,8456,1,0,0:0:0:0:
320,192,8531,1,0,0:0:0:0:
64,192,8606,1,0,0:0:0:0:
448,192,8681,1,0,0:0:0:0:
192,192,8681,1,0,0:0:0:0:
320,192,8756,1,0,0:0:0:0:
64,192,8831,1,0,0:0:0:0:
192,192,8831,1,0,0:0:0:0:
320,192,8906,1,0,0:0:0:0:
448,192,8981,1,0,0:0:0:0:
192,192,9056,1,0,0:0:0:0:
320,192,9131,1,0,0:0:0:0:
64,192,9206,1,0,0:0:0:0:
448,192,9281,1,0,0:0:0:0:
192,192,9281,1,0,0:0:0:0:
320,192,9356,1,0,0:0:0:0:
64,192,9431,1,0,0:0:0:0:
448,192,9506,1,0,0:0:0:0:
192,192,9581,1,0,0:0:0:0:
320,192,9581,1,0,0:0:0:0:
64,192,9656,1,0,0:0:0:0:
448,192,9731,1,0,0:0:0:0:
320,192,9806,1,0,0:0:0:0:
64,192,9881,1,0,0:0:0:0:
192,192,9881,1,0,0:0:0:0:
320,192,9956,1,0,0:0:0:0:
64,192,10031,1,0,0:0:0:0:
448,192,10031,1,0,0:0:0:0:
192,192,10106,1,0,0:0:0:0:
320,192,10181,1,0,0:0:0:0:
64,192,10256,1,0,0:0:0:0:
192,192,10331,1,0,0:0:0:0:
448,192,10406,1,0,0:0:0:0:
64,192,10481,1,0,0:0:0:0:
320,192,10481,1,0,0:0:0:0:
192,192,10556,1,0,0:0:0:0:
448,192,10631,1,0,0:0:0:0:
192,192,10706,1,0,0:0:0:0:
320,192,10781,1,0,0:0:0:0:
448,192,10781,1,0,0:0:0:0:
64,192,10781,1,0,0:0:0:0:
192,192,10856,1,0,0:0:0:0:
320,192,10931,1,0,0:0:0:0:
64,192,11006,1,0,0:0:0:0:
192,192,11081,1,0,0:0:0:0:
448,192,11081,1,0,0:0:0:0:
320,192,11156,1,0,0:0:0:0:
64,192,11231,1,0,0:0:0:0:
192,192,11306,1,0,0:0:0:0:
320,192,11381,1,0,0:0:0:0:
448,192,11381,1,0,0:0:0:0:
192,192,11456,1,0,0:0:0:0:
64,192,11531,1,0,0:0:0:0:
320,192,11606,1,0,0:0:0:0:
192,192,11681,1,0,0:0:0:0:
64,192,11681,1,0,0:0:0:0:
320,192,11756,1,0,0:0:0:0:
448,192,11831,1,0,0:0:0:0:
64,192,11906,1,0,0:0:0:0:
192,192,11981,1,0,0:0:0:0:
320,192,11981,1,0,0:0:0:0:
448,192,12056,1,0,0:0:0:0:
64,192,12131,1,0,0:0:0:0:
192,192,12206,1,0,0:0:0:0:
320,192,12281,1,0,0:0:0:0:
448,192,12281,1,0,0:0:0:0:
192,192,12356,1,0,0:0:0:0:
448,192,12431,1,0,0:0:0:0:
320,192,12506,1,0,0:0:0:0:
64,192,12581,1,0,0:0:0:0:
192,192,12581,1,0,0:0:0:0:
320,192,12656,1,0,0:0:0:0:
448,192,12731,1,0,0:0:0:0:
192,192,12806,1,0,0:0:0:0:
320,192,12881,1,0,0:0:0:0:
448,192,12881,1,0,0:0:0:0:
192,192,12956,1,0,0:0:0:0:
64,192,13031,1,0,0:0:0:0:
320,192,13106,1,0,0:0:0:0:
192,192,13181,1,0,0:0:0:0:
64,192,13181,1,0,0:0:0:0:
448,192,13256,1,0,0:0:0:0:
320,192,13331,1,0,0:0:0:0:
64,192,13406,1,0,0:0:0:0:
192,192,13481,1,0,0:0:0:0:
448,192,13481,1,0,0:0:0:0:
320,192,13556,1,0,0:0:0:0:
64,192,13631,1,0,0:0:0:0:
192,192,13706,1,0,0:0:0:0:
320,192,13781,1,0,0:0:0:0:
448,192,13781,1,0,0:0:0:0:
192,192,13856,1,0,0:0:0:0:
448,192,13931,1,0,0:0:0:0:
320,192,14006,1,0,0:0:0:0:
192,192,14081,1,0,0:0:0:0:
64,192,14081,1,0,0:0:0:0:
320,192,14156,1,0,0:0:0:0:
64,192,14231,1,0,0:0:0:0:
192,192,14306,1,0,0:0:0:0:
320,192,14381,1,0,0:0:0:0:
448,192,14381,1,0,0:0:0:0:
64,192,14456,1,0,0:0:0:0:
448,192,14531,1,0,0:0:0:0:
320,192,14606,1,0,0:0:0:0:
192,192,14681,1,0,0:0:0:0:
64,192,14681,1,0,0:0:0:0:
448,192,14756,1,0,0:0:0:0:
320,192,14831,1,0,0:0:0:0:
64,192,14906,1,0,0:0:0:0:
192,192,14981,1,0,0:0:0:0:
448,192,14981,1,0,0:0:0:0:
320,192,15056,1,0,0:0:0:0:
64,192,15131,1,0,0:0:0:0:
192,192,15206,1,0,0:0:0:0:
448,192,15281,1,0,0:0:0:0:
320,192,15281,1,0,0:0:0:0:
192,192,15356,1,0,0:0:0:0:
448,192,15431,1,0,0:0:0:0:
320,192,15506,1,0,0:0:0:0:
64,192,15581,1,0,0:0:0:0:
192,192,15581,1,0,0:0:0:0:
320,192,15656,1,0,0:0:0:0:
448,192,15731,1,0,0:0:0:0:
64,192,15731,1,0,0:0:0:0:
192,192,15806,1,0,0:0:0:0:
320,192,15881,1,0,0:0:0:0:
448,192,15881,1,0,0:0:0:0:
192,192,15956,1,0,0:0:0:0:
64,192,16031,1,0,0:0:0:0:
448,192,16031,1,0,0:0:0:0:
320,192,16106,1,0,0:0:0:0:
192,192,16181,1,0,0:0:0:0:
64,192,16181,1,0,0:0:0:0:
320,192,16256,1,0,0:0:0:0:
448,192,16331,1,0,0:0:0:0:
64,192,16331,1,0,0:0:0:0:
192,192,16406,1,0,0:0:0:0:
320,192,16481,1,0,0:0:0:0:
448,192,16481,1,0,0:0:0:0:
192,192,16556,1,0,0:0:0:0:
64,192,16631,1,0,0:0:0:0:
448,192,16631,1,0,0:0:0:0:
320,192,16706,1,0,0:0:0:0:
192,192,16781,1,0,0:0:0:0:
64,192,16781,1,0,0:0:0:0:
320,192,16856,1,0,0:0:0:0:
448,192,16931,1,0,0:0:0:0:
192,192,16931,1,0,0:0:0:0:
64,192,17006,1,0,0:0:0:0:
448,192,17081,1,0,0:0:0:0:
320,192,17081,1,0,0:0:0:0:
192,192,17156,1,0,0:0:0:0:
64,192,17231,1,0,0:0:0:0:
320,192,17231,1,0,0:0:0:0:
448,192,17306,1,0,0:0:0:0:
64,192,17381,1,0,0:0:0:0:
192,192,17381,1,0,0:0:0:0:
320,192,17456,1,0,0:0:0:0:
448,192,17531,1,0,0:0:0:0:
192,192,17531,1,0,0:0:0:0:
64,192,17606,1,0,0:0:0:0:
320,192,17681,1,0,0:0:0:0:
448,192,17681,1,0,0:0:0:0:
192,192,17756,1,0,0:0:0:0:
64,192,17831,1,0,0:0:0:0:
320,192,17831,1,0,0:0:0:0:
448,192,17906,1,0,0:0:0:0:
192,192,17981,1,0,0:0:0:0:
64,192,17981,1,0,0:0:0:0:
448,192,18056,1,0,0:0:0:0:
320,192,18131,1,0,0:0:0:0:
64,192,18206,1,0,0:0:0:0:
192,192,18281,1,0,0:0:0:0:
320,192,18356,1,0,0:0:0:0:
448,192,18431,1,0,0:0:0:0:
192,192,18506,1,0,0:0:0:0:
64,192,18581,1,0,0:0:0:0:
448,192,18656,1,0,0:0:0:0:
64,192,18731,1,0,0:0:0:0:
192,192,18806,1,0,0:0:0:0:
320,192,18881,1,0,0:0:0:0:
448,192,18956,1,0,0:0:0:0:
192,192,19031,1,0,0:0:0:0:
64,192,19106,1,0,0:0:0:0:
448,192,19181,1,0,0:0:0:0:
320,192,19256,1,0,0:0:0:0:
192,192,19331,1,0,0:0:0:0:
64,192,19406,1,0,0:0:0:0:
448,192,19481,1,0,0:0:0:0:
320,192,19531,1,0,0:0:0:0:
64,192,19581,1,0,0:0:0:0:
192,192,19631,1,0,0:0:0:0:
448,192,19681,1,0,0:0:0:0:
320,192,19731,1,0,0:0:0:0:
64,192,19781,1,0,0:0:0:0:
192,192,19818,1,0,0:0:0:0:
448,192,19856,1,0,0:0:0:0:
320,192,19893,1,0,0:0:0:0:
64,192,19931,1,0,0:0:0:0:
192,192,19968,1,0,0:0:0:0:
448,192,20006,1,0,0:0:0:0:
320,192,20043,1,0,0:0:0:0:
64,192,20081,1,0,0:0:0:0:
192,192,20118,1,0,0:0:0:0:
448,192,20156,1,0,0:0:0:0:
320,192,20193,1,0,0:0:0:0:
64,192,20231,1,0,0:0:0:0:
192,192,20268,1,0,0:0:0:0:
448,192,20306,1,0,0:0:0:0:
320,192,20343,1,0,0:0:0:0:
192,192,20381,1,0,0:0:0:0:
64,192,20381,1,0,0:0:0:0:
448,192,20531,1,0,0:0:0:0:
64,192,20531,1,0,0:0:0:0:
192,192,20606,1,0,0:0:0:0:
320,192,20681,1,0,0:0:0:0:
448,192,20681,1,0,0:0:0:0:
192,192,20756,1,0,0:0:0:0:
64,192,20831,1,0,0:0:0:0:
320,192,20906,1,0,0:0:0:0:
192,192,20981,1,0,0:0:0:0:
448,192,21056,1,0,0:0:0:0:
320,192,21131,1,0,0:0:0:0:
64,192,21131,1,0,0:0:0:0:
192,192,21206,1,0,0:0:0:0:
320,192,21281,1,0,0:0:0:0:
448,192,21281,1,0,0:0:0:0:
192,192,21356,1,0,0:0:0:0:
64,192,21431,1,0,0:0:0:0:
448,192,21506,1,0,0:0:0:0:
320,192,21581,1,0,0:0:0:0:
192,192,21581,1,0,0:0:0:0:
64,192,21656,1,0,0:0:0:0:
320,192,21731,1,0,0:0:0:0:
448,192,21731,1,0,0:0:0:0:
192,192,21806,1,0,0:0:0:0:
64,192,21881,1,0,0:0:0:0:
448,192,21881,1,0,0:0:0:0:
320,192,21956,1,0,0:0:0:0:
192,192,22031,1,0,0:0:0:0:
448,192,22106,1,0,0:0:0:0:
64,192,22181,1,0,0:0:0:0:
192,192,22256,1,0,0:0:0:0:
320,192,22331,1,0,0:0:0:0:
448,192,22331,1,0,0:0:0:0:
192,192,22406,1,0,0:0:0:0:
64,192,22481,1,0,0:0:0:0:
320,192,22481,1,0,0:0:0:0:
448,192,22556,1,0,0:0:0:0:
192,192,22631,1,0,0:0:0:0:
320,192,22706,1,0,0:0:0:0:
64,192,22781,1,0,0:0:0:0:
448,192,22781,1,0,0:0:0:0:
192,192,22856,1,0,0:0:0:0:
320,192,22931,1,0,0:0:0:0:
448,192,22931,1,0,0:0:0:0:
192,192,23006,1,0,0:0:0:0:
64,192,23081,1,0,0:0:0:0:
320,192,23081,1,0,0:0:0:0:
448,192,23156,1,0,0:0:0:0:
192,192,23231,1,0,0:0:0:0:
320,192,23306,1,0,0:0:0:0:
64,192,23381,1,0,0:0:0:0:
448,192,23456,1,0,0:0:0:0:
192,192,23531,1,0,0:0:0:0:
64,192,23531,1,0,0:0:0:0:
320,192,23606,1,0,0:0:0:0:
448,192,23681,1,0,0:0:0:0:
192,192,23681,1,0,0:0:0:0:
64,192,23756,1,0,0:0:0:0:
320,192,23831,1,0,0:0:0:0:
192,192,23906,1,0,0:0:0:0:
448,192,23981,1,0,0:0:0:0:
320,192,23981,1,0,0:0:0:0:
64,192,24056,1,0,0:0:0:0:
192,192,24131,1,0,0:0:0:0:
448,192,24131,1,0,0:0:0:0:
320,192,24206,1,0,0:0:0:0:
192,192,24281,1,0,0:0:0:0:
64,192,24281,1,0,0:0:0:0:
448,192,24356,1,0,0:0:0:0:
320,192,24431,1,0,0:0:0:0:
64,192,24506,1,0,0:0:0:0:
192,192,24581,1,0,0:0:0:0:
320,192,24656,1,0,0:0:0:0:
64,192,24731,1,0,0:0:0:0:
448,192,24731,1,0,0:0:0:0:
192,192,24806,1,0,0:0:0:0:
320,192,24806,1,0,0:0:0:0:
448,192,24881,1,0,0:0:0:0:
64,192,24881,1,0,0:0:0:0:
192,192,24956,1,0,0:0:0:0:
320,192,25031,1,0,0:0:0:0:
448,192,25106,1,0,0:0:0:0:
192,192,25181,1,0,0:0:0:0:
64,192,25181,1,0,0:0:0:0:
448,192,25256,1,0,0:0:0:0:
320,192,25331,1,0,0:0:0:0:
64,192,25331,1,0,0:0:0:0:
192,192,25406,1,0,0:0:0:0:
320,192,25481,1,0,0:0:0:0:
448,192,25481,1,0,0:0:0:0:
192,192,25556,1,0,0:0:0:0:
64,192,25631,1,0,0:0:0:0:
320,192,25706,1,0,0:0:0:0:
192,192,25781,1,0,0:0:0:0:
448,192,25856,1,0,0:0:0:0:
320,192,25931,1,0,0:0:0:0:
64,192,25931,1,0,0:0:0:0:
192,192,26006,1,0,0:0:0:0:
320,192,26081,1,0,0:0:0:0:
448,192,26081,1,0,0:0:0:0:
64,192,26156,1,0,0:0:0:0:
192,192,26231,1,0,0:0:0:0:
320,192,26306,1,0,0:0:0:0:
448,192,26381,1,0,0:0:0:0:
64,192,26381,1,0,0:0:0:0:
192,192,26456,1,0,0:0:0:0:
320,192,26531,1,0,0:0:0:0:
448,192,26531,1,0,0:0:0:0:
192,192,26606,1,0,0:0:0:0:
320,192,26681,1,0,0:0:0:0:
64,192,26681,1,0,0:0:0:0:
448,192,26756,1,0,0:0:0:0:
192,192,26831,1,0,0:0:0:0:
320,192,26906,1,0,0:0:0:0:
64,192,26981,1,0,0:0:0:0:
192,192,27056,1,0,0:0:0:0:
320,192,27131,1,0,0:0:0:0:
448,192,27131,1,0,0:0:0:0:
192,192,27206,1,0,0:0:0:0:
64,192,27281,1,0,0:0:0:0:
448,192,27281,1,0,0:0:0:0:
320,192,27356,1,0,0:0:0:0:
192,192,27431,1,0,0:0:0:0:
64,192,27506,1,0,0:0:0:0:
320,192,27581,1,0,0:0:0:0:
448,192,27581,1,0,0:0:0:0:
64,192,27656,1,0,0:0:0:0:
192,192,27731,1,0,0:0:0:0:
448,192,27731,1,0,0:0:0:0:
320,192,27806,1,0,0:0:0:0:
192,192,27881,1,0,0:0:0:0:
64,192,27881,1,0,0:0:0:0:
320,192,27956,1,0,0:0:0:0:
448,192,28031,1,0,0:0:0:0:
192,192,28106,1,0,0:0:0:0:
320,192,28181,1,0,0:0:0:0:
64,192,28256,1,0,0:0:0:0:
192,192,28331,1,0,0:0:0:0:
448,192,28331,1,0,0:0:0:0:
320,192,28406,1,0,0:0:0:0:
192,192,28481,1,0,0:0:0:0:
64,192,28481,1,0,0:0:0:0:
320,192,28556,1,0,0:0:0:0:
64,192,28631,1,0,0:0:0:0:
192,192,28706,1,0,0:0:0:0:
320,192,28781,1,0,0:0:0:0:
448,192,28781,1,0,0:0:0:0:
192,192,28856,1,0,0:0:0:0:
64,192,28931,1,0,0:0:0:0:
320,192,28931,1,0,0:0:0:0:
448,192,29006,1,0,0:0:0:0:
192,192,29081,1,0,0:0:0:0:
64,192,29081,1,0,0:0:0:0:
448,192,29156,1,0,0:0:0:0:
320,192,29231,1,0,0:0:0:0:
192,192,29306,1,0,0:0:0:0:
64,192,29381,1,0,0:0:0:0:
448,192,29381,1,0,0:0:0:0:
192,192,29456,1,0,0:0:0:0:
320,192,29456,1,0,0:0:0:0:
64,192,29531,1,0,0:0:0:0:
448,192,29531,1,0,0:0:0:0:
320,192,29606,1,0,0:0:0:0:
192,192,29681,1,0,0:0:0:0:
64,192,29681,1,0,0:0:0:0:
320,192,29756,1,0,0:0:0:0:
448,192,29831,1,0,0:0:0:0:
192,192,29906,1,0,0:0:0:0:
320,192,29981,1,0,0:0:0:0:
448,192,29981,1,0,0:0:0:0:
192,192,30056,1,0,0:0:0:0:
448,192,30131,1,0,0:0:0:0:
64,192,30131,1,0,0:0:0:0:
320,192,30206,1,0,0:0:0:0:
64,192,30281,1,0,0:0:0:0:
192,192,30281,1,0,0:0:0:0:
320,192,30356,1,0,0:0:0:0:
448,192,30431,1,0,0:0:0:0:
192,192,30506,1,0,0:0:0:0:
320,192,30581,1,0,0:0:0:0:
64,192,30656,1,0,0:0:0:0:
448,192,30731,1,0,0:0:0:0:
192,192,30731,1,0,0:0:0:0:
320,192,30806,1,0,0:0:0:0:
64,192,30881,1,0,0:0:0:0:
192,192,30881,1,0,0:0:0:0:
320,192,30956,1,0,0:0:0:0:
448,192,31031,1,0,0:0:0:0:
64,192,31106,1,0,0:0:0:0:
320,192,31181,1,0,0:0:0:0:
192,192,31181,1,0,0:0:0:0:
448,192,31256,1,0,0:0:0:0:
64,192,31331,1,0,0:0:0:0:
192,192,31331,1,0,0:0:0:0:
320,192,31406,1,0,0:0:0:0:
64,192,31481,1,0,0:0:0:0:
448,192,31481,1,0,0:0:0:0:
192,192,31556,1,0,0:0:0:0:
320,192,31631,1,0,0:0:0:0:
64,192,31706,1,0,0:0:0:0:
448,192,31781,1,0,0:0:0:0:
320,192,31856,1,0,0:0:0:0:
64,192,31931,1,0,0:0:0:0:
192,192,31931,1,0,0:0:0:0:
320,192,32006,1,0,0:0:0:0:
192,192,32081,1,0,0:0:0:0:
448,192,32081,1,0,0:0:0:0:
64,192,32156,1,0,0:0:0:0:
320,192,32231,1,0,0:0:0:0:
192,192,32306,1,0,0:0:0:0:
64,192,32381,1,0,0:0:0:0:
448,192,32381,1,0,0:0:0:0:
320,192,32456,1,0,0:0:0:0:
64,192,32531,1,0,0:0:0:0:
192,192,32531,1,0,0:0:0:0:
320,192,32606,1,0,0:0:0:0:
192,192,32681,1,0,0:0:0:0:
448,192,32681,1,0,0:0:0:0:
64,192,32756,1,0,0:0:0:0:
320,192,32831,1,0,0:0:0:0:
192,192,32906,1,0,0:0:0:0:
448,192,32981,1,0,0:0:0:0:
64,192,33056,1,0,0:0:0:0:
448,192,33131,1,0,0:0:0:0:
320,192,33131,1,0,0:0:0:0:
192,192,33206,1,0,0:0:0:0:
320,192,33281,1,0,0:0:0:0:
64,192,33281,1,0,0:0:0:0:
448,192,33356,1,0,0:0:0:0:
192,192,33431,1,0,0:0:0:0:
320,192,33506,1,0,0:0:0:0:
192,192,33581,1,0,0:0:0:0:
64,192,33581,1,0,0:0:0:0:
448,192,33656,1,0,0:0:0:0:
64,192,33731,1,0,0:0:0:0:
320,192,33731,1,0,0:0:0:0:
192,192,33806,1,0,0:0:0:0:
448,192,33881,1,0,0:0:0:0:
320,192,33881,1,0,0:0:0:0:
64,192,33956,1,0,0:0:0:0:
192,192,34031,1,0,0:0:0:0:
448,192,34106,1,0,0:0:0:0:
320,192,34181,1,0,0:0:0:0:
192,192,34256,1,0,0:0:0:0:
64,192,34331,1,0,0:0:0:0:
448,192,34331,1,0,0:0:0:0:
192,192,34406,1,0,0:0:0:0:
320,192,34406,1,0,0:0:0:0:
448,192,34481,1,0,0:0:0:0:
64,192,34481,1,0,0:0:0:0:
320,192,34556,1,0,0:0:0:0:
192,192,34631,1,0,0:0:0:0:
64,192,34706,1,0,0:0:0:0:
448,192,34781,1,0,0:0:0:0:
320,192,34781,1,0,0:0:0:0:
64,192,34856,1,0,0:0:0:0:
448,192,34931,1,0,0:0:0:0:
192,192,34931,1,0,0:0:0:0:
320,192,35006,1,0,0:0:0:0:
64,192,35081,1,0,0:0:0:0:
192,192,35081,1,0,0:0:0:0:
320,192,35156,1,0,0:0:0:0:
448,192,35231,1,0,0:0:0:0:
192,192,35306,1,0,0:0:0:0:
320,192,35381,1,0,0:0:0:0:
64,192,35456,1,0,0:0:0:0:
448,192,35531,1,0,0:0:0:0:
192,192,35531,1,0,0:0:0:0:
320,192,35606,1,0,0:0:0:0:
64,192,35681,1,0,0:0:0:0:
192,192,35681,1,0,0:0:0:0:
448,192,35756,1,0,0:0:0:0:
320,192,35831,1,0,0:0:0:0:
192,192,35906,1,0,0:0:0:0:
448,192,35981,1,0,0:0:0:0:
64,192,35981,1,0,0:0:0:0:
320,192,36056,1,0,0:0:0:0:
64,192,36131,1,0,0:0:0:0:
192,192,36131,1,0,0:0:0:0:
320,192,36206,1,0,0:0:0:0:
448,192,36281,1,0,0:0:0:0:
192,192,36281,1,0,0:0:0:0:
64,192,36356,1,0,0:0:0:0:
320,192,36431,1,0,0:0:0:0:
192,192,36506,1,0,0:0:0:0:
448,192,36581,1,0,0:0:0:0:
320,192,36656,1,0,0:0:0:0:
64,192,36731,1,0,0:0:0:0:
192,192,36731,1,0,0:0:0:0:
320,192,36806,1,0,0:0:0:0:
64,192,36881,1,0,0:0:0:0:
448,192,36881,1,0,0:0:0:0:
192,192,36956,1,0,0:0:0:0:
320,192,37031,1,0,0:0:0:0:
448,192,37106,1,0,0:0:0:0:
192,192,37181,1,0,0:0:0:0:
64,192,37181,1,0,0:0:0:0:
64,192,37331,1,0,0:0:0:0:
448,192,37331,1,0,0:0:0:0:
320,192,37481,1,0,0:0:0:0:
448,192,37481,1,0,0:0:0:0:
192,192,37631,1,0,0:0:0:0:
320,192,37706,1,0,0:0:0:0:
64,192,37781,1,0,0:0:0:0:
192,192,37856,1,0,0:0:0:0:
320,192,37931,1,0,0:0:0:0:
448,192,37931,1,0,0:0:0:0:
192,192,38006,1,0,0:0:0:0:
448,192,38081,1,0,0:0:0:0:
64,192,38081,1,0,0:0:0:0:
320,192,38231,1,0,0:0:0:0:
192,192,38306,1,0,0:0:0:0:
320,192,38381,1,0,0:0:0:0:
448,192,38381,1,0,0:0:0:0:
64,192,38456,1,0,0:0:0:0:
192,192,38456,1,0,0:0:0:0:
448,192,38531,1,0,0:0:0:0:
320,192,38568,1,0,0:0:0:0:
64,192,38606,1,0,0:0:0:0:
192,192,38643,1,0,0:0:0:0:
320,192,38681,1,0,0:0:0:0:
448,192,38681,1,0,0:0:0:0:
192,192,38831,1,0,0:0:0:0:
64,192,38831,1,0,0:0:0:0:
448,192,38981,1,0,0:0:0:0:
192,192,39056,1,0,0:0:0:0:
320,192,39131,1,0,0:0:0:0:
448,192,39131,128,0,39281:0:0:0:0:
192,192,39281,1,0,0:0:0:0:
64,192,39281,128,0,39431:0:0:0:0:
320,192,39431,1,0,0:0:0:0:
448,192,39431,1,0,0:0:0:0:
192,192,39506,1,0,0:0:0:0:
64,192,39581,1,0,0:0:0:0:
448,192,39581,1,0,0:0:0:0:
320,192,39581,1,0,0:0:0:0:
192,192,39656,1,0,0:0:0:0:
64,192,39731,1,0,0:0:0:0:
448,192,39731,1,0,0:0:0:0:
320,192,39806,1,0,0:0:0:0:
192,192,39881,1,0,0:0:0:0:
64,192,39881,1,0,0:0:0:0:
448,192,39956,1,0,0:0:0:0:
320,192,40031,1,0,0:0:0:0:
192,192,40106,1,0,0:0:0:0:
448,192,40181,1,0,0:0:0:0:
320,192,40256,1,0,0:0:0:0:
192,192,40331,1,0,0:0:0:0:
64,192,40331,1,0,0:0:0:0:
320,192,40406,1,0,0:0:0:0:
64,192,40481,1,0,0:0:0:0:
448,192,40481,1,0,0:0:0:0:
192,192,40556,1,0,0:0:0:0:
448,192,40631,1,0,0:0:0:0:
320,192,40706,1,0,0:0:0:0:
64,192,40781,1,0,0:0:0:0:
192,192,40781,1,0,0:0:0:0:
320,192,40856,1,0,0:0:0:0:
64,192,40931,1,0,0:0:0:0:
448,192,40931,1,0,0:0:0:0:
192,192,41006,1,0,0:0:0:0:
320,192,41081,1,0,0:0:0:0:
448,192,41081,1,0,0:0:0:0:
192,192,41156,1,0,0:0:0:0:
64,192,41231,1,0,0:0:0:0:
320,192,41306,1,0,0:0:0:0:
448,192,41381,1,0,0:0:0:0:
64,192,41456,1,0,0:0:0:0:
320,192,41531,1,0,0:0:0:0:
192,192,41531,1,0,0:0:0:0:
448,192,41606,1,0,0:0:0:0:
64,192,41681,1,0,0:0:0:0:
192,192,41681,1,0,0:0:0:0:
320,192,41756,1,0,0:0:0:0:
64,192,41831,1,0,0:0:0:0:
192,192,41906,1,0,0:0:0:0:
320,192,41981,1,0,0:0:0:0:
448,192,41981,1,0,0:0:0:0:
192,192,42056,1,0,0:0:0:0:
64,192,42131,1,0,0:0:0:0:
448,192,42131,1,0,0:0:0:0:
320,192,42206,1,0,0:0:0:0:
64,192,42281,1,0,0:0:0:0:
192,192,42281,1,0,0:0:0:0:
448,192,42356,1,0,0:0:0:0:
192,192,42431,1,0,0:0:0:0:
320,192,42506,1,0,0:0:0:0:
64,192,42581,1,0,0:0:0:0:
448,192,42656,1,0,0:0:0:0:
192,192,42731,1,0,0:0:0:0:
64,192,42731,1,0,0:0:0:0:
320,192,42806,1,0,0:0:0:0:
448,192,42881,1,0,0:0:0:0:
192,192,42881,1,0,0:0:0:0:
64,192,42956,1,0,0:0:0:0:
320,192,43031,1,0,0:0:0:0:
192,192,43106,1,0,0:0:0:0:
448,192,43181,1,0,0:0:0:0:
320,192,43181,1,0,0:0:0:0:
64,192,43256,1,0,0:0:0:0:
192,192,43331,1,0,0:0:0:0:
448,192,43331,1,0,0:0:0:0:
320,192,43406,1,0,0:0:0:0:
192,192,43481,1,0,0:0:0:0:
64,192,43481,1,0,0:0:0:0:
448,192,43556,1,0,0:0:0:0:
320,192,43631,1,0,0:0:0:0:
64,192,43706,1,0,0:0:0:0:
192,192,43781,1,0,0:0:0:0:
320,192,43856,1,0,0:0:0:0:
64,192,43931,1,0,0:0:0:0:
448,192,43931,1,0,0:0:0:0:
192,192,44006,1,0,0:0:0:0:
320,192,44006,1,0,0:0:0:0:
448,192,44081,1,0,0:0:0:0:
64,192,44081,1,0,0:0:0:0:
192,192,44156,1,0,0:0:0:0:
320,192,44231,1,0,0:0:0:0:
448,192,44306,1,0,0:0:0:0:
192,192,44381,1,0,0:0:0:0:
64,192,44381,1,0,0:0:0:0:
448,192,44456,1,0,0:0:0:0:
320,192,44531,1,0,0:0:0:0:
64,192,44531,1,0,0:0:0:0:
192,192,44606,1,0,0:0:0:0:
320,192,44681,1,0,0:0:0:0:
448,192,44681,1,0,0:0:0:0:
192,192,44756,1,0,0:0:0:0:
64,192,44831,1,0,0:0:0:0:
320,192,44906,1,0,0:0:0:0:
192,192,44981,1,0,0:0:0:0:
448,192,45056,1,0,0:0:0:0:
320,192,45131,1,0,0:0:0:0:
64,192,45131,1,0,0:0:0:0:
192,192,45206,1,0,0:0:0:0:
320,192,45281,1,0,0:0:0:0:
448,192,45281,1,0,0:0:0:0:
64,192,45356,1,0,0:0:0:0:
192,192,45431,1,0,0:0:0:0:
320,192,45506,1,0,0:0:0:0:
448,192,45581,1,0,0:0:0:0:
64,192,45581,1,0,0:0:0:0:
192,192,45656,1,0,0:0:0:0:
320,192,45731,1,0,0:0:0:0:
448,192,45731,1,0,0:0:0:0:
192,192,45806,1,0,0:0:0:0:
320,192,45881,1,0,0:0:0:0:
64,192,45881,1,0,0:0:0:0:
448,192,45956,1,0,0:0:0:0:
192,192,46031,1,0,0:0:0:0:
320,192,46106,1,0,0:0:0:0:
64,192,46181,1,0,0:0:0:0:
192,192,46256,1,0,0:0:0:0:
320,192,46331,1,0,0:0:0:0:
448,192,46331,1,0,0:0:0:0:
192,192,46406,1,0,0:0:0:0:
64,192,46481,1,0,0:0:0:0:
448,192,46481,1,0,0:0:0:0:
320,192,46556,1,0,0:0:0:0:
192,192,46631,1,0,0:0:0:0:
64,192,46706,1,0,0:0:0:0:
320,192,46781,1,0,0:0:0:0:
448,192,46781,1,0,0:0:0:0:
64,192,46856,1,0,0:0:0:0:
192,192,46931,1,0,0:0:0:0:
448,192,46931,1,0,0:0:0:0:
320,192,47006,1,0,0:0:0:0:
192,192,47081,1,0,0:0:0:0:
64,192,47081,1,0,0:0:0:0:
320,192,47156,1,0,0:0:0:0:
448,192,47231,1,0,0:0:0:0:
192,192,47306,1,0,0:0:0:0:
320,192,47381,1,0,0:0:0:0:
64,192,47456,1,0,0:0:0:0:
192,192,47531,1,0,0:0:0:0:
448,192,47531,1,0,0:0:0:0:
320,192,47606,1,0,0:0:0:0:
192,192,47681,1,0,0:0:0:0:
64,192,47681,1,0,0:0:0:0:
320,192,47756,1,0,0:0:0:0:
64,192,47831,1,0,0:0:0:0:
192,192,47906,1,0,0:0:0:0:
320,192,47981,1,0,0:0:0:0:
448,192,47981,1,0,0:0:0:0:
192,192,48056,1,0,0:0:0:0:
64,192,48131,1,0,0:0:0:0:
320,192,48131,1,0,0:0:0:0:
448,192,48206,1,0,0:0:0:0:
192,192,48281,1,0,0:0:0:0:
64,192,48281,1,0,0:0:0:0:
448,192,48356,1,0,0:0:0:0:
320,192,48431,1,0,0:0:0:0:
192,192,48506,1,0,0:0:0:0:
64,192,48581,1,0,0:0:0:0:
448,192,48581,1,0,0:0:0:0:
192,192,48656,1,0,0:0:0:0:
320,192,48656,1,0,0:0:0:0:
64,192,48731,1,0,0:0:0:0:
448,192,48731,1,0,0:0:0:0:
320,192,48806,1,0,0:0:0:0:
192,192,48881,1,0,0:0:0:0:
64,192,48881,1,0,0:0:0:0:
448,192,48956,1,0,0:0:0:0:
320,192,49031,1,0,0:0:0:0:
192,192,49106,1,0,0:0:0:0:
320,192,49181,1,0,0:0:0:0:
448,192,49181,1,0,0:0:0:0:
192,192,49256,1,0,0:0:0:0:
448,192,49331,1,0,0:0:0:0:
64,192,49331,1,0,0:0:0:0:
320,192,49406,1,0,0:0:0:0:
64,192,49481,1,0,0:0:0:0:
192,192,49481,1,0,0:0:0:0:
320,192,49556,1,0,0:0:0:0:
448,192,49631,1,0,0:0:0:0:
192,192,49706,1,0,0:0:0:0:
320,192,49781,1,0,0:0:0:0:
64,192,49856,1,0,0:0:0:0:
448,192,49931,1,0,0:0:0:0:
192,192,49931,1,0,0:0:0:0:
320,192,50006,1,0,0:0:0:0:
64,192,50081,1,0,0:0:0:0:
192,192,50081,1,0,0:0:0:0:
320,192,50156,1,0,0:0:0:0:
448,192,50231,1,0,0:0:0:0:
64,192,50306,1,0,0:0:0:0:
320,192,50381,1,0,0:0:0:0:
192,192,50381,1,0,0:0:0:0:
448,192,50456,1,0,0:0:0:0:
192,192,50531,1,0,0:0:0:0:
64,192,50531,1,0,0:0:0:0:
320,192,50606,1,0,0:0:0:0:
448,192,50681,1,0,0:0:0:0:
64,192,50681,1,0,0:0:0:0:
192,192,50756,1,0,0:0:0:0:
448,192,50831,1,0,0:0:0:0:
320,192,50906,1,0,0:0:0:0:
192,192,50981,1,0,0:0:0:0:
64,192,51056,1,0,0:0:0:0:
320,192,51131,1,0,0:0:0:0:
448,192,51131,1,0,0:0:0:0:
192,192,51206,1,0,0:0:0:0:
64,192,51281,1,0,0:0:0:0:
448,192,51281,1,0,0:0:0:0:
320,192,51356,1,0,0:0:0:0:
192,192,51431,1,0,0:0:0:0:
448,192,51506,1,0,0:0:0:0:
64,192,51581,1,0,0:0:0:0:
320,192,51581,1,0,0:0:0:0:
192,192,51656,1,0,0:0:0:0:
448,192,51731,1,0,0:0:0:0:
320,192,51731,1,0,0:0:0:0:
192,192,51806,1,0,0:0:0:0:
448,192,51881,1,0,0:0:0:0:
64,192,51881,1,0,0:0:0:0:
320,192,51956,1,0,0:0:0:0:
64,192,52031,1,0,0:0:0:0:
192,192,52106,1,0,0:0:0:0:
320,192,52181,1,0,0:0:0:0:
448,192,52256,1,0,0:0:0:0:
64,192,52331,1,0,0:0:0:0:
192,192,52331,1,0,0:0:0:0:
320,192,52406,1,0,0:0:0:0:
448,192,52481,1,0,0:0:0:0:
192,192,52481,1,0,0:0:0:0:
64,192,52556,1,0,0:0:0:0:
320,192,52631,1,0,0:0:0:0:
192,192,52706,1,0,0:0:0:0:
64,192,52781,1,0,0:0:0:0:
448,192,52781,1,0,0:0:0:0:
320,192,52856,1,0,0:0:0:0:
64,192,52931,1,0,0:0:0:0:
192,192,52931,1,0,0:0:0:0:
320,192,53006,1,0,0:0:0:0:
448,192,53081,1,0,0:0:0:0:
64,192,53081,1,0,0:0:0:0:
192,192,53156,1,0,0:0:0:0:
320,192,53231,1,0,0:0:0:0:
448,192,53306,1,0,0:0:0:0:
64,192,53381,1,0,0:0:0:0:
192,192,53456,1,0,0:0:0:0:
448,192,53531,1,0,0:0:0:0:
320,192,53531,1,0,0:0:0:0:
64,192,53606,1,0,0:0:0:0:
192,192,53606,1,0,0:0:0:0:
448,192,53681,1,0,0:0:0:0:
320,192,53681,1,0,0:0:0:0:
192,192,53756,1,0,0:0:0:0:
448,192,53831,1,0,0:0:0:0:
320,192,53906,1,0,0:0:0:0:
64,192,53981,1,0,0:0:0:0:
192,192,53981,1,0,0:0:0:0:
320,192,54056,1,0,0:0:0:0:
448,192,54131,1,0,0:0:0:0:
64,192,54131,1,0,0:0:0:0:
192,192,54206,1,0,0:0:0:0:
448,192,54281,1,0,0:0:0:0:
320,192,54281,1,0,0:0:0:0:
64,192,54356,1,0,0:0:0:0:
192,192,54431,1,0,0:0:0:0:
320,192,54431,1,0,0:0:0:0:
448,192,54506,1,0,0:0:0:0:
64,192,54581,1,0,0:0:0:0:
192,192,54581,1,0,0:0:0:0:
320,192,54656,1,0,0:0:0:0:
64,192,54731,1,0,0:0:0:0:
448,192,54731,1,0,0:0:0:0:
192,192,54806,1,0,0:0:0:0:
320,192,54881,1,0,0:0:0:0:
448,192,54881,1,0,0:0:0:0:
192,192,54956,1,0,0:0:0:0:
64,192,55031,1,0,0:0:0:0:
320,192,55031,1,0,0:0:0:0:
448,192,55106,1,0,0:0:0:0:
64,192,55181,1,0,0:0:0:0:
192,192,55181,1,0,0:0:0:0:
320,192,55256,1,0,0:0:0:0:
192,192,55331,1,0,0:0:0:0:
448,192,55331,1,0,0:0:0:0:
64,192,55406,1,0,0:0:0:0:
448,192,55481,1,0,0:0:0:0:
320,192,55481,1,0,0:0:0:0:
192,192,55556,1,0,0:0:0:0:
64,192,55631,1,0,0:0:0:0:
448,192,55631,1,0,0:0:0:0:
320,192,55706,1,0,0:0:0:0:
192,192,55781,1,0,0:0:0:0:
64,192,55781,1,0,0:0:0:0:
448,192,55856,1,0,0:0:0:0:
320,192,55931,1,0,0:0:0:0:
192,192,55931,1,0,0:0:0:0:
64,192,56006,1,0,0:0:0:0:
448,192,56081,1,0,0:0:0:0:
320,192,56081,1,0,0:0:0:0:
64,192,56156,1,0,0:0:0:0:
448,192,56231,1,0,0:0:0:0:
192,192,56231,1,0,0:0:0:0:
320,192,56306,1,0,0:0:0:0:
64,192,56381,5,0,0:0:0:0:
192,192,56381,1,0,0:0:0:0:
320,192,56456,1,0,0:0:0:0:
192,192,56531,1,0,0:0:0:0:
448,192,56606,1,0,0:0:0:0:
64,192,56681,1,0,0:0:0:0:
320,192,56756,1,0,0:0:0:0:
192,192,56831,1,0,0:0:0:0:
448,192,56906,1,0,0:0:0:0:
64,192,56981,1,0,0:0:0:0:
320,192,57056,1,0,0:0:0:0:
192,192,57131,1,0,0:0:0:0:
448,192,57206,1,0,0:0:0:0:
64,192,57281,1,0,0:0:0:0:
320,192,57356,1,0,0:0:0:0:
192,192,57431,1,0,0:0:0:0:
448,192,57506,1,0,0:0:0:0:
64,192,57581,1,0,0:0:0:0:
192,192,57656,1,0,0:0:0:0:
320,192,57731,1,0,0:0:0:0:
448,192,57806,1,0,0:0:0:0:
64,192,57881,1,0,0:0:0:0:
192,192,57931,1,0,0:0:0:0:
448,192,57981,1,0,0:0:0:0:
320,192,58031,1,0,0:0:0:0:
64,192,58081,1,0,0:0:0:0:
192,192,58131,1,0,0:0:0:0:
448,192,58181,1,0,0:0:0:0:
320,192,58218,1,0,0:0:0:0:
64,192,58256,1,0,0:0:0:0:
192,192,58293,1,0,0:0:0:0:
448,192,58331,1,0,0:0:0:0:
320,192,58368,1,0,0:0:0:0:
64,192,58406,1,0,0:0:0:0:
192,192,58443,1,0,0:0:0:0:
448,192,58481,1,0,0:0:0:0:
320,192,58518,1,0,0:0:0:0:
64,192,58556,1,0,0:0:0:0:
192,192,58593,1,0,0:0:0:0:
448,192,58631,1,0,0:0:0:0:
320,192,58668,1,0,0:0:0:0:
64,192,58706,1,0,0:0:0:0:
192,192,58743,1,0,0:0:0:0:
320,192,58781,1,0,0:0:0:0:
448,192,58781,1,0,0:0:0:0:
192,192,58931,1,0,0:0:0:0:
320,192,59006,1,0,0:0:0:0:
448,192,59081,1,0,0:0:0:0:
64,192,59081,1,0,0:0:0:0:
192,192,59156,1,0,0:0:0:0:
448,192,59231,1,0,0:0:0:0:
320,192,59306,1,0,0:0:0:0:
64,192,59381,1,0,0:0:0:0:
192,192,59381,1,0,0:0:0:0:
448,192,59456,1,0,0:0:0:0:
192,192,59531,1,0,0:0:0:0:
320,192,59606,1,0,0:0:0:0:
448,192,59681,1,0,0:0:0:0:
64,192,59681,1,0,0:0:0:0:
192,192,59756,1,0,0:0:0:0:
320,192,59831,1,0,0:0:0:0:
64,192,59906,1,0,0:0:0:0:
192,192,59981,1,0,0:0:0:0:
448,192,59981,1,0,0:0:0:0:
320,192,60056,1,0,0:0:0:0:
192,192,60131,1,0,0:0:0:0:
448,192,60206,1,0,0:0:0:0:
320,192,60281,1,0,0:0:0:0:
64,192,60281,1,0,0:0:0:0:
192,192,60356,1,0,0:0:0:0:
320,192,60431,1,0,0:0:0:0:
448,192,60506,1,0,0:0:0:0:
64,192,60581,1,0,0:0:0:0:
192,192,60581,1,0,0:0:0:0:
320,192,60656,1,0,0:0:0:0:
448,192,60731,1,0,0:0:0:0:
64,192,60731,128,0,60881:0:0:0:0:
192,192,60806,1,0,0:0:0:0:
320,192,60881,1,0,0:0:0:0:
448,192,60881,128,0,61031:0:0:0:0:
192,192,60956,1,0,0:0:0:0:
64,192,61031,1,0,0:0:0:0:
320,192,61106,1,0,0:0:0:0:
64,192,61181,1,0,0:0:0:0:
192,192,61181,1,0,0:0:0:0:
448,192,61256,1,0,0:0:0:0:
320,192,61331,1,0,0:0:0:0:
192,192,61406,1,0,0:0:0:0:
448,192,61481,1,0,0:0:0:0:
64,192,61481,1,0,0:0:0:0:
320,192,61556,1,0,0:0:0:0:
64,192,61631,1,0,0:0:0:0:
192,192,61706,1,0,0:0:0:0:
320,192,61781,1,0,0:0:0:0:
448,192,61781,1,0,0:0:0:0:
64,192,61856,1,0,0:0:0:0:
192,192,61931,1,0,0:0:0:0:
320,192,62006,1,0,0:0:0:0:
64,192,62081,1,0,0:0:0:0:
448,192,62081,1,0,0:0:0:0:
192,192,62156,1,0,0:0:0:0:
448,192,62231,1,0,0:0:0:0:
320,192,62306,1,0,0:0:0:0:
192,192,62381,1,0,0:0:0:0:
64,192,62381,1,0,0:0:0:0:
448,192,62456,1,0,0:0:0:0:
64,192,62531,1,0,0:0:0:0:
192,192,62606,1,0,0:0:0:0:
448,192,62681,1,0,0:0:0:0:
320,192,62681,1,0,0:0:0:0:
64,192,62756,1,0,0:0:0:0:
320,192,62831,1,0,0:0:0:0:
192,192,62906,1,0,0:0:0:0:
64,192,62981,1,0,0:0:0:0:
448,192,62981,1,0,0:0:0:0:
320,192,63056,1,0,0:0:0:0:
192,192,63131,1,0,0:0:0:0:
320,192,63206,1,0,0:0:0:0:
448,192,63281,1,0,0:0:0:0:
64,192,63281,1,0,0:0:0:0:
192,192,63356,1,0,0:0:0:0:
320,192,63431,1,0,0:0:0:0:
448,192,63431,1,0,0:0:0:0:
192,192,63506,1,0,0:0:0:0:
64,192,63581,1,0,0:0:0:0:
320,192,63581,1,0,0:0:0:0:
448,192,63656,1,0,0:0:0:0:
192,192,63731,1,0,0:0:0:0:
320,192,63806,1,0,0:0:0:0:
192,192,63881,1,0,0:0:0:0:
64,192,63881,1,0,0:0:0:0:
448,192,63956,1,0,0:0:0:0:
320,192,64031,1,0,0:0:0:0:
192,192,64106,1,0,0:0:0:0:
448,192,64181,1,0,0:0:0:0:
64,192,64181,1,0,0:0:0:0:
320,192,64256,1,0,0:0:0:0:
192,192,64331,1,0,0:0:0:0:
448,192,64406,1,0,0:0:0:0:
320,192,64481,1,0,0:0:0:0:
64,192,64481,1,0,0:0:0:0:
192,192,64556,1,0,0:0:0:0:
320,192,64631,1,0,0:0:0:0:
64,192,64706,1,0,0:0:0:0:
192,192,64781,1,0,0:0:0:0:
448,192,64781,1,0,0:0:0:0:
320,192,64856,1,0,0:0:0:0:
64,192,64931,1,0,0:0:0:0:
192,192,65006,1,0,0:0:0:0:
448,192,65081,1,0,0:0:0:0:
320,192,65081,1,0,0:0:0:0:
64,192,65156,1,0,0:0:0:0:
448,192,65231,1,0,0:0:0:0:
320,192,65306,1,0,0:0:0:0:
192,192,65381,1,0,0:0:0:0:
64,192,65381,1,0,0:0:0:0:
320,192,65456,1,0,0:0:0:0:
448,192,65531,1,0,0:0:0:0:
64,192,65531,128,0,65681:0:0:0:0:
192,192,65606,1,0,0:0:0:0:
320,192,65681,1,0,0:0:0:0:
448,192,65681,128,0,65831:0:0:0:0:
192,192,65756,1,0,0:0:0:0:
64,192,65831,1,0,0:0:0:0:
320,192,65906,1,0,0:0:0:0:
64,192,65981,1,0,0:0:0:0:
192,192,65981,1,0,0:0:0:0:
448,192,66056,1,0,0:0:0:0:
320,192,66131,1,0,0:0:0:0:
192,192,66206,1,0,0:0:0:0:
448,192,66281,1,0,0:0:0:0:
64,192,66281,1,0,0:0:0:0:
320,192,66356,1,0,0:0:0:0:
64,192,66431,1,0,0:0:0:0:
192,192,66506,1,0,0:0:0:0:
320,192,66581,1,0,0:0:0:0:
448,192,66581,1,0,0:0:0:0:
64,192,66656,1,0,0:0:0:0:
448,192,66731,1,0,0:0:0:0:
320,192,66806,1,0,0:0:0:0:
192,192,66881,1,0,0:0:0:0:
64,192,66881,1,0,0:0:0:0:
320,192,66956,1,0,0:0:0:0:
448,192,67031,1,0,0:0:0:0:
64,192,67106,1,0,0:0:0:0:
192,192,67181,1,0,0:0:0:0:
320,192,67181,1,0,0:0:0:0:
448,192,67256,1,0,0:0:0:0:
64,192,67331,1,0,0:0:0:0:
320,192,67406,1,0,0:0:0:0:
192,192,67481,1,0,0:0:0:0:
64,192,67481,1,0,0:0:0:0:
448,192,67556,1,0,0:0:0:0:
320,192,67631,1,0,0:0:0:0:
64,192,67706,1,0,0:0:0:0:
192,192,67781,1,0,0:0:0:0:
448,192,67781,128,0,67931:0:0:0:0:
320,192,67856,1,0,0:0:0:0:
64,192,67931,128,0,68081:0:0:0:0:
192,192,68006,1,0,0:0:0:0:
320,192,68081,1,0,0:0:0:0:
448,192,68081,1,0,0:0:0:0:
192,192,68156,1,0,0:0:0:0:
64,192,68156,1,0,0:0:0:0:
320,192,68231,1,0,0:0:0:0:
448,192,68231,1,0,0:0:0:0:
192,192,68306,1,0,0:0:0:0:
64,192,68381,1,0,0:0:0:0:
448,192,68381,1,0,0:0:0:0:
320,192,68456,1,0,0:0:0:0:
64,192,68531,1,0,0:0:0:0:
192,192,68606,1,0,0:0:0:0:
320,192,68681,1,0,0:0:0:0:
448,192,68681,1,0,0:0:0:0:
64,192,68756,1,0,0:0:0:0:
192,192,68831,1,0,0:0:0:0:
320,192,68906,1,0,0:0:0:0:
448,192,68981,1,0,0:0:0:0:
64,192,68981,1,0,0:0:0:0:
192,192,69056,1,0,0:0:0:0:
320,192,69131,1,0,0:0:0:0:
192,192,69206,1,0,0:0:0:0:
448,192,69281,1,0,0:0:0:0:
64,192,69281,1,0,0:0:0:0:
320,192,69356,1,0,0:0:0:0:
192,192,69431,1,0,0:0:0:0:
448,192,69506,1,0,0:0:0:0:
64,192,69581,1,0,0:0:0:0:
320,192,69581,1,0,0:0:0:0:
192,192,69656,1,0,0:0:0:0:
320,192,69731,1,0,0:0:0:0:
64,192,69806,1,0,0:0:0:0:
448,192,69881,1,0,0:0:0:0:
192,192,69881,1,0,0:0:0:0:
320,192,69956,1,0,0:0:0:0:
192,192,70031,1,0,0:0:0:0:
64,192,70106,1,0,0:0:0:0:
320,192,70181,1,0,0:0:0:0:
448,192,70181,1,0,0:0:0:0:
192,192,70256,1,0,0:0:0:0:
448,192,70331,128,0,70481:0:0:0:0:
64,192,70331,1,0,0:0:0:0:
320,192,70406,1,0,0:0:0:0:
64,192,70481,128,0,70631:0:0:0:0:
192,192,70481,1,0,0:0:0:0:
320,192,70556,1,0,0:0:0:0:
448,192,70631,1,0,0:0:0:0:
192,192,70706,1,0,0:0:0:0:
320,192,70781,1,0,0:0:0:0:
448,192,70781,1,0,0:0:0:0:
64,192,70856,1,0,0:0:0:0:
192,192,70931,1,0,0:0:0:0:
320,192,71006,1,0,0:0:0:0:
448,192,71081,1,0,0:0:0:0:
64,192,71081,1,0,0:0:0:0:
192,192,71156,1,0,0:0:0:0:
448,192,71231,1,0,0:0:0:0:
320,192,71306,1,0,0:0:0:0:
192,192,71381,1,0,0:0:0:0:
64,192,71381,1,0,0:0:0:0:
448,192,71456,1,0,0:0:0:0:
320,192,71531,1,0,0:0:0:0:
192,192,71606,1,0,0:0:0:0:
64,192,71681,1,0,0:0:0:0:
448,192,71681,1,0,0:0:0:0:
320,192,71756,1,0,0:0:0:0:
64,192,71831,1,0,0:0:0:0:
192,192,71906,1,0,0:0:0:0:
448,192,71981,1,0,0:0:0:0:
320,192,71981,1,0,0:0:0:0:
64,192,72056,1,0,0:0:0:0:
448,192,72131,1,0,0:0:0:0:
320,192,72206,1,0,0:0:0:0:
192,192,72281,1,0,0:0:0:0:
64,192,72281,1,0,0:0:0:0:
448,192,72356,1,0,0:0:0:0:
192,192,72431,1,0,0:0:0:0:
320,192,72506,1,0,0:0:0:0:
64,192,72581,1,0,0:0:0:0:
448,192,72581,1,0,0:0:0:0:
192,192,72656,1,0,0:0:0:0:
320,192,72731,1,0,0:0:0:0:
192,192,72806,1,0,0:0:0:0:
448,192,72881,1,0,0:0:0:0:
64,192,72881,1,0,0:0:0:0:
320,192,72956,1,0,0:0:0:0:
64,192,73031,1,0,0:0:0:0:
192,192,73031,1,0,0:0:0:0:
320,192,73106,1,0,0:0:0:0:
192,192,73181,1,0,0:0:0:0:
448,192,73181,1,0,0:0:0:0:
64,192,73256,1,0,0:0:0:0:
320,192,73331,1,0,0:0:0:0:
192,192,73406,1,0,0:0:0:0:
448,192,73481,1,0,0:0:0:0:
320,192,73481,1,0,0:0:0:0:
64,192,73556,1,0,0:0:0:0:
192,192,73631,1,0,0:0:0:0:
320,192,73706,1,0,0:0:0:0:
448,192,73781,1,0,0:0:0:0:
64,192,73781,1,0,0:0:0:0:
192,192,73856,1,0,0:0:0:0:
320,192,73931,1,0,0:0:0:0:
64,192,74006,1,0,0:0:0:0:
448,192,74081,1,0,0:0:0:0:
192,192,74081,1,0,0:0:0:0:
320,192,74156,1,0,0:0:0:0:
192,192,74231,1,0,0:0:0:0:
448,192,74306,1,0,0:0:0:0:
64,192,74381,1,0,0:0:0:0:
320,192,74381,1,0,0:0:0:0:
192,192,74456,1,0,0:0:0:0:
448,192,74531,1,0,0:0:0:0:
320,192,74606,1,0,0:0:0:0:
192,192,74681,1,0,0:0:0:0:
64,192,74681,1,0,0:0:0:0:
448,192,74756,1,0,0:0:0:0:
64,192,74831,1,0,0:0:0:0:
192,192,74906,1,0,0:0:0:0:
448,192,74981,1,0,0:0:0:0:
320,192,74981,1,0,0:0:0:0:
192,192,75056,1,0,0:0:0:0:
448,192,75131,128,0,75281:0:0:0:0:
64,192,75131,1,0,0:0:0:0:
320,192,75206,1,0,0:0:0:0:
64,192,75281,128,0,75431:0:0:0:0:
192,192,75281,1,0,0:0:0:0:
320,192,75356,1,0,0:0:0:0:
448,192,75431,1,0,0:0:0:0:
192,192,75506,1,0,0:0:0:0:
320,192,75581,1,0,0:0:0:0:
448,192,75581,1,0,0:0:0:0:
64,192,75731,1,0,0:0:0:0:
448,192,75731,1,0,0:0:0:0:
64,192,75881,1,0,0:0:0:0:
192,192,75881,1,0,0:0:0:0:
320,192,76031,1,0,0:0:0:0:
192,192,76106,1,0,0:0:0:0:
448,192,76181,1,0,0:0:0:0:
320,192,76256,1,0,0:0:0:0:
192,192,76331,1,0,0:0:0:0:
64,192,76331,1,0,0:0:0:0:
320,192,76406,1,0,0:0:0:0:
64,192,76481,1,0,0:0:0:0:
448,192,76481,1,0,0:0:0:0:
192,192,76631,1,0,0:0:0:0:
320,192,76706,1,0,0:0:0:0:
192,192,76781,1,0,0:0:0:0:
64,192,76781,1,0,0:0:0:0:
448,192,76856,1,0,0:0:0:0:
320,192,76856,1,0,0:0:0:0:
64,192,76931,1,0,0:0:0:0:
192,192,76968,1,0,0:0:0:0:
448,192,77006,1,0,0:0:0:0:
320,192,77043,1,0,0:0:0:0:
192,192,77081,1,0,0:0:0:0:
64,192,77081,1,0,0:0:0:0:
320,192,77231,1,0,0:0:0:0:
448,192,77231,1,0,0:0:0:0:
64,192,77381,1,0,0:0:0:0:
192,192,77456,1,0,0:0:0:0:
320,192,77531,1,0,0:0:0:0:
448,192,77531,128,0,77681:0:0:0:0:
192,192,77681,1,0,0:0:0:0:
64,192,77681,128,0,77831:0:0:0:0:
320,192,77831,1,0,0:0:0:0:
448,192,77831,1,0,0:0:0:0:
64,192,77906,1,0,0:0:0:0:
192,192,77906,1,0,0:0:0:0:
448,192,77981,1,0,0:0:0:0:
320,192,77981,1,0,0:0:0:0:
192,192,78056,1,0,0:0:0:0:
64,192,78131,1,0,0:0:0:0:
448,192,78131,1,0,0:0:0:0:
320,192,78206,1,0,0:0:0:0:
192,192,78281,1,0,0:0:0:0:
64,192,78281,1,0,0:0:0:0:
448,192,78356,1,0,0:0:0:0:
192,192,78431,1,0,0:0:0:0:
320,192,78506,1,0,0:0:0:0:
64,192,78581,1,0,0:0:0:0:
192,192,78656,1,0,0:0:0:0:
448,192,78731,1,0,0:0:0:0:
320,192,78731,1,0,0:0:0:0:
192,192,78806,1,0,0:0:0:0:
64,192,78881,1,0,0:0:0:0:
448,192,78881,1,0,0:0:0:0:
320,192,78956,1,0,0:0:0:0:
64,192,79031,1,0,0:0:0:0:
192,192,79106,1,0,0:0:0:0:
320,192,79181,1,0,0:0:0:0:
448,192,79181,1,0,0:0:0:0:
192,192,79256,1,0,0:0:0:0:
64,192,79331,1,0,0:0:0:0:
448,192,79331,1,0,0:0:0:0:
320,192,79406,1,0,0:0:0:0:
64,192,79481,1,0,0:0:0:0:
192,192,79481,1,0,0:0:0:0:
320,192,79556,1,0,0:0:0:0:
448,192,79631,1,0,0:0:0:0:
192,192,79706,1,0,0:0:0:0:
64,192,79781,1,0,0:0:0:0:
448,192,79856,1,0,0:0:0:0:
320,192,79931,1,0,0:0:0:0:
192,192,79931,1,0,0:0:0:0:
64,192,80006,1,0,0:0:0:0:
320,192,80081,1,0,0:0:0:0:
448,192,80081,1,0,0:0:0:0:
192,192,80156,1,0,0:0:0:0:
448,192,80231,1,0,0:0:0:0:
320,192,80306,1,0,0:0:0:0:
64,192,80381,1,0,0:0:0:0:
192,192,80381,1,0,0:0:0:0:
320,192,80456,1,0,0:0:0:0:
64,192,80531,1,0,0:0:0:0:
448,192,80531,1,0,0:0:0:0:
192,192,80606,1,0,0:0:0:0:
320,192,80681,1,0,0:0:0:0:
448,192,80681,1,0,0:0:0:0:
64,192,80756,1,0,0:0:0:0:
320,192,80831,1,0,0:0:0:0:
192,192,80906,1,0,0:0:0:0:
448,192,80981,1,0,0:0:0:0:
64,192,81056,1,0,0:0:0:0:
448,192,81131,1,0,0:0:0:0:
320,192,81131,1,0,0:0:0:0:
192,192,81206,1,0,0:0:0:0:
320,192,81281,1,0,0:0:0:0:
64,192,81281,1,0,0:0:0:0:
448,192,81356,1,0,0:0:0:0:
192,192,81431,1,0,0:0:0:0:
320,192,81506,1,0,0:0:0:0:
192,192,81581,1,0,0:0:0:0:
64,192,81581,1,0,0:0:0:0:
448,192,81656,1,0,0:0:0:0:
64,192,81731,1,0,0:0:0:0:
320,192,81731,1,0,0:0:0:0:
192,192,81806,1,0,0:0:0:0:
448,192,81881,1,0,0:0:0:0:
320,192,81881,1,0,0:0:0:0:
64,192,81956,1,0,0:0:0:0:
192,192,82031,1,0,0:0:0:0:
448,192,82106,1,0,0:0:0:0:
320,192,82181,1,0,0:0:0:0:
192,192,82256,1,0,0:0:0:0:
64,192,82331,1,0,0:0:0:0:
448,192,82331,1,0,0:0:0:0:
192,192,82406,1,0,0:0:0:0:
320,192,82406,1,0,0:0:0:0:
448,192,82481,1,0,0:0:0:0:
64,192,82481,1,0,0:0:0:0:
320,192,82556,1,0,0:0:0:0:
192,192,82631,1,0,0:0:0:0:
64,192,82706,1,0,0:0:0:0:
448,192,82781,1,0,0:0:0:0:
320,192,82781,1,0,0:0:0:0:
64,192,82856,1,0,0:0:0:0:
448,192,82931,1,0,0:0:0:0:
192,192,82931,1,0,0:0:0:0:
320,192,83006,1,0,0:0:0:0:
64,192,83081,1,0,0:0:0:0:
192,192,83081,1,0,0:0:0:0:
320,192,83156,1,0,0:0:0:0:
448,192,83231,1,0,0:0:0:0:
192,192,83306,1,0,0:0:0:0:
320,192,83381,1,0,0:0:0:0:
64,192,83456,1,0,0:0:0:0:
448,192,83531,1,0,0:0:0:0:
192,192,83531,1,0,0:0:0:0:
320,192,83606,1,0,0:0:0:0:
64,192,83681,1,0,0:0:0:0:
192,192,83681,1,0,0:0:0:0:
448,192,83756,1,0,0:0:0:0:
320,192,83831,1,0,0:0:0:0:
192,192,83906,1,0,0:0:0:0:
448,192,83981,1,0,0:0:0:0:
64,192,83981,1,0,0:0:0:0:
320,192,84056,1,0,0:0:0:0:
64,192,84131,1,0,0:0:0:0:
192,192,84131,1,0,0:0:0:0:
320,192,84206,1,0,0:0:0:0:
448,192,84281,1,0,0:0:0:0:
192,192,84281,1,0,0:0:0:0:
64,192,84356,1,0,0:0:0:0:
320,192,84431,1,0,0:0:0:0:
192,192,84506,1,0,0:0:0:0:
448,192,84581,1,0,0:0:0:0:
320,192,84656,1,0,0:0:0:0:
64,192,84731,1,0,0:0:0:0:
192,192,84731,1,0,0:0:0:0:
320,192,84806,1,0,0:0:0:0:
64,192,84881,1,0,0:0:0:0:
448,192,84881,1,0,0:0:0:0:
192,192,84956,1,0,0:0:0:0:
320,192,85031,1,0,0:0:0:0:
448,192,85106,1,0,0:0:0:0:
64,192,85181,1,0,0:0:0:0:
192,192,85181,1,0,0:0:0:0:
448,192,85256,1,0,0:0:0:0:
64,192,85331,1,0,0:0:0:0:
320,192,85331,1,0,0:0:0:0:
192,192,85406,1,0,0:0:0:0:
448,192,85481,1,0,0:0:0:0:
320,192,85481,1,0,0:0:0:0:
192,192,85556,1,0,0:0:0:0:
64,192,85631,1,0,0:0:0:0:
320,192,85706,1,0,0:0:0:0:
192,192,85781,1,0,0:0:0:0:
448,192,85856,1,0,0:0:0:0:
64,192,85931,1,0,0:0:0:0:
320,192,85931,1,0,0:0:0:0:
192,192,86006,1,0,0:0:0:0:
448,192,86081,1,0,0:0:0:0:
320,192,86081,1,0,0:0:0:0:
192,192,86156,1,0,0:0:0:0:
448,192,86231,1,0,0:0:0:0:
320,192,86306,1,0,0:0:0:0:
64,192,86381,1,0,0:0:0:0:
192,192,86381,1,0,0:0:0:0:
320,192,86456,1,0,0:0:0:0:
192,192,86531,1,0,0:0:0:0:
448,192,86531,1,0,0:0:0:0:
64,192,86606,1,0,0:0:0:0:
448,192,86681,1,0,0:0:0:0:
320,192,86681,1,0,0:0:0:0:
64,192,86756,1,0,0:0:0:0:
192,192,86831,1,0,0:0:0:0:
320,192,86906,1,0,0:0:0:0:
64,192,86981,1,0,0:0:0:0:
448,192,86981,1,0,0:0:0:0:
192,192,87056,1,0,0:0:0:0:
320,192,87056,1,0,0:0:0:0:
64,192,87131,1,0,0:0:0:0:
448,192,87131,1,0,0:0:0:0:
192,192,87206,1,0,0:0:0:0:
448,192,87281,1,0,0:0:0:0:
320,192,87281,1,0,0:0:0:0:
64,192,87356,1,0,0:0:0:0:
192,192,87431,1,0,0:0:0:0:
320,192,87506,1,0,0:0:0:0:
64,192,87581,1,0,0:0:0:0:
192,192,87581,1,0,0:0:0:0:
320,192,87656,1,0,0:0:0:0:
448,192,87731,1,0,0:0:0:0:
64,192,87731,1,0,0:0:0:0:
192,192,87806,1,0,0:0:0:0:
320,192,87881,1,0,0:0:0:0:
448,192,87881,1,0,0:0:0:0:
192,192,87956,1,0,0:0:0:0:
64,192,88031,1,0,0:0:0:0:
320,192,88106,1,0,0:0:0:0:
192,192,88181,1,0,0:0:0:0:
448,192,88256,1,0,0:0:0:0:
320,192,88331,1,0,0:0:0:0:
64,192,88331,1,0,0:0:0:0:
192,192,88406,1,0,0:0:0:0:
320,192,88481,1,0,0:0:0:0:
448,192,88481,1,0,0:0:0:0:
192,192,88556,1,0,0:0:0:0:
64,192,88631,1,0,0:0:0:0:
448,192,88706,1,0,0:0:0:0:
320,192,88781,1,0,0:0:0:0:
192,192,88781,1,0,0:0:0:0:
64,192,88856,1,0,0:0:0:0:
448,192,88931,1,0,0:0:0:0:
320,192,88931,1,0,0:0:0:0:
192,192,89006,1,0,0:0:0:0:
448,192,89081,1,0,0:0:0:0:
64,192,89081,1,0,0:0:0:0:
320,192,89156,1,0,0:0:0:0:
192,192,89231,1,0,0:0:0:0:
448,192,89306,1,0,0:0:0:0:
64,192,89381,1,0,0:0:0:0:
192,192,89456,1,0,0:0:0:0:
448,192,89531,1,0,0:0:0:0:
320,192,89531,1,0,0:0:0:0:
64,192,89606,1,0,0:0:0:0:
320,192,89681,1,0,0:0:0:0:
192,192,89681,1,0,0:0:0:0:
448,192,89756,1,0,0:0:0:0:
64,192,89831,1,0,0:0:0:0:
192,192,89906,1,0,0:0:0:0:
320,192,89981,1,0,0:0:0:0:
448,192,89981,1,0,0:0:0:0:
192,192,90056,1,0,0:0:0:0:
448,192,90131,1,0,0:0:0:0:
64,192,90131,1,0,0:0:0:0:
320,192,90206,1,0,0:0:0:0:
192,192,90281,1,0,0:0:0:0:
64,192,90281,1,0,0:0:0:0:
448,192,90356,1,0,0:0:0:0:
64,192,90431,1,0,0:0:0:0:
192,192,90506,1,0,0:0:0:0:
320,192,90581,1,0,0:0:0:0:
448,192,90656,1,0,0:0:0:0:
192,192,90731,1,0,0:0:0:0:
64,192,90731,1,0,0:0:0:0:
320,192,90806,1,0,0:0:0:0:
448,192,90881,1,0,0:0:0:0:
64,192,90881,1,0,0:0:0:0:
192,192,90956,1,0,0:0:0:0:
320,192,91031,1,0,0:0:0:0:
64,192,91106,1,0,0:0:0:0:
448,192,91181,1,0,0:0:0:0:
192,192,91181,1,0,0:0:0:0:
320,192,91256,1,0,0:0:0:0:
192,192,91331,1,0,0:0:0:0:
64,192,91331,1,0,0:0:0:0:
448,192,91406,1,0,0:0:0:0:
64,192,91481,1,0,0:0:0:0:
320,192,91481,1,0,0:0:0:0:
192,192,91556,1,0,0:0:0:0:
448,192,91631,1,0,0:0:0:0:
320,192,91706,1,0,0:0:0:0:
192,192,91781,1,0,0:0:0:0:
64,192,91856,1,0,0:0:0:0:
448,192,91931,1,0,0:0:0:0:
320,192,91931,1,0,0:0:0:0:
64,192,92006,1,0,0:0:0:0:
192,192,92006,1,0,0:0:0:0:
320,192,92081,1,0,0:0:0:0:
448,192,92081,1,0,0:0:0:0:
192,192,92156,1,0,0:0:0:0:
448,192,92231,1,0,0:0:0:0:
320,192,92306,1,0,0:0:0:0:
64,192,92381,1,0,0:0:0:0:
192,192,92381,1,0,0:0:0:0:
320,192,92456,1,0,0:0:0:0:
448,192,92531,1,0,0:0:0:0:
64,192,92531,1,0,0:0:0:0:
192,192,92606,1,0,0:0:0:0:
448,192,92681,1,0,0:0:0:0:
320,192,92681,1,0,0:0:0:0:
192,192,92756,1,0,0:0:0:0:
64,192,92831,1,0,0:0:0:0:
448,192,92831,1,0,0:0:0:0:
320,192,92906,1,0,0:0:0:0:
192,192,92981,1,0,0:0:0:0:
64,192,92981,1,0,0:0:0:0:
320,192,93056,1,0,0:0:0:0:
448,192,93131,1,0,0:0:0:0:
192,192,93131,1,0,0:0:0:0:
64,192,93206,1,0,0:0:0:0:
320,192,93281,1,0,0:0:0:0:
448,192,93281,1,0,0:0:0:0:
192,192,93356,1,0,0:0:0:0:
64,192,93431,1,0,0:0:0:0:
320,192,93431,1,0,0:0:0:0:
448,192,93506,1,0,0:0:0:0:
192,192,93581,1,0,0:0:0:0:
64,192,93581,1,0,0:0:0:0:
320,192,93656,1,0,0:0:0:0:
448,192,93731,1,0,0:0:0:0:
64,192,93731,1,0,0:0:0:0:
192,192,93806,1,0,0:0:0:0:
320,192,93881,1,0,0:0:0:0:
448,192,93881,1,0,0:0:0:0:
192,192,93956,1,0,0:0:0:0:
64,192,94031,1,0,0:0:0:0:
448,192,94031,1,0,0:0:0:0:
320,192,94106,1,0,0:0:0:0:
64,192,94181,1,0,0:0:0:0:
192,192,94181,1,0,0:0:0:0:
320,192,94256,1,0,0:0:0:0:
448,192,94331,1,0,0:0:0:0:
192,192,94331,1,0,0:0:0:0:
64,192,94406,1,0,0:0:0:0:
448,192,94481,1,0,0:0:0:0:
320,192,94481,1,0,0:0:0:0:
192,192,94556,1,0,0:0:0:0:
64,192,94631,1,0,0:0:0:0:
448,192,94631,1,0,0:0:0:0:
320,192,94706,1,0,0:0:0:0:
64,192,94781,5,0,0:0:0:0:
320,192,94856,1,0,0:0:0:0:
192,192,94931,1,0,0:0:0:0:
448,192,95006,1,0,0:0:0:0:
64,192,95081,1,0,0:0:0:0:
320,192,95156,1,0,0:0:0:0:
192,192,95231,1,0,0:0:0:0:
448,192,95306,1,0,0:0:0:0:
64,192,95381,1,0,0:0:0:0:
320,192,95456,1,0,0:0:0:0:
192,192,95531,1,0,0:0:0:0:
448,192,95606,1,0,0:0:0:0:
64,192,95681,1,0,0:0:0:0:
320,192,95756,1,0,0:0:0:0:
192,192,95831,1,0,0:0:0:0:
448,192,95906,1,0,0:0:0:0:
64,192,95981,1,0,0:0:0:0:
192,192,96056,1,0,0:0:0:0:
320,192,96131,1,0,0:0:0:0:
448,192,96206,1,0,0:0:0:0:
64,192,96281,1,0,0:0:0:0:
192,192,96331,1,0,0:0:0:0:
448,192,96381,1,0,0:0:0:0:
320,192,96431,1,0,0:0:0:0:
64,192,96481,1,0,0:0:0:0:
192,192,96531,1,0,0:0:0:0:
448,192,96581,1,0,0:0:0:0:
320,192,96618,1,0,0:0:0:0:
64,192,96656,1,0,0:0:0:0:
192,192,96693,1,0,0:0:0:0:
448,192,96731,1,0,0:0:0:0:
320,192,96768,1,0,0:0:0:0:
64,192,96806,1,0,0:0:0:0:
192,192,96843,1,0,0:0:0:0:
448,192,96881,1,0,0:0:0:0:
320,192,96918,1,0,0:0:0:0:
64,192,96956,1,0,0:0:0:0:
192,192,96993,1,0,0:0:0:0:
448,192,97031,1,0,0:0:0:0:
320,192,97068,1,0,0:0:0:0:
64,192,97106,1,0,0:0:0:0:
192,192,97143,1,0,0:0:0:0:
320,192,97181,1,0,0:0:0:0:
448,192,97181,1,0,0:0:0:0:
192,192,97331,128,0,97481:0:0:0:0:
448,192,97481,1,0,0:0:0:0:
320,192,97481,1,0,0:0:0:0:
64,192,97481,1,0,0:0:0:0:
448,192,97631,128,0,97781:0:0:0:0:
64,192,97781,1,0,0:0:0:0:
192,192,97781,1,0,0:0:0:0:
64,192,97931,128,0,98081:0:0:0:0:
448,192,98081,1,0,0:0:0:0:
320,192,98081,1,0,0:0:0:0:
192,192,98081,1,0,0:0:0:0:
320,192,98231,128,0,98381:0:0:0:0:
448,192,98381,1,0,0:0:0:0:
192,192,98381,1,0,0:0:0:0:
192,192,98531,128,0,98681:0:0:0:0:
448,192,98681,1,0,0:0:0:0:
320,192,98681,1,0,0:0:0:0:
64,192,98681,1,0,0:0:0:0:
448,192,98831,128,0,98981:0:0:0:0:
64,192,98981,1,0,0:0:0:0:
192,192,98981,1,0,0:0:0:0:
192,192,99131,128,0,99281:0:0:0:0:
64,192,99281,1,0,0:0:0:0:
448,192,99281,1,0,0:0:0:0:
320,192,99281,1,0,0:0:0:0:
320,192,99431,128,0,99581:0:0:0:0:
64,192,99581,1,0,0:0:0:0:
192,192,99581,1,0,0:0:0:0:
64,192,99731,128,0,99881:0:0:0:0:
448,192,99881,1,0,0:0:0:0:
320,192,99881,1,0,0:0:0:0:
192,192,99881,1,0,0:0:0:0:
448,192,100031,128,0,100181:0:0:0:0:
64,192,100181,1,0,0:0:0:0:
320,192,100181,1,0,0:0:0:0:
320,192,100331,128,0,100481:0:0:0:0:
448,192,100481,1,0,0:0:0:0:
64,192,100481,1,0,0:0:0:0:
192,192,100481,1,0,0:0:0:0:
192,192,100631,128,0,100781:0:0:0:0:
64,192,100781,1,0,0:0:0:0:
448,192,100781,1,0,0:0:0:0:
64,192,100931,128,0,101081:0:0:0:0:
192,192,101081,1,0,0:0:0:0:
448,192,101081,1,0,0:0:0:0:
320,192,101081,1,0,0:0:0:0:
320,192,101231,128,0,101381:0:0:0:0:
192,192,101381,1,0,0:0:0:0:
64,192,101381,1,0,0:0:0:0:
192,192,101531,128,0,101681:0:0:0:0:
64,192,101681,1,0,0:0:0:0:
448,192,101681,1,0,0:0:0:0:
320,192,101681,1,0,0:0:0:0:
192,192,101831,1,0,0:0:0:0:
448,192,101831,128,0,101981:0:0:0:0:
64,192,101981,1,0,0:0:0:0:
192,192,101981,1,0,0:0:0:0:
64,192,102131,128,0,102281:0:0:0:0:
192,192,102281,1,0,0:0:0:0:
448,192,102281,1,0,0:0:0:0:
320,192,102281,1,0,0:0:0:0:
320,192,102431,128,0,102581:0:0:0:0:
64,192,102581,1,0,0:0:0:0:
448,192,102581,1,0,0:0:0:0:
448,192,102731,128,0,102881:0:0:0:0:
64,192,102881,1,0,0:0:0:0:
192,192,102881,1,0,0:0:0:0:
320,192,102881,1,0,0:0:0:0:
192,192,103031,128,0,103181:0:0:0:0:
64,192,103181,1,0,0:0:0:0:
320,192,103181,1,0,0:0:0:0:
64,192,103331,128,0,103481:0:0:0:0:
448,192,103481,1,0,0:0:0:0:
320,192,103481,1,0,0:0:0:0:
192,192,103481,1,0,0:0:0:0:
320,192,103631,128,0,103781:0:0:0:0:
192,192,103781,1,0,0:0:0:0:
64,192,103781,1,0,0:0:0:0:
192,192,103931,128,0,104081:0:0:0:0:
64,192,104081,1,0,0:0:0:0:
448,192,104081,1,0,0:0:0:0:
320,192,104081,1,0,0:0:0:0:
448,192,104231,128,0,104381:0:0:0:0:
192,192,104381,1,0,0:0:0:0:
320,192,104381,1,0,0:0:0:0:
192,192,104531,128,0,104681:0:0:0:0:
448,192,104681,1,0,0:0:0:0:
320,192,104681,1,0,0:0:0:0:
64,192,104681,1,0,0:0:0:0:
64,192,104831,128,0,104981:0:0:0:0:
448,192,104981,1,0,0:0:0:0:
192,192,104981,1,0,0:0:0:0:
448,192,105131,128,0,105281:0:0:0:0:
64,192,105281,1,0,0:0:0:0:
192,192,105281,1,0,0:0:0:0:
320,192,105281,1,0,0:0:0:0:
320,192,105431,128,0,105581:0:0:0:0:
192,192,105581,1,0,0:0:0:0:
64,192,105581,1,0,0:0:0:0:
192,192,105731,128,0,105881:0:0:0:0:
64,192,105881,1,0,0:0:0:0:
448,192,105881,1,0,0:0:0:0:
64,192,106031,128,0,106181:0:0:0:0:
448,192,106181,1,0,0:0:0:0:
320,192,106181,1,0,0:0:0:0:
192,192,106181,1,0,0:0:0:0:
320,192,106331,128,0,106481:0:0:0:0:
64,192,106481,1,0,0:0:0:0:
192,192,106481,1,0,0:0:0:0:
448,192,106556,1,0,0:0:0:0:
320,192,106556,1,0,0:0:0:0:
192,192,106631,128,0,106781:0:0:0:0:
64,192,106631,1,0,0:0:0:0:
448,192,106781,1,0,0:0:0:0:
320,192,106781,1,0,0:0:0:0:
448,192,106931,128,0,107081:0:0:0:0:
64,192,107081,1,0,0:0:0:0:
192,192,107081,1,0,0:0:0:0:
320,192,107081,1,0,0:0:0:0:
192,192,107231,128,0,107381:0:0:0:0:
64,192,107381,1,0,0:0:0:0:
320,192,107381,1,0,0:0:0:0:
320,192,107531,128,0,107681:0:0:0:0:
64,192,107681,1,0,0:0:0:0:
192,192,107681,1,0,0:0:0:0:
448,192,107681,1,0,0:0:0:0:
64,192,107831,128,0,107981:0:0:0:0:
448,192,107981,1,0,0:0:0:0:
320,192,107981,1,0,0:0:0:0:
320,192,108131,128,0,108281:0:0:0:0:
448,192,108281,1,0,0:0:0:0:
64,192,108281,1,0,0:0:0:0:
192,192,108281,1,0,0:0:0:0:
192,192,108431,128,0,108581:0:0:0:0:
448,192,108581,1,0,0:0:0:0:
320,192,108581,1,0,0:0:0:0:
448,192,108731,128,0,108881:0:0:0:0:
64,192,108881,1,0,0:0:0:0:
192,192,108881,1,0,0:0:0:0:
320,192,108881,1,0,0:0:0:0:
64,192,109031,128,0,109181:0:0:0:0:
448,192,109181,1,0,0:0:0:0:
192,192,109181,1,0,0:0:0:0:
192,192,109331,128,0,109481:0:0:0:0:
64,192,109481,1,0,0:0:0:0:
448,192,109481,1,0,0:0:0:0:
320,192,109481,1,0,0:0:0:0:
320,192,109631,128,0,109781:0:0:0:0:
448,192,109781,1,0,0:0:0:0:
64,192,109781,1,0,0:0:0:0:
448,192,109931,128,0,110081:0:0:0:0:
320,192,110081,1,0,0:0:0:0:
64,192,110081,1,0,0:0:0:0:
192,192,110081,1,0,0:0:0:0:
192,192,110231,128,0,110381:0:0:0:0:
320,192,110381,1,0,0:0:0:0:
448,192,110381,1,0,0:0:0:0:
320,192,110531,128,0,110681:0:0:0:0:
448,192,110681,1,0,0:0:0:0:
64,192,110681,1,0,0:0:0:0:
192,192,110681,1,0,0:0:0:0:
64,192,110831,128,0,110981:0:0:0:0:
448,192,110981,1,0,0:0:0:0:
320,192,110981,1,0,0:0:0:0:
448,192,111131,128,0,111281:0:0:0:0:
320,192,111281,1,0,0:0:0:0:
64,192,111281,1,0,0:0:0:0:
192,192,111281,1,0,0:0:0:0:
448,192,111431,1,0,0:0:0:0:
192,192,111431,128,0,111581:0:0:0:0:
448,192,111581,1,0,0:0:0:0:
64,192,111581,1,0,0:0:0:0:
64,192,111731,128,0,111881:0:0:0:0:
192,192,111881,1,0,0:0:0:0:
448,192,111881,1,0,0:0:0:0:
320,192,111881,1,0,0:0:0:0:
320,192,112031,128,0,112181:0:0:0:0:
64,192,112181,1,0,0:0:0:0:
448,192,112181,1,0,0:0:0:0:
448,192,112331,128,0,112481:0:0:0:0:
64,192,112481,1,0,0:0:0:0:
192,192,112481,1,0,0:0:0:0:
320,192,112481,1,0,0:0:0:0:
192,192,112631,128,0,112781:0:0:0:0:
64,192,112781,1,0,0:0:0:0:
320,192,112781,1,0,0:0:0:0:
64,192,112931,128,0,113081:0:0:0:0:
448,192,113081,1,0,0:0:0:0:
320,192,113081,1,0,0:0:0:0:
192,192,113081,1,0,0:0:0:0:
320,192,113231,128,0,113381:0:0:0:0:
192,192,113381,1,0,0:0:0:0:
64,192,113381,1,0,0:0:0:0:
192,192,113531,128,0,113681:0:0:0:0:
64,192,113681,1,0,0:0:0:0:
448,192,113681,1,0,0:0:0:0:
320,192,113681,1,0,0:0:0:0:
448,192,113831,128,0,113981:0:0:0:0:
320,192,113981,1,0,0:0:0:0:
192,192,113981,1,0,0:0:0:0:
64,192,113981,128,0,114281:0:0:0:0:
320,192,114281,1,0,0:0:0:0:
448,192,114281,1,0,0:0:0:0:
64,192,114431,1,0,0:0:0:0:
448,192,114431,1,0,0:0:0:0:
192,192,114431,128,0,114731:0:0:0:0:
320,192,114731,1,0,0:0:0:0:
64,192,114731,1,0,0:0:0:0:
192,192,114881,1,0,0:0:0:0:
320,192,114881,1,0,0:0:0:0:
448,192,114881,128,0,115181:0:0:0:0:
192,192,115181,1,0,0:0:0:0:
64,192,115181,1,0,0:0:0:0:
320,192,115256,1,0,0:0:0:0:
192,192,115331,1,0,0:0:0:0:
320,192,115406,1,0,0:0:0:0:
448,192,115406,1,0,0:0:0:0:
64,192,115481,1,0,0:0:0:0:
192,192,115481,1,0,0:0:0:0:
448,192,115556,1,0,0:0:0:0:
64,192,115631,1,0,0:0:0:0:
320,192,115706,1,0,0:0:0:0:
448,192,115706,1,0,0:0:0:0:
192,192,115781,1,0,0:0:0:0:
64,192,115781,1,0,0:0:0:0:
448,192,115856,1,0,0:0:0:0:
320,192,115856,1,0,0:0:0:0:
64,192,115931,1,0,0:0:0:0:
192,192,115931,1,0,0:0:0:0:
320,192,116006,1,0,0:0:0:0:
64,192,116081,1,0,0:0:0:0:
192,192,116118,1,0,0:0:0:0:
448,192,116156,1,0,0:0:0:0:
320,192,116193,1,0,0:0:0:0:
64,192,116231,1,0,0:0:0:0:
192,192,116268,1,0,0:0:0:0:
448,192,116306,1,0,0:0:0:0:
320,192,116343,1,0,0:0:0:0:
192,192,116381,1,0,0:0:0:0:
64,192,116381,128,0,117131:0:0:0:0:
192,192,116681,128,0,117131:0:0:0:0:
320,192,117131,1,0,0:0:0:0:
448,192,117131,1,0,0:0:0:0:
192,192,117281,1,0,0:0:0:0:
64,192,117281,1,0,0:0:0:0:
448,192,117281,1,0,0:0:0:0:
64,192,117581,1,0,0:0:0:0:
448,192,117581,1,0,0:0:0:0:
192,192,117581,1,0,0:0:0:0:
320,192,117656,1,0,0:0:0:0:
192,192,117731,1,0,0:0:0:0:
64,192,117731,1,0,0:0:0:0:
320,192,117806,1,0,0:0:0:0:
192,192,117881,1,0,0:0:0:0:
448,192,117881,1,0,0:0:0:0:
64,192,117956,1,0,0:0:0:0:
320,192,118031,1,0,0:0:0:0:
192,192,118106,1,0,0:0:0:0:
448,192,118181,1,0,0:0:0:0:
320,192,118256,1,0,0:0:0:0:
192,192,118331,1,0,0:0:0:0:
64,192,118331,1,0,0:0:0:0:
320,192,118406,1,0,0:0:0:0:
64,192,118481,1,0,0:0:0:0:
448,192,118481,1,0,0:0:0:0:
192,192,118556,1,0,0:0:0:0:
448,192,118631,1,0,0:0:0:0:
320,192,118706,1,0,0:0:0:0:
64,192,118781,1,0,0:0:0:0:
192,192,118781,1,0,0:0:0:0:
320,192,118856,1,0,0:0:0:0:
64,192,118931,1,0,0:0:0:0:
448,192,118931,1,0,0:0:0:0:
192,192,119006,1,0,0:0:0:0:
320,192,119081,1,0,0:0:0:0:
448,192,119081,1,0,0:0:0:0:
192,192,119156,1,0,0:0:0:0:
64,192,119231,1,0,0:0:0:0:
320,192,119306,1,0,0:0:0:0:
448,192,119381,1,0,0:0:0:0:
64,192,119456,1,0,0:0:0:0:
320,192,119531,1,0,0:0:0:0:
192,192,119531,1,0,0:0:0:0:
448,192,119606,1,0,0:0:0:0:
64,192,119681,1,0,0:0:0:0:
192,192,119681,1,0,0:0:0:0:
320,192,119756,1,0,0:0:0:0:
64,192,119831,1,0,0:0:0:0:
192,192,119906,1,0,0:0:0:0:
320,192,119981,1,0,0:0:0:0:
448,192,119981,1,0,0:0:0:0:
192,192,120056,1,0,0:0:0:0:
64,192,120131,1,0,0:0:0:0:
448,192,120131,1,0,0:0:0:0:
320,192,120206,1,0,0:0:0:0:
64,192,120281,1,0,0:0:0:0:
192,192,120281,1,0,0:0:0:0:
448,192,120356,1,0,0:0:0:0:
192,192,120431,1,0,0:0:0:0:
320,192,120506,1,0,0:0:0:0:
64,192,120581,1,0,0:0:0:0:
448,192,120656,1,0,0:0:0:0:
192,192,120731,1,0,0:0:0:0:
64,192,120731,1,0,0:0:0:0:
320,192,120806,1,0,0:0:0:0:
448,192,120806,1,0,0:0:0:0:
192,192,120881,1,0,0:0:0:0:
64,192,120881,1,0,0:0:0:0:
448,192,120956,1,0,0:0:0:0:
64,192,121031,1,0,0:0:0:0:
192,192,121106,1,0,0:0:0:0:
448,192,121181,1,0,0:0:0:0:
320,192,121181,1,0,0:0:0:0:
192,192,121256,1,0,0:0:0:0:
64,192,121331,1,0,0:0:0:0:
448,192,121331,1,0,0:0:0:0:
320,192,121406,1,0,0:0:0:0:
192,192,121481,1,0,0:0:0:0:
64,192,121481,1,0,0:0:0:0:
448,192,121556,1,0,0:0:0:0:
320,192,121631,1,0,0:0:0:0:
64,192,121706,1,0,0:0:0:0:
192,192,121781,1,0,0:0:0:0:
320,192,121856,1,0,0:0:0:0:
64,192,121931,1,0,0:0:0:0:
448,192,121931,1,0,0:0:0:0:
192,192,122006,1,0,0:0:0:0:
448,192,122081,1,0,0:0:0:0:
320,192,122081,1,0,0:0:0:0:
64,192,122156,1,0,0:0:0:0:
448,192,122231,1,0,0:0:0:0:
320,192,122306,1,0,0:0:0:0:
192,192,122381,1,0,0:0:0:0:
64,192,122381,1,0,0:0:0:0:
320,192,122456,1,0,0:0:0:0:
64,192,122531,1,0,0:0:0:0:
448,192,122531,1,0,0:0:0:0:
192,192,122606,1,0,0:0:0:0:
320,192,122681,1,0,0:0:0:0:
448,192,122681,1,0,0:0:0:0:
192,192,122756,1,0,0:0:0:0:
64,192,122831,1,0,0:0:0:0:
320,192,122906,1,0,0:0:0:0:
192,192,122981,1,0,0:0:0:0:
448,192,123056,1,0,0:0:0:0:
320,192,123131,1,0,0:0:0:0:
64,192,123131,1,0,0:0:0:0:
192,192,123206,1,0,0:0:0:0:
320,192,123281,1,0,0:0:0:0:
448,192,123281,1,0,0:0:0:0:
64,192,123356,1,0,0:0:0:0:
192,192,123431,1,0,0:0:0:0:
320,192,123506,1,0,0:0:0:0:
448,192,123581,1,0,0:0:0:0:
64,192,123581,1,0,0:0:0:0:
192,192,123656,1,0,0:0:0:0:
320,192,123731,1,0,0:0:0:0:
448,192,123731,1,0,0:0:0:0:
192,192,123806,1,0,0:0:0:0:
320,192,123881,1,0,0:0:0:0:
64,192,123881,1,0,0:0:0:0:
448,192,123956,1,0,0:0:0:0:
192,192,124031,1,0,0:0:0:0:
320,192,124106,1,0,0:0:0:0:
64,192,124181,1,0,0:0:0:0:
192,192,124256,1,0,0:0:0:0:
320,192,124331,1,0,0:0:0:0:
448,192,124331,1,0,0:0:0:0:
192,192,124406,1,0,0:0:0:0:
64,192,124481,1,0,0:0:0:0:
448,192,124481,1,0,0:0:0:0:
320,192,124556,1,0,0:0:0:0:
192,192,124631,1,0,0:0:0:0:
64,192,124706,1,0,0:0:0:0:
320,192,124781,1,0,0:0:0:0:
448,192,124781,1,0,0:0:0:0:
64,192,124856,1,0,0:0:0:0:
192,192,124931,1,0,0:0:0:0:
448,192,124931,1,0,0:0:0:0:
320,192,125006,1,0,0:0:0:0:
192,192,125081,1,0,0:0:0:0:
64,192,125081,1,0,0:0:0:0:
320,192,125156,1,0,0:0:0:0:
64,192,125231,1,0,0:0:0:0:
192,192,125306,1,0,0:0:0:0:
320,192,125381,1,0,0:0:0:0:
448,192,125381,1,0,0:0:0:0:
64,192,125456,1,0,0:0:0:0:
192,192,125456,1,0,0:0:0:0:
448,192,125531,1,0,0:0:0:0:
320,192,125531,1,0,0:0:0:0:
192,192,125606,1,0,0:0:0:0:
64,192,125681,1,0,0:0:0:0:
448,192,125681,1,0,0:0:0:0:
320,192,125756,1,0,0:0:0:0:
64,192,125831,1,0,0:0:0:0:
192,192,125906,1,0,0:0:0:0:
320,192,125981,1,0,0:0:0:0:
448,192,125981,1,0,0:0:0:0:
192,192,126056,1,0,0:0:0:0:
64,192,126131,1,0,0:0:0:0:
320,192,126131,1,0,0:0:0:0:
448,192,126206,1,0,0:0:0:0:
192,192,126281,1,0,0:0:0:0:
64,192,126281,1,0,0:0:0:0:
448,192,126356,1,0,0:0:0:0:
320,192,126431,1,0,0:0:0:0:
64,192,126506,1,0,0:0:0:0:
192,192,126581,1,0,0:0:0:0:
448,192,126656,1,0,0:0:0:0:
64,192,126731,1,0,0:0:0:0:
320,192,126731,1,0,0:0:0:0:
192,192,126806,1,0,0:0:0:0:
320,192,126881,1,0,0:0:0:0:
448,192,126881,1,0,0:0:0:0:
64,192,126956,1,0,0:0:0:0:
448,192,127031,1,0,0:0:0:0:
320,192,127106,1,0,0:0:0:0:
192,192,127181,1,0,0:0:0:0:
64,192,127181,1,0,0:0:0:0:
320,192,127256,1,0,0:0:0:0:
448,192,127331,1,0,0:0:0:0:
192,192,127331,1,0,0:0:0:0:
64,192,127406,1,0,0:0:0:0:
320,192,127481,1,0,0:0:0:0:
448,192,127481,1,0,0:0:0:0:
64,192,127556,1,0,0:0:0:0:
192,192,127631,1,0,0:0:0:0:
448,192,127706,1,0,0:0:0:0:
320,192,127781,1,0,0:0:0:0:
192,192,127856,1,0,0:0:0:0:
64,192,127931,1,0,0:0:0:0:
448,192,127931,1,0,0:0:0:0:
320,192,128006,1,0,0:0:0:0:
192,192,128081,1,0,0:0:0:0:
64,192,128081,1,0,0:0:0:0:
320,192,128156,1,0,0:0:0:0:
448,192,128231,1,0,0:0:0:0:
64,192,128306,1,0,0:0:0:0:
192,192,128381,1,0,0:0:0:0:
320,192,128381,1,0,0:0:0:0:
448,192,128456,1,0,0:0:0:0:
192,192,128531,1,0,0:0:0:0:
64,192,128531,1,0,0:0:0:0:
320,192,128606,1,0,0:0:0:0:
448,192,128681,1,0,0:0:0:0:
64,192,128681,1,0,0:0:0:0:
192,192,128756,1,0,0:0:0:0:
448,192,128831,1,0,0:0:0:0:
320,192,128906,1,0,0:0:0:0:
192,192,128981,1,0,0:0:0:0:
64,192,129056,1,0,0:0:0:0:
448,192,129131,1,0,0:0:0:0:
320,192,129131,1,0,0:0:0:0:
192,192,129206,1,0,0:0:0:0:
448,192,129281,1,0,0:0:0:0:
64,192,129281,1,0,0:0:0:0:
320,192,129356,1,0,0:0:0:0:
64,192,129431,1,0,0:0:0:0:
192,192,129506,1,0,0:0:0:0:
320,192,129581,1,0,0:0:0:0:
448,192,129581,1,0,0:0:0:0:
192,192,129656,1,0,0:0:0:0:
448,192,129731,1,0,0:0:0:0:
64,192,129731,1,0,0:0:0:0:
320,192,129806,1,0,0:0:0:0:
192,192,129881,1,0,0:0:0:0:
64,192,129881,1,0,0:0:0:0:
448,192,129956,1,0,0:0:0:0:
320,192,130031,1,0,0:0:0:0:
64,192,130106,1,0,0:0:0:0:
192,192,130181,1,0,0:0:0:0:
320,192,130256,1,0,0:0:0:0:
64,192,130331,1,0,0:0:0:0:
448,192,130331,1,0,0:0:0:0:
192,192,130406,1,0,0:0:0:0:
320,192,130406,1,0,0:0:0:0:
448,192,130481,1,0,0:0:0:0:
64,192,130481,1,0,0:0:0:0:
192,192,130556,1,0,0:0:0:0:
320,192,130631,1,0,0:0:0:0:
448,192,130706,1,0,0:0:0:0:
64,192,130781,1,0,0:0:0:0:
192,192,130781,1,0,0:0:0:0:
448,192,130856,1,0,0:0:0:0:
192,192,130931,1,0,0:0:0:0:
320,192,130931,1,0,0:0:0:0:
64,192,131006,1,0,0:0:0:0:
320,192,131081,1,0,0:0:0:0:
448,192,131081,1,0,0:0:0:0:
192,192,131156,1,0,0:0:0:0:
64,192,131231,1,0,0:0:0:0:
448,192,131231,1,0,0:0:0:0:
320,192,131306,1,0,0:0:0:0:
64,192,131381,1,0,0:0:0:0:
192,192,131381,1,0,0:0:0:0:
320,192,131456,1,0,0:0:0:0:
64,192,131531,1,0,0:0:0:0:
448,192,131531,1,0,0:0:0:0:
192,192,131606,1,0,0:0:0:0:
448,192,131681,1,0,0:0:0:0:
320,192,131681,1,0,0:0:0:0:
64,192,131756,1,0,0:0:0:0:
192,192,131831,1,0,0:0:0:0:
320,192,131831,1,0,0:0:0:0:
448,192,131906,1,0,0:0:0:0:
192,192,131981,1,0,0:0:0:0:
64,192,131981,1,0,0:0:0:0:
320,192,132056,1,0,0:0:0:0:
64,192,132131,1,0,0:0:0:0:
448,192,132131,1,0,0:0:0:0:
192,192,132206,1,0,0:0:0:0:
320,192,132281,1,0,0:0:0:0:
448,192,132281,1,0,0:0:0:0:
192,192,132356,1,0,0:0:0:0:
320,192,132431,1,0,0:0:0:0:
64,192,132431,1,0,0:0:0:0:
448,192,132506,1,0,0:0:0:0:
64,192,132581,1,0,0:0:0:0:
192,192,132581,1,0,0:0:0:0:
320,192,132656,1,0,0:0:0:0:
448,192,132731,1,0,0:0:0:0:
192,192,132731,1,0,0:0:0:0:
64,192,132806,1,0,0:0:0:0:
448,192,132881,1,0,0:0:0:0:
320,192,132881,1,0,0:0:0:0:
192,192,132956,1,0,0:0:0:0:
448,192,133031,1,0,0:0:0:0:
64,192,133031,1,0,0:0:0:0:
320,192,133106,1,0,0:0:0:0:
64,192,133181,5,0,0:0:0:0:
320,192,133256,1,0,0:0:0:0:
192,192,133331,1,0,0:0:0:0:
448,192,133406,1,0,0:0:0:0:
64,192,133481,1,0,0:0:0:0:
320,192,133556,1,0,0:0:0:0:
192,192,133631,1,0,0:0:0:0:
448,192,133706,1,0,0:0:0:0:
64,192,133781,1,0,0:0:0:0:
320,192,133856,1,0,0:0:0:0:
192,192,133931,1,0,0:0:0:0:
448,192,134006,1,0,0:0:0:0:
64,192,134081,1,0,0:0:0:0:
320,192,134156,1,0,0:0:0:0:
192,192,134231,1,0,0:0:0:0:
448,192,134306,1,0,0:0:0:0:
64,192,134381,1,0,0:0:0:0:
192,192,134456,1,0,0:0:0:0:
320,192,134531,1,0,0:0:0:0:
448,192,134606,1,0,0:0:0:0:
64,192,134681,1,0,0:0:0:0:
192,192,134731,1,0,0:0:0:0:
448,192,134781,1,0,0:0:0:0:
320,192,134831,1,0,0:0:0:0:
64,192,134881,1,0,0:0:0:0:
192,192,134931,1,0,0:0:0:0:
448,192,134981,1,0,0:0:0:0:
320,192,135018,1,0,0:0:0:0:
64,192,135056,1,0,0:0:0:0:
192,192,135093,1,0,0:0:0:0:
448,192,135131,1,0,0:0:0:0:
320,192,135168,1,0,0:0:0:0:
64,192,135206,1,0,0:0:0:0:
192,192,135243,1,0,0:0:0:0:
448,192,135281,1,0,0:0:0:0:
320,192,135318,1,0,0:0:0:0:
64,192,135356,1,0,0:0:0:0:
192,192,135393,1,0,0:0:0:0:
448,192,135431,1,0,0:0:0:0:
320,192,135468,1,0,0:0:0:0:
64,192,135506,1,0,0:0:0:0:
192,192,135543,1,0,0:0:0:0:
448,192,135581,128,0,136031:0:0:0:0:
320,192,135581,1,0,0:0:0:0:
192,192,136031,1,0,0:0:0:0:
64,192,136031,128,0,136481:0:0:0:0:
448,192,136331,1,0,0:0:0:0:
320,192,136481,1,0,0:0:0:0:
64,192,136631,1,0,0:0:0:0:
192,192,136781,128,0,137381:0:0:0:0:
448,192,137081,1,0,0:0:0:0:
320,192,137231,1,0,0:0:0:0:
64,192,137381,1,0,0:0:0:0:
320,192,137531,1,0,0:0:0:0:
448,192,137681,1,0,0:0:0:0:
192,192,137981,128,0,138131:0:0:0:0:
320,192,138131,128,0,138281:0:0:0:0:
448,192,138281,1,0,0:0:0:0:
64,192,138431,128,0,138581:0:0:0:0:
192,192,138581,1,0,0:0:0:0:
320,192,138731,128,0,138881:0:0:0:0:
448,192,138881,1,0,0:0:0:0:
192,192,139031,128,0,139181:0:0:0:0:
64,192,139181,128,0,139331:0:0:0:0:
320,192,139331,1,0,0:0:0:0:
448,192,139481,1,0,0:0:0:0:
192,192,139631,1,0,0:0:0:0:
320,192,139781,128,0,140081:0:0:0:0:
64,192,139931,1,0,0:0:0:0:
448,192,140081,128,0,140381:0:0:0:0:
192,192,140081,1,0,0:0:0:0:
320,192,140231,1,0,0:0:0:0:
192,192,140381,1,0,0:0:0:0:
64,192,140381,128,0,140831:0:0:0:0:
320,192,140831,1,0,0:0:0:0:
448,192,140831,128,0,141281:0:0:0:0:
192,192,141131,1,0,0:0:0:0:
64,192,141281,1,0,0:0:0:0:
192,192,141431,1,0,0:0:0:0:
320,192,141581,128,0,142481:0:0:0:0:
64,192,141881,1,0,0:0:0:0:
192,192,142031,1,0,0:0:0:0:
448,192,142181,1,0,0:0:0:0:
192,192,142331,1,0,0:0:0:0:
64,192,142481,1,0,0:0:0:0:
448,192,142781,128,0,142931:0:0:0:0:
320,192,142931,128,0,143081:0:0:0:0:
192,192,143081,1,0,0:0:0:0:
64,192,143231,128,0,143381:0:0:0:0:
192,192,143381,1,0,0:0:0:0:
320,192,143531,128,0,143681:0:0:0:0:
448,192,143681,1,0,0:0:0:0:
192,192,143831,128,0,143981:0:0:0:0:
64,192,143981,128,0,144131:0:0:0:0:
320,192,144131,1,0,0:0:0:0:
448,192,144281,1,0,0:0:0:0:
192,192,144431,1,0,0:0:0:0:
320,192,144581,128,0,144881:0:0:0:0:
64,192,144731,1,0,0:0:0:0:
192,192,144881,1,0,0:0:0:0:
448,192,144881,128,0,145181:0:0:0:0:
320,192,145031,1,0,0:0:0:0:
192,192,145181,1,0,0:0:0:0:
64,192,145181,1,0,0:0:0:0:
448,192,145331,1,0,0:0:0:0:
64,192,145481,1,0,0:0:0:0:
192,192,145556,1,0,0:0:0:0:
320,192,145631,1,0,0:0:0:0:
448,192,145631,1,0,0:0:0:0:
64,192,145706,1,0,0:0:0:0:
192,192,145781,1,0,0:0:0:0:
320,192,145856,1,0,0:0:0:0:
448,192,145931,1,0,0:0:0:0:
192,192,146006,1,0,0:0:0:0:
448,192,146081,1,0,0:0:0:0:
64,192,146081,1,0,0:0:0:0:
320,192,146156,1,0,0:0:0:0:
64,192,146231,1,0,0:0:0:0:
192,192,146306,1,0,0:0:0:0:
320,192,146381,1,0,0:0:0:0:
448,192,146381,1,0,0:0:0:0:
192,192,146456,1,0,0:0:0:0:
64,192,146531,1,0,0:0:0:0:
448,192,146606,1,0,0:0:0:0:
320,192,146681,1,0,0:0:0:0:
192,192,146756,1,0,0:0:0:0:
64,192,146831,1,0,0:0:0:0:
448,192,146831,1,0,0:0:0:0:
320,192,146906,1,0,0:0:0:0:
64,192,146981,1,0,0:0:0:0:
192,192,147056,1,0,0:0:0:0:
448,192,147131,1,0,0:0:0:0:
320,192,147206,1,0,0:0:0:0:
64,192,147281,1,0,0:0:0:0:
192,192,147281,1,0,0:0:0:0:
320,192,147356,1,0,0:0:0:0:
448,192,147431,1,0,0:0:0:0:
64,192,147506,1,0,0:0:0:0:
192,192,147581,1,0,0:0:0:0:
320,192,147581,1,0,0:0:0:0:
448,192,147656,1,0,0:0:0:0:
64,192,147731,1,0,0:0:0:0:
192,192,147806,1,0,0:0:0:0:
448,192,147881,1,0,0:0:0:0:
320,192,147956,1,0,0:0:0:0:
64,192,148031,1,0,0:0:0:0:
192,192,148031,1,0,0:0:0:0:
448,192,148106,1,0,0:0:0:0:
320,192,148181,1,0,0:0:0:0:
64,192,148256,1,0,0:0:0:0:
192,192,148331,1,0,0:0:0:0:
320,192,148406,1,0,0:0:0:0:
448,192,148481,1,0,0:0:0:0:
64,192,148481,1,0,0:0:0:0:
192,192,148556,1,0,0:0:0:0:
320,192,148631,1,0,0:0:0:0:
448,192,148706,1,0,0:0:0:0:
192,192,148781,1,0,0:0:0:0:
64,192,148781,1,0,0:0:0:0:
448,192,148856,1,0,0:0:0:0:
320,192,148931,1,0,0:0:0:0:
192,192,149006,1,0,0:0:0:0:
64,192,149081,1,0,0:0:0:0:
448,192,149156,1,0,0:0:0:0:
192,192,149231,1,0,0:0:0:0:
320,192,149231,1,0,0:0:0:0:
64,192,149306,1,0,0:0:0:0:
448,192,149381,1,0,0:0:0:0:
320,192,149456,1,0,0:0:0:0:
64,192,149531,1,0,0:0:0:0:
192,192,149606,1,0,0:0:0:0:
448,192,149681,1,0,0:0:0:0:
320,192,149681,1,0,0:0:0:0:
64,192,149756,1,0,0:0:0:0:
192,192,149831,1,0,0:0:0:0:
448,192,149906,1,0,0:0:0:0:
64,192,149981,1,0,0:0:0:0:
320,192,149981,1,0,0:0:0:0:
192,192,150056,1,0,0:0:0:0:
320,192,150131,1,0,0:0:0:0:
448,192,150206,1,0,0:0:0:0:
64,192,150281,1,0,0:0:0:0:
320,192,150356,1,0,0:0:0:0:
64,192,150431,1,0,0:0:0:0:
192,192,150431,1,0,0:0:0:0:
448,192,150506,1,0,0:0:0:0:
320,192,150581,1,0,0:0:0:0:
64,192,150656,1,0,0:0:0:0:
192,192,150731,1,0,0:0:0:0:
320,192,150806,1,0,0:0:0:0:
448,192,150881,1,0,0:0:0:0:
64,192,150881,1,0,0:0:0:0:
192,192,150956,1,0,0:0:0:0:
320,192,151031,1,0,0:0:0:0:
448,192,151106,1,0,0:0:0:0:
192,192,151181,1,0,0:0:0:0:
64,192,151181,1,0,0:0:0:0:
448,192,151256,1,0,0:0:0:0:
320,192,151331,1,0,0:0:0:0:
192,192,151406,1,0,0:0:0:0:
64,192,151481,1,0,0:0:0:0:
448,192,151556,1,0,0:0:0:0:
320,192,151631,1,0,0:0:0:0:
192,192,151631,1,0,0:0:0:0:
64,192,151706,1,0,0:0:0:0:
448,192,151781,1,0,0:0:0:0:
192,192,151856,1,0,0:0:0:0:
320,192,151931,1,0,0:0:0:0:
448,192,152006,1,0,0:0:0:0:
192,192,152081,1,0,0:0:0:0:
64,192,152081,1,0,0:0:0:0:
448,192,152156,1,0,0:0:0:0:
320,192,152231,1,0,0:0:0:0:
192,192,152306,1,0,0:0:0:0:
64,192,152381,5,0,0:0:0:0:
320,192,152456,1,0,0:0:0:0:
192,192,152531,1,0,0:0:0:0:
448,192,152606,1,0,0:0:0:0:
64,192,152681,1,0,0:0:0:0:
320,192,152756,1,0,0:0:0:0:
192,192,152831,1,0,0:0:0:0:
448,192,152906,1,0,0:0:0:0:
64,192,152981,1,0,0:0:0:0:
320,192,153056,1,0,0:0:0:0:
192,192,153131,1,0,0:0:0:0:
448,192,153206,1,0,0:0:0:0:
64,192,153281,1,0,0:0:0:0:
320,192,153356,1,0,0:0:0:0:
192,192,153431,1,0,0:0:0:0:
448,192,153506,1,0,0:0:0:0:
64,192,153581,1,0,0:0:0:0:
192,192,153656,1,0,0:0:0:0:
320,192,153731,1,0,0:0:0:0:
448,192,153806,1,0,0:0:0:0:
64,192,153881,1,0,0:0:0:0:
192,192,153931,1,0,0:0:0:0:
448,192,153981,1,0,0:0:0:0:
320,192,154031,1,0,0:0:0:0:
64,192,154081,1,0,0:0:0:0:
192,192,154131,1,0,0:0:0:0:
448,192,154181,1,0,0:0:0:0:
320,192,154218,1,0,0:0:0:0:
64,192,154256,1,0,0:0:0:0:
192,192,154293,1,0,0:0:0:0:
448,192,154331,1,0,0:0:0:0:
320,192,154368,1,0,0:0:0:0:
64,192,154406,1,0,0:0:0:0:
192,192,154443,1,0,0:0:0:0:
448,192,154481,1,0,0:0:0:0:
320,192,154518,1,0,0:0:0:0:
64,192,154556,1,0,0:0:0:0:
192,192,154593,1,0,0:0:0:0:
448,192,154631,1,0,0:0:0:0:
320,192,154668,1,0,0:0:0:0:
64,192,154706,1,0,0:0:0:0:
192,192,154743,1,0,0:0:0:0:
320,192,154781,1,0,0:0:0:0:
448,192,154781,1,0,0:0:0:0:
320,192,154931,128,0,155081:0:0:0:0:
448,192,155081,1,0,0:0:0:0:
192,192,155081,1,0,0:0:0:0:
64,192,155081,1,0,0:0:0:0:
64,192,155231,128,0,155381:0:0:0:0:
320,192,155381,1,0,0:0:0:0:
448,192,155381,1,0,0:0:0:0:
448,192,155531,128,0,155681:0:0:0:0:
320,192,155681,1,0,0:0:0:0:
192,192,155681,1,0,0:0:0:0:
64,192,155681,1,0,0:0:0:0:
192,192,155831,128,0,155981:0:0:0:0:
320,192,155981,1,0,0:0:0:0:
64,192,155981,1,0,0:0:0:0:
320,192,156131,128,0,156281:0:0:0:0:
448,192,156281,1,0,0:0:0:0:
192,192,156281,1,0,0:0:0:0:
64,192,156281,1,0,0:0:0:0:
64,192,156431,128,0,156581:0:0:0:0:
320,192,156581,1,0,0:0:0:0:
448,192,156581,1,0,0:0:0:0:
320,192,156731,128,0,156881:0:0:0:0:
192,192,156881,1,0,0:0:0:0:
64,192,156881,1,0,0:0:0:0:
448,192,156881,1,0,0:0:0:0:
192,192,157031,128,0,157181:0:0:0:0:
320,192,157181,1,0,0:0:0:0:
448,192,157181,1,0,0:0:0:0:
448,192,157331,128,0,157481:0:0:0:0:
320,192,157481,1,0,0:0:0:0:
192,192,157481,1,0,0:0:0:0:
64,192,157481,1,0,0:0:0:0:
64,192,157631,128,0,157781:0:0:0:0:
192,192,157781,1,0,0:0:0:0:
448,192,157781,1,0,0:0:0:0:
192,192,157931,128,0,158081:0:0:0:0:
320,192,158081,1,0,0:0:0:0:
448,192,158081,1,0,0:0:0:0:
64,192,158081,1,0,0:0:0:0:
320,192,158231,128,0,158381:0:0:0:0:
64,192,158381,1,0,0:0:0:0:
448,192,158381,1,0,0:0:0:0:
448,192,158531,128,0,158681:0:0:0:0:
192,192,158681,1,0,0:0:0:0:
64,192,158681,1,0,0:0:0:0:
320,192,158681,1,0,0:0:0:0:
192,192,158831,128,0,158981:0:0:0:0:
448,192,158981,1,0,0:0:0:0:
320,192,158981,1,0,0:0:0:0:
320,192,159131,128,0,159281:0:0:0:0:
192,192,159281,1,0,0:0:0:0:
64,192,159281,1,0,0:0:0:0:
448,192,159281,1,0,0:0:0:0:
64,192,159431,128,0,159581:0:0:0:0:
320,192,159431,1,0,0:0:0:0:
320,192,159581,1,0,0:0:0:0:
448,192,159581,1,0,0:0:0:0:
448,192,159731,128,0,159881:0:0:0:0:
192,192,159881,1,0,0:0:0:0:
64,192,159881,1,0,0:0:0:0:
320,192,159881,1,0,0:0:0:0:
192,192,160031,128,0,160181:0:0:0:0:
64,192,160181,1,0,0:0:0:0:
448,192,160181,1,0,0:0:0:0:
64,192,160331,128,0,160481:0:0:0:0:
192,192,160481,1,0,0:0:0:0:
320,192,160481,1,0,0:0:0:0:
448,192,160481,1,0,0:0:0:0:
320,192,160631,128,0,160781:0:0:0:0:
192,192,160781,1,0,0:0:0:0:
448,192,160781,1,0,0:0:0:0:
448,192,160931,128,0,161081:0:0:0:0:
320,192,161081,1,0,0:0:0:0:
192,192,161081,1,0,0:0:0:0:
64,192,161081,1,0,0:0:0:0:
192,192,161231,128,0,161381:0:0:0:0:
448,192,161381,1,0,0:0:0:0:
320,192,161381,1,0,0:0:0:0:
320,192,161531,128,0,161681:0:0:0:0:
192,192,161681,1,0,0:0:0:0:
64,192,161681,1,0,0:0:0:0:
448,192,161681,1,0,0:0:0:0:
64,192,161831,128,0,161981:0:0:0:0:
192,192,161981,1,0,0:0:0:0:
320,192,161981,1,0,0:0:0:0:
320,192,162131,128,0,162281:0:0:0:0:
448,192,162281,1,0,0:0:0:0:
192,192,162281,1,0,0:0:0:0:
64,192,162281,1,0,0:0:0:0:
448,192,162431,128,0,162581:0:0:0:0:
320,192,162581,1,0,0:0:0:0:
64,192,162581,1,0,0:0:0:0:
64,192,162731,128,0,162881:0:0:0:0:
192,192,162881,1,0,0:0:0:0:
320,192,162881,1,0,0:0:0:0:
448,192,162881,1,0,0:0:0:0:
192,192,163031,128,0,163181:0:0:0:0:
448,192,163181,1,0,0:0:0:0:
320,192,163181,1,0,0:0:0:0:
320,192,163331,128,0,163481:0:0:0:0:
64,192,163481,1,0,0:0:0:0:
448,192,163481,1,0,0:0:0:0:
448,192,163631,128,0,163781:0:0:0:0:
320,192,163781,1,0,0:0:0:0:
192,192,163781,1,0,0:0:0:0:
64,192,163781,1,0,0:0:0:0:
192,192,163931,128,0,164081:0:0:0:0:
320,192,164081,1,0,0:0:0:0:
448,192,164081,1,0,0:0:0:0:
192,192,164156,1,0,0:0:0:0:
64,192,164156,1,0,0:0:0:0:
448,192,164231,1,0,0:0:0:0:
320,192,164231,128,0,164381:0:0:0:0:
192,192,164381,1,0,0:0:0:0:
64,192,164381,1,0,0:0:0:0:
64,192,164531,128,0,164681:0:0:0:0:
192,192,164681,1,0,0:0:0:0:
320,192,164681,1,0,0:0:0:0:
448,192,164681,1,0,0:0:0:0:
320,192,164831,128,0,164981:0:0:0:0:
192,192,164981,1,0,0:0:0:0:
448,192,164981,1,0,0:0:0:0:
192,192,165131,128,0,165281:0:0:0:0:
64,192,165281,1,0,0:0:0:0:
320,192,165281,1,0,0:0:0:0:
448,192,165281,1,0,0:0:0:0:
448,192,165431,128,0,165581:0:0:0:0:
192,192,165581,1,0,0:0:0:0:
64,192,165581,1,0,0:0:0:0:
192,192,165731,128,0,165881:0:0:0:0:
320,192,165881,1,0,0:0:0:0:
448,192,165881,1,0,0:0:0:0:
64,192,165881,1,0,0:0:0:0:
320,192,166031,128,0,166181:0:0:0:0:
192,192,166181,1,0,0:0:0:0:
64,192,166181,1,0,0:0:0:0:
64,192,166331,128,0,166481:0:0:0:0:
192,192,166481,1,0,0:0:0:0:
320,192,166481,1,0,0:0:0:0:
448,192,166481,1,0,0:0:0:0:
448,192,166631,128,0,166781:0:0:0:0:
320,192,166781,1,0,0:0:0:0:
64,192,166781,1,0,0:0:0:0:
320,192,166931,128,0,167081:0:0:0:0:
192,192,167081,1,0,0:0:0:0:
64,192,167081,1,0,0:0:0:0:
448,192,167081,1,0,0:0:0:0:
192,192,167231,128,0,167381:0:0:0:0:
448,192,167381,1,0,0:0:0:0:
64,192,167381,1,0,0:0:0:0:
64,192,167531,128,0,167681:0:0:0:0:
320,192,167681,1,0,0:0:0:0:
448,192,167681,1,0,0:0:0:0:
192,192,167681,1,0,0:0:0:0:
320,192,167831,128,0,167981:0:0:0:0:
64,192,167981,1,0,0:0:0:0:
192,192,167981,1,0,0:0:0:0:
192,192,168131,128,0,168281:0:0:0:0:
320,192,168281,1,0,0:0:0:0:
448,192,168281,1,0,0:0:0:0:
64,192,168281,1,0,0:0:0:0:
448,192,168431,128,0,168581:0:0:0:0:
192,192,168581,1,0,0:0:0:0:
64,192,168581,1,0,0:0:0:0:
64,192,168731,128,0,168881:0:0:0:0:
320,192,168881,1,0,0:0:0:0:
448,192,168881,1,0,0:0:0:0:
192,192,168881,1,0,0:0:0:0:
320,192,169031,128,0,169181:0:0:0:0:
64,192,169031,1,0,0:0:0:0:
448,192,169181,1,0,0:0:0:0:
64,192,169181,1,0,0:0:0:0:
192,192,169256,1,0,0:0:0:0:
320,192,169331,1,0,0:0:0:0:
448,192,169331,1,0,0:0:0:0:
192,192,169406,1,0,0:0:0:0:
64,192,169481,1,0,0:0:0:0:
320,192,169481,1,0,0:0:0:0:
448,192,169556,1,0,0:0:0:0:
192,192,169631,1,0,0:0:0:0:
320,192,169706,1,0,0:0:0:0:
64,192,169781,1,0,0:0:0:0:
192,192,169856,1,0,0:0:0:0:
320,192,169931,1,0,0:0:0:0:
448,192,169931,1,0,0:0:0:0:
192,192,170006,1,0,0:0:0:0:
64,192,170081,1,0,0:0:0:0:
448,192,170081,1,0,0:0:0:0:
320,192,170156,1,0,0:0:0:0:
192,192,170231,1,0,0:0:0:0:
64,192,170306,1,0,0:0:0:0:
320,192,170381,1,0,0:0:0:0:
448,192,170381,1,0,0:0:0:0:
192,192,170456,1,0,0:0:0:0:
64,192,170531,1,0,0:0:0:0:
448,192,170531,1,0,0:0:0:0:
320,192,170606,1,0,0:0:0:0:
192,192,170681,1,0,0:0:0:0:
64,192,170681,1,0,0:0:0:0:
448,192,170756,1,0,0:0:0:0:
320,192,170831,1,0,0:0:0:0:
64,192,170906,1,0,0:0:0:0:
192,192,170981,1,0,0:0:0:0:
320,192,171056,1,0,0:0:0:0:
448,192,171131,1,0,0:0:0:0:
64,192,171131,1,0,0:0:0:0:
192,192,171206,1,0,0:0:0:0:
320,192,171281,1,0,0:0:0:0:
448,192,171281,1,0,0:0:0:0:
192,192,171356,1,0,0:0:0:0:
64,192,171431,1,0,0:0:0:0:
320,192,171506,1,0,0:0:0:0:
448,192,171581,1,0,0:0:0:0:
192,192,171581,1,0,0:0:0:0:
64,192,171581,128,0,171881:0:0:0:0:
320,192,171881,1,0,0:0:0:0:
448,192,171881,1,0,0:0:0:0:
64,192,172031,1,0,0:0:0:0:
448,192,172031,1,0,0:0:0:0:
192,192,172031,128,0,172331:0:0:0:0:
320,192,172331,1,0,0:0:0:0:
64,192,172331,1,0,0:0:0:0:
192,192,172481,1,0,0:0:0:0:
320,192,172481,1,0,0:0:0:0:
448,192,172481,128,0,172781:0:0:0:0:
192,192,172781,1,0,0:0:0:0:
64,192,172781,1,0,0:0:0:0:
320,192,172856,1,0,0:0:0:0:
192,192,172931,1,0,0:0:0:0:
320,192,173006,1,0,0:0:0:0:
448,192,173006,1,0,0:0:0:0:
64,192,173081,1,0,0:0:0:0:
192,192,173081,1,0,0:0:0:0:
448,192,173156,1,0,0:0:0:0:
64,192,173231,1,0,0:0:0:0:
320,192,173306,1,0,0:0:0:0:
448,192,173306,1,0,0:0:0:0:
192,192,173381,1,0,0:0:0:0:
64,192,173381,1,0,0:0:0:0:
448,192,173456,1,0,0:0:0:0:
320,192,173456,1,0,0:0:0:0:
64,192,173531,1,0,0:0:0:0:
192,192,173531,1,0,0:0:0:0:
320,192,173606,1,0,0:0:0:0:
64,192,173681,1,0,0:0:0:0:
192,192,173718,1,0,0:0:0:0:
448,192,173756,1,0,0:0:0:0:
320,192,173793,1,0,0:0:0:0:
64,192,173831,1,0,0:0:0:0:
192,192,173868,1,0,0:0:0:0:
448,192,173906,1,0,0:0:0:0:
320,192,173943,1,0,0:0:0:0:
64,192,173981,1,0,0:0:0:0:
192,192,173981,1,0,0:0:0:0:
320,192,174131,1,0,0:0:0:0:
192,192,174206,1,0,0:0:0:0:
448,192,174281,1,0,0:0:0:0:
64,192,174281,1,0,0:0:0:0:
320,192,174356,1,0,0:0:0:0:
64,192,174431,1,0,0:0:0:0:
192,192,174506,1,0,0:0:0:0:
320,192,174581,1,0,0:0:0:0:
448,192,174581,1,0,0:0:0:0:
64,192,174656,1,0,0:0:0:0:
320,192,174731,1,0,0:0:0:0:
192,192,174806,1,0,0:0:0:0:
448,192,174881,1,0,0:0:0:0:
64,192,174881,1,0,0:0:0:0:
320,192,174956,1,0,0:0:0:0:
192,192,175031,1,0,0:0:0:0:
448,192,175106,1,0,0:0:0:0:
64,192,175181,1,0,0:0:0:0:
320,192,175181,1,0,0:0:0:0:
192,192,175256,1,0,0:0:0:0:
320,192,175331,1,0,0:0:0:0:
64,192,175406,1,0,0:0:0:0:
448,192,175481,1,0,0:0:0:0:
192,192,175481,1,0,0:0:0:0:
320,192,175556,1,0,0:0:0:0:
192,192,175631,1,0,0:0:0:0:
64,192,175706,1,0,0:0:0:0:
320,192,175781,1,0,0:0:0:0:
448,192,175781,1,0,0:0:0:0:
192,192,175856,1,0,0:0:0:0:
64,192,175931,1,0,0:0:0:0:
448,192,175931,1,0,0:0:0:0:
320,192,176006,1,0,0:0:0:0:
192,192,176081,1,0,0:0:0:0:
64,192,176081,1,0,0:0:0:0:
320,192,176156,1,0,0:0:0:0:
448,192,176231,1,0,0:0:0:0:
64,192,176306,1,0,0:0:0:0:
320,192,176381,1,0,0:0:0:0:
192,192,176381,1,0,0:0:0:0:
448,192,176456,1,0,0:0:0:0:
192,192,176531,1,0,0:0:0:0:
64,192,176606,1,0,0:0:0:0:
448,192,176681,1,0,0:0:0:0:
320,192,176681,1,0,0:0:0:0:
192,192,176756,1,0,0:0:0:0:
64,192,176831,1,0,0:0:0:0:
448,192,176906,1,0,0:0:0:0:
192,192,176981,1,0,0:0:0:0:
320,192,176981,1,0,0:0:0:0:
64,192,177056,1,0,0:0:0:0:
320,192,177131,1,0,0:0:0:0:
448,192,177206,1,0,0:0:0:0:
64,192,177281,1,0,0:0:0:0:
192,192,177281,1,0,0:0:0:0:
320,192,177356,1,0,0:0:0:0:
64,192,177431,1,0,0:0:0:0:
192,192,177506,1,0,0:0:0:0:
448,192,177581,1,0,0:0:0:0:
320,192,177581,1,0,0:0:0:0:
64,192,177656,1,0,0:0:0:0:
448,192,177731,1,0,0:0:0:0:
320,192,177806,1,0,0:0:0:0:
192,192,177881,1,0,0:0:0:0:
64,192,177881,1,0,0:0:0:0:
448,192,177956,1,0,0:0:0:0:
192,192,178031,1,0,0:0:0:0:
320,192,178106,1,0,0:0:0:0:
64,192,178181,1,0,0:0:0:0:
448,192,178181,1,0,0:0:0:0:
192,192,178256,1,0,0:0:0:0:
320,192,178331,1,0,0:0:0:0:
192,192,178406,1,0,0:0:0:0:
448,192,178481,1,0,0:0:0:0:
64,192,178481,1,0,0:0:0:0:
320,192,178556,1,0,0:0:0:0:
64,192,178631,1,0,0:0:0:0:
192,192,178631,1,0,0:0:0:0:
320,192,178706,1,0,0:0:0:0:
192,192,178781,1,0,0:0:0:0:
448,192,178781,1,0,0:0:0:0:
64,192,178856,1,0,0:0:0:0:
320,192,178931,1,0,0:0:0:0:
192,192,179006,1,0,0:0:0:0:
448,192,179081,1,0,0:0:0:0:
320,192,179081,1,0,0:0:0:0:
64,192,179156,1,0,0:0:0:0:
192,192,179231,1,0,0:0:0:0:
320,192,179306,1,0,0:0:0:0:
448,192,179381,1,0,0:0:0:0:
64,192,179381,1,0,0:0:0:0:
192,192,179456,1,0,0:0:0:0:
320,192,179531,1,0,0:0:0:0:
64,192,179606,1,0,0:0:0:0:
448,192,179681,1,0,0:0:0:0:
192,192,179681,1,0,0:0:0:0:
320,192,179756,1,0,0:0:0:0:
192,192,179831,1,0,0:0:0:0:
448,192,179906,1,0,0:0:0:0:
64,192,179981,1,0,0:0:0:0:
320,192,179981,1,0,0:0:0:0:
192,192,180056,1,0,0:0:0:0:
448,192,180131,1,0,0:0:0:0:
320,192,180206,1,0,0:0:0:0:
192,192,180281,1,0,0:0:0:0:
64,192,180281,1,0,0:0:0:0:
448,192,180356,1,0,0:0:0:0:
64,192,180431,1,0,0:0:0:0:
192,192,180506,1,0,0:0:0:0:
448,192,180581,1,0,0:0:0:0:
320,192,180581,1,0,0:0:0:0:
192,192,180656,1,0,0:0:0:0:
64,192,180731,1,0,0:0:0:0:
448,192,180731,1,0,0:0:0:0:
320,192,180806,1,0,0:0:0:0:
192,192,180881,1,0,0:0:0:0:
64,192,180881,1,0,0:0:0:0:
320,192,180956,1,0,0:0:0:0:
448,192,181031,1,0,0:0:0:0:
64,192,181106,1,0,0:0:0:0:
320,192,181181,1,0,0:0:0:0:
192,192,181181,1,0,0:0:0:0:
448,192,181256,1,0,0:0:0:0:
192,192,181331,1,0,0:0:0:0:
64,192,181406,1,0,0:0:0:0:
448,192,181481,1,0,0:0:0:0:
320,192,181481,1,0,0:0:0:0:
192,192,181556,1,0,0:0:0:0:
448,192,181631,1,0,0:0:0:0:
320,192,181706,1,0,0:0:0:0:
64,192,181781,1,0,0:0:0:0:
192,192,181781,1,0,0:0:0:0:
448,192,181856,1,0,0:0:0:0:
64,192,181931,1,0,0:0:0:0:
192,192,182006,1,0,0:0:0:0:
448,192,182081,1,0,0:0:0:0:
320,192,182081,1,0,0:0:0:0:
192,192,182156,1,0,0:0:0:0:
64,192,182231,1,0,0:0:0:0:
448,192,182306,1,0,0:0:0:0:
192,192,182381,1,0,0:0:0:0:
320,192,182381,1,0,0:0:0:0:
64,192,182456,1,0,0:0:0:0:
448,192,182531,1,0,0:0:0:0:
192,192,182606,1,0,0:0:0:0:
448,192,182681,1,0,0:0:0:0:
320,192,182681,1,0,0:0:0:0:
64,192,182756,1,0,0:0:0:0:
192,192,182831,1,0,0:0:0:0:
448,192,182906,1,0,0:0:0:0:
64,192,182981,1,0,0:0:0:0:
320,192,182981,1,0,0:0:0:0:
192,192,183056,1,0,0:0:0:0:
448,192,183131,1,0,0:0:0:0:
320,192,183206,1,0,0:0:0:0:
64,192,183281,1,0,0:0:0:0:
192,192,183281,1,0,0:0:0:0:
448,192,183356,1,0,0:0:0:0:
320,192,183356,1,0,0:0:0:0:
64,192,183431,1,0,0:0:0:0:
192,192,183431,1,0,0:0:0:0:
320,192,183506,1,0,0:0:0:0:
64,192,183581,1,0,0:0:0:0:
448,192,183581,1,0,0:0:0:0:
192,192,183656,1,0,0:0:0:0:
448,192,183731,1,0,0:0:0:0:
320,192,183806,1,0,0:0:0:0:
64,192,183881,1,0,0:0:0:0:
192,192,183881,1,0,0:0:0:0:
448,192,183956,1,0,0:0:0:0:
320,192,184031,1,0,0:0:0:0:
192,192,184106,1,0,0:0:0:0:
448,192,184181,1,0,0:0:0:0:
64,192,184181,1,0,0:0:0:0:
320,192,184256,1,0,0:0:0:0:
192,192,184331,1,0,0:0:0:0:
320,192,184406,1,0,0:0:0:0:
448,192,184481,1,0,0:0:0:0:
64,192,184481,1,0,0:0:0:0:
192,192,184556,1,0,0:0:0:0:
320,192,184631,1,0,0:0:0:0:
64,192,184706,1,0,0:0:0:0:
192,192,184781,1,0,0:0:0:0:
448,192,184781,1,0,0:0:0:0:
320,192,184856,1,0,0:0:0:0:
192,192,184931,1,0,0:0:0:0:
448,192,185006,1,0,0:0:0:0:
320,192,185081,1,0,0:0:0:0:
64,192,185081,1,0,0:0:0:0:
192,192,185156,1,0,0:0:0:0:
320,192,185231,1,0,0:0:0:0:
448,192,185306,1,0,0:0:0:0:
64,192,185381,1,0,0:0:0:0:
192,192,185381,1,0,0:0:0:0:
320,192,185456,1,0,0:0:0:0:
448,192,185531,1,0,0:0:0:0:
64,192,185531,1,0,0:0:0:0:
192,192,185606,1,0,0:0:0:0:
320,192,185681,1,0,0:0:0:0:
448,192,185681,1,0,0:0:0:0:
192,192,185756,1,0,0:0:0:0:
64,192,185831,1,0,0:0:0:0:
448,192,185906,1,0,0:0:0:0:
320,192,185981,1,0,0:0:0:0:
192,192,185981,1,0,0:0:0:0:
64,192,186056,1,0,0:0:0:0:
320,192,186131,1,0,0:0:0:0:
448,192,186206,1,0,0:0:0:0:
192,192,186281,1,0,0:0:0:0:
64,192,186281,1,0,0:0:0:0:
320,192,186356,1,0,0:0:0:0:
448,192,186431,1,0,0:0:0:0:
64,192,186506,1,0,0:0:0:0:
192,192,186581,1,0,0:0:0:0:
320,192,186581,1,0,0:0:0:0:
448,192,186656,1,0,0:0:0:0:
192,192,186731,1,0,0:0:0:0:
64,192,186806,1,0,0:0:0:0:
320,192,186881,1,0,0:0:0:0:
448,192,186881,1,0,0:0:0:0:
192,192,186956,1,0,0:0:0:0:
448,192,187031,1,0,0:0:0:0:
320,192,187106,1,0,0:0:0:0:
192,192,187181,1,0,0:0:0:0:
64,192,187181,1,0,0:0:0:0:
448,192,187256,1,0,0:0:0:0:
64,192,187331,1,0,0:0:0:0:
192,192,187406,1,0,0:0:0:0:
448,192,187481,1,0,0:0:0:0:
320,192,187481,1,0,0:0:0:0:
64,192,187556,1,0,0:0:0:0:
320,192,187631,1,0,0:0:0:0:
192,192,187706,1,0,0:0:0:0:
64,192,187781,1,0,0:0:0:0:
448,192,187781,1,0,0:0:0:0:
320,192,187856,1,0,0:0:0:0:
192,192,187931,1,0,0:0:0:0:
320,192,188006,1,0,0:0:0:0:
448,192,188081,1,0,0:0:0:0:
64,192,188081,1,0,0:0:0:0:
192,192,188156,1,0,0:0:0:0:
320,192,188231,1,0,0:0:0:0:
448,192,188231,1,0,0:0:0:0:
192,192,188306,1,0,0:0:0:0:
64,192,188381,1,0,0:0:0:0:
320,192,188381,1,0,0:0:0:0:
448,192,188456,1,0,0:0:0:0:
192,192,188531,1,0,0:0:0:0:
320,192,188606,1,0,0:0:0:0:
192,192,188681,1,0,0:0:0:0:
64,192,188681,1,0,0:0:0:0:
448,192,188756,1,0,0:0:0:0:
320,192,188831,1,0,0:0:0:0:
192,192,188906,1,0,0:0:0:0:
448,192,188981,1,0,0:0:0:0:
64,192,188981,1,0,0:0:0:0:
320,192,189056,1,0,0:0:0:0:
192,192,189131,1,0,0:0:0:0:
448,192,189206,1,0,0:0:0:0:
320,192,189281,1,0,0:0:0:0:
64,192,189281,1,0,0:0:0:0:
192,192,189356,1,0,0:0:0:0:
320,192,189431,1,0,0:0:0:0:
64,192,189506,1,0,0:0:0:0:
192,192,189581,1,0,0:0:0:0:
448,192,189581,1,0,0:0:0:0:
320,192,189656,1,0,0:0:0:0:
64,192,189731,1,0,0:0:0:0:
192,192,189806,1,0,0:0:0:0:
448,192,189881,1,0,0:0:0:0:
320,192,189881,1,0,0:0:0:0:
64,192,189956,1,0,0:0:0:0:
448,192,190031,1,0,0:0:0:0:
320,192,190106,1,0,0:0:0:0:
192,192,190181,1,0,0:0:0:0:
64,192,190181,1,0,0:0:0:0:
320,192,190256,1,0,0:0:0:0:
448,192,190331,1,0,0:0:0:0:
64,192,190331,1,0,0:0:0:0:
192,192,190406,1,0,0:0:0:0:
320,192,190481,1,0,0:0:0:0:
448,192,190481,1,0,0:0:0:0:
192,192,190556,1,0,0:0:0:0:
64,192,190631,1,0,0:0:0:0:
320,192,190706,1,0,0:0:0:0:
448,192,190781,1,0,0:0:0:0:
192,192,190781,1,0,0:0:0:0:
64,192,190781,128,0,191081:0:0:0:0:
320,192,191081,1,0,0:0:0:0:
448,192,191081,1,0,0:0:0:0:
64,192,191231,1,0,0:0:0:0:
448,192,191231,1,0,0:0:0:0:
192,192,191231,128,0,191531:0:0:0:0:
320,192,191531,1,0,0:0:0:0:
64,192,191531,1,0,0:0:0:0:
192,192,191681,1,0,0:0:0:0:
320,192,191681,1,0,0:0:0:0:
448,192,191681,128,0,191981:0:0:0:0:
64,192,191981,1,0,0:0:0:0:
192,192,191981,1,0,0:0:0:0:
320,192,192056,1,0,0:0:0:0:
192,192,192131,1,0,0:0:0:0:
448,192,192206,1,0,0:0:0:0:
320,192,192206,1,0,0:0:0:0:
192,192,192281,1,0,0:0:0:0:
64,192,192281,1,0,0:0:0:0:
448,192,192356,1,0,0:0:0:0:
64,192,192431,1,0,0:0:0:0:
448,192,192506,1,0,0:0:0:0:
320,192,192506,1,0,0:0:0:0:
192,192,192581,1,0,0:0:0:0:
64,192,192581,1,0,0:0:0:0:
320,192,192656,1,0,0:0:0:0:
448,192,192656,1,0,0:0:0:0:
192,192,192731,1,0,0:0:0:0:
64,192,192731,1,0,0:0:0:0:
320,192,192806,1,0,0:0:0:0:
64,192,192881,1,0,0:0:0:0:
192,192,192918,1,0,0:0:0:0:
448,192,192956,1,0,0:0:0:0:
320,192,192993,1,0,0:0:0:0:
64,192,193031,1,0,0:0:0:0:
192,192,193068,1,0,0:0:0:0:
448,192,193106,1,0,0:0:0:0:
320,192,193143,1,0,0:0:0:0:
192,192,193181,1,0,0:0:0:0:
64,192,193181,1,0,0:0:0:0:
448,192,193256,1,0,0:0:0:0:
320,192,193331,1,0,0:0:0:0:
192,192,193406,1,0,0:0:0:0:
64,192,193481,1,0,0:0:0:0:
320,192,193481,1,0,0:0:0:0:
448,192,193481,1,0,0:0:0:0:
192,192,193631,1,0,0:0:0:0:
320,192,193706,1,0,0:0:0:0:
64,192,193781,1,0,0:0:0:0:
448,192,193781,1,0,0:0:0:0:
192,192,193856,1,0,0:0:0:0:
320,192,193931,1,0,0:0:0:0:
448,192,194081,1,0,0:0:0:0:
64,192,194081,1,0,0:0:0:0:
192,192,194081,1,0,0:0:0:0:
320,192,194231,1,0,0:0:0:0:
192,192,194306,1,0,0:0:0:0:
64,192,194381,1,0,0:0:0:0:
448,192,194381,1,0,0:0:0:0:
320,192,194456,1,0,0:0:0:0:
192,192,194531,1,0,0:0:0:0:
320,192,194681,1,0,0:0:0:0:
64,192,194681,1,0,0:0:0:0:
448,192,194681,1,0,0:0:0:0:
64,192,194831,1,0,0:0:0:0:
192,192,194906,1,0,0:0:0:0:
448,192,194981,1,0,0:0:0:0:
320,192,194981,1,0,0:0:0:0:
192,192,195131,1,0,0:0:0:0:
448,192,195206,1,0,0:0:0:0:
320,192,195281,1,0,0:0:0:0:
64,192,195281,1,0,0:0:0:0:
192,192,195281,1,0,0:0:0:0:
448,192,195431,128,0,195581:0:0:0:0:
192,192,195581,1,0,0:0:0:0:
64,192,195581,1,0,0:0:0:0:
320,192,195656,1,0,0:0:0:0:
448,192,195731,1,0,0:0:0:0:
192,192,195806,1,0,0:0:0:0:
320,192,195881,1,0,0:0:0:0:
448,192,195881,1,0,0:0:0:0:
64,192,195881,1,0,0:0:0:0:
192,192,195956,1,0,0:0:0:0:
320,192,196031,128,0,196181:0:0:0:0:
192,192,196181,1,0,0:0:0:0:
64,192,196181,1,0,0:0:0:0:
448,192,196281,1,0,0:0:0:0:
320,192,196368,1,0,0:0:0:0:
64,192,196406,1,0,0:0:0:0:
192,192,196443,1,0,0:0:0:0:
448,192,196481,1,0,0:0:0:0:
320,192,196481,1,0,0:0:0:0:
64,192,196556,1,0,0:0:0:0:
192,192,196631,1,0,0:0:0:0:
320,192,196706,1,0,0:0:0:0:
448,192,196781,1,0,0:0:0:0:
64,192,196781,1,0,0:0:0:0:
64,192,196931,128,0,197081:0:0:0:0:
192,192,197081,1,0,0:0:0:0:
320,192,197081,1,0,0:0:0:0:
448,192,197081,1,0,0:0:0:0:
320,192,197231,128,0,197981:0:0:0:0:
192,192,197381,1,0,0:0:0:0:
448,192,197381,1,0,0:0:0:0:
448,192,197531,1,0,0:0:0:0:
64,192,197681,1,0,0:0:0:0:
192,192,197681,1,0,0:0:0:0:
448,192,197831,1,0,0:0:0:0:
64,192,197831,1,0,0:0:0:0:
192,192,197981,1,0,0:0:0:0:
448,192,197981,1,0,0:0:0:0:
192,192,198131,128,0,198281:0:0:0:0:
320,192,198281,1,0,0:0:0:0:
448,192,198281,1,0,0:0:0:0:
64,192,198281,1,0,0:0:0:0:
64,192,198431,128,0,198581:0:0:0:0:
192,192,198581,1,0,0:0:0:0:
448,192,198581,1,0,0:0:0:0:
320,192,198731,1,0,0:0:0:0:
192,192,198806,1,0,0:0:0:0:
320,192,198881,1,0,0:0:0:0:
64,192,198881,1,0,0:0:0:0:
448,192,198881,1,0,0:0:0:0:
448,192,199031,128,0,199181:0:0:0:0:
64,192,199181,1,0,0:0:0:0:
192,192,199181,1,0,0:0:0:0:
192,192,199331,128,0,199481:0:0:0:0:
320,192,199481,1,0,0:0:0:0:
448,192,199481,1,0,0:0:0:0:
64,192,199481,1,0,0:0:0:0:
448,192,199631,1,0,0:0:0:0:
320,192,199706,1,0,0:0:0:0:
192,192,199781,1,0,0:0:0:0:
64,192,199781,1,0,0:0:0:0:
320,192,199931,1,0,0:0:0:0:
192,192,200006,1,0,0:0:0:0:
320,192,200081,1,0,0:0:0:0:
448,192,200081,1,0,0:0:0:0:
64,192,200081,1,0,0:0:0:0:
320,192,200231,128,0,200381:0:0:0:0:
64,192,200381,1,0,0:0:0:0:
192,192,200381,1,0,0:0:0:0:
64,192,200531,128,0,200681:0:0:0:0:
448,192,200681,1,0,0:0:0:0:
320,192,200681,1,0,0:0:0:0:
192,192,200681,1,0,0:0:0:0:
448,192,200831,128,0,200981:0:0:0:0:
192,192,200981,1,0,0:0:0:0:
64,192,200981,1,0,0:0:0:0:
320,192,201056,1,0,0:0:0:0:
64,192,201131,1,0,0:0:0:0:
192,192,201206,1,0,0:0:0:0:
320,192,201281,1,0,0:0:0:0:
448,192,201281,1,0,0:0:0:0:
64,192,201281,1,0,0:0:0:0:
192,192,201356,1,0,0:0:0:0:
448,192,201431,1,0,0:0:0:0:
320,192,201506,1,0,0:0:0:0:
192,192,201581,1,0,0:0:0:0:
64,192,201581,128,0,202481:0:0:0:0:
320,192,201731,1,0,0:0:0:0:
448,192,201881,1,0,0:0:0:0:
192,192,201881,1,0,0:0:0:0:
448,192,202031,1,0,0:0:0:0:
320,192,202181,1,0,0:0:0:0:
192,192,202181,1,0,0:0:0:0:
192,192,202331,1,0,0:0:0:0:
320,192,202481,1,0,0:0:0:0:
448,192,202481,1,0,0:0:0:0:
192,192,202556,1,0,0:0:0:0:
64,192,202556,1,0,0:0:0:0:
320,192,202631,1,0,0:0:0:0:
448,192,202631,1,0,0:0:0:0:
192,192,202781,1,0,0:0:0:0:
64,192,202781,1,0,0:0:0:0:
320,192,202856,1,0,0:0:0:0:
448,192,202931,1,0,0:0:0:0:
192,192,203006,1,0,0:0:0:0:
320,192,203081,1,0,0:0:0:0:
448,192,203081,1,0,0:0:0:0:
64,192,203081,1,0,0:0:0:0:
320,192,203231,1,0,0:0:0:0:
192,192,203306,1,0,0:0:0:0:
64,192,203381,1,0,0:0:0:0:
448,192,203381,1,0,0:0:0:0:
320,192,203456,1,0,0:0:0:0:
192,192,203531,1,0,0:0:0:0:
320,192,203681,1,0,0:0:0:0:
448,192,203681,1,0,0:0:0:0:
64,192,203681,1,0,0:0:0:0:
192,192,203831,1,0,0:0:0:0:
448,192,203906,1,0,0:0:0:0:
64,192,203981,1,0,0:0:0:0:
320,192,203981,1,0,0:0:0:0:
448,192,204056,1,0,0:0:0:0:
192,192,204131,1,0,0:0:0:0:
320,192,204206,1,0,0:0:0:0:
192,192,204281,1,0,0:0:0:0:
448,192,204281,1,0,0:0:0:0:
64,192,204281,1,0,0:0:0:0:
64,192,204431,1,0,0:0:0:0:
192,192,204506,1,0,0:0:0:0:
320,192,204581,1,0,0:0:0:0:
448,192,204581,1,0,0:0:0:0:
192,192,204731,1,0,0:0:0:0:
448,192,204806,1,0,0:0:0:0:
320,192,204881,1,0,0:0:0:0:
192,192,204881,1,0,0:0:0:0:
64,192,204881,1,0,0:0:0:0:
64,192,205031,128,0,205181:0:0:0:0:
320,192,205181,1,0,0:0:0:0:
448,192,205181,1,0,0:0:0:0:
192,192,205256,1,0,0:0:0:0:
64,192,205331,1,0,0:0:0:0:
320,192,205406,1,0,0:0:0:0:
192,192,205481,1,0,0:0:0:0:
64,192,205481,1,0,0:0:0:0:
448,192,205481,1,0,0:0:0:0:
320,192,205556,1,0,0:0:0:0:
192,192,205631,128,0,205781:0:0:0:0:
64,192,205781,1,0,0:0:0:0:
448,192,205781,1,0,0:0:0:0:
320,192,205856,1,0,0:0:0:0:
64,192,205931,1,0,0:0:0:0:
192,192,205968,1,0,0:0:0:0:
448,192,206006,1,0,0:0:0:0:
320,192,206043,1,0,0:0:0:0:
192,192,206081,1,0,0:0:0:0:
64,192,206081,1,0,0:0:0:0:
448,192,206156,1,0,0:0:0:0:
320,192,206231,1,0,0:0:0:0:
192,192,206306,1,0,0:0:0:0:
64,192,206381,1,0,0:0:0:0:
448,192,206381,1,0,0:0:0:0:
448,192,206531,128,0,206681:0:0:0:0:
320,192,206681,1,0,0:0:0:0:
192,192,206681,1,0,0:0:0:0:
64,192,206681,1,0,0:0:0:0:
192,192,206831,128,0,207581:0:0:0:0:
320,192,206981,1,0,0:0:0:0:
64,192,206981,1,0,0:0:0:0:
64,192,207131,1,0,0:0:0:0:
448,192,207281,1,0,0:0:0:0:
320,192,207281,1,0,0:0:0:0:
64,192,207431,1,0,0:0:0:0:
448,192,207431,1,0,0:0:0:0:
320,192,207581,1,0,0:0:0:0:
64,192,207581,1,0,0:0:0:0:
448,192,207656,1,0,0:0:0:0:
192,192,207731,1,0,0:0:0:0:
64,192,207731,1,0,0:0:0:0:
320,192,207806,1,0,0:0:0:0:
448,192,207881,1,0,0:0:0:0:
192,192,207881,1,0,0:0:0:0:
64,192,207956,1,0,0:0:0:0:
320,192,208031,1,0,0:0:0:0:
192,192,208106,1,0,0:0:0:0:
448,192,208181,1,0,0:0:0:0:
320,192,208256,1,0,0:0:0:0:
192,192,208331,1,0,0:0:0:0:
64,192,208331,1,0,0:0:0:0:
320,192,208406,1,0,0:0:0:0:
448,192,208481,1,0,0:0:0:0:
64,192,208481,1,0,0:0:0:0:
192,192,208556,1,0,0:0:0:0:
320,192,208631,1,0,0:0:0:0:
448,192,208706,1,0,0:0:0:0:
192,192,208781,1,0,0:0:0:0:
64,192,208781,1,0,0:0:0:0:
448,192,208856,1,0,0:0:0:0:
320,192,208931,1,0,0:0:0:0:
64,192,208931,1,0,0:0:0:0:
192,192,209006,1,0,0:0:0:0:
320,192,209081,1,0,0:0:0:0:
448,192,209081,1,0,0:0:0:0:
192,192,209156,1,0,0:0:0:0:
64,192,209231,1,0,0:0:0:0:
448,192,209306,1,0,0:0:0:0:
320,192,209381,1,0,0:0:0:0:
192,192,209456,1,0,0:0:0:0:
64,192,209531,1,0,0:0:0:0:
448,192,209531,1,0,0:0:0:0:
320,192,209606,1,0,0:0:0:0:
192,192,209681,1,0,0:0:0:0:
64,192,209681,1,0,0:0:0:0:
320,192,209756,1,0,0:0:0:0:
448,192,209831,1,0,0:0:0:0:
192,192,209906,1,0,0:0:0:0:
448,192,209981,128,0,210281:0:0:0:0:
320,192,209981,1,0,0:0:0:0:
64,192,209981,1,0,0:0:0:0:
64,192,210281,1,0,0:0:0:0:
192,192,210281,1,0,0:0:0:0:
320,192,210431,128,0,210731:0:0:0:0:
64,192,210431,1,0,0:0:0:0:
448,192,210431,1,0,0:0:0:0:
448,192,210731,1,0,0:0:0:0:
192,192,210731,1,0,0:0:0:0:
64,192,210881,128,0,211181:0:0:0:0:
192,192,210881,1,0,0:0:0:0:
320,192,210881,1,0,0:0:0:0:
320,192,211181,1,0,0:0:0:0:
448,192,211181,1,0,0:0:0:0:
192,192,211256,1,0,0:0:0:0:
320,192,211331,1,0,0:0:0:0:
192,192,211406,1,0,0:0:0:0:
64,192,211406,1,0,0:0:0:0:
448,192,211481,1,0,0:0:0:0:
320,192,211481,1,0,0:0:0:0:
192,192,211556,1,0,0:0:0:0:
320,192,211631,1,0,0:0:0:0:
192,192,211706,1,0,0:0:0:0:
64,192,211706,1,0,0:0:0:0:
320,192,211781,1,0,0:0:0:0:
448,192,211781,1,0,0:0:0:0:
64,192,211856,1,0,0:0:0:0:
192,192,211856,1,0,0:0:0:0:
448,192,211931,1,0,0:0:0:0:
320,192,211931,1,0,0:0:0:0:
192,192,212006,1,0,0:0:0:0:
448,192,212081,1,0,0:0:0:0:
320,192,212118,1,0,0:0:0:0:
64,192,212156,1,0,0:0:0:0:
192,192,212193,1,0,0:0:0:0:
448,192,212231,1,0,0:0:0:0:
320,192,212268,1,0,0:0:0:0:
64,192,212306,1,0,0:0:0:0:
192,192,212343,1,0,0:0:0:0:
320,192,212381,1,0,0:0:0:0:
448,192,212381,128,0,212531:0:0:0:0:
192,192,212681,128,0,212756:0:0:0:0:
192,192,212831,128,0,212981:0:0:0:0:
320,192,212831,1,0,0:0:0:0:
64,192,213281,1,0,0:0:0:0:
448,192,213281,1,0,0:0:0:0:
320,192,213581,1,0,0:0:0:0:
64,192,213581,1,0,0:0:0:0:
448,192,213881,128,0,213956:0:0:0:0:
192,192,213881,1,0,0:0:0:0:
448,192,214031,128,0,214181:0:0:0:0:
192,192,214031,1,0,0:0:0:0:
320,192,214181,1,0,0:0:0:0:
64,192,214181,1,0,0:0:0:0:
192,192,214481,1,0,0:0:0:0:
448,192,214481,1,0,0:0:0:0:
448,192,214781,1,0,0:0:0:0:
64,192,214781,1,0,0:0:0:0:
320,192,215081,128,0,215156:0:0:0:0:
320,192,215231,128,0,215381:0:0:0:0:
192,192,215231,1,0,0:0:0:0:
64,192,215681,1,0,0:0:0:0:
448,192,215681,1,0,0:0:0:0:
320,192,215981,1,0,0:0:0:0:
64,192,215981,1,0,0:0:0:0:
192,192,216281,1,0,0:0:0:0:
448,192,216281,128,0,216356:0:0:0:0:
192,192,216431,1,0,0:0:0:0:
448,192,216431,128,0,216581:0:0:0:0:
320,192,216581,1,0,0:0:0:0:
64,192,216581,1,0,0:0:0:0:
192,192,216881,1,0,0:0:0:0:
448,192,216881,1,0,0:0:0:0:
448,192,217181,1,0,0:0:0:0:
64,192,217181,1,0,0:0:0:0:
192,192,217481,128,0,217556:0:0:0:0:
192,192,217631,128,0,217781:0:0:0:0:
320,192,217631,1,0,0:0:0:0:
64,192,218081,1,0,0:0:0:0:
448,192,218081,1,0,0:0:0:0:
192,192,218381,1,0,0:0:0:0:
448,192,218381,1,0,0:0:0:0:
64,192,218681,128,0,218756:0:0:0:0:
320,192,218681,1,0,0:0:0:0:
64,192,218831,128,0,218981:0:0:0:0:
320,192,218831,1,0,0:0:0:0:
192,192,218981,1,0,0:0:0:0:
448,192,218981,1,0,0:0:0:0:
320,192,219281,1,0,0:0:0:0:
64,192,219281,1,0,0:0:0:0:
64,192,219581,1,0,0:0:0:0:
448,192,219581,1,0,0:0:0:0:
192,192,219881,128,0,219956:0:0:0:0:
192,192,220031,128,0,220181:0:0:0:0:
320,192,220031,1,0,0:0:0:0:
448,192,220481,1,0,0:0:0:0:
64,192,220481,1,0,0:0:0:0:
192,192,220781,1,0,0:0:0:0:
448,192,220781,128,0,221831:0:0:0:0:
64,192,221081,1,0,0:0:0:0:
320,192,221081,128,0,221831:0:0:0:0:
192,192,221381,128,0,221981:0:0:0:0:
64,192,221381,1,0,0:0:0:0:
64,192,221681,128,0,221981:0:0:0:0:
320,192,221981,1,0,0:0:0:0:
448,192,221981,1,0,0:0:0:0:
64,192,222056,1,0,0:0:0:0:
192,192,222131,1,0,0:0:0:0:
320,192,222206,1,0,0:0:0:0:
448,192,222281,1,0,0:0:0:0:
64,192,222281,1,0,0:0:0:0:
192,192,222356,1,0,0:0:0:0:
320,192,222431,1,0,0:0:0:0:
448,192,222431,1,0,0:0:0:0:
192,192,222506,1,0,0:0:0:0:
64,192,222581,1,0,0:0:0:0:
320,192,222656,1,0,0:0:0:0:
192,192,222731,1,0,0:0:0:0:
448,192,222806,1,0,0:0:0:0:
320,192,222881,1,0,0:0:0:0:
64,192,222881,1,0,0:0:0:0:
192,192,222956,1,0,0:0:0:0:
448,192,223031,1,0,0:0:0:0:
320,192,223106,1,0,0:0:0:0:
192,192,223181,1,0,0:0:0:0:
64,192,223181,1,0,0:0:0:0:
320,192,223256,1,0,0:0:0:0:
64,192,223331,1,0,0:0:0:0:
192,192,223406,1,0,0:0:0:0:
320,192,223481,1,0,0:0:0:0:
448,192,223481,1,0,0:0:0:0:
64,192,223556,1,0,0:0:0:0:
192,192,223631,1,0,0:0:0:0:
320,192,223706,1,0,0:0:0:0:
448,192,223781,1,0,0:0:0:0:
64,192,223781,1,0,0:0:0:0:
192,192,223856,1,0,0:0:0:0:
448,192,223931,1,0,0:0:0:0:
320,192,224006,1,0,0:0:0:0:
192,192,224081,1,0,0:0:0:0:
64,192,224081,1,0,0:0:0:0:
448,192,224156,1,0,0:0:0:0:
320,192,224231,1,0,0:0:0:0:
192,192,224306,1,0,0:0:0:0:
64,192,224381,1,0,0:0:0:0:
448,192,224381,1,0,0:0:0:0:
320,192,224456,1,0,0:0:0:0:
64,192,224531,1,0,0:0:0:0:
192,192,224606,1,0,0:0:0:0:
448,192,224681,1,0,0:0:0:0:
320,192,224681,1,0,0:0:0:0:
64,192,224756,1,0,0:0:0:0:
192,192,224831,1,0,0:0:0:0:
448,192,224831,1,0,0:0:0:0:
320,192,224906,1,0,0:0:0:0:
192,192,224981,1,0,0:0:0:0:
448,192,225056,1,0,0:0:0:0:
64,192,225131,1,0,0:0:0:0:
192,192,225206,1,0,0:0:0:0:
320,192,225281,1,0,0:0:0:0:
448,192,225281,1,0,0:0:0:0:
64,192,225356,1,0,0:0:0:0:
192,192,225431,1,0,0:0:0:0:
320,192,225506,1,0,0:0:0:0:
448,192,225581,1,0,0:0:0:0:
64,192,225581,1,0,0:0:0:0:
192,192,225656,1,0,0:0:0:0:
320,192,225731,1,0,0:0:0:0:
192,192,225806,1,0,0:0:0:0:
448,192,225881,1,0,0:0:0:0:
64,192,225881,1,0,0:0:0:0:
320,192,225956,1,0,0:0:0:0:
192,192,226031,1,0,0:0:0:0:
64,192,226106,1,0,0:0:0:0:
320,192,226181,1,0,0:0:0:0:
448,192,226181,1,0,0:0:0:0:
64,192,226256,1,0,0:0:0:0:
192,192,226331,1,0,0:0:0:0:
320,192,226406,1,0,0:0:0:0:
448,192,226481,1,0,0:0:0:0:
64,192,226481,1,0,0:0:0:0:
192,192,226556,1,0,0:0:0:0:
320,192,226631,1,0,0:0:0:0:
448,192,226706,1,0,0:0:0:0:
192,192,226781,1,0,0:0:0:0:
64,192,226781,1,0,0:0:0:0:
448,192,226856,1,0,0:0:0:0:
320,192,226931,1,0,0:0:0:0:
192,192,227006,1,0,0:0:0:0:
64,192,227081,1,0,0:0:0:0:
448,192,227081,1,0,0:0:0:0:
320,192,227156,1,0,0:0:0:0:
192,192,227231,1,0,0:0:0:0:
64,192,227231,1,0,0:0:0:0:
320,192,227306,1,0,0:0:0:0:
448,192,227381,1,0,0:0:0:0:
192,192,227456,1,0,0:0:0:0:
320,192,227531,1,0,0:0:0:0:
64,192,227606,1,0,0:0:0:0:
448,192,227681,1,0,0:0:0:0:
192,192,227681,1,0,0:0:0:0:
320,192,227756,1,0,0:0:0:0:
192,192,227831,1,0,0:0:0:0:
64,192,227906,1,0,0:0:0:0:
448,192,227981,1,0,0:0:0:0:
320,192,227981,1,0,0:0:0:0:
192,192,228056,1,0,0:0:0:0:
64,192,228131,1,0,0:0:0:0:
320,192,228206,1,0,0:0:0:0:
192,192,228281,1,0,0:0:0:0:
64,192,228281,1,0,0:0:0:0:
448,192,228356,1,0,0:0:0:0:
320,192,228431,1,0,0:0:0:0:
192,192,228506,1,0,0:0:0:0:
448,192,228581,1,0,0:0:0:0:
64,192,228581,1,0,0:0:0:0:
320,192,228656,1,0,0:0:0:0:
64,192,228731,1,0,0:0:0:0:
192,192,228806,1,0,0:0:0:0:
320,192,228881,1,0,0:0:0:0:
448,192,228881,1,0,0:0:0:0:
64,192,228956,1,0,0:0:0:0:
192,192,229031,1,0,0:0:0:0:
320,192,229106,1,0,0:0:0:0:
448,192,229181,5,0,0:0:0:0:
192,192,229256,1,0,0:0:0:0:
320,192,229331,1,0,0:0:0:0:
64,192,229406,1,0,0:0:0:0:
448,192,229481,1,0,0:0:0:0:
192,192,229556,1,0,0:0:0:0:
320,192,229631,1,0,0:0:0:0:
64,192,229706,1,0,0:0:0:0:
448,192,229781,1,0,0:0:0:0:
192,192,229856,1,0,0:0:0:0:
320,192,229931,1,0,0:0:0:0:
64,192,230006,1,0,0:0:0:0:
448,192,230081,1,0,0:0:0:0:
192,192,230156,1,0,0:0:0:0:
320,192,230231,1,0,0:0:0:0:
64,192,230306,1,0,0:0:0:0:
448,192,230381,1,0,0:0:0:0:
320,192,230431,1,0,0:0:0:0:
192,192,230481,1,0,0:0:0:0:
64,192,230531,1,0,0:0:0:0:
448,192,230581,1,0,0:0:0:0:
320,192,230631,1,0,0:0:0:0:
192,192,230681,1,0,0:0:0:0:
64,192,230731,1,0,0:0:0:0:
448,192,230781,1,0,0:0:0:0:
320,192,230831,1,0,0:0:0:0:
192,192,230881,1,0,0:0:0:0:
64,192,230931,1,0,0:0:0:0:
448,192,230981,1,0,0:0:0:0:
320,192,231018,1,0,0:0:0:0:
64,192,231056,1,0,0:0:0:0:
192,192,231093,1,0,0:0:0:0:
448,192,231131,1,0,0:0:0:0:
320,192,231168,1,0,0:0:0:0:
64,192,231206,1,0,0:0:0:0:
192,192,231243,1,0,0:0:0:0:
448,192,231281,1,0,0:0:0:0:
320,192,231318,1,0,0:0:0:0:
64,192,231356,1,0,0:0:0:0:
192,192,231393,1,0,0:0:0:0:
448,192,231431,1,0,0:0:0:0:
320,192,231468,1,0,0:0:0:0:
64,192,231506,1,0,0:0:0:0:
192,192,231543,1,0,0:0:0:0:
320,192,231581,1,0,0:0:0:0:
448,192,231581,1,0,0:0:0:0:
192,192,231731,1,0,0:0:0:0:
320,192,231806,1,0,0:0:0:0:
64,192,231881,1,0,0:0:0:0:
448,192,231881,1,0,0:0:0:0:
320,192,231956,1,0,0:0:0:0:
64,192,232031,1,0,0:0:0:0:
192,192,232106,1,0,0:0:0:0:
448,192,232181,1,0,0:0:0:0:
320,192,232181,1,0,0:0:0:0:
64,192,232256,1,0,0:0:0:0:
320,192,232331,1,0,0:0:0:0:
192,192,232406,1,0,0:0:0:0:
64,192,232481,1,0,0:0:0:0:
448,192,232481,1,0,0:0:0:0:
320,192,232556,1,0,0:0:0:0:
192,192,232631,1,0,0:0:0:0:
448,192,232706,1,0,0:0:0:0:
320,192,232781,1,0,0:0:0:0:
64,192,232781,1,0,0:0:0:0:
192,192,232856,1,0,0:0:0:0:
320,192,232931,1,0,0:0:0:0:
64,192,233006,1,0,0:0:0:0:
192,192,233081,1,0,0:0:0:0:
448,192,233081,1,0,0:0:0:0:
320,192,233156,1,0,0:0:0:0:
192,192,233231,1,0,0:0:0:0:
64,192,233306,1,0,0:0:0:0:
448,192,233381,1,0,0:0:0:0:
320,192,233381,1,0,0:0:0:0:
192,192,233456,1,0,0:0:0:0:
64,192,233531,1,0,0:0:0:0:
448,192,233531,128,0,233681:0:0:0:0:
320,192,233606,1,0,0:0:0:0:
192,192,233681,1,0,0:0:0:0:
64,192,233681,128,0,233831:0:0:0:0:
320,192,233756,1,0,0:0:0:0:
448,192,233831,1,0,0:0:0:0:
192,192,233906,1,0,0:0:0:0:
448,192,233981,1,0,0:0:0:0:
320,192,233981,1,0,0:0:0:0:
64,192,234056,1,0,0:0:0:0:
192,192,234131,1,0,0:0:0:0:
320,192,234206,1,0,0:0:0:0:
64,192,234281,1,0,0:0:0:0:
448,192,234281,1,0,0:0:0:0:
192,192,234356,1,0,0:0:0:0:
448,192,234431,1,0,0:0:0:0:
320,192,234506,1,0,0:0:0:0:
64,192,234581,1,0,0:0:0:0:
192,192,234581,1,0,0:0:0:0:
448,192,234656,1,0,0:0:0:0:
320,192,234731,1,0,0:0:0:0:
192,192,234806,1,0,0:0:0:0:
448,192,234881,1,0,0:0:0:0:
64,192,234881,1,0,0:0:0:0:
320,192,234956,1,0,0:0:0:0:
64,192,235031,1,0,0:0:0:0:
192,192,235106,1,0,0:0:0:0:
320,192,235181,1,0,0:0:0:0:
448,192,235181,1,0,0:0:0:0:
64,192,235256,1,0,0:0:0:0:
448,192,235331,1,0,0:0:0:0:
320,192,235406,1,0,0:0:0:0:
64,192,235481,1,0,0:0:0:0:
192,192,235481,1,0,0:0:0:0:
448,192,235556,1,0,0:0:0:0:
192,192,235631,1,0,0:0:0:0:
320,192,235706,1,0,0:0:0:0:
448,192,235781,1,0,0:0:0:0:
64,192,235781,1,0,0:0:0:0:
192,192,235856,1,0,0:0:0:0:
320,192,235931,1,0,0:0:0:0:
192,192,236006,1,0,0:0:0:0:
64,192,236081,1,0,0:0:0:0:
448,192,236081,1,0,0:0:0:0:
320,192,236156,1,0,0:0:0:0:
192,192,236231,1,0,0:0:0:0:
64,192,236231,1,0,0:0:0:0:
320,192,236306,1,0,0:0:0:0:
448,192,236381,1,0,0:0:0:0:
192,192,236381,1,0,0:0:0:0:
64,192,236456,1,0,0:0:0:0:
320,192,236531,1,0,0:0:0:0:
192,192,236606,1,0,0:0:0:0:
320,192,236681,1,0,0:0:0:0:
448,192,236681,1,0,0:0:0:0:
64,192,236756,1,0,0:0:0:0:
192,192,236831,1,0,0:0:0:0:
320,192,236906,1,0,0:0:0:0:
64,192,236981,1,0,0:0:0:0:
448,192,236981,1,0,0:0:0:0:
192,192,237056,1,0,0:0:0:0:
320,192,237131,1,0,0:0:0:0:
64,192,237206,1,0,0:0:0:0:
192,192,237281,1,0,0:0:0:0:
448,192,237281,1,0,0:0:0:0:
320,192,237356,1,0,0:0:0:0:
192,192,237431,1,0,0:0:0:0:
448,192,237506,1,0,0:0:0:0:
320,192,237581,1,0,0:0:0:0:
64,192,237581,1,0,0:0:0:0:
192,192,237656,1,0,0:0:0:0:
448,192,237731,1,0,0:0:0:0:
320,192,237806,1,0,0:0:0:0:
64,192,237881,1,0,0:0:0:0:
192,192,237881,1,0,0:0:0:0:
448,192,237956,1,0,0:0:0:0:
64,192,238031,1,0,0:0:0:0:
192,192,238106,1,0,0:0:0:0:
320,192,238181,1,0,0:0:0:0:
448,192,238181,1,0,0:0:0:0:
192,192,238256,1,0,0:0:0:0:
64,192,238331,1,0,0:0:0:0:
448,192,238331,128,0,238481:0:0:0:0:
320,192,238406,1,0,0:0:0:0:
192,192,238481,1,0,0:0:0:0:
64,192,238481,128,0,238631:0:0:0:0:
320,192,238556,1,0,0:0:0:0:
448,192,238631,1,0,0:0:0:0:
192,192,238706,1,0,0:0:0:0:
448,192,238781,1,0,0:0:0:0:
320,192,238781,1,0,0:0:0:0:
64,192,238856,1,0,0:0:0:0:
192,192,238931,1,0,0:0:0:0:
320,192,239006,1,0,0:0:0:0:
64,192,239081,1,0,0:0:0:0:
448,192,239081,1,0,0:0:0:0:
192,192,239156,1,0,0:0:0:0:
448,192,239231,1,0,0:0:0:0:
320,192,239306,1,0,0:0:0:0:
192,192,239381,1,0,0:0:0:0:
64,192,239381,1,0,0:0:0:0:
448,192,239456,1,0,0:0:0:0:
64,192,239531,1,0,0:0:0:0:
192,192,239606,1,0,0:0:0:0:
320,192,239681,1,0,0:0:0:0:
448,192,239681,1,0,0:0:0:0:
192,192,239756,1,0,0:0:0:0:
64,192,239831,1,0,0:0:0:0:
448,192,239906,1,0,0:0:0:0:
320,192,239981,1,0,0:0:0:0:
192,192,239981,1,0,0:0:0:0:
64,192,240056,1,0,0:0:0:0:
448,192,240131,1,0,0:0:0:0:
192,192,240206,1,0,0:0:0:0:
320,192,240281,1,0,0:0:0:0:
448,192,240281,1,0,0:0:0:0:
64,192,240356,1,0,0:0:0:0:
192,192,240431,1,0,0:0:0:0:
448,192,240506,1,0,0:0:0:0:
320,192,240581,1,0,0:0:0:0:
64,192,240581,128,0,240731:0:0:0:0:
192,192,240656,1,0,0:0:0:0:
448,192,240731,128,0,240881:0:0:0:0:
320,192,240806,1,0,0:0:0:0:
192,192,240881,1,0,0:0:0:0:
64,192,240881,1,0,0:0:0:0:
320,192,240956,1,0,0:0:0:0:
448,192,240956,1,0,0:0:0:0:
192,192,241031,1,0,0:0:0:0:
64,192,241031,1,0,0:0:0:0:
320,192,241106,1,0,0:0:0:0:
448,192,241181,1,0,0:0:0:0:
64,192,241181,1,0,0:0:0:0:
192,192,241256,1,0,0:0:0:0:
448,192,241331,1,0,0:0:0:0:
320,192,241406,1,0,0:0:0:0:
192,192,241481,1,0,0:0:0:0:
64,192,241481,1,0,0:0:0:0:
448,192,241556,1,0,0:0:0:0:
320,192,241631,1,0,0:0:0:0:
192,192,241706,1,0,0:0:0:0:
64,192,241781,1,0,0:0:0:0:
448,192,241781,1,0,0:0:0:0:
320,192,241856,1,0,0:0:0:0:
192,192,241931,1,0,0:0:0:0:
320,192,242006,1,0,0:0:0:0:
64,192,242081,1,0,0:0:0:0:
448,192,242081,1,0,0:0:0:0:
192,192,242156,1,0,0:0:0:0:
320,192,242231,1,0,0:0:0:0:
64,192,242306,1,0,0:0:0:0:
448,192,242381,1,0,0:0:0:0:
192,192,242381,1,0,0:0:0:0:
320,192,242456,1,0,0:0:0:0:
192,192,242531,1,0,0:0:0:0:
448,192,242606,1,0,0:0:0:0:
64,192,242681,1,0,0:0:0:0:
320,192,242681,1,0,0:0:0:0:
192,192,242756,1,0,0:0:0:0:
320,192,242831,1,0,0:0:0:0:
448,192,242906,1,0,0:0:0:0:
192,192,242981,1,0,0:0:0:0:
64,192,242981,1,0,0:0:0:0:
320,192,243056,1,0,0:0:0:0:
64,192,243131,128,0,243281:0:0:0:0:
448,192,243131,1,0,0:0:0:0:
192,192,243206,1,0,0:0:0:0:
448,192,243281,128,0,243431:0:0:0:0:
320,192,243281,1,0,0:0:0:0:
192,192,243356,1,0,0:0:0:0:
64,192,243431,1,0,0:0:0:0:
320,192,243506,1,0,0:0:0:0:
192,192,243581,1,0,0:0:0:0:
64,192,243581,1,0,0:0:0:0:
448,192,243656,1,0,0:0:0:0:
320,192,243731,1,0,0:0:0:0:
192,192,243806,1,0,0:0:0:0:
64,192,243881,1,0,0:0:0:0:
448,192,243881,1,0,0:0:0:0:
320,192,243956,1,0,0:0:0:0:
64,192,244031,1,0,0:0:0:0:
192,192,244106,1,0,0:0:0:0:
320,192,244181,1,0,0:0:0:0:
448,192,244181,1,0,0:0:0:0:
64,192,244256,1,0,0:0:0:0:
192,192,244331,1,0,0:0:0:0:
320,192,244406,1,0,0:0:0:0:
448,192,244481,1,0,0:0:0:0:
64,192,244481,1,0,0:0:0:0:
192,192,244556,1,0,0:0:0:0:
448,192,244631,1,0,0:0:0:0:
320,192,244706,1,0,0:0:0:0:
64,192,244781,1,0,0:0:0:0:
192,192,244781,1,0,0:0:0:0:
448,192,244856,1,0,0:0:0:0:
64,192,244931,1,0,0:0:0:0:
192,192,245006,1,0,0:0:0:0:
320,192,245081,1,0,0:0:0:0:
448,192,245081,1,0,0:0:0:0:
64,192,245156,1,0,0:0:0:0:
320,192,245231,1,0,0:0:0:0:
192,192,245306,1,0,0:0:0:0:
448,192,245381,1,0,0:0:0:0:
64,192,245381,1,0,0:0:0:0:
320,192,245456,1,0,0:0:0:0:
192,192,245531,1,0,0:0:0:0:
320,192,245606,1,0,0:0:0:0:
64,192,245681,1,0,0:0:0:0:
448,192,245681,1,0,0:0:0:0:
192,192,245756,1,0,0:0:0:0:
448,192,245831,1,0,0:0:0:0:
320,192,245831,1,0,0:0:0:0:
192,192,245906,1,0,0:0:0:0:
320,192,245981,1,0,0:0:0:0:
64,192,245981,1,0,0:0:0:0:
448,192,246056,1,0,0:0:0:0:
192,192,246131,1,0,0:0:0:0:
320,192,246206,1,0,0:0:0:0:
64,192,246281,1,0,0:0:0:0:
192,192,246281,1,0,0:0:0:0:
448,192,246356,1,0,0:0:0:0:
320,192,246431,1,0,0:0:0:0:
192,192,246506,1,0,0:0:0:0:
64,192,246581,1,0,0:0:0:0:
448,192,246581,1,0,0:0:0:0:
320,192,246656,1,0,0:0:0:0:
192,192,246731,1,0,0:0:0:0:
448,192,246806,1,0,0:0:0:0:
64,192,246881,1,0,0:0:0:0:
320,192,246881,1,0,0:0:0:0:
192,192,246956,1,0,0:0:0:0:
320,192,247031,1,0,0:0:0:0:
64,192,247106,1,0,0:0:0:0:
448,192,247181,1,0,0:0:0:0:
192,192,247181,1,0,0:0:0:0:
320,192,247256,1,0,0:0:0:0:
64,192,247331,1,0,0:0:0:0:
192,192,247406,1,0,0:0:0:0:
320,192,247481,1,0,0:0:0:0:
448,192,247481,1,0,0:0:0:0:
64,192,247556,1,0,0:0:0:0:
448,192,247631,1,0,0:0:0:0:
320,192,247706,1,0,0:0:0:0:
64,192,247781,1,0,0:0:0:0:
192,192,247781,1,0,0:0:0:0:
320,192,247856,1,0,0:0:0:0:
64,192,247931,128,0,248081:0:0:0:0:
448,192,247931,1,0,0:0:0:0:
192,192,248006,1,0,0:0:0:0:
448,192,248081,128,0,248231:0:0:0:0:
320,192,248081,1,0,0:0:0:0:
192,192,248156,1,0,0:0:0:0:
64,192,248231,1,0,0:0:0:0:
320,192,248306,1,0,0:0:0:0:
64,192,248381,1,0,0:0:0:0:
192,192,248381,1,0,0:0:0:0:
448,192,248531,1,0,0:0:0:0:
64,192,248531,1,0,0:0:0:0:
448,192,248681,1,0,0:0:0:0:
320,192,248681,1,0,0:0:0:0:
192,192,248831,1,0,0:0:0:0:
320,192,248906,1,0,0:0:0:0:
64,192,248981,1,0,0:0:0:0:
192,192,249056,1,0,0:0:0:0:
448,192,249131,1,0,0:0:0:0:
320,192,249131,1,0,0:0:0:0:
192,192,249206,1,0,0:0:0:0:
64,192,249281,1,0,0:0:0:0:
448,192,249281,1,0,0:0:0:0:
320,192,249431,1,0,0:0:0:0:
192,192,249506,1,0,0:0:0:0:
448,192,249581,1,0,0:0:0:0:
320,192,249581,1,0,0:0:0:0:
192,192,249656,1,0,0:0:0:0:
64,192,249656,1,0,0:0:0:0:
448,192,249731,1,0,0:0:0:0:
320,192,249768,1,0,0:0:0:0:
64,192,249806,1,0,0:0:0:0:
192,192,249843,1,0,0:0:0:0:
448,192,249881,1,0,0:0:0:0:
320,192,249881,1,0,0:0:0:0:
64,192,250031,1,0,0:0:0:0:
192,192,250031,1,0,0:0:0:0:
448,192,250181,1,0,0:0:0:0:
320,192,250256,1,0,0:0:0:0:
64,192,250331,128,0,250481:0:0:0:0:
192,192,250331,1,0,0:0:0:0:
448,192,250481,128,0,250631:0:0:0:0:
320,192,250481,1,0,0:0:0:0:
64,192,250631,1,0,0:0:0:0:
192,192,250631,1,0,0:0:0:0:
320,192,250706,1,0,0:0:0:0:
448,192,250706,1,0,0:0:0:0:
192,192,250781,1,0,0:0:0:0:
64,192,250781,1,0,0:0:0:0:
320,192,250856,1,0,0:0:0:0:
64,192,250931,1,0,0:0:0:0:
448,192,250931,1,0,0:0:0:0:
192,192,251006,1,0,0:0:0:0:
448,192,251081,1,0,0:0:0:0:
320,192,251081,1,0,0:0:0:0:
64,192,251156,1,0,0:0:0:0:
320,192,251231,1,0,0:0:0:0:
192,192,251306,1,0,0:0:0:0:
448,192,251381,1,0,0:0:0:0:
320,192,251456,1,0,0:0:0:0:
192,192,251531,1,0,0:0:0:0:
64,192,251531,1,0,0:0:0:0:
320,192,251606,1,0,0:0:0:0:
64,192,251681,1,0,0:0:0:0:
448,192,251681,1,0,0:0:0:0:
192,192,251756,1,0,0:0:0:0:
448,192,251831,1,0,0:0:0:0:
320,192,251906,1,0,0:0:0:0:
64,192,251981,1,0,0:0:0:0:
192,192,251981,1,0,0:0:0:0:
320,192,252056,1,0,0:0:0:0:
64,192,252131,1,0,0:0:0:0:
448,192,252131,1,0,0:0:0:0:
192,192,252206,1,0,0:0:0:0:
320,192,252281,1,0,0:0:0:0:
448,192,252281,1,0,0:0:0:0:
192,192,252356,1,0,0:0:0:0:
64,192,252431,1,0,0:0:0:0:
320,192,252506,1,0,0:0:0:0:
448,192,252581,1,0,0:0:0:0:
64,192,252656,1,0,0:0:0:0:
320,192,252731,1,0,0:0:0:0:
192,192,252731,1,0,0:0:0:0:
448,192,252806,1,0,0:0:0:0:
64,192,252881,1,0,0:0:0:0:
192,192,252881,1,0,0:0:0:0:
320,192,252956,1,0,0:0:0:0:
64,192,253031,1,0,0:0:0:0:
192,192,253106,1,0,0:0:0:0:
320,192,253181,1,0,0:0:0:0:
448,192,253181,1,0,0:0:0:0:
192,192,253256,1,0,0:0:0:0:
64,192,253331,1,0,0:0:0:0:
448,192,253331,1,0,0:0:0:0:
320,192,253406,1,0,0:0:0:0:
64,192,253481,1,0,0:0:0:0:
192,192,253481,1,0,0:0:0:0:
448,192,253556,1,0,0:0:0:0:
192,192,253631,1,0,0:0:0:0:
320,192,253706,1,0,0:0:0:0:
64,192,253781,1,0,0:0:0:0:
448,192,253856,1,0,0:0:0:0:
192,192,253931,1,0,0:0:0:0:
64,192,253931,1,0,0:0:0:0:
320,192,254006,1,0,0:0:0:0:
448,192,254081,1,0,0:0:0:0:
192,192,254081,1,0,0:0:0:0:
64,192,254156,1,0,0:0:0:0:
320,192,254231,1,0,0:0:0:0:
192,192,254306,1,0,0:0:0:0:
448,192,254381,1,0,0:0:0:0:
320,192,254381,1,0,0:0:0:0:
64,192,254456,1,0,0:0:0:0:
192,192,254531,1,0,0:0:0:0:
448,192,254531,1,0,0:0:0:0:
320,192,254606,1,0,0:0:0:0:
192,192,254681,1,0,0:0:0:0:
64,192,254681,1,0,0:0:0:0:
448,192,254756,1,0,0:0:0:0:
320,192,254831,1,0,0:0:0:0:
64,192,254906,1,0,0:0:0:0:
192,192,254981,1,0,0:0:0:0:
320,192,255056,1,0,0:0:0:0:
64,192,255131,1,0,0:0:0:0:
448,192,255131,1,0,0:0:0:0:
192,192,255206,1,0,0:0:0:0:
320,192,255206,1,0,0:0:0:0:
448,192,255281,1,0,0:0:0:0:
64,192,255281,1,0,0:0:0:0:
192,192,255356,1,0,0:0:0:0:
320,192,255431,1,0,0:0:0:0:
448,192,255506,1,0,0:0:0:0:
192,192,255581,1,0,0:0:0:0:
64,192,255581,1,0,0:0:0:0:
448,192,255656,1,0,0:0:0:0:
320,192,255731,1,0,0:0:0:0:
64,192,255731,1,0,0:0:0:0:
192,192,255806,1,0,0:0:0:0:
320,192,255881,1,0,0:0:0:0:
448,192,255881,1,0,0:0:0:0:
192,192,255956,1,0,0:0:0:0:
64,192,256031,1,0,0:0:0:0:
320,192,256106,1,0,0:0:0:0:
192,192,256181,1,0,0:0:0:0:
448,192,256256,1,0,0:0:0:0:
320,192,256331,1,0,0:0:0:0:
64,192,256331,1,0,0:0:0:0:
192,192,256406,1,0,0:0:0:0:
320,192,256481,1,0,0:0:0:0:
448,192,256481,1,0,0:0:0:0:
64,192,256556,1,0,0:0:0:0:
192,192,256631,1,0,0:0:0:0:
320,192,256706,1,0,0:0:0:0:
448,192,256781,1,0,0:0:0:0:
64,192,256781,1,0,0:0:0:0:
192,192,256856,1,0,0:0:0:0:
320,192,256931,1,0,0:0:0:0:
448,192,256931,1,0,0:0:0:0:
192,192,257006,1,0,0:0:0:0:
320,192,257081,1,0,0:0:0:0:
64,192,257081,1,0,0:0:0:0:
448,192,257156,1,0,0:0:0:0:
192,192,257231,1,0,0:0:0:0:
320,192,257306,1,0,0:0:0:0:
64,192,257381,1,0,0:0:0:0:
192,192,257456,1,0,0:0:0:0:
320,192,257531,1,0,0:0:0:0:
448,192,257531,1,0,0:0:0:0:
192,192,257606,1,0,0:0:0:0:
64,192,257681,1,0,0:0:0:0:
448,192,257681,1,0,0:0:0:0:
320,192,257756,1,0,0:0:0:0:
192,192,257831,1,0,0:0:0:0:
64,192,257906,1,0,0:0:0:0:
320,192,257981,1,0,0:0:0:0:
448,192,257981,1,0,0:0:0:0:
64,192,258056,1,0,0:0:0:0:
192,192,258131,1,0,0:0:0:0:
448,192,258131,1,0,0:0:0:0:
320,192,258206,1,0,0:0:0:0:
192,192,258281,1,0,0:0:0:0:
64,192,258281,1,0,0:0:0:0:
320,192,258356,1,0,0:0:0:0:
448,192,258431,1,0,0:0:0:0:
192,192,258506,1,0,0:0:0:0:
320,192,258581,1,0,0:0:0:0:
64,192,258656,1,0,0:0:0:0:
192,192,258731,1,0,0:0:0:0:
448,192,258731,1,0,0:0:0:0:
320,192,258806,1,0,0:0:0:0:
192,192,258881,1,0,0:0:0:0:
64,192,258881,1,0,0:0:0:0:
320,192,258956,1,0,0:0:0:0:
64,192,259031,1,0,0:0:0:0:
192,192,259106,1,0,0:0:0:0:
320,192,259181,1,0,0:0:0:0:
448,192,259181,1,0,0:0:0:0:
192,192,259256,1,0,0:0:0:0:
64,192,259331,1,0,0:0:0:0:
320,192,259331,1,0,0:0:0:0:
448,192,259406,1,0,0:0:0:0:
192,192,259481,1,0,0:0:0:0:
64,192,259481,1,0,0:0:0:0:
448,192,259556,1,0,0:0:0:0:
320,192,259631,1,0,0:0:0:0:
192,192,259706,1,0,0:0:0:0:
64,192,259781,1,0,0:0:0:0:
448,192,259781,1,0,0:0:0:0:
192,192,259856,1,0,0:0:0:0:
320,192,259856,1,0,0:0:0:0:
64,192,259931,1,0,0:0:0:0:
448,192,259931,1,0,0:0:0:0:
320,192,260006,1,0,0:0:0:0:
192,192,260081,1,0,0:0:0:0:
64,192,260081,1,0,0:0:0:0:
448,192,260156,1,0,0:0:0:0:
320,192,260231,1,0,0:0:0:0:
192,192,260306,1,0,0:0:0:0:
320,192,260381,1,0,0:0:0:0:
448,192,260381,1,0,0:0:0:0:
192,192,260456,1,0,0:0:0:0:
448,192,260531,1,0,0:0:0:0:
64,192,260531,1,0,0:0:0:0:
320,192,260606,1,0,0:0:0:0:
64,192,260681,1,0,0:0:0:0:
192,192,260681,1,0,0:0:0:0:
320,192,260756,1,0,0:0:0:0:
448,192,260831,1,0,0:0:0:0:
192,192,260906,1,0,0:0:0:0:
320,192,260981,1,0,0:0:0:0:
64,192,261056,1,0,0:0:0:0:
448,192,261131,1,0,0:0:0:0:
192,192,261131,1,0,0:0:0:0:
320,192,261206,1,0,0:0:0:0:
64,192,261281,1,0,0:0:0:0:
192,192,261281,1,0,0:0:0:0:
320,192,261356,1,0,0:0:0:0:
448,192,261431,1,0,0:0:0:0:
64,192,261506,1,0,0:0:0:0:
192,192,261581,1,0,0:0:0:0:
320,192,261581,1,0,0:0:0:0:
448,192,261656,1,0,0:0:0:0:
64,192,261731,1,0,0:0:0:0:
192,192,261731,1,0,0:0:0:0:
320,192,261806,1,0,0:0:0:0:
64,192,261881,1,0,0:0:0:0:
448,192,261881,1,0,0:0:0:0:
192,192,261956,1,0,0:0:0:0:
320,192,262031,1,0,0:0:0:0:
64,192,262106,1,0,0:0:0:0:
448,192,262181,1,0,0:0:0:0:
320,192,262256,1,0,0:0:0:0:
64,192,262331,1,0,0:0:0:0:
192,192,262331,1,0,0:0:0:0:
448,192,262406,1,0,0:0:0:0:
192,192,262481,1,0,0:0:0:0:
320,192,262481,1,0,0:0:0:0:
64,192,262556,1,0,0:0:0:0:
448,192,262631,1,0,0:0:0:0:
320,192,262706,1,0,0:0:0:0:
192,192,262781,1,0,0:0:0:0:
64,192,262781,1,0,0:0:0:0:
320,192,262856,1,0,0:0:0:0:
64,192,262931,1,0,0:0:0:0:
448,192,262931,1,0,0:0:0:0:
192,192,263006,1,0,0:0:0:0:
320,192,263081,1,0,0:0:0:0:
448,192,263081,1,0,0:0:0:0:
64,192,263156,1,0,0:0:0:0:
448,192,263231,1,0,0:0:0:0:
320,192,263306,1,0,0:0:0:0:
192,192,263381,1,0,0:0:0:0:
64,192,263456,1,0,0:0:0:0:
320,192,263531,1,0,0:0:0:0:
448,192,263531,1,0,0:0:0:0:
192,192,263606,1,0,0:0:0:0:
64,192,263681,1,0,0:0:0:0:
448,192,263681,1,0,0:0:0:0:
320,192,263756,1,0,0:0:0:0:
192,192,263831,1,0,0:0:0:0:
448,192,263906,1,0,0:0:0:0:
64,192,263981,1,0,0:0:0:0:
320,192,263981,1,0,0:0:0:0:
192,192,264056,1,0,0:0:0:0:
320,192,264131,1,0,0:0:0:0:
448,192,264131,1,0,0:0:0:0:
64,192,264206,1,0,0:0:0:0:
448,192,264281,1,0,0:0:0:0:
192,192,264281,1,0,0:0:0:0:
320,192,264356,1,0,0:0:0:0:
64,192,264431,1,0,0:0:0:0:
192,192,264506,1,0,0:0:0:0:
320,192,264581,1,0,0:0:0:0:
448,192,264656,1,0,0:0:0:0:
64,192,264731,1,0,0:0:0:0:
192,192,264731,1,0,0:0:0:0:
448,192,264806,1,0,0:0:0:0:
320,192,264806,1,0,0:0:0:0:
192,192,264881,1,0,0:0:0:0:
64,192,264881,1,0,0:0:0:0:
320,192,264956,1,0,0:0:0:0:
64,192,265031,1,0,0:0:0:0:
192,192,265106,1,0,0:0:0:0:
448,192,265181,1,0,0:0:0:0:
320,192,265181,1,0,0:0:0:0:
192,192,265256,1,0,0:0:0:0:
448,192,265331,1,0,0:0:0:0:
64,192,265331,1,0,0:0:0:0:
320,192,265406,1,0,0:0:0:0:
192,192,265481,1,0,0:0:0:0:
64,192,265481,1,0,0:0:0:0:
320,192,265556,1,0,0:0:0:0:
64,192,265631,1,0,0:0:0:0:
448,192,265631,1,0,0:0:0:0:
192,192,265706,1,0,0:0:0:0:
448,192,265781,1,0,0:0:0:0:
320,192,265781,1,0,0:0:0:0:
192,192,265856,1,0,0:0:0:0:
64,192,265931,1,0,0:0:0:0:
448,192,265931,1,0,0:0:0:0:
320,192,266006,1,0,0:0:0:0:
64,192,266081,1,0,0:0:0:0:
192,192,266081,1,0,0:0:0:0:
320,192,266156,1,0,0:0:0:0:
192,192,266231,1,0,0:0:0:0:
448,192,266231,1,0,0:0:0:0:
64,192,266306,1,0,0:0:0:0:
448,192,266381,1,0,0:0:0:0:
320,192,266381,1,0,0:0:0:0:
192,192,266456,1,0,0:0:0:0:
320,192,266531,1,0,0:0:0:0:
64,192,266531,1,0,0:0:0:0:
448,192,266606,1,0,0:0:0:0:
64,192,266681,1,0,0:0:0:0:
192,192,266681,1,0,0:0:0:0:
320,192,266756,1,0,0:0:0:0:
192,192,266831,1,0,0:0:0:0:
448,192,266831,1,0,0:0:0:0:
64,192,266906,1,0,0:0:0:0:
320,192,266981,1,0,0:0:0:0:
448,192,266981,1,0,0:0:0:0:
192,192,267056,1,0,0:0:0:0:
448,192,267131,1,0,0:0:0:0:
64,192,267131,1,0,0:0:0:0:
320,192,267206,1,0,0:0:0:0:
192,192,267281,1,0,0:0:0:0:
64,192,267281,1,0,0:0:0:0:
320,192,267356,1,0,0:0:0:0:
448,192,267431,1,0,0:0:0:0:
64,192,267431,1,0,0:0:0:0:
192,192,267506,1,0,0:0:0:0:
448,192,267581,5,0,0:0:0:0:
192,192,267656,1,0,0:0:0:0:
320,192,267731,1,0,0:0:0:0:
64,192,267806,1,0,0:0:0:0:
448,192,267881,1,0,0:0:0:0:
192,192,267956,1,0,0:0:0:0:
320,192,268031,1,0,0:0:0:0:
64,192,268106,1,0,0:0:0:0:
448,192,268181,1,0,0:0:0:0:
192,192,268256,1,0,0:0:0:0:
320,192,268331,1,0,0:0:0:0:
64,192,268406,1,0,0:0:0:0:
448,192,268481,1,0,0:0:0:0:
192,192,268556,1,0,0:0:0:0:
320,192,268631,1,0,0:0:0:0:
64,192,268706,1,0,0:0:0:0:
448,192,268781,1,0,0:0:0:0:
320,192,268856,1,0,0:0:0:0:
192,192,268931,1,0,0:0:0:0:
64,192,269006,1,0,0:0:0:0:
448,192,269081,1,0,0:0:0:0:
320,192,269131,1,0,0:0:0:0:
64,192,269181,1,0,0:0:0:0:
192,192,269231,1,0,0:0:0:0:
448,192,269281,1,0,0:0:0:0:
320,192,269331,1,0,0:0:0:0:
64,192,269381,1,0,0:0:0:0:
192,192,269418,1,0,0:0:0:0:
448,192,269456,1,0,0:0:0:0:
320,192,269493,1,0,0:0:0:0:
64,192,269531,1,0,0:0:0:0:
192,192,269568,1,0,0:0:0:0:
448,192,269606,1,0,0:0:0:0:
320,192,269643,1,0,0:0:0:0:
64,192,269681,1,0,0:0:0:0:
192,192,269718,1,0,0:0:0:0:
448,192,269756,1,0,0:0:0:0:
320,192,269793,1,0,0:0:0:0:
64,192,269831,1,0,0:0:0:0:
192,192,269868,1,0,0:0:0:0:
448,192,269906,1,0,0:0:0:0:
320,192,269943,1,0,0:0:0:0:
192,192,269981,1,0,0:0:0:0:
64,192,269981,1,0,0:0:0:0:
192,192,270131,128,0,270281:0:0:0:0:
448,192,270281,1,0,0:0:0:0:
320,192,270281,1,0,0:0:0:0:
64,192,270281,1,0,0:0:0:0:
448,192,270431,128,0,270581:0:0:0:0:
64,192,270581,1,0,0:0:0:0:
192,192,270581,1,0,0:0:0:0:
64,192,270731,128,0,270881:0:0:0:0:
448,192,270881,1,0,0:0:0:0:
320,192,270881,1,0,0:0:0:0:
192,192,270881,1,0,0:0:0:0:
320,192,271031,128,0,271181:0:0:0:0:
448,192,271181,1,0,0:0:0:0:
192,192,271181,1,0,0:0:0:0:
192,192,271331,128,0,271481:0:0:0:0:
448,192,271481,1,0,0:0:0:0:
320,192,271481,1,0,0:0:0:0:
64,192,271481,1,0,0:0:0:0:
448,192,271631,128,0,271781:0:0:0:0:
64,192,271781,1,0,0:0:0:0:
192,192,271781,1,0,0:0:0:0:
192,192,271931,128,0,272081:0:0:0:0:
64,192,272081,1,0,0:0:0:0:
448,192,272081,1,0,0:0:0:0:
320,192,272081,1,0,0:0:0:0:
320,192,272231,128,0,272381:0:0:0:0:
64,192,272381,1,0,0:0:0:0:
192,192,272381,1,0,0:0:0:0:
64,192,272531,128,0,272681:0:0:0:0:
448,192,272681,1,0,0:0:0:0:
320,192,272681,1,0,0:0:0:0:
192,192,272681,1,0,0:0:0:0:
448,192,272831,128,0,272981:0:0:0:0:
64,192,272981,1,0,0:0:0:0:
320,192,272981,1,0,0:0:0:0:
320,192,273131,128,0,273281:0:0:0:0:
448,192,273281,1,0,0:0:0:0:
64,192,273281,1,0,0:0:0:0:
192,192,273281,1,0,0:0:0:0:
192,192,273431,128,0,273581:0:0:0:0:
64,192,273581,1,0,0:0:0:0:
448,192,273581,1,0,0:0:0:0:
64,192,273731,128,0,273881:0:0:0:0:
192,192,273881,1,0,0:0:0:0:
448,192,273881,1,0,0:0:0:0:
320,192,273881,1,0,0:0:0:0:
320,192,274031,128,0,274181:0:0:0:0:
192,192,274181,1,0,0:0:0:0:
64,192,274181,1,0,0:0:0:0:
192,192,274331,128,0,274481:0:0:0:0:
64,192,274481,1,0,0:0:0:0:
448,192,274481,1,0,0:0:0:0:
320,192,274481,1,0,0:0:0:0:
192,192,274631,1,0,0:0:0:0:
448,192,274631,128,0,274781:0:0:0:0:
64,192,274781,1,0,0:0:0:0:
192,192,274781,1,0,0:0:0:0:
64,192,274931,128,0,275081:0:0:0:0:
192,192,275081,1,0,0:0:0:0:
448,192,275081,1,0,0:0:0:0:
320,192,275081,1,0,0:0:0:0:
320,192,275231,128,0,275381:0:0:0:0:
64,192,275381,1,0,0:0:0:0:
448,192,275381,1,0,0:0:0:0:
448,192,275531,128,0,275681:0:0:0:0:
64,192,275681,1,0,0:0:0:0:
192,192,275681,1,0,0:0:0:0:
320,192,275681,1,0,0:0:0:0:
192,192,275831,128,0,275981:0:0:0:0:
64,192,275981,1,0,0:0:0:0:
320,192,275981,1,0,0:0:0:0:
64,192,276131,128,0,276281:0:0:0:0:
448,192,276281,1,0,0:0:0:0:
320,192,276281,1,0,0:0:0:0:
192,192,276281,1,0,0:0:0:0:
320,192,276431,128,0,276581:0:0:0:0:
192,192,276581,1,0,0:0:0:0:
64,192,276581,1,0,0:0:0:0:
192,192,276731,128,0,276881:0:0:0:0:
64,192,276881,1,0,0:0:0:0:
448,192,276881,1,0,0:0:0:0:
320,192,276881,1,0,0:0:0:0:
448,192,277031,128,0,277181:0:0:0:0:
192,192,277181,1,0,0:0:0:0:
320,192,277181,1,0,0:0:0:0:
192,192,277331,128,0,277481:0:0:0:0:
448,192,277481,1,0,0:0:0:0:
320,192,277481,1,0,0:0:0:0:
64,192,277481,1,0,0:0:0:0:
64,192,277631,128,0,277781:0:0:0:0:
448,192,277781,1,0,0:0:0:0:
192,192,277781,1,0,0:0:0:0:
448,192,277931,128,0,278081:0:0:0:0:
64,192,278081,1,0,0:0:0:0:
192,192,278081,1,0,0:0:0:0:
320,192,278081,1,0,0:0:0:0:
320,192,278231,128,0,278381:0:0:0:0:
192,192,278381,1,0,0:0:0:0:
64,192,278381,1,0,0:0:0:0:
192,192,278531,128,0,278681:0:0:0:0:
64,192,278681,1,0,0:0:0:0:
448,192,278681,1,0,0:0:0:0:
64,192,278831,128,0,278981:0:0:0:0:
448,192,278981,1,0,0:0:0:0:
320,192,278981,1,0,0:0:0:0:
192,192,278981,1,0,0:0:0:0:
320,192,279131,128,0,279281:0:0:0:0:
64,192,279281,1,0,0:0:0:0:
192,192,279281,1,0,0:0:0:0:
448,192,279356,1,0,0:0:0:0:
320,192,279356,1,0,0:0:0:0:
192,192,279431,128,0,279581:0:0:0:0:
64,192,279431,1,0,0:0:0:0:
448,192,279581,1,0,0:0:0:0:
320,192,279581,1,0,0:0:0:0:
448,192,279731,128,0,279881:0:0:0:0:
64,192,279881,1,0,0:0:0:0:
192,192,279881,1,0,0:0:0:0:
320,192,279881,1,0,0:0:0:0:
192,192,280031,128,0,280181:0:0:0:0:
64,192,280181,1,0,0:0:0:0:
320,192,280181,1,0,0:0:0:0:
320,192,280331,128,0,280481:0:0:0:0:
64,192,280481,1,0,0:0:0:0:
192,192,280481,1,0,0:0:0:0:
448,192,280481,1,0,0:0:0:0:
64,192,280631,128,0,280781:0:0:0:0:
448,192,280781,1,0,0:0:0:0:
320,192,280781,1,0,0:0:0:0:
320,192,280931,128,0,281081:0:0:0:0:
448,192,281081,1,0,0:0:0:0:
64,192,281081,1,0,0:0:0:0:
192,192,281081,1,0,0:0:0:0:
192,192,281231,128,0,281381:0:0:0:0:
448,192,281381,1,0,0:0:0:0:
320,192,281381,1,0,0:0:0:0:
448,192,281531,128,0,281681:0:0:0:0:
64,192,281681,1,0,0:0:0:0:
192,192,281681,1,0,0:0:0:0:
320,192,281681,1,0,0:0:0:0:
64,192,281831,128,0,281981:0:0:0:0:
448,192,281981,1,0,0:0:0:0:
192,192,281981,1,0,0:0:0:0:
192,192,282131,128,0,282281:0:0:0:0:
64,192,282281,1,0,0:0:0:0:
448,192,282281,1,0,0:0:0:0:
320,192,282281,1,0,0:0:0:0:
320,192,282431,128,0,282581:0:0:0:0:
448,192,282581,1,0,0:0:0:0:
64,192,282581,1,0,0:0:0:0:
448,192,282731,128,0,282881:0:0:0:0:
320,192,282881,1,0,0:0:0:0:
64,192,282881,1,0,0:0:0:0:
192,192,282881,1,0,0:0:0:0:
192,192,283031,128,0,283181:0:0:0:0:
320,192,283181,1,0,0:0:0:0:
448,192,283181,1,0,0:0:0:0:
320,192,283331,128,0,283481:0:0:0:0:
448,192,283481,1,0,0:0:0:0:
64,192,283481,1,0,0:0:0:0:
192,192,283481,1,0,0:0:0:0:
64,192,283631,128,0,283781:0:0:0:0:
448,192,283781,1,0,0:0:0:0:
320,192,283781,1,0,0:0:0:0:
448,192,283931,128,0,284081:0:0:0:0:
320,192,284081,1,0,0:0:0:0:
64,192,284081,1,0,0:0:0:0:
192,192,284081,1,0,0:0:0:0:
448,192,284231,1,0,0:0:0:0:
192,192,284231,128,0,284381:0:0:0:0:
448,192,284381,1,0,0:0:0:0:
64,192,284381,1,0,0:0:0:0:
64,192,284531,128,0,284681:0:0:0:0:
192,192,284681,1,0,0:0:0:0:
448,192,284681,1,0,0:0:0:0:
320,192,284681,1,0,0:0:0:0:
320,192,284831,128,0,284981:0:0:0:0:
64,192,284981,1,0,0:0:0:0:
448,192,284981,1,0,0:0:0:0:
448,192,285131,128,0,285281:0:0:0:0:
64,192,285281,1,0,0:0:0:0:
192,192,285281,1,0,0:0:0:0:
320,192,285281,1,0,0:0:0:0:
192,192,285431,128,0,285581:0:0:0:0:
64,192,285581,1,0,0:0:0:0:
320,192,285581,1,0,0:0:0:0:
64,192,285731,128,0,285881:0:0:0:0:
448,192,285881,1,0,0:0:0:0:
320,192,285881,1,0,0:0:0:0:
192,192,285881,1,0,0:0:0:0:
320,192,286031,128,0,286181:0:0:0:0:
192,192,286181,1,0,0:0:0:0:
64,192,286181,1,0,0:0:0:0:
192,192,286331,128,0,286481:0:0:0:0:
64,192,286481,1,0,0:0:0:0:
448,192,286481,1,0,0:0:0:0:
320,192,286481,1,0,0:0:0:0:
448,192,286631,128,0,286781:0:0:0:0:
192,192,286781,1,0,0:0:0:0:
320,192,286781,1,0,0:0:0:0:
64,192,286781,128,0,287081:0:0:0:0:
448,192,287081,1,0,0:0:0:0:
320,192,287081,1,0,0:0:0:0:
192,192,287231,128,0,287531:0:0:0:0:
448,192,287231,1,0,0:0:0:0:
64,192,287231,1,0,0:0:0:0:
64,192,287531,1,0,0:0:0:0:
320,192,287531,1,0,0:0:0:0:
448,192,287681,128,0,287981:0:0:0:0:
320,192,287681,1,0,0:0:0:0:
192,192,287681,1,0,0:0:0:0:
64,192,287981,1,0,0:0:0:0:
192,192,287981,1,0,0:0:0:0:
320,192,288056,1,0,0:0:0:0:
192,192,288131,1,0,0:0:0:0:
448,192,288206,1,0,0:0:0:0:
320,192,288206,1,0,0:0:0:0:
192,192,288281,1,0,0:0:0:0:
64,192,288281,1,0,0:0:0:0:
448,192,288356,1,0,0:0:0:0:
64,192,288431,1,0,0:0:0:0:
448,192,288506,1,0,0:0:0:0:
320,192,288506,1,0,0:0:0:0:
192,192,288581,1,0,0:0:0:0:
64,192,288581,1,0,0:0:0:0:
320,192,288656,1,0,0:0:0:0:
448,192,288656,1,0,0:0:0:0:
192,192,288731,1,0,0:0:0:0:
64,192,288731,1,0,0:0:0:0:
320,192,288806,1,0,0:0:0:0:
64,192,288881,1,0,0:0:0:0:
192,192,288918,1,0,0:0:0:0:
448,192,288956,1,0,0:0:0:0:
320,192,288993,1,0,0:0:0:0:
64,192,289031,1,0,0:0:0:0:
192,192,289068,1,0,0:0:0:0:
448,192,289106,1,0,0:0:0:0:
320,192,289143,1,0,0:0:0:0:
192,192,289181,1,0,0:0:0:0:
64,192,289181,1,0,0:0:0:0:
448,192,289256,1,0,0:0:0:0:
320,192,289331,1,0,0:0:0:0:
192,192,289406,1,0,0:0:0:0:
64,192,289481,1,0,0:0:0:0:
320,192,289481,1,0,0:0:0:0:
448,192,289481,1,0,0:0:0:0:
192,192,289631,1,0,0:0:0:0:
320,192,289706,1,0,0:0:0:0:
64,192,289781,1,0,0:0:0:0:
448,192,289781,1,0,0:0:0:0:
192,192,289856,1,0,0:0:0:0:
320,192,289931,1,0,0:0:0:0:
448,192,290081,1,0,0:0:0:0:
64,192,290081,1,0,0:0:0:0:
192,192,290081,1,0,0:0:0:0:
320,192,290231,1,0,0:0:0:0:
192,192,290306,1,0,0:0:0:0:
64,192,290381,1,0,0:0:0:0:
448,192,290381,1,0,0:0:0:0:
320,192,290456,1,0,0:0:0:0:
192,192,290531,1,0,0:0:0:0:
320,192,290681,1,0,0:0:0:0:
64,192,290681,1,0,0:0:0:0:
448,192,290681,1,0,0:0:0:0:
64,192,290831,1,0,0:0:0:0:
192,192,290906,1,0,0:0:0:0:
448,192,290981,1,0,0:0:0:0:
320,192,290981,1,0,0:0:0:0:
192,192,291131,1,0,0:0:0:0:
448,192,291206,1,0,0:0:0:0:
320,192,291281,1,0,0:0:0:0:
64,192,291281,1,0,0:0:0:0:
192,192,291281,1,0,0:0:0:0:
448,192,291431,128,0,291581:0:0:0:0:
192,192,291581,1,0,0:0:0:0:
64,192,291581,1,0,0:0:0:0:
320,192,291656,1,0,0:0:0:0:
448,192,291731,1,0,0:0:0:0:
192,192,291806,1,0,0:0:0:0:
320,192,291881,1,0,0:0:0:0:
448,192,291881,1,0,0:0:0:0:
64,192,291881,1,0,0:0:0:0:
192,192,291956,1,0,0:0:0:0:
320,192,292031,128,0,292181:0:0:0:0:
192,192,292181,1,0,0:0:0:0:
64,192,292181,1,0,0:0:0:0:
448,192,292281,1,0,0:0:0:0:
320,192,292368,1,0,0:0:0:0:
64,192,292406,1,0,0:0:0:0:
192,192,292443,1,0,0:0:0:0:
448,192,292481,1,0,0:0:0:0:
320,192,292481,1,0,0:0:0:0:
64,192,292556,1,0,0:0:0:0:
192,192,292631,1,0,0:0:0:0:
320,192,292706,1,0,0:0:0:0:
448,192,292781,1,0,0:0:0:0:
64,192,292781,1,0,0:0:0:0:
64,192,292931,128,0,293081:0:0:0:0:
192,192,293081,1,0,0:0:0:0:
320,192,293081,1,0,0:0:0:0:
448,192,293081,1,0,0:0:0:0:
320,192,293231,128,0,293981:0:0:0:0:
192,192,293381,1,0,0:0:0:0:
448,192,293381,1,0,0:0:0:0:
448,192,293531,1,0,0:0:0:0:
64,192,293681,1,0,0:0:0:0:
192,192,293681,1,0,0:0:0:0:
448,192,293831,1,0,0:0:0:0:
64,192,293831,1,0,0:0:0:0:
192,192,293981,1,0,0:0:0:0:
448,192,293981,1,0,0:0:0:0:
192,192,294131,128,0,294281:0:0:0:0:
320,192,294281,1,0,0:0:0:0:
448,192,294281,1,0,0:0:0:0:
64,192,294281,1,0,0:0:0:0:
64,192,294431,128,0,294581:0:0:0:0:
192,192,294581,1,0,0:0:0:0:
448,192,294581,1,0,0:0:0:0:
320,192,294731,1,0,0:0:0:0:
192,192,294806,1,0,0:0:0:0:
320,192,294881,1,0,0:0:0:0:
64,192,294881,1,0,0:0:0:0:
448,192,294881,1,0,0:0:0:0:
448,192,295031,128,0,295181:0:0:0:0:
64,192,295181,1,0,0:0:0:0:
192,192,295181,1,0,0:0:0:0:
192,192,295331,128,0,295481:0:0:0:0:
320,192,295481,1,0,0:0:0:0:
448,192,295481,1,0,0:0:0:0:
64,192,295481,1,0,0:0:0:0:
448,192,295631,1,0,0:0:0:0:
320,192,295706,1,0,0:0:0:0:
192,192,295781,1,0,0:0:0:0:
64,192,295781,1,0,0:0:0:0:
320,192,295931,1,0,0:0:0:0:
192,192,296006,1,0,0:0:0:0:
320,192,296081,1,0,0:0:0:0:
448,192,296081,1,0,0:0:0:0:
64,192,296081,1,0,0:0:0:0:
320,192,296231,128,0,296381:0:0:0:0:
64,192,296381,1,0,0:0:0:0:
192,192,296381,1,0,0:0:0:0:
64,192,296531,128,0,296681:0:0:0:0:
448,192,296681,1,0,0:0:0:0:
320,192,296681,1,0,0:0:0:0:
192,192,296681,1,0,0:0:0:0:
448,192,296831,128,0,296981:0:0:0:0:
192,192,296981,1,0,0:0:0:0:
64,192,296981,1,0,0:0:0:0:
320,192,297056,1,0,0:0:0:0:
64,192,297131,1,0,0:0:0:0:
192,192,297206,1,0,0:0:0:0:
320,192,297281,1,0,0:0:0:0:
448,192,297281,1,0,0:0:0:0:
64,192,297281,1,0,0:0:0:0:
192,192,297356,1,0,0:0:0:0:
448,192,297431,1,0,0:0:0:0:
320,192,297506,1,0,0:0:0:0:
192,192,297581,1,0,0:0:0:0:
64,192,297581,128,0,298481:0:0:0:0:
320,192,297731,1,0,0:0:0:0:
448,192,297881,1,0,0:0:0:0:
192,192,297881,1,0,0:0:0:0:
448,192,298031,1,0,0:0:0:0:
320,192,298181,1,0,0:0:0:0:
192,192,298181,1,0,0:0:0:0:
192,192,298331,1,0,0:0:0:0:
320,192,298481,1,0,0:0:0:0:
448,192,298481,1,0,0:0:0:0:
192,192,298556,1,0,0:0:0:0:
64,192,298556,1,0,0:0:0:0:
320,192,298631,1,0,0:0:0:0:
448,192,298631,1,0,0:0:0:0:
192,192,298781,1,0,0:0:0:0:
64,192,298781,1,0,0:0:0:0:
320,192,298856,1,0,0:0:0:0:
448,192,298931,1,0,0:0:0:0:
192,192,299006,1,0,0:0:0:0:
320,192,299081,1,0,0:0:0:0:
448,192,299081,1,0,0:0:0:0:
64,192,299081,1,0,0:0:0:0:
320,192,299231,1,0,0:0:0:0:
192,192,299306,1,0,0:0:0:0:
64,192,299381,1,0,0:0:0:0:
448,192,299381,1,0,0:0:0:0:
320,192,299456,1,0,0:0:0:0:
192,192,299531,1,0,0:0:0:0:
320,192,299681,1,0,0:0:0:0:
448,192,299681,1,0,0:0:0:0:
64,192,299681,1,0,0:0:0:0:
192,192,299831,1,0,0:0:0:0:
448,192,299906,1,0,0:0:0:0:
64,192,299981,1,0,0:0:0:0:
320,192,299981,1,0,0:0:0:0:
448,192,300056,1,0,0:0:0:0:
192,192,300131,1,0,0:0:0:0:
320,192,300206,1,0,0:0:0:0:
192,192,300281,1,0,0:0:0:0:
448,192,300281,1,0,0:0:0:0:
64,192,300281,1,0,0:0:0:0:
64,192,300431,1,0,0:0:0:0:
192,192,300506,1,0,0:0:0:0:
320,192,300581,1,0,0:0:0:0:
448,192,300581,1,0,0:0:0:0:
192,192,300731,1,0,0:0:0:0:
448,192,300806,1,0,0:0:0:0:
320,192,300881,1,0,0:0:0:0:
192,192,300881,1,0,0:0:0:0:
64,192,300881,1,0,0:0:0:0:
64,192,301031,128,0,301181:0:0:0:0:
320,192,301181,1,0,0:0:0:0:
448,192,301181,1,0,0:0:0:0:
192,192,301256,1,0,0:0:0:0:
64,192,301331,1,0,0:0:0:0:
320,192,301406,1,0,0:0:0:0:
192,192,301481,1,0,0:0:0:0:
64,192,301481,1,0,0:0:0:0:
448,192,301481,1,0,0:0:0:0:
320,192,301556,1,0,0:0:0:0:
192,192,301631,128,0,301781:0:0:0:0:
64,192,301781,1,0,0:0:0:0:
448,192,301781,1,0,0:0:0:0:
320,192,301856,1,0,0:0:0:0:
64,192,301931,1,0,0:0:0:0:
192,192,301968,1,0,0:0:0:0:
448,192,302006,1,0,0:0:0:0:
320,192,302043,1,0,0:0:0:0:
192,192,302081,1,0,0:0:0:0:
64,192,302081,1,0,0:0:0:0:
448,192,302156,1,0,0:0:0:0:
320,192,302231,1,0,0:0:0:0:
192,192,302306,1,0,0:0:0:0:
64,192,302381,1,0,0:0:0:0:
448,192,302381,1,0,0:0:0:0:
448,192,302531,128,0,302681:0:0:0:0:
320,192,302681,1,0,0:0:0:0:
192,192,302681,1,0,0:0:0:0:
64,192,302681,1,0,0:0:0:0:
192,192,302831,128,0,303581:0:0:0:0:
320,192,302981,1,0,0:0:0:0:
64,192,302981,1,0,0:0:0:0:
64,192,303131,1,0,0:0:0:0:
448,192,303281,1,0,0:0:0:0:
320,192,303281,1,0,0:0:0:0:
64,192,303431,1,0,0:0:0:0:
448,192,303431,1,0,0:0:0:0:
320,192,303581,1,0,0:0:0:0:
64,192,303581,1,0,0:0:0:0:
448,192,303656,1,0,0:0:0:0:
192,192,303731,1,0,0:0:0:0:
64,192,303731,1,0,0:0:0:0:
320,192,303806,1,0,0:0:0:0:
448,192,303881,1,0,0:0:0:0:
192,192,303881,1,0,0:0:0:0:
64,192,303956,1,0,0:0:0:0:
320,192,304031,1,0,0:0:0:0:
192,192,304106,1,0,0:0:0:0:
448,192,304181,1,0,0:0:0:0:
320,192,304256,1,0,0:0:0:0:
192,192,304331,1,0,0:0:0:0:
64,192,304331,1,0,0:0:0:0:
320,192,304406,1,0,0:0:0:0:
448,192,304481,1,0,0:0:0:0:
64,192,304481,1,0,0:0:0:0:
192,192,304556,1,0,0:0:0:0:
320,192,304631,1,0,0:0:0:0:
448,192,304706,1,0,0:0:0:0:
192,192,304781,1,0,0:0:0:0:
64,192,304781,1,0,0:0:0:0:
448,192,304856,1,0,0:0:0:0:
320,192,304931,1,0,0:0:0:0:
64,192,304931,1,0,0:0:0:0:
192,192,305006,1,0,0:0:0:0:
320,192,305081,1,0,0:0:0:0:
448,192,305081,1,0,0:0:0:0:
192,192,305156,1,0,0:0:0:0:
64,192,305231,1,0,0:0:0:0:
448,192,305306,1,0,0:0:0:0:
320,192,305381,1,0,0:0:0:0:
192,192,305456,1,0,0:0:0:0:
64,192,305531,1,0,0:0:0:0:
448,192,305531,1,0,0:0:0:0:
320,192,305606,1,0,0:0:0:0:
192,192,305681,1,0,0:0:0:0:
64,192,305681,1,0,0:0:0:0:
320,192,305756,1,0,0:0:0:0:
448,192,305831,1,0,0:0:0:0:
192,192,305906,1,0,0:0:0:0:
448,192,305981,128,0,306281:0:0:0:0:
320,192,305981,1,0,0:0:0:0:
64,192,305981,1,0,0:0:0:0:
64,192,306281,1,0,0:0:0:0:
192,192,306281,1,0,0:0:0:0:
320,192,306431,128,0,306731:0:0:0:0:
64,192,306431,1,0,0:0:0:0:
448,192,306431,1,0,0:0:0:0:
448,192,306731,1,0,0:0:0:0:
192,192,306731,1,0,0:0:0:0:
64,192,306881,128,0,307181:0:0:0:0:
192,192,306881,1,0,0:0:0:0:
320,192,306881,1,0,0:0:0:0:
320,192,307181,1,0,0:0:0:0:
448,192,307181,1,0,0:0:0:0:
192,192,307256,1,0,0:0:0:0:
320,192,307331,1,0,0:0:0:0:
192,192,307406,1,0,0:0:0:0:
64,192,307406,1,0,0:0:0:0:
448,192,307481,1,0,0:0:0:0:
320,192,307481,1,0,0:0:0:0:
64,192,307556,1,0,0:0:0:0:
448,192,307631,1,0,0:0:0:0:
192,192,307706,1,0,0:0:0:0:
64,192,307706,1,0,0:0:0:0:
320,192,307781,1,0,0:0:0:0:
448,192,307781,1,0,0:0:0:0:
64,192,307856,1,0,0:0:0:0:
192,192,307856,1,0,0:0:0:0:
448,192,307931,1,0,0:0:0:0:
320,192,307931,1,0,0:0:0:0:
192,192,308006,1,0,0:0:0:0:
448,192,308081,1,0,0:0:0:0:
320,192,308118,1,0,0:0:0:0:
64,192,308156,1,0,0:0:0:0:
192,192,308193,1,0,0:0:0:0:
448,192,308231,1,0,0:0:0:0:
320,192,308268,1,0,0:0:0:0:
64,192,308306,1,0,0:0:0:0:
192,192,308343,1,0,0:0:0:0:
320,192,308381,1,0,0:0:0:0:
448,192,308381,1,0,0:0:0:0:
