osu file format v14

[General]
AudioFilename: audio.mp3
AudioLeadIn: 0
PreviewTime:160711
Countdown: 0
SampleSet: Soft
StackLeniency: 0.4
Mode: 0
LetterboxInBreaks: 0
WidescreenStoryboard: 1

[Editor]
DistanceSpacing: 0.4
BeatDivisor: 8
GridSize: 32
TimelineZoom: 1.7

[Metadata]
Title:WWW
TitleUnicode:WWW
Artist:HIMEHINA
ArtistUnicode:HIMEHINA
Creator:SMOKELIND
Version:gazimal's x
Source:
Tags:Moonlight Seeker Japanese Electronic Pop Virtual Youtuber Virtual Singer VTuber VSinger 田中ヒメ Tanaka Hime 鈴木ヒナ Suzuki Hina -ex- -_ex_- - ex - Maot My Angel Jeremy gazimal
BeatmapID:4178950
BeatmapSetID:2003700

[Difficulty]
HPDrainRate:5
CircleSize:4
OverallDifficulty:8.8
ApproachRate:9.4
SliderMultiplier:2.07
SliderTickRate:1

[Events]
//Background and Video events
Video,50,"vid.mp4"
0,0,"BG.jpg",0,0
//Break Periods
2,127315,139726
//Storyboard Layer 0 (Background)
//Storyboard Layer 1 (Fail)
//Storyboard Layer 2 (Pass)
//Storyboard Layer 3 (Foreground)
//Storyboard Layer 4 (Overlay)
//Storyboard Sound Samples

[TimingPoints]
540,410.958904109589,4,2,77,77,1,0
540,-66.6666666666667,4,2,77,77,0,0
745,-66.6666666666667,4,2,77,47,0,0
848,-66.6666666666667,4,2,77,5,0,0
950,-500,4,2,77,47,0,0
3622,-100,4,2,77,77,0,0
3827,-66.6666666666667,4,2,77,77,0,0
4855,-66.6666666666667,4,2,77,47,0,0
5060,-500,4,2,77,47,0,0
7115,-66.6666666666667,4,2,77,77,0,0
7526,-66.6666666666667,4,2,77,57,0,0
7731,-200,4,2,77,57,0,0
8759,-100,4,2,77,77,0,0
9170,-100,4,2,77,57,0,0
9375,-200,4,2,77,57,0,0
10197,-100,4,2,77,77,0,0
10403,-66.6666666666667,4,2,77,77,0,0
11019,-50,4,2,77,77,0,0
11224,-100,4,2,77,77,0,0
11635,-66.6666666666667,4,2,77,77,0,0
12868,-100,4,2,77,77,0,0
13690,-100,4,2,77,47,0,0
14923,-100,4,2,77,77,0,0
15334,-55.5555555555556,4,2,77,67,0,0
15642,-66.6666666666667,4,2,77,67,0,0
15745,-100,4,2,77,67,0,0
16361,-133.333333333333,4,2,77,67,0,0
16978,-100,4,2,77,67,0,0
18622,-66.6666666666667,4,2,77,67,0,0
18930,-66.6666666666667,4,2,77,67,0,0
19033,-100,4,2,77,67,0,0
20214,-66.6666666666667,4,2,77,5,0,0
20266,-83.3333333333333,4,2,77,67,0,0
21293,-100,4,2,77,67,0,0
21498,-125,4,2,77,67,0,0
21704,-166.666666666667,4,2,77,67,0,0
21909,-66.6666666666667,4,2,77,67,0,0
22320,-100,4,2,77,67,0,0
22526,-200,4,2,77,67,0,0
22937,-66.6666666666667,4,2,77,67,0,0
23553,-100,4,2,77,67,0,0
25094,-66.6666666666667,4,2,77,67,0,0
25197,-66.6666666666667,4,2,77,67,0,0
25505,-66.6666666666667,4,2,77,67,0,0
25608,-100,4,2,77,67,0,0
26841,-100,4,2,77,47,0,0
28485,-35.7142857142857,4,2,77,67,0,0
28793,-66.6666666666667,4,2,77,67,0,0
28896,-200,4,2,77,67,0,0
29307,-66.6666666666667,4,2,77,67,0,0
29461,-66.6666666666667,4,2,77,5,0,0
29512,-66.6666666666667,4,2,77,67,0,0
29923,-100,4,2,77,67,0,0
30745,-83.3333333333333,4,2,77,67,0,0
31156,-133.333333333333,4,2,77,67,0,0
31772,-55.5555555555556,4,2,77,67,0,0
32081,-66.6666666666667,4,2,77,67,0,0
32183,-133.333333333333,4,2,77,67,0,0
32594,-66.6666666666667,4,2,77,67,0,0
32748,-66.6666666666667,4,2,77,5,0,0
32800,-100,4,2,77,67,0,0
33005,-66.6666666666667,4,2,77,67,0,0
33159,-66.6666666666667,4,2,77,5,0,0
33211,-100,4,2,77,67,0,0
33622,-133.333333333333,4,2,77,67,0,0
34238,-62.5,4,2,77,67,0,0
34444,-71.4285714285714,4,2,77,67,0,0
34649,-83.3333333333333,4,2,77,67,0,0
34855,-100,4,2,77,67,0,0
35060,-50,4,2,77,67,0,0
35471,-100,4,2,77,67,0,0
35676,-200,4,2,77,67,0,0
36087,-66.6666666666667,4,2,77,67,0,0
36704,-100,4,2,77,67,0,0
38348,-58.8235294117647,4,2,77,67,0,0
38656,-66.6666666666667,4,2,77,67,0,0
38759,-100,4,2,77,67,0,0
38964,-200,4,2,77,67,0,0
39170,-100,4,2,77,67,0,0
39786,-100,4,2,77,47,0,0
41533,-66.6666666666667,4,2,77,5,0,0
41635,-133.333333333333,4,2,77,47,0,0
43536,-66.6666666666667,4,2,77,5,0,0
43690,-133.333333333333,4,2,77,47,0,0
43742,-66.6666666666667,4,2,77,5,0,0
43896,-133.333333333333,4,2,77,47,0,0
44923,-100,4,2,77,47,0,0
45745,-133.333333333333,4,2,77,47,0,0
47389,-200,4,2,77,47,0,0
48211,-66.6666666666667,4,2,77,57,0,0
48622,-133.333333333333,4,2,77,57,0,0
49033,-100,4,2,77,57,0,0
49341,-133.333333333333,4,2,77,57,0,0
50676,-100,4,2,77,57,0,0
52320,-76.9230769230769,4,2,77,57,0,0
52731,-100,4,2,77,57,0,0
58074,-133.333333333333,4,2,77,67,0,0
58279,-80,4,2,77,67,0,0
58485,-100,4,2,77,67,0,0
58690,-66.6666666666667,4,2,77,67,0,0
59718,-66.6666666666667,4,2,77,47,0,0
60950,-500,4,2,77,47,0,0
61259,-66.6666666666667,4,2,77,5,0,0
61361,-40,4,2,77,87,0,1
61670,-40,4,2,77,87,0,1
61772,-66.6666666666667,4,2,77,87,0,1
62183,-55.5555555555556,4,2,77,87,0,1
62594,-100,4,2,77,87,0,1
62800,-58.8235294117647,4,2,77,87,0,1
62954,-40,4,2,77,87,0,1
63005,-100,4,2,77,87,0,1
63416,-55.5555555555556,4,2,77,87,0,1
64135,-40,4,2,77,87,0,1
64238,-100,4,2,77,87,0,1
64649,-333.333333333333,4,2,77,87,0,1
64957,-40,4,2,77,87,0,1
65060,-55.5555555555556,4,2,77,87,0,1
65214,-40,4,2,77,87,0,1
65266,-100,4,2,77,87,0,1
65471,-66.6666666666667,4,2,77,87,0,1
66087,-50,4,2,77,87,0,1
66498,-100,4,2,77,87,0,1
66704,-66.6666666666667,4,2,77,87,0,1
66909,-50,4,2,77,87,0,1
67937,-50,4,2,77,87,0,1
68142,-100,4,2,77,87,0,1
68553,-50,4,2,77,87,0,1
68964,-100,4,2,77,87,0,1
69375,-50,4,2,77,87,0,1
69786,-100,4,2,77,87,0,1
70403,-55.5555555555556,4,2,77,87,0,1
70557,-40,4,2,77,5,0,1
70608,-100,4,2,77,87,0,1
70813,-66.6666666666667,4,2,77,87,0,1
70968,-40,4,2,77,5,0,1
71019,-133.333333333333,4,2,77,87,0,1
71224,-50,4,2,77,87,0,1
71841,-66.6666666666667,4,2,77,87,0,1
72252,-66.6666666666667,4,2,77,87,0,1
72663,-52.6315789473684,4,2,77,87,0,1
73074,-100,4,2,77,87,0,1
74512,-133.333333333333,4,2,77,87,0,1
74923,-35.7142857142857,4,2,77,87,0,1
75283,-40,4,2,77,5,0,1
75334,-40,4,2,77,87,0,1
75642,-100,4,2,77,87,0,1
75950,-55.5555555555556,4,2,77,87,0,1
76105,-40,4,2,77,87,0,1
76156,-100,4,2,77,87,0,1
76567,-55.5555555555556,4,2,77,87,0,1
77286,-40,4,2,77,87,0,1
77389,-100,4,2,77,87,0,1
77800,-333.333333333333,4,2,77,87,0,1
78108,-40,4,2,77,87,0,1
78211,-55.5555555555556,4,2,77,87,0,1
78365,-40,4,2,77,5,0,1
78416,-100,4,2,77,87,0,1
78622,-66.6666666666667,4,2,77,87,0,1
79238,-50,4,2,77,87,0,1
79649,-100,4,2,77,87,0,1
79855,-83.3333333333333,4,2,77,87,0,1
83553,-66.6666666666667,4,2,77,87,0,1
83861,-40,4,2,77,5,0,1
83964,-100,4,2,77,87,0,1
84375,-100,4,2,77,77,0,1
86019,-100,4,2,77,57,0,0
87252,-500,4,2,77,57,0,1
87560,-40,4,2,77,5,0,1
87663,-40,4,2,77,67,0,0
88074,-40,4,2,77,37,0,0
88485,-40,4,2,77,67,0,0
88793,-40,4,2,77,67,0,0
88896,-133.333333333333,4,2,77,67,0,0
89307,-62.5,4,2,77,67,0,0
89615,-40,4,2,77,67,0,0
89718,-100,4,2,77,67,0,0
90129,-66.6666666666667,4,2,77,67,0,0
90437,-40,4,2,77,67,0,0
90540,-40,4,2,77,67,0,0
90848,-40,4,2,77,5,0,0
90950,-40,4,2,77,67,0,0
91259,-40,4,2,77,67,0,0
91361,-153.846153846153,4,2,77,67,0,0
91670,-40,4,2,77,67,0,0
91772,-153.846153846153,4,2,77,67,0,0
91978,-37.037037037037,4,2,77,67,0,0
92132,-40,4,2,77,5,0,0
92183,-83.3333333333333,4,2,77,67,0,0
92594,-333.333333333333,4,2,77,67,0,0
93827,-37.037037037037,4,2,77,67,0,0
94135,-40,4,2,77,5,0,0
94238,-40,4,2,77,67,0,0
95060,-66.6666666666667,4,2,77,67,0,0
95368,-40,4,2,77,67,0,0
95471,-50,4,2,77,67,0,0
95779,-40,4,2,77,67,0,0
95882,-66.6666666666667,4,2,77,67,0,0
96190,-40,4,2,77,67,0,0
96293,-153.846153846153,4,2,77,67,0,0
96601,-40,4,2,77,67,0,0
96704,-153.846153846153,4,2,77,67,0,0
97115,-40,4,2,77,67,0,0
97423,-40,4,2,77,5,0,0
97526,-37.037037037037,4,2,77,67,0,0
97885,-40,4,2,77,5,0,0
97937,-500,4,2,77,67,0,0
98245,-40,4,2,77,67,0,0
98348,-133.333333333333,4,2,77,67,0,0
98553,-37.037037037037,4,2,77,67,0,0
98707,-40,4,2,77,5,0,0
98758,-83.3333333333333,4,2,77,67,0,0
99581,-133.333333333333,4,2,77,67,0,0
100762,-40,4,2,77,5,0,0
100813,-55.5555555555556,4,2,77,67,0,0
101122,-40,4,2,77,67,0,0
101224,-100,4,2,77,67,0,0
101841,-133.333333333333,4,2,77,67,0,0
102457,-66.6666666666667,4,2,77,67,0,0
102766,-40,4,2,77,67,0,0
102868,-66.6666666666667,4,2,77,67,0,0
103176,-40,4,2,77,67,0,0
103279,-66.6666666666667,4,2,77,67,0,0
103485,-83.3333333333333,4,2,77,67,0,0
104101,-55.5555555555556,4,2,77,67,0,0
104409,-40,4,2,77,67,0,0
104512,-83.3333333333333,4,2,77,67,0,0
104923,-100,4,2,77,67,0,0
106567,-62.5,4,2,77,67,0,0
106772,-71.4285714285714,4,2,77,67,0,0
106978,-83.3333333333333,4,2,77,67,0,0
107183,-100,4,2,77,67,0,0
107389,-50,4,2,77,67,0,0
107800,-100,4,2,77,67,0,0
109033,-66.6666666666667,4,2,77,67,0,0
110266,-133.333333333333,4,2,77,67,0,0
113553,-83.3333333333333,4,2,77,67,0,0
113861,-40,4,2,77,5,0,0
113964,-37.037037037037,4,2,77,67,0,0
114016,-40,4,2,77,5,0,0
114170,-40,4,2,77,47,0,0
114375,-100,4,2,77,47,0,0
114581,-37.037037037037,4,2,77,47,0,0
114735,-40,4,2,77,5,0,0
114786,-100,4,2,77,47,0,0
115403,-33.3333333333333,4,2,77,47,0,0
115557,-40,4,2,77,5,0,0
115608,-100,4,2,77,47,0,0
116224,-33.3333333333333,4,2,77,47,0,0
116379,-40,4,2,77,5,0,0
116430,-100,4,2,77,47,0,0
117046,-200,4,2,77,47,0,0
117252,-200,4,2,77,67,0,0
118074,-66.6666666666667,4,2,77,67,0,0
120026,-52.6315789473684,4,2,77,67,0,0
120694,-40,4,2,77,5,0,0
120745,-100,4,2,77,67,0,0
124033,-40,4,2,77,5,0,0
124135,-100,4,2,77,67,0,0
124341,-40,4,2,77,5,0,0
124444,-100,4,2,77,67,0,0
124957,-40,4,2,77,5,0,0
125060,-100,4,2,77,67,0,0
125676,-40,4,2,77,5,0,0
125779,-100,4,2,77,67,0,0
125985,-40,4,2,77,5,0,0
126087,-100,4,2,77,67,0,0
126704,-200,4,2,77,67,0,0
127115,-200,4,2,77,47,0,0
140266,-133.333333333333,4,2,77,47,0,0
141396,-40,4,2,77,47,0,0
141498,-133.333333333333,4,2,77,47,0,0
142320,-76.9230769230769,4,2,77,47,0,0
143142,-100,4,2,77,47,0,0
144992,-133.333333333333,4,2,77,47,0,0
146841,-100,4,2,77,47,0,0
148279,-76.9230769230769,4,2,77,47,0,0
148433,-40,4,2,77,5,0,0
148485,-100,4,2,77,47,0,0
148690,-76.9230769230769,4,2,77,47,0,0
148998,-100,4,2,77,47,0,0
149512,-76.9230769230769,4,2,77,47,0,0
150129,-100,4,2,77,57,0,0
150950,-83.3333333333333,4,2,77,57,0,0
153416,-100,4,2,77,37,0,0
154033,-500,4,2,77,37,0,0
155882,-200,4,2,77,37,0,0
156704,-500,4,2,77,37,0,0
159375,-200,4,2,77,37,0,0
159992,-66.6666666666667,4,2,77,77,0,0
160197,-66.6666666666667,4,2,77,47,0,0
160300,-40,4,2,77,5,0,0
160403,-500,4,2,77,47,0,0
163074,-100,4,2,77,77,0,0
163279,-66.6666666666667,4,2,77,77,0,0
164306,-66.6666666666667,4,2,77,47,0,0
164512,-200,4,2,77,47,0,0
164820,-40,4,2,77,47,0,0
164923,-200,4,2,77,47,0,0
164974,-40,4,2,77,5,0,0
165231,-200,4,2,77,47,0,0
165283,-40,4,2,77,5,0,0
165540,-200,4,2,77,47,0,0
165591,-40,4,2,77,5,0,0
165745,-200,4,2,77,47,0,0
165950,-66.6666666666667,4,2,77,47,0,0
166156,-200,4,2,77,47,0,0
166361,-66.6666666666667,4,2,77,47,0,0
166567,-58.8235294117647,4,2,77,77,0,0
166875,-40,4,2,77,77,0,0
166978,-133.333333333333,4,2,77,77,0,0
168211,-100,4,2,77,77,0,0
169033,-80,4,2,77,77,0,0
169855,-133.333333333333,4,2,77,77,0,0
170676,-100,4,2,77,77,0,0
171087,-80,4,2,77,77,0,0
172320,-133.333333333333,4,2,77,77,0,0
172731,-100,4,2,77,77,0,0
174375,-500,4,2,77,77,0,0
174683,-40,4,2,77,5,0,0
174786,-40,4,2,77,87,0,1
175094,-40,4,2,77,87,0,1
175197,-66.6666666666667,4,2,77,87,0,1
175608,-50,4,2,77,87,0,1
176019,-100,4,2,77,87,0,1
176224,-66.6666666666667,4,2,77,87,0,1
176379,-40,4,2,77,87,0,1
176430,-100,4,2,77,87,0,1
176841,-55.5555555555556,4,2,77,87,0,1
177560,-40,4,2,77,87,0,1
177663,-100,4,2,77,87,0,1
178074,-333.333333333333,4,2,77,87,0,1
178382,-40,4,2,77,87,0,1
178485,-55.5555555555556,4,2,77,87,0,1
178639,-40,4,2,77,5,0,1
178690,-100,4,2,77,87,0,1
178896,-66.6666666666667,4,2,77,87,0,1
179512,-50,4,2,77,87,0,1
179923,-100,4,2,77,87,0,1
180129,-66.6666666666667,4,2,77,87,0,1
180334,-50,4,2,77,87,0,1
181362,-50,4,2,77,87,0,1
181567,-100,4,2,77,87,0,1
181978,-50,4,2,77,87,0,1
182389,-100,4,2,77,87,0,1
182800,-50,4,2,77,87,0,1
183211,-100,4,2,77,87,0,1
183827,-55.5555555555556,4,2,77,87,0,1
183981,-40,4,2,77,5,0,1
184033,-100,4,2,77,87,0,1
184238,-66.6666666666667,4,2,77,87,0,1
184392,-40,4,2,77,5,0,1
184444,-133.333333333333,4,2,77,87,0,1
184649,-50,4,2,77,87,0,1
185060,-100,4,2,77,87,0,1
185266,-66.6666666666667,4,2,77,87,0,1
186087,-50,4,2,77,87,0,1
186498,-100,4,2,77,87,0,1
187937,-133.333333333333,4,2,77,87,0,1
188348,-35.7142857142857,4,2,77,87,0,1
188707,-40,4,2,77,5,0,1
188759,-35.7142857142857,4,2,77,87,0,1
189170,-100,4,2,77,87,0,1
189375,-52.6315789473684,4,2,77,87,0,1
189529,-40,4,2,77,87,0,1
189581,-133.333333333333,4,2,77,87,0,1
189992,-55.5555555555556,4,2,77,87,0,1
190403,-50,4,2,77,87,0,1
190711,-40,4,2,77,87,0,1
190813,-100,4,2,77,87,0,1
191224,-333.333333333333,4,2,77,87,0,1
191533,-40,4,2,77,87,0,1
191635,-55.5555555555556,4,2,77,87,0,1
191790,-40,4,2,77,5,0,1
191841,-100,4,2,77,87,0,1
192046,-66.6666666666667,4,2,77,87,0,1
192663,-43.4782608695652,4,2,77,87,0,1
193074,-100,4,2,77,87,0,1
193485,-83.3333333333333,4,2,77,87,0,1
196978,-58.8235294117647,4,2,77,87,0,1
197286,-40,4,2,77,5,0,1
197389,-100,4,2,77,87,0,1
197799,-100,4,2,77,77,0,1
198622,-55.5555555555556,4,2,77,77,0,1
199033,-100,4,2,77,77,0,1
199444,-100,4,2,77,57,0,0
200676,-133.333333333333,4,2,77,57,0,1
201087,-50,4,2,77,67,0,0
201396,-50,4,2,77,67,0,0
201498,-133.333333333333,4,2,77,67,0,0
201807,-50,4,2,77,5,0,0
201909,-250,4,2,77,67,0,0
202731,-90.9090909090909,4,2,77,67,0,0
203553,-250,4,2,77,67,0,0
204375,-66.6666666666667,4,2,77,67,0,0
204786,-133.333333333333,4,2,77,67,0,0
204992,-100,4,2,77,67,0,0
205608,-133.333333333333,4,2,77,67,0,0
205813,-71.4285714285714,4,2,77,67,0,0
206430,-133.333333333333,4,2,77,67,0,0
206635,-100,4,2,77,67,0,0
207046,-133.333333333333,4,2,77,67,0,0
207663,-399.999999999997,4,2,77,67,0,0
207971,-50,4,2,77,5,0,0
208074,-35.7142857142857,4,2,77,67,0,0
208382,-50,4,2,77,67,0,0
208485,-133.333333333333,4,2,77,67,0,0
209307,-66.6666666666667,4,2,77,67,0,0
209461,-50,4,2,77,67,0,0
209512,-100,4,2,77,67,0,0
209718,-66.6666666666667,4,2,77,67,0,0
209872,-50,4,2,77,67,0,0
209923,-100,4,2,77,67,0,0
210129,-66.6666666666667,4,2,77,67,0,0
210283,-50,4,2,77,67,0,0
210334,-100,4,2,77,67,0,0
210539,-66.6666666666667,4,2,77,67,0,0
210694,-50,4,2,77,5,0,0
210745,-100,4,2,77,67,0,0
212594,-83.3333333333333,4,2,77,67,0,0
213827,-100,4,2,77,67,0,0
214649,-50,4,2,77,67,0,0

[Colours]
Combo1 : 124,74,255
Combo2 : 255,74,74

[HitObjects]
132,384,540,6,0,B|231:326|186:201|44:254|120:334,1,232.875008883477,4|0,1:0|0:0,0:0:0:0:
117,301,950,6,0,L|157:292,6,41.4,8|10|8|8|10|8|10,0:1|0:1|0:1|0:1|0:1|0:1|0:1,0:0:0:0:
239,231,3622,6,0,L|289:241,1,51.75,0|0,1:0|0:0,0:0:0:0:
451,275,3827,6,0,B|320:221|367:61|506:85|505:179|454:207,1,310.500011844635,4|10,1:0|0:1,0:0:0:0:
61,150,4444,6,0,B|192:96|145:-64|6:-40|7:54|58:82,1,310.500011844635,6|2,1:0|0:0,0:0:0:0:
229,54,5060,6,0,L|269:45,4,41.4,10|10|10|10|8,0:1|0:1|0:1|0:1|0:1,0:0:0:0:
422,31,7115,6,0,B|426:100|325:76|337:146,1,155.250005922318,6|0,1:0|3:0,0:0:0:0:
337,145,7423,1,0,3:0:0:0:
337,145,7526,1,2,3:0:0:0:
304,266,7731,2,0,P|288:245|266:232,1,51.75,0|2,3:0|3:0,0:0:0:0:
315,366,8142,1,2,3:0:0:0:
315,366,8245,1,0,3:0:0:0:
315,366,8348,1,2,3:0:0:0:
397,311,8553,1,2,3:0:0:0:
230,306,8759,6,0,P|176:315|130:331,1,103.5,2|2,1:0|3:0,0:0:0:0:
129,331,9067,1,0,0:0:0:0:
129,331,9170,1,2,3:0:0:0:
34,265,9375,2,0,P|21:242|6:221,1,51.75,0|0,3:0|3:0,0:0:0:0:
106,219,9786,2,0,P|91:198|79:176,1,51.75,2|2,3:0|3:0,0:0:0:0:
135,99,10197,6,0,L|84:88,1,51.75,2|0,1:0|0:0,0:0:0:0:
54,0,10403,2,0,L|129:16,1,77.6250029611589,6|0,1:0|0:0,0:0:0:0:
362,135,10608,2,0,P|398:123|417:78,1,77.6250029611589,0|0,1:0|0:0,0:0:0:0:
355,8,10813,2,0,P|318:20|300:53,1,77.6250029611589,0|0,1:0|0:0,0:0:0:0:
256,192,11019,6,0,L|277:293,1,103.5,2|0,1:0|0:0,0:0:0:0:
371,320,11224,2,0,L|360:269,1,51.75,0|0,1:0|0:0,0:0:0:0:
212,340,11430,2,0,P|228:359|252:369,1,51.75,0|0,1:0|0:0,0:0:0:0:
443,244,11635,2,0,B|457:190|523:204|523:204|489:205|469:230,1,155.250005922318,2|0,1:0|1:0,0:0:0:0:
277,293,12046,5,0,1:0:0:0:
232,243,12149,1,0,1:0:0:0:
168,232,12252,1,0,1:0:0:0:
105,250,12355,1,0,1:0:0:0:
72,304,12457,1,0,1:0:0:0:
76,322,12560,1,0,1:0:0:0:
80,341,12663,1,0,1:0:0:0:
84,360,12766,1,0,1:0:0:0:
88,379,12868,6,0,L|113:373,6,25.875,0|0|0|0|0|0|0,3:0|3:0|3:0|3:0|3:0|3:0|3:0,0:0:0:0:
27,240,13279,2,0,L|1:234,6,25.875,0|0|0|0|0|0|0,3:0|0:0|0:0|0:0|0:0|0:0|0:0,0:0:0:0:
277,293,13690,5,2,0:0:0:0:
277,293,14101,1,2,0:0:0:0:
285,301,14307,5,2,0:0:0:0:
285,301,14409,1,2,0:0:0:0:
285,301,14512,1,10,0:0:0:0:
226,257,14615,1,8,0:3:0:0:
248,189,14717,1,10,0:0:0:0:
321,187,14820,1,12,0:3:0:0:
343,257,14923,1,14,1:2:0:0:
343,257,15334,6,0,B|376:260|406:218|406:218|370:312|290:316|290:316|277:287|235:280,1,279.449991471863,6|0,1:0|0:0,0:0:0:0:
185,250,15745,2,0,P|138:228|86:224,1,103.5,0|0,1:0|0:0,0:0:0:0:
86,224,16053,1,0,0:0:0:0:
86,224,16156,1,0,1:0:0:0:
23,64,16361,2,0,P|39:74|51:89,1,38.8125014805794,2|0,0:0|0:0,0:0:0:0:
150,14,16567,2,0,P|132:22|113:26,1,38.8125014805794,2|0,1:0|0:0,0:0:0:0:
129,148,16772,2,0,P|129:128|136:110,1,38.8125014805794,2|0,0:0|0:0,0:0:0:0:
254,32,16978,6,0,P|299:45|355:53,1,103.5,2|0,1:0|0:0,0:0:0:0:
354,53,17286,1,0,0:0:0:0:
354,53,17389,1,2,1:0:0:0:
437,212,17594,1,2,0:0:0:0:
489,105,17800,1,2,1:0:0:0:
358,179,18005,1,2,0:0:0:0:
358,179,18108,1,0,0:0:0:0:
358,179,18211,2,0,P|372:157|392:141,1,51.75,2|0,1:0|0:0,0:0:0:0:
278,231,18416,2,0,P|266:207|263:182,1,51.75,2|0,0:0|0:0,0:0:0:0:
431,288,18622,6,0,B|438:311|468:333|468:333|389:290|339:286|339:286|331:299|295:314,1,232.875008883477,2|0,1:0|0:0,0:0:0:0:
229,306,19033,2,0,P|230:331|244:353,1,51.75,2|0,1:0|0:0,0:0:0:0:
508,258,19238,1,2,0:0:0:0:
447,161,19444,2,0,L|436:211,1,51.75,2|0,1:0|0:0,0:0:0:0:
357,198,19649,1,2,0:0:0:0:
357,198,19752,1,0,0:0:0:0:
357,198,19855,2,0,L|367:147,1,51.75,2|0,1:0|0:0,0:0:0:0:
420,18,20060,2,0,P|457:25|492:43,1,77.625,2|0,0:0|0:0,0:0:0:0:
496,57,20266,6,0,P|439:30|378:21,1,124.199996209717,0|2,1:0|0:0,0:0:0:0:
378,21,20574,1,0,0:0:0:0:
378,21,20676,1,2,1:0:0:0:
274,81,20882,5,0,0:0:0:0:
274,81,20985,1,0,0:0:0:0:
274,81,21087,2,0,L|261:20,1,62.0999981048585,2|0,1:0|3:0,0:0:0:0:
195,123,21293,2,0,L|184:72,1,51.75,2|2,0:0|3:0,0:0:0:0:
116,165,21498,2,0,L|105:114,1,41.4,2|0,1:0|3:0,0:0:0:0:
37,207,21704,2,0,L|26:156,1,31.0499990524292,2|0,0:0|3:0,0:0:0:0:
111,48,21909,6,0,B|87:-7|25:7|25:7|66:11|85:44,1,155.250005922318,6|0,1:0|0:0,0:0:0:0:
199,126,22218,1,0,0:0:0:0:
199,126,22320,2,0,P|223:118|246:107,1,51.75,2|0,1:0|0:0,0:0:0:0:
339,34,22526,2,0,L|333:8,1,25.875,2|0,0:0|0:0,0:0:0:0:
416,0,22731,2,0,L|421:25,1,25.875,2|0,1:0|0:0,0:0:0:0:
484,107,22937,2,0,B|488:173|377:140|389:212,2,155.250005922318,2|0|2,0:0|1:0|0:0,0:0:0:0:
313,235,23553,6,0,P|322:259|339:277,1,51.75,0|0,1:0|0:0,0:0:0:0:
458,378,23759,1,2,0:0:0:0:
458,378,23861,1,0,0:0:0:0:
458,378,23964,2,0,P|481:366|505:357,1,51.75,2|0,1:0|0:0,0:0:0:0:
473,276,24170,2,0,P|449:287|425:296,1,51.75,2|0,0:0|0:0,0:0:0:0:
308,378,24375,2,0,P|285:365|261:355,1,51.75,2|0,1:0|0:0,0:0:0:0:
36,304,24581,1,2,0:0:0:0:
120,335,24683,1,0,0:0:0:0:
93,379,24786,2,0,P|79:302|60:227,1,155.25,0|0,1:0|0:0,0:0:0:0:
114,80,25197,6,0,B|87:26|-6:32|-15:127|45:151|45:151|75:147|92:159,1,232.875008883477,2|0,1:0|0:0,0:0:0:0:
147,152,25608,2,0,P|168:137|192:129,1,51.75,2|0,1:0|0:0,0:0:0:0:
217,36,25813,2,0,P|240:47|259:64,1,51.75,2|0,0:0|0:0,0:0:0:0:
128,54,26019,1,2,1:0:0:0:
272,168,26224,2,0,P|293:153|317:145,1,51.75,2|0,0:0|0:0,0:0:0:0:
495,126,26430,1,0,1:0:0:0:
384,17,26635,5,2,0:0:0:0:
384,17,26738,1,0,0:0:0:0:
384,17,26841,2,0,P|397:65|405:118,1,103.5,0|2,0:0|0:0,0:0:0:0:
382,199,27149,1,4,0:3:0:0:
317,145,27252,1,10,0:0:0:0:
469,208,27457,2,0,L|458:258,1,51.75,10|0,0:0|0:0,0:0:0:0:
384,371,27663,5,0,3:0:0:0:
448,330,27766,1,0,3:0:0:0:
493,355,27868,1,2,3:0:0:0:
273,361,28074,5,8,0:3:0:0:
234,302,28176,1,8,0:3:0:0:
187,293,28279,1,0,3:0:0:0:
145,307,28382,1,0,0:0:0:0:
128,335,28485,6,0,B|160:340|175:376|175:376|172:292|99:288|97:298|25:303|-12:216|39:168|39:168|13:207|37:245,1,434.699986734009,6|0,1:0|0:0,0:0:0:0:
20,344,28896,2,0,P|14:355|6:366,1,25.875,2|0,1:0|0:0,0:0:0:0:
115,223,29101,1,2,0:0:0:0:
115,223,29204,1,0,0:0:0:0:
115,223,29307,2,0,P|166:195|222:181,1,116.437504441738,2|0,1:0|0:0,0:0:0:0:
222,180,29512,2,0,B|280:166|277:101|277:101|260:143|232:152,1,155.250005922318,2|0,0:0|1:0,0:0:0:0:
201,82,29820,1,0,0:0:0:0:
342,179,29923,2,0,P|363:192|389:194,1,51.75,2|0,0:0|0:0,0:0:0:0:
486,50,30129,5,0,1:0:0:0:
486,50,30334,2,0,P|479:25|475:0,1,51.75,2|0,0:0|0:0,0:0:0:0:
401,67,30539,2,0,P|397:41|390:16,1,51.75,2|0,1:0|0:0,0:0:0:0:
512,155,30745,2,0,P|478:207|456:265,1,124.199996209717,2|0,0:0|1:0,0:0:0:0:
443,356,31053,1,0,0:0:0:0:
443,356,31156,6,0,L|480:347,1,38.8125014805794,2|0,3:0|0:0,0:0:0:0:
321,332,31361,2,0,L|358:323,1,38.8125014805794,2|0,1:0|0:0,0:0:0:0:
199,308,31567,2,0,L|236:299,1,38.8125014805794,2|0,3:0|0:0,0:0:0:0:
100,361,31772,6,0,B|67:314|95:231|182:224|182:224|124:237|120:277,1,279.449991471863,2|0,1:0|0:0,0:0:0:0:
36,222,32183,2,0,P|22:208|6:196,1,38.8125014805794,2|0,1:0|0:0,0:0:0:0:
66,135,32389,2,0,P|79:148|95:160,1,38.8125014805794,2|0,0:0|0:0,0:0:0:0:
255,191,32594,2,0,P|303:160|360:149,1,116.437504441738,2|0,1:0|0:0,0:0:0:0:
363,140,32800,2,0,P|337:141|312:149,1,51.75,2|0,0:0|0:0,0:0:0:0:
120,275,33005,2,0,L|95:161,1,116.437504441738,0|0,1:0|0:0,0:0:0:0:
105,150,33211,2,0,L|126:251,1,103.5,2|0,0:0|1:0,0:0:0:0:
59,372,33519,5,0,0:0:0:0:
59,372,33622,2,0,L|21:363,1,38.8125014805794,2|0,0:0|0:0,0:0:0:0:
0,278,33827,2,0,L|37:286,1,38.8125014805794,2|0,1:0|0:0,0:0:0:0:
217,359,34033,1,0,0:0:0:0:
217,359,34135,1,0,0:0:0:0:
217,359,34238,6,0,P|250:335|264:296,1,82.8,2|0,1:0|3:0,0:0:0:0:
374,301,34444,2,0,P|371:266|351:236,1,72.4499977890015,2|0,3:0|3:0,0:0:0:0:
400,166,34649,2,0,P|372:151|342:150,1,62.0999981048585,2|0,1:0|3:0,0:0:0:0:
308,77,34855,2,0,P|285:89|269:109,1,51.75,2|0,1:0|3:0,0:0:0:0:
140,129,35060,6,0,B|127:110|90:87|90:87|190:123|190:123|192:150|217:171,1,207,6|0,1:0|0:0,0:0:0:0:
272,194,35368,1,0,0:0:0:0:
272,194,35471,2,0,P|251:219|215:234,1,51.75,2|0,1:0|0:0,0:0:0:0:
8,240,35676,2,0,L|2:214,1,25.875,2|0,0:0|0:0,0:0:0:0:
72,170,35882,2,0,L|77:195,1,25.875,2|0,1:0|0:0,0:0:0:0:
151,365,36087,2,0,P|67:343|0:332,2,155.250005922318,2|0|2,0:0|1:0|0:0,0:0:0:0:
304,384,36704,6,0,P|326:371|350:360,1,51.75,0|0,1:0|0:0,0:0:0:0:
461,220,36909,1,2,0:0:0:0:
461,220,37012,1,0,0:0:0:0:
461,220,37115,2,0,P|483:234|499:255,1,51.75,2|0,1:0|0:0,0:0:0:0:
439,324,37320,2,0,P|417:310|401:290,1,51.75,2|0,0:0|0:0,0:0:0:0:
324,183,37526,2,0,P|332:157|334:132,1,51.75,2|0,1:0|0:0,0:0:0:0:
400,21,37731,1,2,0:0:0:0:
468,111,37834,1,0,0:0:0:0:
491,74,37937,2,0,P|467:78|440:84,1,51.75,2|0,1:0|0:0,0:0:0:0:
264,74,38142,2,0,P|255:48|253:23,1,51.75,2|0,0:0|0:0,0:0:0:0:
70,148,38348,6,0,B|78:168|64:197|64:197|117:118|198:113|198:113|214:146|261:154,1,263.92500503397,2|0,1:0|0:0,0:0:0:0:
215,222,38759,2,0,P|191:213|170:197,1,51.75,2|0,1:0|0:0,0:0:0:0:
118,56,38964,2,0,L|112:30,1,25.875,2|0,0:0|0:0,0:0:0:0:
29,20,39170,2,0,L|39:70,1,51.75,2|0,1:0|0:0,0:0:0:0:
81,266,39375,6,0,L|102:367,2,103.5,2|0|2,0:0|1:0|0:0,0:0:0:0:
408,148,40711,5,8,0:0:0:0:
427,155,40813,1,10,0:0:0:0:
241,216,41019,1,10,0:0:0:0:
392,339,41224,6,0,P|370:303|383:351,1,155.25,14|0,0:0|0:0,0:0:0:0:
380,353,41635,6,0,L|347:201,1,155.250005922318,6|0,1:0|0:0,0:0:0:0:
347,201,42252,1,2,0:0:0:0:
383,48,42457,2,0,P|429:82|495:111,2,116.437504441738,2|2|2,0:0|0:0|0:0,0:0:0:0:
383,48,43279,1,2,0:0:0:0:
296,28,43485,6,0,L|302:59,1,19.4062507402897
216,46,43690,2,0,L|222:77,1,19.4062507402897
276,127,43896,1,2,0:0:0:0:
203,203,44101,2,0,P|166:158|114:134,2,116.437504441738,2|2|2,0:0|0:0|0:0,0:0:0:0:
268,383,44923,6,0,L|300:231,2,155.25,2|2|2,1:0|0:0|0:0,0:0:0:0:
390,288,45745,2,0,P|430:247|486:236,2,116.437504441738,2|2|2,0:0|0:0|0:0,0:0:0:0:
176,362,46567,2,0,P|121:347|50:335,2,116.437504441738,2|2|2,0:0|0:0|0:0,0:0:0:0:
151,268,47389,2,0,P|113:258|74:253,2,77.625,2|0|2,1:0|0:0|0:0,0:0:0:0:
390,288,48211,6,0,B|447:279|447:212|447:212|437:249|417:260,1,155.250005922318,6|2,1:0|3:0,0:0:0:0:
431,260,48519,1,0,3:0:0:0:
431,260,48622,2,0,L|469:266,1,38.8125014805794,2|0,3:0|0:0,0:0:0:0:
331,188,48827,2,0,L|369:194,1,38.8125014805794,2|0,3:0|0:0,0:0:0:0:
244,111,49033,2,0,L|142:132,1,103.5,2|0,3:0|3:0,0:0:0:0:
150,139,49341,1,2,3:0:0:0:
150,139,49444,2,0,L|160:92,1,38.8125014805794
76,19,49649,5,2,3:0:0:0:
76,19,49752,1,2,3:0:0:0:
76,19,49855,2,0,L|86:66,1,38.8125014805794,2|0,3:0|0:0,0:0:0:0:
15,98,50060,1,2,3:0:0:0:
15,98,50163,2,0,L|25:145,2,38.8125014805794,0|2|0,3:0|3:0|0:0,0:0:0:0:
176,28,50471,2,0,P|194:33|211:43,1,38.8125014805794,2|0,3:0|0:0,0:0:0:0:
349,116,50676,6,0,P|376:72|426:51,1,103.5,2|0,3:0|3:0,0:0:0:0:
413,44,50985,1,2,3:0:0:0:
392,45,51087,1,0,0:0:0:0:
370,66,51190,1,0,0:0:0:0:
374,113,51293,1,2,3:0:0:0:
419,136,51396,1,0,3:0:0:0:
467,112,51498,6,0,L|477:61,1,51.75,0|0,1:0|0:0,0:0:0:0:
503,238,51704,1,2,3:0:0:0:
503,238,51807,1,0,3:0:0:0:
503,238,51909,2,0,L|513:187,1,51.75,2|0,3:0|0:0,0:0:0:0:
342,251,52115,2,0,P|362:235|387:228,1,51.75,0|0,3:0|0:0,0:0:0:0:
508,352,52320,2,0,B|463:372|447:276|392:309,1,134.54999384079,2|2,3:0|3:0,0:0:0:0:
262,271,52629,1,2,3:0:0:0:
262,271,52731,2,0,P|258:245|264:220,1,51.75,0|0,3:0|0:0,0:0:0:0:
310,336,52937,2,0,P|289:352|264:359,1,51.75,2|0,3:0|0:0,0:0:0:0:
69,331,53142,6,0,P|104:294|120:245,1,103.5,0|2,3:0|3:0,0:0:0:0:
120,245,53450,1,0,3:0:0:0:
120,245,53553,1,2,3:0:0:0:
194,326,53759,1,2,3:0:0:0:
64,194,53964,2,0,P|39:149|36:97,1,103.5,2|0,1:0|3:0,0:0:0:0:
81,30,54272,1,2,3:0:0:0:
81,30,54375,2,0,L|30:19,3,51.75,0|0|2|0,3:0|3:0|3:0|3:0,0:0:0:0:
192,85,54786,5,4,1:0:0:0:
201,82,54888,1,0,0:0:0:0:
210,80,54991,1,0,0:0:0:0:
220,78,55094,1,0,0:0:0:0:
229,76,55196,1,0,1:0:0:0:
239,74,55299,1,0,0:0:0:0:
248,72,55402,1,0,0:0:0:0:
258,70,55505,1,0,0:0:0:0:
267,68,55607,1,0,1:0:0:0:
277,66,55710,1,0,0:0:0:0:
286,64,55813,1,0,0:0:0:0:
296,62,55916,1,0,0:0:0:0:
305,60,56018,1,0,1:0:0:0:
315,58,56121,1,0,0:0:0:0:
324,56,56224,1,0,0:0:0:0:
334,54,56327,1,0,0:0:0:0:
343,52,56429,1,0,1:0:0:0:
353,50,56533,1,0,0:0:0:0:
394,88,56635,5,2,0:0:0:0:
386,38,56738,1,0,0:0:0:0:
425,8,56841,1,0,1:0:0:0:
499,36,56944,5,2,0:0:0:0:
507,86,57047,1,0,0:0:0:0:
468,116,57150,1,0,0:0:0:0:
394,88,57252,5,2,1:0:0:0:
338,58,57355,1,0,0:0:0:0:
276,73,57457,1,0,0:0:0:0:
213,30,57560,5,2,0:0:0:0:
159,63,57663,1,0,1:0:0:0:
141,124,57765,1,0,0:0:0:0:
72,157,57869,5,2,0:0:0:0:
73,221,57972,1,0,0:0:0:0:
117,267,58074,6,0,L|154:258,1,38.8125014805794,10|0,1:2|0:0,0:0:0:0:
356,176,58279,2,0,L|336:237,1,64.6875,0|0,1:0|0:0,0:0:0:0:
206,165,58485,2,0,L|244:203,1,51.75,10|0,1:2|0:0,0:0:0:0:
422,324,58690,2,0,L|346:340,1,77.6250029611589,0|0,1:0|0:0,0:0:0:0:
193,379,58896,5,10,1:2:0:0:
138,327,58998,1,0,1:0:0:0:
154,257,59101,1,0,1:0:0:0:
226,234,59204,1,0,1:0:0:0:
305,216,59307,1,8,1:2:0:0:
327,135,59409,1,0,1:0:0:0:
281,63,59512,1,0,1:0:0:0:
195,67,59615,1,0,1:0:0:0:
154,141,59718,1,2,0:0:0:0:
154,141,60539,5,8,0:0:0:0:
154,141,60642,1,8,0:3:0:0:
120,186,60745,1,4,0:3:0:0:
206,148,60848,1,4,0:3:0:0:
131,92,60950,6,0,L|99:85,1,31.05,12|0,0:0|0:0,0:0:0:0:
100,85,61361,6,0,B|60:103|28:139|28:139|148:68|318:39,1,388.125,6|0,1:0|0:0,0:0:0:0:
383,127,61772,2,0,P|399:162|434:177,1,77.6250029611589,2|0,1:0|0:0,0:0:0:0:
512,90,61978,2,0,P|495:55|460:40,1,77.6250029611589,2|0,0:0|0:0,0:0:0:0:
307,210,62183,2,0,B|284:238|298:277|345:281|346:277|348:275|399:283|404:322|383:342,1,186.299994314575,2|0,1:0|0:0,0:0:0:0:
456,273,62492,1,2,0:0:0:0:
463,266,62594,2,0,P|482:248|505:238,1,51.75,0|0,1:0|0:0,0:0:0:0:
296,354,62800,6,0,B|277:358|258:368|258:368|198:356|206:293,1,131.962502516985,2|0,0:0|0:0,0:0:0:0:
197,301,63005,2,0,P|195:326|206:353,1,51.75,0|0,1:0|0:0,0:0:0:0:
307,210,63211,1,2,0:0:0:0:
289,135,63313,1,0,0:0:0:0:
210,123,63416,6,0,B|181:110|178:78|178:78|190:104|212:113,1,93.1499971572877,2|0,1:0|0:0,0:0:0:0:
307,210,63622,2,0,B|310:240|284:259|284:259|300:235|297:212,1,93.1499971572877,2|0,0:0|0:0,0:0:0:0:
289,51,63827,2,0,B|362:43|407:-15|407:-15|362:43|375:117,1,279.449991471863,2|0,1:0|0:0,0:0:0:0:
457,257,64238,2,0,P|479:244|504:237,1,51.75,2|0,1:0|0:0,0:0:0:0:
477,156,64444,2,0,P|454:168|429:175,1,51.75,2|0,0:0|0:0,0:0:0:0:
98,208,64649,6,0,P|75:203|52:199,1,46.5749985786438,2|0,1:0|0:0,0:0:0:0:
45,190,65060,6,0,P|113:201|180:222,1,139.724995735932,2|0,1:0|0:0,0:0:0:0:
188,227,65266,2,0,P|211:215|228:196,1,51.75,2|0,0:0|0:0,0:0:0:0:
289,12,65471,2,0,P|295:49|324:75,1,77.6250029611589,2|0,1:0|0:0,0:0:0:0:
373,7,65676,1,0,0:0:0:0:
221,78,65779,2,0,P|186:95|157:121,2,77.6250029611589,2|0|0,0:0|1:0|0:0,0:0:0:0:
457,133,66087,6,0,B|521:130|542:64|494:27|445:39|445:39|440:57|420:70,1,207,2|0,0:0|1:0,0:0:0:0:
459,240,66396,1,0,0:0:0:0:
457,257,66498,6,0,P|467:280|486:296,1,51.75,2|0,0:0|0:0,0:0:0:0:
340,327,66704,2,0,P|311:352|289:384,1,77.6250029611589,2|0,1:0|0:0,0:0:0:0:
183,268,66909,2,0,P|140:238|91:222,1,103.5,2|0,0:0|0:0,0:0:0:0:
3,363,67115,2,0,P|52:346|94:317,1,103.5,2|0,1:0|0:0,0:0:0:0:
140,68,67320,2,0,P|130:19|83:2,1,103.5,2|0,0:0|0:0,0:0:0:0:
13,67,67526,2,0,P|22:115|69:132,1,103.5,2|0,1:0|0:0,0:0:0:0:
323,74,67731,2,0,B|357:53|330:-2|265:-19|203:47|260:124,1,207,2|0,0:0|1:0,0:0:0:0:
340,327,68142,6,0,P|360:342|377:362,1,51.75,2|0,0:0|0:0,0:0:0:0:
446,302,68348,2,0,P|425:286|408:266,1,51.75,2|0,1:0|0:0,0:0:0:0:
221,186,68553,2,0,B|251:275|332:246|332:246|338:207|392:190,1,207,2|0,0:0|1:0,0:0:0:0:
164,121,68964,1,2,0:0:0:0:
164,121,69067,1,0,0:0:0:0:
82,155,69170,2,0,P|58:165|38:182,1,51.75,2|0,1:0|0:0,0:0:0:0:
42,372,69375,2,0,L|20:270,2,103.5,2|0|0,0:0|0:0|1:0,0:0:0:0:
174,324,69786,6,0,L|123:313,1,51.75,2|0,0:0|0:0,0:0:0:0:
310,313,69992,2,0,L|259:302,1,51.75,2|0,1:0|0:0,0:0:0:0:
446,302,70197,2,0,L|395:291,1,51.75,2|0,0:0|0:0,0:0:0:0:
164,121,70403,6,0,P|199:65|264:74,1,139.724995735932,2|0,1:0|0:0,0:0:0:0:
264,74,70608,2,0,P|275:96|298:107,1,51.75,2|0,0:0|0:0,0:0:0:0:
452,206,70813,6,0,P|386:203|361:142,1,116.437504441738,2|0,1:0|0:0,0:0:0:0:
360,166,71019,2,0,P|374:144|372:119,1,38.8125014805794,2|0,0:0|0:0,0:0:0:0:
356,49,71224,6,0,L|311:260,1,207,2|0,1:0|0:0,0:0:0:0:
311,236,71533,1,0,0:0:0:0:
340,340,71635,2,0,B|373:338|382:293|382:293|369:319|347:327,1,103.5,2|0,1:0|0:0,0:0:0:0:
229,246,71841,2,0,L|245:321,1,77.6250029611589,2|0,0:0|0:0,0:0:0:0:
127,76,72046,1,0,1:0:0:0:
120,67,72149,1,0,0:0:0:0:
112,60,72252,2,0,P|77:44|39:50,1,77.6250029611589,2|0,0:0|0:0,0:0:0:0:
60,150,72457,1,0,1:0:0:0:
55,159,72560,1,0,0:0:0:0:
26,75,72663,6,0,B|92:39|123:92|113:93|153:148|205:115,1,196.649994748879,2|4,0:0|1:0,0:0:0:0:
199,118,73074,2,0,P|172:136|160:155,1,51.75,10|8,0:3|0:3,0:0:0:0:
57,328,73279,5,2,1:0:0:0:
83,302,73381,1,0,0:0:0:0:
74,267,73484,1,2,0:0:0:0:
38,259,73587,1,0,0:0:0:0:
14,287,73689,5,2,1:0:0:0:
83,302,73793,1,0,0:0:0:0:
152,317,73896,1,6,0:3:0:0:
111,330,73998,1,8,0:0:0:0:
82,347,74101,5,10,0:0:0:0:
151,332,74205,1,8,0:3:0:0:
220,317,74308,1,10,0:0:0:0:
289,302,74409,1,8,3:3:0:0:
381,282,74512,6,0,L|376:296,10,12.9375004935265,2|0|0|0|0|0|0|0|0|0|0,1:0|0:0|0:0|0:0|0:0|0:0|0:0|0:0|0:0|0:0|0:0,0:0:0:0:
452,304,74923,6,0,B|486:318|497:356|497:356|493:257|415:256|423:259|372:305|290:281|274:205|303:133|303:133|321:180|374:188,1,507.149984523011,6|0,1:0|0:0,0:0:0:0:
353,183,75334,2,0,B|406:135|406:135|224:182,1,258.75,2|0,1:0|0:0,0:0:0:0:
101,257,75642,1,2,0:0:0:0:
111,250,75745,2,0,P|129:232|140:208,1,51.75,0|0,1:0|0:0,0:0:0:0:
23,42,75950,6,0,P|43:104|59:176,1,139.724995735932,2|0,0:0|0:0,0:0:0:0:
68,180,76156,2,0,P|64:154|58:129,1,51.75,0|0,1:0|0:0,0:0:0:0:
183,12,76361,1,2,0:0:0:0:
265,29,76464,1,0,0:0:0:0:
269,108,76567,6,0,B|260:140|226:147|226:147|248:129|251:110,1,93.1499971572877,2|0,1:0|0:0,0:0:0:0:
386,38,76772,2,0,B|418:29|441:55|441:55|414:45|396:52,1,93.1499971572877,2|0,0:0|0:0,0:0:0:0:
183,12,76978,2,0,B|137:62|186:126|237:110|241:108|242:104|284:86|335:143|295:197,1,279.449991471863,2|0,1:0|0:0,0:0:0:0:
182,341,77389,2,0,P|165:318|142:296,1,51.75,2|0,1:0|0:0,0:0:0:0:
216,235,77594,2,0,P|231:255|249:274,1,51.75,2|0,0:0|0:0,0:0:0:0:
438,352,77800,6,0,P|460:347|484:344,1,46.5749985786438,2|0,1:0|0:0,0:0:0:0:
493,333,78211,6,0,P|424:346|356:362,1,139.724995735932,2|0,1:0|0:0,0:0:0:0:
347,365,78416,2,0,P|328:347|321:323,1,51.75,2|0,0:0|0:0,0:0:0:0:
423,140,78622,2,0,P|460:150|495:166,1,77.6250029611589,2|0,1:0|0:0,0:0:0:0:
393,48,78827,1,0,0:0:0:0:
315,141,78930,2,0,P|282:162|247:178,2,77.6250029611589,2|0|0,0:0|1:0|0:0,0:0:0:0:
99,26,79238,6,0,B|78:18|66:3|66:3|19:29|17:80|61:116|108:102,1,207,2|0,0:0|1:0,0:0:0:0:
259,55,79546,1,0,0:0:0:0:
271,47,79649,2,0,P|283:24|288:0,1,51.75,2|0,0:0|0:0,0:0:0:0:
205,134,79855,2,0,P|217:156|248:178,1,62.0999981048585,2|0,1:0|0:0,0:0:0:0:
321,296,80060,2,0,P|333:273|364:251,1,62.0999981048585,2|0,0:0|0:0,0:0:0:0:
495,166,80266,5,2,1:0:0:0:
502,92,80368,1,0,0:0:0:0:
435,61,80471,1,2,0:0:0:0:
385,116,80574,1,0,0:0:0:0:
422,181,80676,1,2,1:0:0:0:
42,304,81087,5,14,1:2:0:0:
122,267,81224,1,2,0:0:0:0:
49,216,81361,1,2,0:0:0:0:
112,354,81498,1,10,1:2:0:0:
385,116,81909,5,10,1:2:0:0:
305,79,82046,1,2,0:0:0:0:
378,28,82183,1,2,0:0:0:0:
315,166,82320,1,10,1:2:0:0:
42,304,82731,5,10,1:2:0:0:
122,267,82868,1,2,0:0:0:0:
122,267,83005,1,2,0:0:0:0:
49,216,83142,5,10,1:2:0:0:
112,354,83279,1,2,0:0:0:0:
112,354,83416,1,2,0:0:0:0:
42,304,83553,6,0,B|-5:278|-5:278|186:331,1,232.875008883477,10|0,1:2|0:0,0:0:0:0:
248,361,83964,2,0,P|271:355|298:350,1,51.75,10|0,1:2|0:0,0:0:0:0:
289,267,84170,2,0,P|263:273|238:277,1,51.75,2|0,0:0|0:0,0:0:0:0:
372,304,84375,5,6,1:2:0:0:
391,300,84478,1,0,3:0:0:0:
402,284,84581,1,2,3:0:0:0:
403,263,84683,1,0,3:0:0:0:
395,244,84786,1,2,3:0:0:0:
370,214,84889,1,0,3:0:0:0:
362,164,84992,1,2,3:0:0:0:
403,122,85094,1,0,3:0:0:0:
462,132,85197,5,10,0:0:0:0:
419,166,85300,1,0,0:0:0:0:
362,164,85403,1,0,0:0:0:0:
311,138,85505,1,0,3:0:0:0:
272,85,85608,1,2,3:0:0:0:
212,44,85711,1,0,3:0:0:0:
132,34,85813,1,2,3:0:0:0:
61,68,85916,1,0,3:0:0:0:
37,139,86019,6,0,P|48:187|58:240,1,103.5,4|0,3:2|3:0,0:0:0:0:
58,240,86327,1,0,3:0:0:0:
54,277,86430,5,0,3:0:0:0:
65,252,86533,1,0,0:0:0:0:
91,245,86635,1,0,3:0:0:0:
114,255,86738,1,0,3:0:0:0:
126,252,86841,5,0,3:0:0:0:
92,226,86944,1,0,0:0:0:0:
49,238,87046,1,0,3:0:0:0:
36,283,87149,1,0,3:0:0:0:
63,318,87252,6,0,P|77:322|91:330,1,31.05,8|0,0:0|0:0,0:0:0:0:
238,383,87663,6,0,L|264:256,1,129.375,4|0,1:0|0:0,0:0:0:0:
428,110,88485,6,0,B|443:83|490:71|490:71|382:87|382:87|349:103|337:153|337:153|276:178|276:178|301:157|311:120,1,388.125,14|2,0:2|0:0,0:0:0:0:
303,57,88896,2,0,L|294:19,3,38.8125014805794,4|0|2|0,1:3|0:0|0:0|0:0,0:0:0:0:
213,13,89307,6,0,L|264:256,1,248.4,2|2,0:0|0:0,0:0:0:0:
282,241,89718,2,0,L|231:230,1,51.75,4|0,1:3|0:0,0:0:0:0:
73,198,89923,2,0,L|41:191,2,25.875,2|0|0,0:0|0:0|0:0,0:0:0:0:
177,122,90129,2,0,B|175:73|213:13|213:13|176:72|126:90,1,232.875008883477,10|2,0:0|0:0,0:0:0:0:
29,305,90540,2,0,B|20:351|-21:378|-21:378|89:262|191:290|191:290|204:325|244:331,1,388.125,4|0,1:2|0:0,0:0:0:0:
422,309,90950,6,0,B|383:303|369:279|369:279|373:192|309:174|309:174|203:207|203:207|249:214|264:256,1,388.125,6|2,1:0|0:0,0:0:0:0:
448,236,91361,2,0,B|474:227|484:201|484:201|458:210|449:233,1,100.912495380593
304,324,91772,2,0,L|310:356,1,33.6374984601975,10|0,0:0|0:0,0:0:0:0:
332,307,91978,6,0,B|377:278|377:278|227:328,1,209.587500799513,4|0,1:3|0:0,0:0:0:0:
176,384,92183,2,0,P|156:360|150:330,1,62.0999981048585,4|0,1:3|0:0,0:0:0:0:
80,268,92389,2,0,P|90:239|109:223,2,31.0499990524292,2|0|0,0:0|0:0|0:0,0:0:0:0:
21,351,92594,6,0,L|24:366,1,15.5249995262146,2|0,0:0|0:0,0:0:0:0:
80,268,92800,2,0,L|75:283,1,15.5249995262146,0|2,0:0|0:0,0:0:0:0:
172,225,93005,2,0,L|160:235,1,15.5249995262146,4|0,1:3|0:0,0:0:0:0:
273,233,93211,1,2,0:0:0:0:
273,233,93313,1,0,0:0:0:0:
340,182,93416,5,10,0:0:0:0:
316,147,93519,1,0,1:0:0:0:
303,101,93621,1,0,1:0:0:0:
273,135,93724,1,0,1:0:0:0:
233,148,93827,2,0,B|215:121|184:112|184:112|252:0|391:22|391:22|431:65|431:65|398:46|367:49,1,419.175001599026,6|0,1:2|0:0,0:0:0:0:
134,0,94238,6,0,L|187:253,2,258.75,6|0|2,1:2|0:0|0:0,0:0:0:0:
134,0,94855,5,2,1:0:0:0:
134,1,94957,1,0,1:0:0:0:
85,74,95060,2,0,B|61:101|81:147|145:143|146:140|149:138|199:124|255:150|236:191,1,232.875008883477,10|2,0:0|0:0,0:0:0:0:
187,253,95471,2,0,B|187:269|159:276|144:238|152:179|231:94|347:137|390:155|394:214|360:210|345:177,1,310.5,4|2,1:0|0:0,0:0:0:0:
273,187,95882,6,0,B|235:175|253:116|296:88|300:88|303:89|349:43|328:-2|292:-2,1,232.875008883477,2|2,0:0|0:0,0:0:0:0:
171,12,96293,2,0,B|171:38|192:56|192:56|192:28|172:11,1,100.912495380593,0|2,1:3|0:0,0:0:0:0:
85,74,96704,2,0,P|73:85|67:101,1,33.6374984601975,10|0,0:0|0:0,0:0:0:0:
0,166,96909,2,0,P|4:182|14:195,1,33.6374984601975,0|2,0:0|0:0,0:0:0:0:
182,365,97115,2,0,B|286:248|245:138|72:75|28:244|127:286|186:246,1,388.125,4|0,1:0|0:0,0:0:0:0:
309,275,97526,6,0,B|383:222|383:222|-2:341,1,489.03750186553,6|0,1:0|0:0,0:0:0:0:
2,339,97937,6,0,L|8:307,1,31.05,0|2,0:0|0:0,0:0:0:0:
138,256,98348,2,0,L|129:295,1,38.8125014805794,10|0,0:0|0:0,0:0:0:0:
126,250,98553,6,0,B|81:221|81:221|231:271,1,209.587500799513,4|0,1:3|0:0,0:0:0:0:
283,328,98759,2,0,P|303:304|309:274,1,62.0999981048585,4|0,1:3|0:0,0:0:0:0:
272,202,98964,1,2,0:0:0:0:
266,192,99067,1,0,0:0:0:0:
191,143,99170,6,0,P|171:119|165:89,1,62.0999981048585,2|0,3:0|0:0,0:0:0:0:
249,49,99375,2,0,P|269:73|275:103,1,62.0999981048585,10|0,0:0|0:0,0:0:0:0:
472,250,99581,6,0,L|509:241,1,38.8125014805794,2|0,3:0|0:0,0:0:0:0:
357,207,99786,2,0,L|394:198,1,38.8125014805794,2|0,3:0|0:0,0:0:0:0:
229,270,99992,1,10,0:0:0:0:
229,270,100403,6,0,B|226:250|198:238|198:238|237:237|262:266|247:304,1,135.843755182028,2|0,1:0|0:0,0:0:0:0:
203,349,100813,6,0,B|159:324|173:260|227:239|230:241|233:244|316:230|312:148|273:135,1,279.449991471863,6|0,1:0|0:0,0:0:0:0:
167,118,101224,2,0,P|144:106|128:85,1,51.75,2|0,1:0|0:0,0:0:0:0:
201,7,101430,2,0,P|223:18|239:39,1,51.75,2|0,0:0|0:0,0:0:0:0:
376,126,101635,2,0,P|400:118|426:115,1,51.75,2|0,1:0|0:0,0:0:0:0:
496,261,101841,6,0,L|487:223,1,38.8125014805794,2|0,0:0|0:0,0:0:0:0:
422,315,102046,2,0,L|413:277,1,38.8125014805794,2|0,1:0|0:0,0:0:0:0:
348,369,102252,2,0,L|339:331,1,38.8125014805794,2|0,0:0|0:0,0:0:0:0:
234,170,102457,6,0,B|173:206|185:294|261:306|261:306|275:273|311:258,1,232.875008883477,2|0,1:0|0:0,0:0:0:0:
293,257,102868,2,0,B|225:214|177:276|177:276|158:336|98:337,1,232.875008883477,2|0,1:0|0:0,0:0:0:0:
32,310,103279,1,2,1:0:0:0:
84,200,103485,2,0,L|96:260,1,62.0999981048585,2|0,0:0|0:0,0:0:0:0:
0,140,103690,1,2,1:0:0:0:
156,109,103896,2,0,L|95:96,1,62.0999981048585
321,93,104101,6,0,B|335:125|377:127|377:127|285:165|240:106|240:106|242:70|210:49,1,279.449991471863,2|0,1:0|0:0,0:0:0:0:
339,14,104512,2,0,P|368:24|389:47,1,62.0999981048585,2|0,1:0|0:0,0:0:0:0:
465,135,104718,2,0,L|477:74,1,62.0999981048585,2|0,0:0|0:0,0:0:0:0:
404,313,104923,2,0,P|429:308|450:294,1,51.75,2|0,1:0|0:0,0:0:0:0:
414,199,105129,2,0,P|388:203|367:217,1,51.75,2|0,0:0|0:0,0:0:0:0:
211,333,105334,6,0,L|202:293,2,34.5,2|0|0,1:0|0:0|0:0,0:0:0:0:
303,361,105539,2,0,L|292:310,1,51.75
186,222,105745,6,0,P|160:230|143:248,1,51.75,2|0,1:0|0:0,0:0:0:0:
43,372,105951,2,0,P|19:366|0:349,1,51.75,2|0,0:0|0:0,0:0:0:0:
56,232,106156,2,0,P|50:257|57:281,1,51.75,2|0,1:0|0:0,0:0:0:0:
269,235,106361,1,0,0:0:0:0:
269,235,106464,1,0,0:0:0:0:
269,235,106567,6,0,P|293:202|331:187,1,82.8,2|0,1:0|3:0,0:0:0:0:
456,237,106772,2,0,P|440:199|446:158,1,72.4499977890015,2|0,3:0|3:0,0:0:0:0:
509,71,106978,2,0,P|478:69|450:55,1,62.0999981048585,2|0,1:0|3:0,0:0:0:0:
360,0,107183,2,0,P|346:22|326:38,1,51.75,2|0,3:0|3:0,0:0:0:0:
116,110,107389,6,0,B|24:93|38:9|38:9|43:51|75:62,1,207,6|0,1:0|0:0,0:0:0:0:
201,133,107697,1,0,0:0:0:0:
201,133,107800,2,0,P|191:157|175:176,1,51.75,10|0,1:2|0:0,0:0:0:0:
38,287,108005,2,0,P|26:263|10:243,1,51.75,2|0,3:0|0:0,0:0:0:0:
84,195,108211,2,0,P|95:218|111:238,1,51.75,10|0,1:2|0:0,0:0:0:0:
174,335,108416,2,0,L|123:324,1,51.75,2|0,3:0|0:0,0:0:0:0:
267,382,108622,2,0,P|262:358|256:331,1,51.75,10|0,1:2|0:0,0:0:0:0:
339,284,108827,2,0,P|344:309|349:334,1,51.75,2|0,3:0|0:0,0:0:0:0:
461,384,109033,6,0,L|493:232,1,155.250005922318,10|0,1:2|3:0,0:0:0:0:
351,121,109341,1,0,0:0:0:0:
279,163,109444,2,0,B|291:199|272:238|272:238|294:201|335:202,1,155.250005922318,10|2,1:2|3:0,0:0:0:0:
507,158,109752,1,0,3:0:0:0:
408,242,109855,6,0,L|440:90,1,155.250005922318,10|2,1:2|3:0,0:0:0:0:
459,13,110163,1,0,0:0:0:0:
459,13,110266,2,0,L|496:4,1,38.8125014805794,10|0,1:2|0:0,0:0:0:0:
336,43,110471,2,0,L|373:34,1,38.8125014805794,2|0,3:0|0:0,0:0:0:0:
239,69,110676,5,10,1:2:0:0:
220,64,110779,1,0,3:0:0:0:
201,59,110882,1,0,3:0:0:0:
182,54,110985,1,0,3:0:0:0:
123,115,111087,5,10,1:2:0:0:
94,107,111190,1,0,3:0:0:0:
66,100,111293,1,2,3:0:0:0:
37,92,111396,1,0,3:0:0:0:
0,34,111498,5,10,1:2:0:0:
10,84,111600,1,0,3:0:0:0:
21,135,111703,1,2,3:0:0:0:
31,185,111806,1,0,3:0:0:0:
104,203,111909,5,10,1:2:0:0:
92,263,112011,1,0,3:0:0:0:
78,324,112114,1,2,3:0:0:0:
66,384,112217,1,0,3:0:0:0:
443,278,113142,5,8,0:3:0:0:
465,278,113245,1,8,0:3:0:0:
420,229,113348,1,8,0:3:0:0:
353,278,113450,1,4,0:3:0:0:
378,346,113553,6,0,L|416:163,1,186.299994314575,10|0,0:0|0:0,0:0:0:0:
434,160,113964,6,0,L|419:228,1,69.8625002665043,4|0,1:0|0:0,0:0:0:0:
76,102,114375,6,0,L|81:76,2,25.875
69,73,114581,6,0,B|25:17|25:17|107:68|107:68|99:118,1,209.587500799513
49,180,114786,6,0,L|32:176,10,17.25
144,220,115197,6,0,L|138:194,2,25.875
138,246,115403,6,0,B|98:262|98:262|87:278|87:278|212:231|212:231|229:196,1,232.875008883477
256,125,115608,6,0,L|263:102,10,17.25
307,195,116018,6,0,L|314:219,2,25.875
282,118,116224,6,0,B|247:99|247:99|245:67|245:67|362:128|362:128|378:178,1,232.875008883477
392,231,116430,6,0,L|399:254,10,17.25
447,171,116841,6,0,L|465:114,1,51.75,8|0,0:0|0:0,0:0:0:0:
391,26,117046,2,0,L|396:51,1,25.875,8|4,0:3|0:3,0:0:0:0:
425,330,117251,5,14,1:2:0:0:
416,324,117354,1,0,0:0:0:0:
480,246,117457,5,2,0:0:0:0:
490,241,117560,1,0,0:0:0:0:
392,231,117663,5,10,1:2:0:0:
318,211,117766,1,0,0:0:0:0:
244,191,117868,1,2,0:0:0:0:
230,187,117971,1,0,0:0:0:0:
265,234,118074,2,0,L|248:158,1,77.6250029611589,10|0,1:2|0:0,0:0:0:0:
225,42,118279,1,2,0:0:0:0:
221,27,118382,1,0,0:0:0:0:
303,37,118485,5,10,1:2:0:0:
229,57,118588,1,0,0:0:0:0:
155,77,118690,1,2,0:0:0:0:
141,81,118793,1,0,0:0:0:0:
175,105,118896,5,10,1:2:0:0:
127,85,118998,1,0,0:0:0:0:
79,65,119101,1,2,0:0:0:0:
66,60,119204,1,0,0:0:0:0:
43,5,119307,5,10,1:2:0:0:
55,55,119409,1,0,0:0:0:0:
67,106,119512,1,2,0:0:0:0:
25,182,119615,5,0,0:0:0:0:
16,176,119718,1,10,1:2:0:0:
122,210,119820,5,0,0:0:0:0:
131,204,119923,1,2,0:0:0:0:
48,278,120026,6,0,L|68:181,2,98.3249973744393,0|10|0,0:0|1:2|0:0,0:0:0:0:
14,369,120334,5,2,0:0:0:0:
5,363,120437,1,0,0:0:0:0:
100,337,120539,6,0,B|117:328|130:303|130:303|189:286|231:367,1,147.487496061659,10|0,1:2|0:0,0:0:0:0:
225,338,120745,2,0,P|207:317|182:299,1,51.75,2|0,3:0|3:0,0:0:0:0:
294,189,120951,2,0,P|285:213|281:238,1,51.75,10|0,1:2|0:0,0:0:0:0:
131,204,121156,2,0,P|158:198|186:186,1,51.75,2|0,0:0|0:0,0:0:0:0:
333,92,121361,2,0,L|327:66,2,25.875,14|0|0,1:2|0:0|0:0,0:0:0:0:
242,72,121567,1,2,0:0:0:0:
242,72,121670,2,0,L|231:21,2,51.75,0|10|0,0:0|1:2|0:0,0:0:0:0:
379,170,121978,2,0,P|399:154|414:133,1,51.75,2|0,0:0|0:0,0:0:0:0:
461,39,122183,6,0,L|410:49,1,51.75,10|0,1:2|0:0,0:0:0:0:
160,98,122389,5,2,0:0:0:0:
149,100,122492,1,0,0:0:0:0:
80,144,122594,5,10,1:2:0:0:
72,135,122697,1,0,0:0:0:0:
0,97,122800,5,2,0:0:0:0:
3,86,122903,1,0,0:0:0:0:
19,6,123005,5,10,1:2:0:0:
34,0,123108,2,0,P|54:15|69:36,1,51.75,8|10,0:3|0:3,0:0:0:0:
0,181,123313,5,12,0:3:0:0:
28,257,123416,1,10,1:2:0:0:
94,280,123519,1,2,0:0:0:0:
139,291,123622,1,2,0:0:0:0:
154,330,123724,1,0,0:0:0:0:
138,357,123827,6,0,P|171:318|220:306,1,103.5,6|0,1:0|0:0,0:0:0:0:
217,216,124135,2,0,P|267:224|302:261,1,103.5
319,343,124444,2,0,P|343:336|363:319,1,51.75,0|0,1:0|0:0,0:0:0:0:
467,266,124649,1,8,0:0:0:0:
467,266,124752,2,0,P|454:318|442:383,1,103.5
385,234,125060,2,0,P|379:208|374:183,1,51.75,0|0,1:0|0:0,0:0:0:0:
446,131,125266,2,0,P|451:156|456:181,1,51.75
367,93,125471,6,0,P|399:53|448:41,1,103.5,4|0,1:0|0:0,0:0:0:0:
287,144,125779,2,0,P|268:96|282:47,1,103.5
291,238,126087,2,0,P|262:238|234:226,1,51.75,0|0,1:0|0:0,0:0:0:0:
105,180,126293,5,8,0:3:0:0:
98,165,126396,1,8,0:3:0:0:
181,107,126498,5,8,0:3:0:0:
174,122,126601,1,12,0:3:0:0:
101,83,126704,6,0,L|69:75,2,25.875,0|0|0,3:0|0:0|0:0,0:0:0:0:
287,144,127115,5,4,0:0:0:0:
248,151,140266,6,0,L|264:226,1,77.6250029611589,4|0,1:0|0:0,0:0:0:0:
264,226,140574,1,0,0:0:0:0:
264,226,140676,1,2,0:0:0:0:
162,185,140882,1,2,0:0:0:0:
363,231,141087,2,0,L|338:344,1,116.437504441738,2|0,0:0|0:0,0:0:0:0:
338,344,141498,1,2,0:0:0:0:
210,322,141704,2,0,L|248:314,2,38.8125014805794,2|0|0,0:0|0:0|0:0,0:0:0:0:
56,371,142115,5,2,0:0:0:0:
56,371,142218,1,0,0:0:0:0:
56,371,142320,2,0,B|5:365|7:307|7:307|10:335|36:349,1,134.54999384079,0|2,0:0|0:0,0:0:0:0:
14,216,142731,1,2,0:0:0:0:
89,287,142937,1,0,0:0:0:0:
89,287,143040,1,0,0:0:0:0:
89,287,143142,2,0,P|123:247|135:198,1,103.5,0|0,0:0|1:0,0:0:0:0:
127,70,143553,6,0,L|25:48,1,103.5,2|0,1:0|0:0,0:0:0:0:
25,48,143861,1,0,0:0:0:0:
25,48,143964,1,2,0:0:0:0:
60,144,144170,1,0,0:0:0:0:
223,42,144375,2,0,B|210:7|175:3|175:3|199:17|203:41,1,103.5,2|0,0:0|0:0,0:0:0:0:
242,127,144683,1,0,0:0:0:0:
242,127,144786,2,0,P|266:118|286:101,1,51.75,2|0,0:0|0:0,0:0:0:0:
383,41,144992,6,0,P|341:32|307:24,1,77.6250029611589,2|0,0:0|1:0,0:0:0:0:
472,127,145403,2,0,P|430:135|396:143,1,77.6250029611589,2|0,0:0|0:0,0:0:0:0:
450,331,145813,2,0,P|456:295|466:252,1,77.6250029611589,2|2,0:0|1:0,0:0:0:0:
375,278,146224,1,0,0:0:0:0:
375,278,146327,1,0,0:0:0:0:
375,278,146430,1,0,0:0:0:0:
337,364,146635,2,0,L|365:357,2,19.4062507402897,0|0|0,3:0|0:0|0:0,0:0:0:0:
246,384,146841,6,0,L|259:321,1,51.75,2|0,1:0|0:0,0:0:0:0:
170,238,147046,1,0,0:0:0:0:
170,238,147149,1,0,0:0:0:0:
170,238,147252,2,0,L|183:300,1,51.75,2|0,1:0|0:0,0:0:0:0:
108,347,147457,2,0,L|97:296,1,51.75,2|0,0:0|0:0,0:0:0:0:
79,204,147663,2,0,B|64:169|26:166|26:166|43:178|49:196,1,103.5,2|0,1:0|0:0,0:0:0:0:
144,149,147971,1,0,0:0:0:0:
144,149,148074,2,0,P|164:132|187:122,1,51.75,2|0,1:0|0:0,0:0:0:0:
300,99,148279,6,0,P|255:77|228:35,1,100.912495380593,2|0,0:0|0:0,0:0:0:0:
228,35,148485,2,0,P|249:48|264:69,1,51.75,0|0,1:0|0:0,0:0:0:0:
330,202,148690,2,0,B|347:154|405:160|405:160|419:186|448:195,1,134.54999384079,2|0,0:0|1:0,0:0:0:0:
475,122,148998,1,0,0:0:0:0:
475,122,149101,2,0,P|494:104|504:81,1,51.75,2|0,0:0|0:0,0:0:0:0:
429,26,149307,2,0,P|409:43|399:66,1,51.75,0|0,1:0|0:0,0:0:0:0:
392,253,149512,2,0,L|419:384,2,134.54999384079,2|0|2,0:0|1:0|0:0,0:0:0:0:
512,192,150129,6,0,L|501:242,1,51.75,2|0,1:0|0:0,0:0:0:0:
330,351,150334,2,0,L|319:300,1,51.75,0|0,1:0|0:0,0:0:0:0:
132,196,150540,6,0,P|108:206|93:227,1,51.75,2|0,1:0|0:0,0:0:0:0:
149,310,150745,2,0,P|172:300|187:279,1,51.75,2|0,1:0|0:0,0:0:0:0:
323,185,150950,6,0,L|335:124,1,62.0999981048585,2|0,1:0|0:0,0:0:0:0:
186,10,151156,2,0,L|198:70,1,62.0999981048585,0|0,1:0|0:0,0:0:0:0:
440,144,151361,6,0,P|469:133|493:114,1,62.0999981048585,2|0,1:0|0:0,0:0:0:0:
441,0,151567,2,0,P|411:10|387:29,1,62.0999981048585,2|0,1:0|0:0,0:0:0:0:
132,196,151772,5,0,1:0:0:0:
66,157,151875,1,0,1:0:0:0:
67,81,151978,1,2,1:0:0:0:
133,44,152081,1,0,1:0:0:0:
198,70,152183,1,0,1:0:0:0:
222,75,152286,1,0,3:0:0:0:
238,68,152389,1,2,3:0:0:0:
246,52,152492,1,0,3:0:0:0:
242,34,152594,5,2,3:0:0:0:
434,384,153416,6,0,L|477:180,1,207,14|8,0:1|0:1,0:0:0:0:
477,181,154033,1,0,0:0:0:0:
322,315,154238,6,0,L|362:306,1,41.4,8|8,0:1|0:1,0:0:0:0:
362,306,154855,1,0,0:0:0:0:
216,269,155060,6,0,L|256:260,1,41.4,8|8,0:1|0:1,0:0:0:0:
256,260,155676,1,0,0:0:0:0:
143,356,155882,1,8,0:1:0:0:
143,356,156087,6,0,L|148:330,1,25.875
76,288,156293,2,0,L|70:313,1,25.875,8|0,0:1|0:0,0:0:0:0:
8,362,156498,1,0,0:0:0:0:
150,246,156704,6,0,L|140:199,1,41.4,8|8,0:1|0:1,0:0:0:0:
141,205,157320,1,0,0:0:0:0:
40,138,157526,6,0,L|85:152,1,41.4,8|8,0:1|0:1,0:0:0:0:
79,150,158142,1,0,0:0:0:0:
188,96,158348,6,0,L|152:128,1,41.4,8|8,0:1|0:1,0:0:0:0:
157,123,158964,1,0,0:0:0:0:
295,75,159170,1,8,0:1:0:0:
295,75,159375,6,0,L|289:49,1,25.875
371,12,159581,2,0,L|376:37,1,25.875,8|0,0:1|0:0,0:0:0:0:
455,83,159786,1,0,0:0:0:0:
370,299,159992,6,0,B|271:241|316:116|458:169|382:249,1,232.875008883477,4|0,1:0|0:0,0:0:0:0:
392,226,160403,2,0,L|351:234,6,41.4,8|10|8|8|10|8|8,0:1|0:1|0:1|0:1|0:1|0:1|0:1,0:0:0:0:
501,331,163074,6,0,L|450:320,1,51.75,0|0,1:0|0:0,0:0:0:0:
191,273,163279,6,0,B|174:245|130:241|130:241|179:188|257:197|274:245|274:245|280:291|316:302,1,310.500011844635,4|8,1:0|0:1,0:0:0:0:
124,359,163896,6,0,L|188:55,1,310.500011844635,6|2,1:0|0:0,0:0:0:0:
65,0,164512,2,0,L|81:75,1,77.625,8|0,0:1|0:0,0:0:0:0:
81,75,164923,6,0,L|68:72,1,12.9375,10|0,0:1|0:0,0:0:0:0:
201,57,165231,6,0,L|188:54,1,12.9375
321,39,165540,6,0,L|308:36,1,12.9375
469,132,165745,6,0,L|471:119,2,12.9375,0|0|2,3:0|0:0|3:0,0:0:0:0:
402,79,165950,2,0,L|385:154,1,77.6250029611589,0|2,0:0|3:0,0:0:0:0:
246,239,166156,6,0,L|243:226,2,12.9375
313,186,166361,2,0,L|329:261,1,77.6250029611589,10|8,0:0|0:3,0:0:0:0:
447,364,166567,6,0,B|526:357|539:272|472:213|404:262|404:262|404:288|383:313,1,263.92500503397,6|0,1:0|0:0,0:0:0:0:
338,339,166978,2,0,L|329:376,1,38.8125014805794,2|0,3:0|0:0,0:0:0:0:
261,317,167183,2,0,L|252:354,1,38.8125014805794,2|0,3:0|0:0,0:0:0:0:
23,318,167389,5,10,0:0:0:0:
100,269,167594,1,2,3:0:0:0:
100,269,167697,1,0,0:0:0:0:
100,269,167800,2,0,L|108:306,1,38.8125014805794,2|0,3:0|0:0,0:0:0:0:
177,247,168005,2,0,L|185:284,1,38.8125014805794,2|0,3:0|0:0,0:0:0:0:
363,194,168211,6,0,L|351:248,1,51.75,2|0,1:0|0:0,0:0:0:0:
287,166,168416,1,2,0:0:0:0:
287,166,168519,1,0,0:0:0:0:
287,166,168622,2,0,L|275:220,1,51.75,2|0,3:0|0:0,0:0:0:0:
434,120,168827,1,2,3:0:0:0:
131,66,169033,6,0,L|145:136,1,64.6875,10|0,0:0|0:0,0:0:0:0:
208,18,169238,1,2,3:0:0:0:
208,18,169341,1,0,0:0:0:0:
208,18,169444,2,0,L|222:88,1,64.6875,2|0,3:0|0:0,0:0:0:0:
31,0,169649,1,2,1:0:0:0:
338,339,169855,6,0,L|329:376,1,38.8125014805794,6|0,1:0|0:0,0:0:0:0:
261,317,170060,2,0,L|252:354,1,38.8125014805794,2|0,1:0|0:0,0:0:0:0:
100,269,170266,6,0,L|108:306,1,38.8125014805794,2|0,1:0|0:0,0:0:0:0:
177,247,170471,2,0,L|185:284,1,38.8125014805794,2|0,1:0|0:0,0:0:0:0:
363,194,170676,6,0,L|351:248,1,51.75,2|0,1:0|0:0,0:0:0:0:
287,166,170882,2,0,L|275:220,1,51.75,2|0,1:0|0:0,0:0:0:0:
131,66,171087,6,0,L|145:136,1,64.6875,2|0,1:0|0:0,0:0:0:0:
208,18,171293,2,0,L|222:88,1,64.6875,2|0,1:0|0:0,0:0:0:0:
256,376,171498,5,2,1:0:0:0:
194,323,171601,1,0,1:0:0:0:
202,242,171704,1,2,1:0:0:0:
275,216,171807,1,0,1:0:0:0:
341,259,171909,1,2,1:0:0:0:
427,252,172012,1,0,1:0:0:0:
467,175,172115,1,2,1:0:0:0:
433,97,172218,1,0,1:0:0:0:
350,85,172320,2,0,L|331:89,6,19.4062507402897,2|0|0|0|2|0|0,1:0|0:0|1:0|0:0|1:0|0:0|1:0,0:0:0:0:
244,32,172731,6,0,L|228:81,1,51.75,2|0,0:0|0:0,0:0:0:0:
107,152,172937,2,0,L|141:190,1,51.75,2|0,0:0|0:0,0:0:0:0:
267,296,173142,5,0,1:0:0:0:
267,296,174375,6,0,P|280:288|295:284,1,31.05,12|0,0:0|0:0,0:0:0:0:
295,284,174786,6,0,B|326:295|346:323|346:323|218:247|111:260|111:260|96:303|41:318,1,388.125,6|0,1:0|0:0,0:0:0:0:
98,383,175197,2,0,P|131:363|158:335,1,77.6250029611589,2|0,1:0|0:0,0:0:0:0:
18,159,175403,2,0,L|34:234,1,77.6250029611589,2|0,0:0|0:0,0:0:0:0:
115,58,175608,2,0,B|116:42|136:23|136:23|62:28|58:88|58:88|88:100|106:136,1,207,2|0,1:0|0:0,0:0:0:0:
117,198,175916,1,2,0:0:0:0:
132,193,176019,2,0,P|155:181|170:161,1,51.75,0|0,1:0|0:0,0:0:0:0:
304,111,176224,6,0,P|247:99|190:86,1,116.437504441738,2|0,0:0|0:0,0:0:0:0:
192,77,176430,2,0,P|219:83|242:87,1,51.75,0|0,1:0|0:0,0:0:0:0:
461,173,176635,1,2,0:0:0:0:
379,149,176738,1,0,0:0:0:0:
375,65,176841,6,0,B|373:32|411:21|411:21|390:35|388:59,1,93.1499971572877,2|0,1:0|0:0,0:0:0:0:
286,205,177046,2,0,B|255:216|233:183|233:183|252:199|276:194,1,93.1499971572877,2|0,0:0|0:0,0:0:0:0:
455,93,177252,2,0,B|462:123|494:144|494:144|401:167|367:238|367:238|384:256|392:282,1,279.449991471863,2|0,1:0|0:0,0:0:0:0:
273,332,177663,2,0,P|291:317|316:303,1,51.75,2|0,1:0|0:0,0:0:0:0:
459,244,177868,2,0,P|468:268|469:293,1,51.75,2|0,0:0|0:0,0:0:0:0:
194,382,178074,6,0,P|173:370|151:363,1,46.5749985786438,2|0,1:0|0:0,0:0:0:0:
73,384,178485,6,0,P|118:331|146:268,1,139.724995735932,2|0,1:0|0:0,0:0:0:0:
146,268,178690,2,0,P|130:246|124:220,1,51.75,2|0,0:0|0:0,0:0:0:0:
101,102,178896,2,0,P|77:132|42:147,1,77.6250029611589,2|0,1:0|0:0,0:0:0:0:
25,63,179101,1,0,0:0:0:0:
175,152,179204,2,0,P|207:172|244:186,2,77.6250029611589,2|0|0,0:0|1:0|0:0,0:0:0:0:
363,55,179512,6,0,B|397:-17|507:11|507:11|483:33|476:60,1,207,2|0,0:0|1:0,0:0:0:0:
327,129,179820,1,0,0:0:0:0:
312,121,179923,6,0,P|291:101|283:78,1,51.75,2|0,0:0|0:0,0:0:0:0:
425,182,180129,2,0,P|401:212|367:230,1,77.6250029611589,2|0,1:0|0:0,0:0:0:0:
100,280,180334,2,0,P|151:233|189:227,1,103.5,2|0,0:0|0:0,0:0:0:0:
173,137,180540,2,0,P|223:147|260:182,1,103.5,2|0,1:0|0:0,0:0:0:0:
483,351,180745,2,0,P|490:302|505:249,1,103.5,2|0,0:0|0:0,0:0:0:0:
258,270,180950,2,0,P|248:320|234:369,1,103.5,2|0,1:0|0:0,0:0:0:0:
96,108,181156,2,0,B|102:60|68:11|68:11|102:59|154:62,1,207,2|0,0:0|1:0,0:0:0:0:
445,108,181567,6,0,P|470:100|489:80,1,51.75,2|0,0:0|0:0,0:0:0:0:
441,5,181772,2,0,P|416:13|397:33,1,51.75,2|0,1:0|0:0,0:0:0:0:
224,180,181978,2,0,B|197:208|220:270|263:261|266:258|269:256|313:254|338:287|315:330,1,207,2|0,0:0|1:0,0:0:0:0:
67,276,182389,6,0,P|42:284|23:304,1,51.75,2|0,0:0|0:0,0:0:0:0:
71,379,182594,2,0,P|96:371|115:351,1,51.75,2|0,1:0|0:0,0:0:0:0:
298,154,182800,2,0,B|324:184|307:221|263:228|260:227|256:225|212:225|203:290|235:313,1,207,2|0,0:0|1:0,0:0:0:0:
236,96,183211,6,0,P|255:77|282:69,1,51.75,2|0,0:0|0:0,0:0:0:0:
153,162,183416,2,0,P|146:137|151:112,1,51.75,2|0,1:0|0:0,0:0:0:0:
168,267,183622,2,0,P|143:260|123:243,1,51.75,2|0,0:0|0:0,0:0:0:0:
418,338,183827,6,0,P|483:317|513:255,1,139.724995735932,2|0,1:0|0:0,0:0:0:0:
512,256,184033,2,0,P|490:238|481:215,1,51.75,2|0,0:0|0:0,0:0:0:0:
350,96,184238,6,0,P|415:117|445:179,1,116.437504441738,2|0,1:0|0:0,0:0:0:0:
440,155,184444,2,0,P|418:173|409:196,1,38.8125014805794,2|0,0:0|0:0,0:0:0:0:
232,311,184649,6,0,B|244:300|247:276|247:276|269:227|332:237|359:268|359:268|337:284|337:318,1,207,2|0,1:0|0:0,0:0:0:0:
295,373,184957,1,0,0:0:0:0:
168,267,185060,2,0,P|142:272|124:290,1,51.75,2|0,1:0|0:0,0:0:0:0:
53,375,185266,2,0,L|36:299,1,77.6250029611589,2|0,0:0|0:0,0:0:0:0:
1,155,185471,1,0,1:0:0:0:
5,166,185574,1,0,0:0:0:0:
11,173,185676,2,0,P|42:194|80:195,1,77.6250029611589,2|0,0:0|0:0,0:0:0:0:
230,109,185882,1,0,1:0:0:0:
242,105,185985,1,0,0:0:0:0:
168,62,186087,6,0,B|138:93|136:149|180:180|180:180|230:180|246:232,1,207,2|4,0:0|1:0,0:0:0:0:
238,214,186498,2,0,P|259:199|273:178,1,51.75,10|8,0:3|0:3,0:0:0:0:
386,47,186704,5,2,1:0:0:0:
360,73,186806,1,0,0:0:0:0:
369,108,186909,1,2,0:0:0:0:
405,116,187012,1,0,0:0:0:0:
429,88,187114,5,2,1:0:0:0:
360,73,187218,1,0,0:0:0:0:
291,58,187320,1,10,0:3:0:0:
332,45,187423,1,4,0:3:0:0:
361,28,187526,5,10,0:0:0:0:
292,43,187630,1,8,0:3:0:0:
223,58,187731,1,10,0:0:0:0:
154,73,187834,1,8,0:3:0:0:
62,93,187937,6,0,L|67:79,10,12.9375004935265,2|0|0|0|0|0|0|0|0|0|0,1:0|0:0|0:0|0:0|0:0|0:0|0:0|0:0|0:0|0:0|0:0,0:0:0:0:
207,151,188348,6,0,B|224:170|261:169|261:169|187:191|142:125|147:46|147:46|143:49|143:49|50:8|0:106|0:106|32:81|61:92,1,507.149984523011,6|0,1:0|0:0,0:0:0:0:
49,167,188759,2,0,B|88:237|54:305|54:305|89:237|181:240,1,289.799991156006,2|2,1:0|0:0,0:0:0:0:
256,90,189067,1,2,0:0:0:0:
265,82,189170,2,0,P|286:68|312:63,1,51.75,0|0,1:0|0:0,0:0:0:0:
481,12,189375,6,0,B|442:65|391:49|391:49|385:19|363:4,1,147.487496061659,2|0,0:0|0:0,0:0:0:0:
379,0,189581,2,0,P|389:16|396:34,1,38.8125014805794,0|0,1:0|0:0,0:0:0:0:
441,245,189786,1,2,0:0:0:0:
364,251,189889,1,0,0:0:0:0:
337,176,189992,6,0,B|324:146|360:122|360:122|340:146|340:161,1,93.1499971572877,2|0,1:0|0:0,0:0:0:0:
326,324,190197,2,0,B|306:349|267:330|267:330|298:335|311:328,1,93.1499971572877,2|0,0:0|0:0,0:0:0:0:
441,245,190403,2,0,B|477:238|505:195|505:195|529:323|444:344|444:344|424:318|388:314,1,310.5,2|0,1:0|0:0,0:0:0:0:
279,248,190813,2,0,P|257:233|233:223,1,51.75,2|0,1:0|0:0,0:0:0:0:
135,325,191019,2,0,P|158:314|178:298,1,51.75,2|0,0:0|0:0,0:0:0:0:
99,167,191224,6,0,P|71:174|54:179,1,46.5749985786438,2|0,1:0|0:0,0:0:0:0:
45,194,191635,2,0,P|114:177|181:164,1,139.724995735932,2|0,1:0|0:0,0:0:0:0:
180,164,191841,2,0,P|161:181|153:206,1,51.75,2|0,0:0|0:0,0:0:0:0:
298,117,192046,2,0,P|267:92|233:75,1,77.6250029611589,2|0,1:0|0:0,0:0:0:0:
233,223,192252,1,0,0:0:0:0:
392,163,192355,2,0,P|398:124|395:86,2,77.6250029611589,2|0|0,0:0|1:0|0:0,0:0:0:0:
236,327,192663,6,0,B|239:346|218:369|218:369|269:315|346:313|346:313|358:343|386:349,1,238.050004540443,2|0,0:0|1:0,0:0:0:0:
483,351,192971,1,0,0:0:0:0:
487,340,193074,2,0,P|498:316|512:295,1,51.75,2|0,0:0|0:0,0:0:0:0:
444,235,193279,2,0,P|432:258|418:279,1,51.75,2|0,1:0|0:0,0:0:0:0:
157,313,193485,2,0,P|131:296|101:285,1,62.0999981048585,2|0,0:0|0:0,0:0:0:0:
10,92,193689,5,2,1:0:0:0:
77,61,193792,1,0,0:0:0:0:
127,116,193895,1,2,0:0:0:0:
90,181,193997,1,0,0:0:0:0:
17,166,194101,1,2,1:0:0:0:
384,66,194512,5,2,1:0:0:0:
464,103,194649,1,2,0:0:0:0:
457,15,194786,1,2,0:0:0:0:
394,153,194923,1,2,1:0:0:0:
163,232,195334,5,2,1:0:0:0:
83,269,195471,1,2,0:0:0:0:
90,181,195608,1,2,0:0:0:0:
153,319,195745,1,2,1:0:0:0:
393,297,196156,5,2,1:0:0:0:
473,334,196293,1,2,0:0:0:0:
473,334,196430,1,2,0:0:0:0:
466,246,196567,5,2,1:0:0:0:
403,384,196704,1,2,0:0:0:0:
403,384,196841,1,2,0:0:0:0:
473,334,196978,6,0,B|531:303|531:303|339:353,1,263.92500503397,2|0,1:0|0:0,0:0:0:0:
253,373,197389,2,0,L|263:322,1,51.75,2|0,1:0|0:0,0:0:0:0:
189,278,197594,2,0,L|178:328,1,51.75,2|0,0:0|0:0,0:0:0:0:
271,233,197800,5,4,1:0:0:0:
34,363,198005,1,2,0:0:0:0:
34,363,198108,1,0,0:0:0:0:
34,363,198211,2,0,P|18:342|0:324,1,51.75,2|0,1:0|0:0,0:0:0:0:
59,257,198416,2,0,P|74:277|93:295,1,51.75,2|0,0:0|0:0,0:0:0:0:
348,194,198622,6,0,B|337:147|357:103|357:103|332:146|280:151,1,186.299994314575,2|0,1:0|0:0,0:0:0:0:
353,273,198930,1,0,0:0:0:0:
353,273,199033,2,0,P|378:269|401:257,1,51.75,2|0,1:0|0:0,0:0:0:0:
204,179,199238,2,0,P|198:154|200:129,1,51.75,2|0,0:0|0:0,0:0:0:0:
397,33,199444,5,0,1:0:0:0:
59,257,200266,5,8,0:0:0:0:
35,300,200368,1,8,0:0:0:0:
58,344,200471,1,8,0:0:0:0:
108,348,200574,1,8,0:0:0:0:
138,308,200676,2,0,L|129:270,1,38.8125014805794,12|0,0:0|0:0,0:0:0:0:
206,219,200882,2,0,L|214:256,1,38.8125014805794
388,319,201087,6,0,B|393:282|423:264|423:264|412:211|348:165|283:217|283:217|319:210|350:237,1,310.5,6|0,1:0|0:0,0:0:0:0:
295,294,201498,2,0,B|272:339|235:331|235:331|264:321|273:299,1,116.437504441738,0|0,1:0|0:0,0:0:0:0:
466,331,201909,6,0,L|470:351,1,20.7,2|0,1:0|0:0,0:0:0:0:
504,239,202115,2,0,L|508:259,1,20.7,2|0,0:0|0:0,0:0:0:0:
338,210,202320,6,0,L|342:230,1,20.7,2|0,1:0|0:0,0:0:0:0:
376,118,202526,2,0,L|380:138,1,20.7,2|0,0:0|0:0,0:0:0:0:
295,294,202731,6,0,B|272:339|235:331|235:331|264:321|265:311,1,113.850003474426,2|0,1:0|0:0,0:0:0:0:
265,311,203039,1,0,0:0:0:0:
265,311,203142,1,0,1:0:0:0:
104,244,203348,1,0,0:0:0:0:
129,158,203553,6,0,L|149:153,1,20.7,2|0,1:0|0:0,0:0:0:0:
60,340,203759,2,0,L|80:335,1,20.7,2|0,0:0|0:0,0:0:0:0:
189,265,203964,6,0,L|209:260,1,20.7,2|0,1:0|0:0,0:0:0:0:
0,233,204170,2,0,L|20:228,1,20.7,2|0,0:0|0:0,0:0:0:0:
249,138,204375,6,0,B|242:80|179:79|179:79|220:95|222:122,1,155.250005922318,2|2,1:0|0:0,0:0:0:0:
324,84,204683,1,2,0:0:0:0:
324,84,204786,2,0,L|332:46,1,38.8125014805794,2|0,1:0|0:0,0:0:0:0:
417,25,204992,2,0,L|395:126,1,103.5,2|0,0:0|1:0,0:0:0:0:
371,271,205403,5,2,0:0:0:0:
371,271,205505,1,0,0:0:0:0:
371,271,205608,2,0,P|381:255|399:246,1,38.8125014805794,2|0,1:0|0:0,0:0:0:0:
342,379,205813,2,0,B|288:364|294:303|294:303|309:336|342:342,1,144.899995578003,2|0,0:0|1:0,0:0:0:0:
85,368,206224,5,2,0:0:0:0:
85,368,206327,1,2,0:0:0:0:
85,368,206430,2,0,L|47:359,1,38.8125014805794,2|0,1:0|0:0,0:0:0:0:
31,273,206635,2,0,L|132:294,1,103.5,2|0,0:0|1:0,0:0:0:0:
215,312,206944,5,0,0:0:0:0:
215,312,207046,2,0,L|223:349,1,38.8125014805794,2|2,0:0|0:0,0:0:0:0:
309,208,207252,2,0,L|300:245,1,38.8125014805794,2|0,1:0|0:0,0:0:0:0:
158,151,207457,2,0,L|166:188,1,38.8125014805794,2|0,0:0|0:0,0:0:0:0:
329,26,207663,6,0,L|320:65,1,38.8125,8|0,1:2|0:0,0:0:0:0:
316,86,208074,6,0,B|356:97|370:136|370:136|355:98|368:58|368:58|297:1|210:23|176:75|176:75|227:91|232:152,1,434.699986734009,6|0,1:0|0:0,0:0:0:0:
300,245,208485,2,0,L|309:208,1,38.8125014805794,2|0,1:0|0:0,0:0:0:0:
398,208,208690,2,0,L|389:245,1,38.8125014805794,2|0,3:0|0:0,0:0:0:0:
85,368,208896,6,0,L|47:359,1,38.8125014805794,2|0,1:0|0:0,0:0:0:0:
166,301,209101,2,0,L|128:292,1,38.8125014805794,2|0,3:0|0:0,0:0:0:0:
358,384,209307,6,0,P|400:345|456:334,1,116.437504441738,2|0,1:0|0:0,0:0:0:0:
456,327,209512,2,0,P|431:328|403:338,1,51.75,2|0,3:0|0:0,0:0:0:0:
166,301,209718,6,0,P|123:262|67:251,1,116.437504441738,2|0,1:0|0:0,0:0:0:0:
68,244,209923,2,0,P|93:245|121:255,1,51.75,2|0,3:0|0:0,0:0:0:0:
398,208,210129,6,0,L|422:94,1,116.437504441738,2|0,1:0|0:0,0:0:0:0:
416,83,210334,2,0,L|405:133,1,51.75,2|0,3:0|0:0,0:0:0:0:
267,244,210539,6,0,L|291:130,1,116.437504441738,2|0,1:0|0:0,0:0:0:0:
285,119,210745,2,0,L|274:169,1,51.75,2|0,3:0|0:0,0:0:0:0:
16,119,210950,5,6,1:0:0:0:
16,103,211053,1,0,3:0:0:0:
26,92,211156,1,0,3:0:0:0:
42,89,211259,1,0,3:0:0:0:
87,25,211361,5,10,3:2:0:0:
103,14,211464,1,0,3:0:0:0:
122,18,211567,1,0,3:0:0:0:
135,33,211670,1,0,3:0:0:0:
213,18,211772,5,10,3:2:0:0:
234,28,211875,1,0,3:0:0:0:
243,52,211978,1,0,3:0:0:0:
233,76,212081,1,0,3:0:0:0:
287,136,212183,5,10,3:2:0:0:
289,170,212286,1,0,3:0:0:0:
264,198,212389,1,0,3:0:0:0:
226,204,212492,1,0,3:0:0:0:
151,236,212594,6,0,L|126:114,1,124.199996209717,14|2,0:0|0:0,0:0:0:0:
139,124,212903,1,8,0:3:0:0:
152,134,213005,5,10,0:3:0:0:
115,146,213108,1,8,0:3:0:0:
78,158,213211,1,2,3:0:0:0:
41,170,213314,1,0,3:0:0:0:
4,182,213416,5,10,0:0:0:0:
43,134,213519,1,8,0:3:0:0:
109,202,213622,1,6,0:3:0:0:
221,103,213725,1,12,0:3:0:0:
290,203,213827,1,2,3:0:0:0:
492,21,214033,5,2,3:0:0:0:
25,384,214649,6,0,L|13:325,1,51.75,14|0,1:2|0:0,0:0:0:0:
