osu file format v14

[General]
AudioFilename: audio.mp3
AudioLeadIn: 0
PreviewTime: 160711
Countdown: 0
SampleSet: Soft
StackLeniency: 0.7
Mode: 0
LetterboxInBreaks: 0
WidescreenStoryboard: 0

[Editor]
DistanceSpacing: 0.6
BeatDivisor: 8
GridSize: 32
TimelineZoom: 2.2

[Metadata]
Title:WWW
TitleUnicode:WWW
Artist:HIMEHINA
ArtistUnicode:HIMEHINA
Creator:SMOKELIND
Version:X
Source:
Tags:Moonlight Seeker Japanese Electronic Pop Virtual Youtuber Virtual Singer VTuber VSinger 田中ヒメ Tanaka Hime 鈴木ヒナ Suzuki Hina -ex- -_ex_- - ex - Maot My Angel Jeremy gazimal
BeatmapID:4166793
BeatmapSetID:2003700

[Difficulty]
HPDrainRate:5
CircleSize:4
OverallDifficulty:9
ApproachRate:9.5
SliderMultiplier:2.47
SliderTickRate:1

[Events]
//Background and Video events
Video,50,"vid.mp4"
0,0,"BG.jpg",0,0
//Break Periods
2,127315,139741
//Storyboard Layer 0 (Background)
//Storyboard Layer 1 (Fail)
//Storyboard Layer 2 (Pass)
//Storyboard Layer 3 (Foreground)
//Storyboard Layer 4 (Overlay)
//Storyboard Sound Samples

[TimingPoints]
540,410.958904109589,4,2,77,77,1,0
540,-63.6942675159236,4,2,77,77,0,0
745,-175.438596491228,4,2,77,47,0,0
3622,-93.4579439252336,4,2,77,77,0,0
3827,-63.6942675159236,4,2,77,77,0,0
4238,-93.4579439252336,4,2,77,77,0,0
4444,-63.6942675159236,4,2,77,77,0,0
4855,-175.438596491228,4,2,77,47,0,0
5676,-149.253731343284,4,2,77,47,0,0
6293,-212.765957446809,4,2,77,47,0,0
7115,-63.6942675159236,4,2,77,77,0,0
7526,-93.4579439252336,4,2,77,57,0,0
8759,-63.6942675159236,4,2,77,77,0,0
9170,-93.4579439252336,4,2,77,57,0,0
10197,-68.0272108843537,4,2,77,77,0,0
10403,-53.475935828877,4,2,77,77,0,0
10813,-63.6942675159236,4,2,77,77,0,0
11019,-48.3091787439614,4,2,77,77,0,0
11173,-48.3091787439614,4,2,77,5,0,0
11224,-63.6942675159236,4,2,77,77,0,0
11635,-48.3091787439614,4,2,77,77,0,0
11789,-48.3091787439614,4,2,77,5,0,0
11840,-63.6942675159236,4,2,77,77,0,0
13690,-175.438596491228,4,2,77,47,0,0
14923,-63.6942675159236,4,2,77,77,0,0
15282,-63.6942675159236,4,2,77,5,0,0
15334,-68.0272108843537,4,2,77,67,0,0
15899,-68.0272108843537,4,2,77,5,0,0
15950,-68.0272108843537,4,2,77,67,0,0
16310,-68.0272108843537,4,2,77,5,0,0
16361,-68.0272108843537,4,2,77,67,0,0
17234,-68.0272108843537,4,2,77,5,0,0
17286,-68.0272108843537,4,2,77,67,0,0
19392,-68.0272108843537,4,2,77,5,0,0
19444,-68.0272108843537,4,2,77,67,0,0
22474,-68.0272108843537,4,2,77,5,0,0
22526,-68.0272108843537,4,2,77,67,0,0
22885,-68.0272108843537,4,2,77,5,0,0
22937,-68.0272108843537,4,2,77,67,0,0
24324,-68.0272108843537,4,2,77,5,0,0
24375,-68.0272108843537,4,2,77,67,0,0
24529,-68.0272108843537,4,2,77,5,0,0
24581,-68.0272108843537,4,2,77,67,0,0
26635,-93.4579439252336,4,2,77,67,0,0
26841,-175.438596491228,4,2,77,47,0,0
28485,-56.4971751412429,4,2,77,67,0,0
28896,-68.0272108843537,4,2,77,67,0,0
29050,-68.0272108843537,4,2,77,5,0,0
29101,-68.0272108843537,4,2,77,67,0,0
29872,-68.0272108843537,4,2,77,5,0,0
29923,-68.0272108843537,4,2,77,67,0,0
31104,-68.0272108843537,4,2,77,5,0,0
31156,-68.0272108843537,4,2,77,67,0,0
31207,-68.0272108843537,4,2,77,5,0,0
31259,-68.0272108843537,4,2,77,67,0,0
31412,-68.0272108843537,4,2,77,5,0,0
31464,-68.0272108843537,4,2,77,67,0,0
31618,-68.0272108843537,4,2,77,5,0,0
31670,-68.0272108843537,4,2,77,67,0,0
31772,-56.4971751412429,4,2,77,67,0,0
32183,-68.0272108843537,4,2,77,67,0,0
32337,-68.0272108843537,4,2,77,5,0,0
32389,-68.0272108843537,4,2,77,67,0,0
34289,-68.0272108843537,4,2,77,5,0,0
34341,-68.0272108843537,4,2,77,67,0,0
34495,-68.0272108843537,4,2,77,5,0,0
34547,-68.0272108843537,4,2,77,67,0,0
34700,-68.0272108843537,4,2,77,5,0,0
34752,-68.0272108843537,4,2,77,67,0,0
34906,-68.0272108843537,4,2,77,5,0,0
34958,-68.0272108843537,4,2,77,67,0,0
35060,-56.4971751412429,4,2,77,67,0,0
35471,-68.0272108843537,4,2,77,67,0,0
36036,-68.0272108843537,4,2,77,5,0,0
36087,-68.0272108843537,4,2,77,67,0,0
36241,-68.0272108843537,4,2,77,5,0,0
36293,-68.0272108843537,4,2,77,67,0,0
37680,-68.0272108843537,4,2,77,5,0,0
37731,-68.0272108843537,4,2,77,67,0,0
38091,-68.0272108843537,4,2,77,5,0,0
38142,-68.0272108843537,4,2,77,67,0,0
38348,-56.4971751412429,4,2,77,67,0,0
38759,-68.0272108843537,4,2,77,67,0,0
38913,-68.0272108843537,4,2,77,5,0,0
38964,-68.0272108843537,4,2,77,67,0,0
39786,-129.87012987013,4,2,77,47,0,0
41635,-129.87012987013,4,2,77,47,0,0
48211,-93.4579439252336,4,2,77,57,0,0
54786,-78.7401574803149,4,2,77,57,0,0
56430,-68.0272108843537,4,2,77,57,0,0
58074,-68.0272108843537,4,2,77,67,0,0
59718,-175.438596491228,4,2,77,47,0,0
61361,-44.0528634361233,4,2,77,87,0,0
61772,-48.3091787439614,4,2,77,87,0,0
61926,-48.3091787439614,4,2,77,5,0,0
61978,-48.3091787439614,4,2,77,87,0,0
62594,-93.4579439252336,4,2,77,87,0,0
63005,-48.3091787439614,4,2,77,87,0,0
63159,-48.3091787439614,4,2,77,5,0,0
63211,-93.4579439252336,4,2,77,87,0,0
63416,-48.3091787439614,4,2,77,87,0,0
63570,-48.3091787439614,4,2,77,5,0,0
63622,-68.0272108843537,4,2,77,87,0,0
63776,-68.0272108843537,4,2,77,5,0,0
63827,-44.0528634361233,4,2,77,87,0,0
64238,-48.3091787439614,4,2,77,87,0,0
64392,-48.3091787439614,4,2,77,5,0,0
64444,-93.4579439252336,4,2,77,87,0,0
64649,-44.0528634361233,4,2,77,87,0,0
65060,-48.3091787439614,4,2,77,87,0,0
65214,-48.3091787439614,4,2,77,5,0,0
65266,-48.3091787439614,4,2,77,87,0,0
65882,-93.4579439252336,4,2,77,87,0,0
66036,-93.4579439252336,4,2,77,5,0,0
66087,-93.4579439252336,4,2,77,87,0,0
66447,-93.4579439252336,4,2,77,5,0,0
66498,-63.6942675159236,4,2,77,87,0,0
66652,-63.6942675159236,4,2,77,5,0,0
66704,-48.3091787439614,4,2,77,87,0,0
66858,-48.3091787439614,4,2,77,5,0,0
66909,-93.4579439252336,4,2,77,87,0,0
67115,-48.3091787439614,4,2,77,87,0,0
67269,-48.3091787439614,4,2,77,5,0,0
67320,-48.3091787439614,4,2,77,87,0,0
68502,-48.3091787439614,4,2,77,5,0,0
68553,-93.4579439252336,4,2,77,87,0,0
68964,-48.3091787439614,4,2,77,87,0,0
69324,-48.3091787439614,4,2,77,5,0,0
69375,-93.4579439252336,4,2,77,87,0,0
69786,-48.3091787439614,4,2,77,87,0,0
69940,-48.3091787439614,4,2,77,5,0,0
69992,-48.3091787439614,4,2,77,87,0,0
70146,-48.3091787439614,4,2,77,5,0,0
70197,-48.3091787439614,4,2,77,87,0,0
71635,-48.3091787439614,4,2,77,87,0,0
71789,-48.3091787439614,4,2,77,5,0,0
71841,-93.4579439252336,4,2,77,87,0,0
72046,-48.3091787439614,4,2,77,87,0,0
73279,-48.3091787439614,4,2,77,87,0,0
73433,-48.3091787439614,4,2,77,5,0,0
73485,-93.4579439252336,4,2,77,87,0,0
73690,-48.3091787439614,4,2,77,87,0,0
73844,-48.3091787439614,4,2,77,5,0,0
73895,-93.4579439252336,4,2,77,87,0,0
74922,-48.3091787439614,4,2,77,87,0,0
75077,-48.3091787439614,4,2,77,5,0,0
75129,-48.3091787439614,4,2,77,87,0,0
75744,-93.4579439252336,4,2,77,87,0,0
76155,-48.3091787439614,4,2,77,87,0,0
76310,-48.3091787439614,4,2,77,5,0,0
76361,-93.4579439252336,4,2,77,87,0,0
76566,-48.3091787439614,4,2,77,87,0,0
76721,-48.3091787439614,4,2,77,5,0,0
76772,-93.4579439252336,4,2,77,87,0,0
76977,-44.0528634361233,4,2,77,87,0,0
77388,-48.3091787439614,4,2,77,87,0,0
77543,-48.3091787439614,4,2,77,5,0,0
77594,-93.4579439252336,4,2,77,87,0,0
77799,-44.0528634361233,4,2,77,87,0,0
78210,-48.3091787439614,4,2,77,87,0,0
79032,-93.4579439252336,4,2,77,87,0,0
79187,-93.4579439252336,4,2,77,5,0,0
79238,-93.4579439252336,4,2,77,87,0,0
79598,-93.4579439252336,4,2,77,5,0,0
79648,-63.6942675159236,4,2,77,87,0,0
79803,-63.6942675159236,4,2,77,5,0,0
79854,-48.3091787439614,4,2,77,87,0,0
80009,-48.3091787439614,4,2,77,5,0,0
80059,-93.4579439252336,4,2,77,87,0,0
80265,-48.3091787439614,4,2,77,87,0,0
80675,-93.4579439252336,4,2,77,87,0,0
81086,-48.3091787439614,4,2,77,87,0,0
81156,-48.3091787439614,4,2,77,5,0,0
81224,-48.3091787439614,4,2,77,87,0,0
81430,-48.3091787439614,4,2,77,5,0,0
81497,-93.4579439252336,4,2,77,87,0,0
81841,-48.3091787439614,4,2,77,5,0,0
81908,-48.3091787439614,4,2,77,87,0,0
81978,-48.3091787439614,4,2,77,5,0,0
82046,-48.3091787439614,4,2,77,87,0,0
82252,-48.3091787439614,4,2,77,5,0,0
82319,-129.87012987013,4,2,77,87,0,0
82663,-48.3091787439614,4,2,77,5,0,0
82730,-56.4971751412429,4,2,77,87,0,0
82800,-48.3091787439614,4,2,77,5,0,0
82868,-56.4971751412429,4,2,77,87,0,0
83074,-48.3091787439614,4,2,77,5,0,0
83142,-56.4971751412429,4,2,77,87,0,0
83211,-48.3091787439614,4,2,77,5,0,0
83279,-56.4971751412429,4,2,77,87,0,0
83485,-48.3091787439614,4,2,77,5,0,0
83553,-63.6942675159236,4,2,77,87,0,0
83912,-63.6942675159236,4,2,77,5,0,0
83964,-78.7401574803149,4,2,77,87,0,0
84375,-78.7401574803149,4,2,77,77,0,0
85762,-78.7401574803149,4,2,77,5,0,0
85813,-78.7401574803149,4,2,77,77,0,0
86019,-93.4579439252336,4,2,77,57,0,0
87663,-93.4579439252336,4,2,77,67,0,0
88074,-93.4579439252336,4,2,77,37,0,0
88485,-78.7401574803149,4,2,77,67,0,0
88896,-68.0272108843537,4,2,77,67,0,0
89307,-93.4579439252336,4,2,77,67,0,0
90129,-78.7401574803149,4,2,77,67,0,0
90540,-129.87012987013,4,2,77,67,0,0
90899,-129.87012987013,4,2,77,5,0,0
90950,-68.0272108843537,4,2,77,67,0,0
91361,-93.4579439252336,4,2,77,67,0,0
91772,-78.7401574803149,4,2,77,67,0,0
92081,-93.4579439252336,4,2,77,67,0,0
93005,-78.7401574803149,4,2,77,67,0,0
93827,-129.87012987013,4,2,77,67,0,0
94186,-129.87012987013,4,2,77,5,0,0
94237,-68.0272108843537,4,2,77,67,0,0
94649,-78.7401574803149,4,2,77,67,0,0
97115,-129.87012987013,4,2,77,67,0,0
97474,-129.87012987013,4,2,77,5,0,0
97525,-68.0272108843537,4,2,77,67,0,0
97937,-78.7401574803149,4,2,77,67,0,0
100813,-56.4971751412429,4,2,77,67,0,0
101224,-68.0272108843537,4,2,77,67,0,0
101789,-68.0272108843537,4,2,77,5,0,0
101841,-68.0272108843537,4,2,77,67,0,0
102200,-68.0272108843537,4,2,77,5,0,0
102252,-68.0272108843537,4,2,77,67,0,0
103433,-68.0272108843537,4,2,77,5,0,0
103485,-68.0272108843537,4,2,77,67,0,0
103896,-93.4579439252336,4,2,77,67,0,0
104101,-68.0272108843537,4,2,77,67,0,0
106618,-68.0272108843537,4,2,77,5,0,0
106670,-68.0272108843537,4,2,77,67,0,0
106823,-68.0272108843537,4,2,77,5,0,0
106875,-68.0272108843537,4,2,77,67,0,0
107029,-68.0272108843537,4,2,77,5,0,0
107081,-68.0272108843537,4,2,77,67,0,0
107234,-68.0272108843537,4,2,77,5,0,0
107286,-68.0272108843537,4,2,77,67,0,0
107389,-56.4971751412429,4,2,77,67,0,0
107800,-68.0272108843537,4,2,77,67,0,0
113553,-93.4579439252336,4,2,77,67,0,0
114170,-93.4579439252336,4,2,77,47,0,0
116995,-93.4579439252336,4,2,77,5,0,0
117046,-129.87012987013,4,2,77,47,0,0
117252,-68.0272108843537,4,2,77,67,0,0
123467,-68.0272108843537,4,2,77,5,0,0
123519,-68.0272108843537,4,2,77,67,0,0
123570,-68.0272108843537,4,2,77,5,0,0
123622,-68.0272108843537,4,2,77,67,0,0
123673,-68.0272108843537,4,2,77,5,0,0
123827,-93.4579439252336,4,2,77,67,0,0
125008,-93.4579439252336,4,2,77,5,0,0
125060,-93.4579439252336,4,2,77,67,0,0
127115,-212.765957446809,4,2,77,47,0,0
140266,-149.253731343284,4,2,77,47,0,0
146841,-129.87012987013,4,2,77,47,0,0
150129,-114.942528735632,4,2,77,57,0,0
150540,-103.092783505155,4,2,77,57,0,0
150950,-93.4579439252336,4,2,77,57,0,0
151361,-85.4700854700854,4,2,77,57,0,0
153416,-588.235294117647,4,2,77,37,0,0
159992,-63.6942675159236,4,2,77,77,0,0
160197,-175.438596491228,4,2,77,47,0,0
163073,-93.4579439252336,4,2,77,77,0,0
163278,-63.6942675159236,4,2,77,77,0,0
163689,-93.4579439252336,4,2,77,77,0,0
163895,-63.6942675159236,4,2,77,77,0,0
164306,-175.438596491228,4,2,77,47,0,0
164718,-129.87012987013,4,2,77,47,0,0
166566,-63.6942675159236,4,2,77,77,0,0
166823,-63.6942675159236,4,2,77,5,0,0
166875,-63.6942675159236,4,2,77,77,0,0
166978,-72.992700729927,4,2,77,77,0,0
167543,-72.992700729927,4,2,77,5,0,0
167594,-72.992700729927,4,2,77,77,0,0
167954,-72.992700729927,4,2,77,5,0,0
168005,-72.992700729927,4,2,77,77,0,0
168211,-63.6942675159236,4,2,77,77,0,0
168467,-63.6942675159236,4,2,77,5,0,0
168519,-63.6942675159236,4,2,77,77,0,0
168622,-72.992700729927,4,2,77,77,0,0
169187,-72.992700729927,4,2,77,5,0,0
169238,-72.992700729927,4,2,77,77,0,0
169598,-72.992700729927,4,2,77,5,0,0
169649,-72.992700729927,4,2,77,77,0,0
169854,-53.475935828877,4,2,77,77,0,0
170009,-53.475935828877,4,2,77,5,0,0
170059,-68.0272108843537,4,2,77,77,0,0
170470,-53.475935828877,4,2,77,77,0,0
170625,-53.475935828877,4,2,77,5,0,0
170675,-68.0272108843537,4,2,77,77,0,0
171086,-53.475935828877,4,2,77,77,0,0
171241,-53.475935828877,4,2,77,5,0,0
171291,-68.0272108843537,4,2,77,77,0,0
172731,-93.4579439252336,4,2,77,77,0,0
174785,-44.0528634361233,4,2,77,87,0,0
175196,-48.3091787439614,4,2,77,87,0,0
175351,-48.3091787439614,4,2,77,5,0,0
175403,-48.3091787439614,4,2,77,87,0,0
176018,-93.4579439252336,4,2,77,87,0,0
176429,-48.3091787439614,4,2,77,87,0,0
176635,-93.4579439252336,4,2,77,87,0,0
176789,-93.4579439252336,4,2,77,5,0,0
176840,-48.3091787439614,4,2,77,87,0,0
177046,-93.4579439252336,4,2,77,87,0,0
177200,-93.4579439252336,4,2,77,5,0,0
177251,-44.0528634361233,4,2,77,87,0,0
177662,-48.3091787439614,4,2,77,87,0,0
177817,-48.3091787439614,4,2,77,5,0,0
177868,-93.4579439252336,4,2,77,87,0,0
178073,-53.475935828877,4,2,77,87,0,0
178484,-48.3091787439614,4,2,77,87,0,0
179306,-93.4579439252336,4,2,77,87,0,0
179922,-93.4579439252336,4,2,77,87,0,0
180077,-93.4579439252336,4,2,77,5,0,0
180128,-48.3091787439614,4,2,77,87,0,0
180333,-93.4579439252336,4,2,77,87,0,0
180488,-93.4579439252336,4,2,77,5,0,0
180539,-48.3091787439614,4,2,77,87,0,0
180694,-48.3091787439614,4,2,77,5,0,0
180745,-48.3091787439614,4,2,77,87,0,0
181927,-48.3091787439614,4,2,77,5,0,0
181977,-93.4579439252336,4,2,77,87,0,0
182388,-48.3091787439614,4,2,77,87,0,0
182749,-48.3091787439614,4,2,77,5,0,0
182799,-93.4579439252336,4,2,77,87,0,0
183210,-48.3091787439614,4,2,77,87,0,0
183365,-48.3091787439614,4,2,77,5,0,0
183416,-48.3091787439614,4,2,77,87,0,0
183570,-48.3091787439614,4,2,77,5,0,0
183622,-48.3091787439614,4,2,77,87,0,0
185059,-48.3091787439614,4,2,77,87,0,0
185265,-93.4579439252336,4,2,77,87,0,0
185420,-93.4579439252336,4,2,77,5,0,0
185470,-48.3091787439614,4,2,77,87,0,0
186703,-48.3091787439614,4,2,77,87,0,0
186858,-48.3091787439614,4,2,77,5,0,0
186909,-93.4579439252336,4,2,77,87,0,0
187114,-48.3091787439614,4,2,77,87,0,0
187269,-48.3091787439614,4,2,77,5,0,0
187319,-93.4579439252336,4,2,77,87,0,0
188346,-48.3091787439614,4,2,77,87,0,0
188502,-48.3091787439614,4,2,77,5,0,0
188554,-48.3091787439614,4,2,77,87,0,0
188913,-48.3091787439614,4,2,77,5,0,0
188964,-48.3091787439614,4,2,77,87,0,0
189168,-93.4579439252336,4,2,77,87,0,0
189579,-48.3091787439614,4,2,77,87,0,0
189735,-48.3091787439614,4,2,77,5,0,0
189785,-93.4579439252336,4,2,77,87,0,0
189990,-48.3091787439614,4,2,77,87,0,0
190146,-48.3091787439614,4,2,77,5,0,0
190196,-93.4579439252336,4,2,77,87,0,0
190401,-44.0528634361233,4,2,77,87,0,0
190812,-48.3091787439614,4,2,77,87,0,0
190967,-48.3091787439614,4,2,77,5,0,0
191018,-93.4579439252336,4,2,77,87,0,0
191223,-44.0528634361233,4,2,77,87,0,0
191634,-48.3091787439614,4,2,77,87,0,0
192456,-93.4579439252336,4,2,77,87,0,0
192611,-93.4579439252336,4,2,77,5,0,0
192663,-93.4579439252336,4,2,77,87,0,0
193022,-93.4579439252336,4,2,77,5,0,0
193072,-63.6942675159236,4,2,77,87,0,0
193228,-63.6942675159236,4,2,77,5,0,0
193278,-48.3091787439614,4,2,77,87,0,0
193433,-48.3091787439614,4,2,77,5,0,0
193483,-93.4579439252336,4,2,77,87,0,0
193689,-48.3091787439614,4,2,77,87,0,0
194099,-93.4579439252336,4,2,77,87,0,0
194510,-48.3091787439614,4,2,77,87,0,0
194581,-48.3091787439614,4,2,77,5,0,0
194649,-48.3091787439614,4,2,77,87,0,0
194855,-48.3091787439614,4,2,77,5,0,0
194921,-93.4579439252336,4,2,77,87,0,0
195266,-48.3091787439614,4,2,77,5,0,0
195332,-48.3091787439614,4,2,77,87,0,0
195403,-48.3091787439614,4,2,77,5,0,0
195471,-48.3091787439614,4,2,77,87,0,0
195676,-48.3091787439614,4,2,77,5,0,0
195743,-129.87012987013,4,2,77,87,0,0
196087,-48.3091787439614,4,2,77,5,0,0
196154,-56.4971751412429,4,2,77,87,0,0
196224,-48.3091787439614,4,2,77,5,0,0
196293,-56.4971751412429,4,2,77,87,0,0
196498,-48.3091787439614,4,2,77,5,0,0
196567,-56.4971751412429,4,2,77,87,0,0
196635,-48.3091787439614,4,2,77,5,0,0
196704,-56.4971751412429,4,2,77,87,0,0
196909,-48.3091787439614,4,2,77,5,0,0
196977,-63.6942675159236,4,2,77,87,0,0
197337,-63.6942675159236,4,2,77,5,0,0
197388,-78.7401574803149,4,2,77,87,0,0
197748,-78.7401574803149,4,2,77,5,0,0
197799,-72.992700729927,4,2,77,77,0,0
199392,-72.992700729927,4,2,77,5,0,0
199443,-93.4579439252336,4,2,77,57,0,0
201035,-93.4579439252336,4,2,77,5,0,0
201087,-68.0272108843537,4,2,77,67,0,0
201498,-370.37037037037,4,2,77,67,0,0
201857,-370.37037037037,4,2,77,5,0,0
201909,-68.0272108843537,4,2,77,67,0,0
202063,-68.0272108843537,4,2,77,5,0,0
202115,-68.0272108843537,4,2,77,67,0,0
202474,-68.0272108843537,4,2,77,5,0,0
202526,-68.0272108843537,4,2,77,67,0,0
203142,-370.37037037037,4,2,77,67,0,0
203501,-370.37037037037,4,2,77,5,0,0
203553,-68.0272108843537,4,2,77,67,0,0
203707,-68.0272108843537,4,2,77,5,0,0
203759,-68.0272108843537,4,2,77,67,0,0
204118,-68.0272108843537,4,2,77,5,0,0
204170,-68.0272108843537,4,2,77,67,0,0
204631,-68.0272108843537,4,2,77,5,0,0
204683,-68.0272108843537,4,2,77,67,0,0
208228,-68.0272108843537,4,2,77,5,0,0
208279,-68.0272108843537,4,2,77,67,0,0
208639,-68.0272108843537,4,2,77,5,0,0
208690,-68.0272108843537,4,2,77,67,0,0
209050,-68.0272108843537,4,2,77,5,0,0
209101,-68.0272108843537,4,2,77,67,0,0
209461,-68.0272108843537,4,2,77,5,0,0
209512,-68.0272108843537,4,2,77,67,0,0
209872,-68.0272108843537,4,2,77,5,0,0
209923,-68.0272108843537,4,2,77,67,0,0
210283,-68.0272108843537,4,2,77,5,0,0
210334,-68.0272108843537,4,2,77,67,0,0
212594,-93.4579439252336,4,2,77,67,0,0
215060,-63.6942675159236,4,2,77,67,0,0

[Colours]
Combo1 : 124,74,255
Combo2 : 255,74,74

[HitObjects]
260,27,540,6,0,L|243:150,1,96.9475003698254,4|0,1:0|0:0,0:0:0:0:
34,323,950,5,8,0:1:0:0:
64,252,1156,2,0,P|98:248|134:237,1,70.3949991406861,0|10,0:0|0:1,0:0:0:0:
249,312,1567,2,0,P|205:301|205:261,1,70.3949991406861,2|8,0:0|0:1,0:0:0:0:
229,130,1978,2,0,P|217:167|209:224,1,70.3949991406861,2|8,0:0|0:1,0:0:0:0:
367,317,2388,1,2,0:0:0:0:
367,317,2491,1,2,0:0:0:0:
367,317,2594,2,0,P|403:308|420:259,2,70.3949991406861,10|0|8,0:1|0:0|0:1,0:0:0:0:
301,216,3211,1,0,0:0:0:0:
304,202,3416,1,10,0:1:0:0:
112,112,3622,6,0,P|98:60|87:23,1,66.0724979836274,0|0,1:0|0:0,0:0:0:0:
159,11,3827,6,0,P|135:154|113:330,1,290.842501109476,4|0,1:0|0:0,0:0:0:0:
66,353,4238,2,0,P|40:318|53:280,1,66.0724979836274,10|0,0:1|0:0,0:0:0:0:
240,145,4444,6,0,B|276:123|334:137|349:203|349:203|363:268|421:282|458:261,1,290.842501109476,6|0,1:0|0:0,0:0:0:0:
481,190,4855,6,0,P|487:154|497:121,1,70.3949991406861,2|10,0:0|0:1,0:0:0:0:
425,95,5163,6,0,P|419:59|409:26,1,70.3949991406861,2|0,0:0|0:0,0:0:0:0:
481,0,5471,5,10,0:1:0:0:
275,61,5676,6,0,P|251:67|214:86,1,41.3724980429879,2|0,0:0|0:0,0:0:0:0:
223,149,5882,2,0,P|198:145|157:149,1,41.3724980429879,10|0,0:1|0:0,0:0:0:0:
128,210,6087,2,0,P|106:197|66:185,1,41.3724980429879,2|0,0:0|0:0,0:0:0:0:
52,35,6293,6,0,P|102:54|89:124,1,116.089998228607,10|8,0:1|0:1,0:0:0:0:
384,225,7115,6,0,B|440:278|563:241|560:129|458:97|440:157,1,290.842501109476,6|0,1:0|3:0,0:0:0:0:
339,291,7526,2,0,P|303:298|267:312,1,66.0724979836274,2|0,3:0|0:0,0:0:0:0:
183,194,7731,2,0,P|207:219|238:243,1,66.0724979836274,0|0,3:0|0:0,0:0:0:0:
181,381,7937,2,0,P|189:346|193:307,1,66.0724979836274,2|0,3:0|0:0,0:0:0:0:
308,203,8142,1,2,3:0:0:0:
308,203,8245,1,0,3:0:0:0:
308,203,8348,2,0,P|299:168|295:129,1,66.0724979836274,2|0,3:0|0:0,0:0:0:0:
205,16,8553,2,0,P|213:50|217:89,1,66.0724979836274,2|0,3:0|0:0,0:0:0:0:
59,155,8759,6,0,P|197:121|367:91,1,290.842501109476,2|0,1:0|0:0,0:0:0:0:
444,42,9170,2,0,P|409:34|370:14,1,66.0724979836274,2|0,3:0|0:0,0:0:0:0:
447,147,9375,2,0,P|412:155|373:175,1,66.0724979836274,0|0,3:0|0:0,0:0:0:0:
341,318,9581,2,0,P|352:284|356:240,1,66.0724979836274,0|0,3:0|0:0,0:0:0:0:
299,187,9786,1,2,3:0:0:0:
299,187,9889,1,0,3:0:0:0:
299,187,9992,1,2,3:0:0:0:
47,213,10197,6,0,P|0:201|2:160,1,90.772495775511,2|0,1:0|0:0,0:0:0:0:
96,74,10403,6,0,P|77:172|58:322,1,230.944995418877,6|0,1:0|1:0,0:0:0:0:
171,33,10813,6,0,P|222:35|245:75,1,96.9475003698254,0|0,1:0|0:0,0:0:0:0:
397,206,11019,2,0,L|195:251,1,191.733755339266,2|0,1:0|2:0,0:0:0:0:
202,249,11224,6,0,P|166:212|177:167,1,96.9475003698254,0|0,1:0|0:0,0:0:0:0:
419,0,11430,2,0,P|454:36|443:81,1,96.9475003698254,0|0,1:0|0:0,0:0:0:0:
395,213,11635,6,0,L|193:258,1,191.733755339266,2|0,1:0|2:0,0:0:0:0:
207,263,11841,2,0,L|308:240,1,96.9475003698254,0|0,1:0|0:0,0:0:0:0:
371,45,12046,5,0,1:0:0:0:
306,6,12149,1,0,1:0:0:0:
233,24,12252,1,0,1:0:0:0:
195,87,12355,1,0,1:0:0:0:
200,99,12457,5,0,1:0:0:0:
172,142,12560,1,0,1:0:0:0:
122,155,12663,1,0,1:0:0:0:
77,128,12766,1,0,1:0:0:0:
78,114,12868,5,0,3:0:0:0:
79,104,12919,1,0,3:0:0:0:
81,94,12970,1,0,3:0:0:0:
83,85,13022,1,0,3:0:0:0:
85,75,13073,1,0,3:0:0:0:
87,66,13124,1,0,3:0:0:0:
89,56,13176,1,0,3:0:0:0:
90,47,13227,1,0,3:0:0:0:
93,38,13279,2,0,L|116:30,12,24.2368750924563,0|0|0|0|0|0|0|0|0|0|0|0|0,3:0|0:0|0:0|0:0|0:0|0:0|0:0|0:0|0:0|0:0|0:0|0:0|0:0,0:0:0:0:
188,10,13690,5,2,0:0:0:0:
188,10,14101,5,2,0:0:0:0:
331,89,14307,1,2,0:0:0:0:
333,78,14409,1,2,0:0:0:0:
253,72,14512,1,10,0:0:0:0:
276,143,14615,1,8,0:3:0:0:
197,142,14718,1,10,0:0:0:0:
199,132,14820,1,12,0:3:0:0:
464,158,14923,6,0,P|298:184|157:278,1,339.316251294389,14|0,1:2|2:0,0:0:0:0:
114,347,15334,6,0,B|148:326|162:271|113:230|113:230|65:189|79:134|113:113,1,272.317487326533,6|0,1:0|0:0,0:0:0:0:
308,24,15745,2,0,P|284:83|202:83,1,136.158743663266,0|0,1:0|2:0,0:0:0:0:
156,55,15950,2,0,P|190:13|222:19,1,90.772495775511
342,160,16156,2,0,P|413:179|496:206,1,136.158743663266,0|0,1:0|2:0,0:0:0:0:
472,197,16361,1,2,0:0:0:0:
346,243,16464,1,0,0:0:0:0:
420,262,16567,2,0,P|427:305|443:354,1,90.772495775511,2|0,1:0|0:0,0:0:0:0:
272,224,16772,2,0,P|265:181|249:132,1,90.772495775511,2|0,0:0|0:0,0:0:0:0:
68,369,16978,6,0,P|170:328|285:299,1,226.931239438777,2|0,1:0|2:0,0:0:0:0:
283,299,17286,1,0,0:0:0:0:
143,256,17389,2,0,P|125:210|148:175,1,90.772495775511,2|0,1:0|0:0,0:0:0:0:
208,49,17594,2,0,P|228:87|209:127,1,90.772495775511,2|0,0:0|0:0,0:0:0:0:
52,69,17800,2,0,P|96:81|157:107,1,90.772495775511,2|0,1:0|0:0,0:0:0:0:
333,178,18005,1,2,0:0:0:0:
351,172,18108,1,0,0:0:0:0:
368,167,18211,1,2,1:0:0:0:
233,358,18416,1,2,0:0:0:0:
233,358,18622,6,0,L|262:60,1,272.317487326533,2|0,1:0|0:0,0:0:0:0:
117,39,19033,2,0,P|154:82|191:75,1,90.772495775511,2|0,1:0|0:0,0:0:0:0:
411,98,19238,2,0,P|352:28|315:35,1,136.158743663266,2|0,0:0|2:0,0:0:0:0:
259,86,19444,1,2,1:0:0:0:
458,257,19649,1,2,0:0:0:0:
461,239,19752,1,0,0:0:0:0:
463,221,19855,1,2,1:0:0:0:
233,358,20060,2,0,B|158:382|133:308|59:333,1,181.544991551022,2|0,0:0|1:0,0:0:0:0:
211,236,20471,1,2,0:0:0:0:
208,219,20574,1,0,0:0:0:0:
147,162,20676,2,0,P|136:208|122:263,1,90.772495775511,2|0,1:0|0:0,0:0:0:0:
231,140,20882,1,0,0:0:0:0:
249,135,20985,1,0,0:0:0:0:
170,84,21087,6,0,P|125:77|76:65,1,90.772495775511,2|0,1:0|3:0,0:0:0:0:
321,103,21293,2,0,P|366:110|415:122,1,90.772495775511,2|2,0:0|3:0,0:0:0:0:
125,250,21498,2,0,P|87:276|44:301,1,90.772495775511,2|0,1:0|3:0,0:0:0:0:
324,277,21704,2,0,P|361:303|404:328,1,90.772495775511,2|0,0:0|3:0,0:0:0:0:
246,95,21909,6,0,L|217:393,1,272.317487326533,6|0,1:0|0:0,0:0:0:0:
334,182,22320,2,0,P|387:163|443:216,1,136.158743663266,2|0,1:0|2:0,0:0:0:0:
441,211,22526,2,0,P|396:229|377:196,1,90.772495775511,2|0,0:0|0:0,0:0:0:0:
326,35,22731,2,0,P|256:23|170:1,1,136.158743663266,2|0,1:0|2:0,0:0:0:0:
188,13,22937,1,2,0:0:0:0:
95,107,23039,1,0,0:0:0:0:
26,77,23142,2,0,P|15:33|0:-12,1,90.772495775511,0|0,1:0|0:0,0:0:0:0:
166,138,23348,2,0,P|139:222|113:327,1,181.544991551022,2|0,0:0|1:0,0:0:0:0:
116,312,23759,6,0,P|66:322|11:341,1,90.772495775511,2|0,0:0|0:0,0:0:0:0:
313,354,23964,2,0,P|363:344|418:325,1,90.772495775511,2|0,1:0|0:0,0:0:0:0:
258,178,24170,2,0,P|236:245|215:330,1,136.158743663266,2|0,0:0|2:0,0:0:0:0:
227,313,24375,2,0,P|240:257|272:162,1,136.158743663266,2|0,1:0|2:0,0:0:0:0:
264,182,24581,1,2,0:0:0:0:
404,113,24683,1,0,0:0:0:0:
370,49,24786,2,0,P|324:73|319:114,1,90.772495775511,0|0,1:0|0:0,0:0:0:0:
430,189,24992,2,0,P|476:165|481:124,1,90.772495775511
221,0,25197,6,0,L|253:288,1,272.317487326533,2|0,1:0|0:0,0:0:0:0:
101,225,25608,2,0,P|161:193|184:214,1,90.772495775511,2|0,1:0|0:0,0:0:0:0:
271,384,25813,2,0,P|212:350|217:319,1,90.772495775511,2|0,0:0|0:0,0:0:0:0:
327,148,26019,2,0,P|329:215|300:227,1,90.772495775511,2|0,1:0|0:0,0:0:0:0:
414,332,26224,2,0,P|470:293|495:312,2,90.772495775511,2|0|0,0:0|0:0|1:0,0:0:0:0:
414,332,26635,6,0,L|396:188,1,132.144995967255,2|0,0:0|0:0,0:0:0:0:
314,39,27046,6,0,L|268:60,1,35.197499570343,2|4,0:0|0:3,0:0:0:0:
139,32,27252,2,0,L|185:53,1,35.197499570343,10|0,0:0|0:0,0:0:0:0:
212,182,27457,2,0,L|221:112,1,70.3949991406861,10|0,0:0|3:0,0:0:0:0:
119,216,27766,5,0,3:0:0:0:
102,222,27868,1,2,3:0:0:0:
42,181,27971,1,0,3:0:0:0:
88,121,28074,1,8,0:3:0:0:
36,63,28176,1,8,0:3:0:0:
42,46,28279,1,0,3:0:0:0:
191,271,28485,6,0,B|240:329|240:329|320:291|409:286|409:286|426:211,1,327.892510631891,6|0,1:0|0:0,0:0:0:0:
355,80,28896,2,0,P|343:120|321:214,1,136.158743663266,2|0,1:0|2:0,0:0:0:0:
315,215,29101,2,0,P|326:166|340:111,1,90.772495775511,2|0,0:0|0:0,0:0:0:0:
137,14,29307,2,0,P|148:63|162:118,1,90.772495775511,2|0,1:0|0:0,0:0:0:0:
115,248,29512,2,0,P|73:277|27:271,1,90.772495775511,2|0,0:0|0:0,0:0:0:0:
25,278,29666,1,0,0:0:0:0:
19,283,29718,2,0,P|97:265|114:333,1,136.158743663266,0|0,1:0|2:0,0:0:0:0:
119,303,29923,2,0,P|173:363|265:324,1,181.544991551022,2|0,0:0|1:0,0:0:0:0:
358,170,30334,1,2,0:0:0:0:
374,163,30437,1,0,0:0:0:0:
318,234,30539,6,0,P|275:219|226:207,1,90.772495775511,2|0,1:0|0:0,0:0:0:0:
414,101,30745,2,0,P|456:115|506:128,1,90.772495775511,2|0,0:0|0:0,0:0:0:0:
258,0,30950,2,0,P|270:62|283:151,1,136.158743663266,0|0,1:0|2:0,0:0:0:0:
208,135,31156,6,0,P|184:145|166:169,1,45.3862478877555,2|0,3:0|2:0,0:0:0:0:
171,159,31259,1,0,0:0:0:0:
100,128,31361,6,0,P|89:151|93:181,1,45.3862478877555,2|0,1:0|2:0,0:0:0:0:
90,170,31464,1,0,0:0:0:0:
21,196,31567,6,0,P|30:220|53:239,1,45.3862478877555,2|0,3:0|2:0,0:0:0:0:
42,233,31670,1,0,0:0:0:0:
239,335,31772,6,0,B|320:353|418:245|349:136|231:166|248:235,1,327.892510631891,2|0,1:0|0:0,0:0:0:0:
453,305,32183,2,0,P|434:235|454:164,1,136.158743663266,2|0,1:0|2:0,0:0:0:0:
445,165,32389,2,0,P|428:220|434:280,1,90.772495775511,2|0,0:0|0:0,0:0:0:0:
360,83,32594,2,0,P|314:81|272:66,1,90.772495775511,2|0,1:0|0:0,0:0:0:0:
148,199,32800,2,0,P|173:161|208:133,1,90.772495775511,2|0,0:0|0:0,0:0:0:0:
187,44,32953,1,0,0:0:0:0:
181,36,33005,2,0,P|135:34|93:19,1,90.772495775511,0|0,1:0|0:0,0:0:0:0:
46,210,33211,2,0,P|58:119|-5:58,1,181.544991551022,2|0,0:0|1:0,0:0:0:0:
230,323,33622,1,2,0:0:0:0:
246,315,33724,1,0,0:0:0:0:
165,274,33827,6,0,L|380:307,1,181.544991551022,2|0,1:0|0:0,0:0:0:0:
344,301,34135,1,0,0:0:0:0:
462,193,34238,6,0,P|451:213|422:225,1,45.3862478877555,2|0,1:0|2:0,0:0:0:0:
431,223,34341,1,0,3:0:0:0:
394,153,34444,6,0,P|372:159|342:148,1,45.3862478877555,2|0,3:0|2:0,0:0:0:0:
350,154,34547,1,0,3:0:0:0:
399,45,34649,6,0,P|388:65|359:77,1,45.3862478877555,2|0,1:0|2:0,0:0:0:0:
369,75,34752,1,0,3:0:0:0:
331,5,34855,6,0,P|310:11|280:0,1,45.3862478877555,2|0,1:0|2:0,0:0:0:0:
287,6,34958,1,0,3:0:0:0:
135,12,35060,6,0,L|92:346,1,327.892510631891,6|0,1:0|0:0,0:0:0:0:
191,200,35471,2,0,P|233:191|262:223,1,90.772495775511,2|0,1:0|0:0,0:0:0:0:
278,322,35676,1,2,0:0:0:0:
260,316,35779,1,0,0:0:0:0:
338,254,35882,2,0,B|364:201|311:175|338:123,1,136.158743663266,2|0,1:0|2:0,0:0:0:0:
423,37,36087,2,0,B|449:89|396:115|423:167,1,136.158743663266,2|0,0:0|2:0,0:0:0:0:
433,172,36293,1,0,1:0:0:0:
199,9,36498,2,0,B|121:28|121:78|44:98,1,181.544991551022,2|0,0:0|1:0,0:0:0:0:
318,287,36909,5,2,0:0:0:0:
335,293,37012,1,0,0:0:0:0:
286,212,37115,2,0,P|244:231|190:248,1,90.772495775511,2|0,1:0|0:0,0:0:0:0:
380,208,37320,5,2,0:0:0:0:
365,219,37423,1,0,0:0:0:0:
460,220,37526,2,0,P|466:174|492:75,1,136.158743663266,2|0,1:0|2:0,0:0:0:0:
475,11,37731,2,0,B|447:-2|419:24|419:24|447:11|475:24,1,90.772495775511,2|0,0:0|0:0,0:0:0:0:
286,212,37937,2,0,P|279:166|254:67,1,136.158743663266,2|0,1:0|2:0,0:0:0:0:
275,8,38142,2,0,B|302:-5|330:21|330:21|302:8|275:21,1,90.772495775511,2|0,0:0|0:0,0:0:0:0:
207,161,38348,6,0,B|176:184|122:178|102:120|102:120|81:63|27:56|-2:80|-2:80|33:69|70:96,1,327.892510631891,2|0,1:0|0:0,0:0:0:0:
86,220,38759,2,0,B|54:215|37:171|37:171|43:218|17:237,1,136.158743663266,2|0,1:0|2:0,0:0:0:0:
18,241,38964,1,2,0:0:0:0:
250,356,39170,2,0,P|241:313|224:265,1,90.772495775511,2|0,1:0|0:0,0:0:0:0:
309,223,39375,2,0,P|325:126|350:15,1,181.544991551022,2|0,0:0|1:0,0:0:0:0:
342,44,39683,1,0,0:0:0:0:
229,10,39786,6,0,P|236:43|177:74,1,95.0949981136551,2|0,0:0|1:0,0:0:0:0:
74,12,40094,1,0,0:0:0:0:
80,20,40197,2,0,P|98:28|129:38,1,47.5474990568276,2|0,0:0|0:0,0:0:0:0:
84,152,40403,2,0,P|102:136|121:123,1,47.5474990568276,2|0,0:0|0:0,0:0:0:0:
121,123,40608,1,2,0:0:0:0:
13,99,40711,1,8,0:0:0:0:
15,85,40813,1,10,0:0:0:0:
150,206,41019,1,10,0:0:0:0:
0,290,41224,1,14,0:0:0:0:
0,290,41635,6,0,P|109:308|227:358,1,237.737495284138,6|0,1:0|0:0,0:0:0:0:
225,357,42252,1,2,0:0:0:0:
370,345,42457,2,0,P|406:310|394:265,1,95.0949981136551,2|0,0:0|0:0,0:0:0:0:
328,241,42766,2,0,P|291:275|303:320,1,95.0949981136551,2|0,0:0|0:0,0:0:0:0:
299,315,43074,1,2,0:0:0:0:
388,188,43279,6,0,P|438:175|501:151,2,95.0949981136551,2|0|0,0:0|0:0|0:0,0:0:0:0:
388,188,43896,1,2,0:0:0:0:
243,182,44101,2,0,P|206:147|218:102,1,95.0949981136551,2|0,0:0|0:0,0:0:0:0:
285,78,44410,2,0,P|321:112|309:157,1,95.0949981136551,2|0,0:0|0:0,0:0:0:0:
313,152,44718,1,2,0:0:0:0:
218,28,44923,6,0,P|136:16|72:-3,2,142.642497170483,2|2|2,1:0|0:0|0:0,0:0:0:0:
95,164,45745,2,0,P|128:239|146:304,2,142.642497170483,2|2|2,0:0|0:0|0:0,0:0:0:0:
275,182,46567,2,0,P|321:113|366:64,2,142.642497170483,2|2|2,0:0|0:0|0:0,0:0:0:0:
182,112,47389,5,2,1:0:0:0:
184,121,47594,1,0,0:0:0:0:
366,214,47800,5,2,0:0:0:0:
368,205,48005,1,2,0:0:0:0:
191,307,48211,6,0,P|158:292|115:284,1,66.0724979836274,6|0,1:0|0:0,0:0:0:0:
247,384,48416,1,2,3:0:0:0:
246,377,48519,1,0,3:0:0:0:
244,370,48622,2,0,P|232:299|221:215,1,132.144995967255,2|2,3:0|3:0,0:0:0:0:
106,122,49033,2,0,P|75:135|43:143,1,66.0724979836274,2|0,3:0|0:0,0:0:0:0:
169,178,49238,1,0,3:0:0:0:
175,176,49341,2,0,P|186:105|198:21,1,132.144995967255,2|0,3:0|0:0,0:0:0:0:
323,17,49649,5,2,3:0:0:0:
329,18,49752,1,2,3:0:0:0:
342,17,49855,2,0,P|350:49|384:65,1,66.0724979836274,2|0,3:0|0:0,0:0:0:0:
512,106,50060,2,0,P|480:95|449:116,1,66.0724979836274,2|0,3:0|3:0,0:0:0:0:
356,210,50266,2,0,P|370:178|382:134,1,66.0724979836274,2|0,3:0|0:0,0:0:0:0:
239,250,50471,2,0,P|224:281|213:326,1,66.0724979836274,2|0,3:0|0:0,0:0:0:0:
163,174,50676,2,0,P|226:163|302:144,1,132.144995967255,2|0,3:0|3:0,0:0:0:0:
264,23,50985,2,0,P|200:33|125:53,1,132.144995967255,2|0,3:0|0:0,0:0:0:0:
86,128,51293,1,2,3:0:0:0:
84,134,51396,1,0,3:0:0:0:
82,140,51498,1,0,1:0:0:0:
10,327,51704,5,2,3:0:0:0:
16,325,51807,1,0,3:0:0:0:
22,322,51909,2,0,P|98:295|165:319,1,132.144995967255,2|0,3:0|3:0,0:0:0:0:
377,348,52320,2,0,P|343:355|304:342,1,66.0724979836274,2|0,3:0|0:0,0:0:0:0:
388,215,52526,1,2,3:0:0:0:
393,223,52629,2,0,P|374:251|336:269,1,66.0724979836274,2|0,3:0|3:0,0:0:0:0:
235,30,52937,2,0,P|208:106|232:173,1,132.144995967255,2|0,3:0|3:0,0:0:0:0:
486,118,53348,6,0,P|449:109|414:94,1,66.0724979836274,2|0,3:0|3:0,0:0:0:0:
388,215,53553,2,0,P|351:223|316:239,1,66.0724979836274,2|0,3:0|0:0,0:0:0:0:
297,49,53759,2,0,P|260:40|225:25,1,66.0724979836274,2|0,3:0|0:0,0:0:0:0:
93,190,53964,2,0,P|157:168|237:151,1,132.144995967255,2|0,1:0|3:0,0:0:0:0:
52,255,54272,2,0,P|41:291|24:334,1,66.0724979836274,2|0,3:0|3:0,0:0:0:0:
30,317,54478,1,0,3:0:0:0:
123,290,54581,1,2,3:0:0:0:
134,295,54683,1,0,3:0:0:0:
255,323,54786,6,0,P|177:343|94:375,1,156.844998803368,4|0,1:0|0:0,0:0:0:0:
292,240,55094,1,0,0:0:0:0:
299,253,55197,2,0,P|376:273|460:305,1,156.844998803368,0|0,1:0|0:0,0:0:0:0:
237,171,55505,1,0,0:0:0:0:
230,184,55608,2,0,P|191:194|149:210,1,78.4224994016838,0|0,1:0|0:0,0:0:0:0:
294,113,55813,1,0,0:0:0:0:
289,97,55916,1,0,0:0:0:0:
344,166,56019,2,0,P|382:176|424:192,1,78.4224994016838,0|0,1:0|0:0,0:0:0:0:
234,32,56224,2,0,P|195:42|153:58,1,78.4224994016838
393,2,56430,6,0,P|385:44|368:98,1,90.772495775511,0|0,1:0|0:0,0:0:0:0:
149,230,56635,2,0,P|157:274|170:317,2,90.772495775511,2|0|0,0:0|0:0|1:0,0:0:0:0:
312,287,56944,6,0,P|278:253|212:253,1,90.772495775511,2|0,0:0|0:0,0:0:0:0:
54,92,57149,1,0,0:0:0:0:
48,169,57252,2,0,P|91:160|122:127,1,90.772495775511,2|0,1:0|0:0,0:0:0:0:
302,79,57457,1,0,0:0:0:0:
308,2,57560,2,0,P|264:10|233:43,1,90.772495775511,2|0,0:0|1:0,0:0:0:0:
277,281,57766,1,0,0:0:0:0:
226,223,57868,1,2,0:0:0:0:
228,204,57971,1,0,0:0:0:0:
174,282,58074,6,0,L|77:315,1,90.772495775511,10|0,1:2|0:0,0:0:0:0:
354,277,58279,2,0,L|451:310,1,90.772495775511,0|0,1:0|0:0,0:0:0:0:
109,157,58485,6,0,L|12:190,1,90.772495775511,10|0,1:2|0:0,0:0:0:0:
374,142,58690,2,0,L|471:175,1,90.772495775511,0|0,1:0|0:0,0:0:0:0:
218,7,58896,5,10,1:2:0:0:
180,44,58999,1,0,1:0:0:0:
181,95,59102,1,0,1:0:0:0:
216,133,59205,1,0,1:0:0:0:
229,131,59307,5,8,1:2:0:0:
281,183,59410,1,0,1:0:0:0:
280,258,59513,1,0,1:0:0:0:
227,312,59616,1,0,1:0:0:0:
217,307,59718,5,2,0:0:0:0:
217,307,60539,5,8,0:0:0:0:
225,312,60642,1,8,0:3:0:0:
314,283,60745,5,4,0:3:0:0:
322,278,60848,1,4,0:3:0:0:
412,307,60950,1,12,0:0:0:0:
412,307,61361,6,0,B|435:275|443:211|383:172|383:172|324:132|332:68|399:45|459:84|486:120|447:179,1,420.517493904242,6|0,1:0|0:0,0:0:0:0:
327,251,61772,2,0,P|225:215|140:200,1,191.733755339265,2|0,1:0|2:0,0:0:0:0:
139,207,61978,2,0,P|220:221|297:247,1,127.82250355951,2|0,0:0|0:0,0:0:0:0:
60,353,62183,6,0,P|36:225|-4:97,1,255.645007119021,2|0,1:0|0:0,0:0:0:0:
113,0,62492,1,2,0:0:0:0:
128,78,62594,6,0,L|45:57,1,66.0724979836274,0|0,1:0|0:0,0:0:0:0:
240,111,62800,5,2,0:0:0:0:
248,108,62851,1,0,0:0:0:0:
256,105,62903,1,0,0:0:0:0:
262,102,62954,1,0,0:0:0:0:
271,98,63005,2,0,B|281:57|281:57|310:21|358:26|382:58|377:91|377:91|372:115,1,191.733755339266,0|0,1:0|2:0,0:0:0:0:
402,172,63211,6,0,P|368:178|327:157,1,66.0724979836274,2|0,0:0|0:0,0:0:0:0:
63,61,63416,6,0,B|107:86|100:142|100:142|121:89|184:84,1,191.733755339266,2|0,1:0|2:0,0:0:0:0:
185,178,63622,2,0,B|178:194|178:194|198:202|205:185|211:168|191:161|191:161|171:153|164:170|158:187|178:194|178:194,1,136.158743663266,2|0,0:0|2:0,0:0:0:0:
26,364,63827,6,0,B|60:343|74:287|25:248|25:248|26:241|26:241|-22:203|-9:147|25:126,1,280.344995936161,2|0,1:0|0:0,0:0:0:0:
196,324,64135,1,0,0:0:0:0:
140,272,64238,2,0,B|188:281|221:318|221:318|231:270|268:237,1,191.733755339266,2|0,1:0|2:0,0:0:0:0:
330,282,64444,6,0,P|297:315|289:343,1,66.0724979836274,2|0,0:0|0:0,0:0:0:0:
508,148,64649,6,0,B|503:170|503:170|502:219|540:280|540:280|468:274|408:312|408:312|419:263|385:224|385:224|410:227|429:214,1,420.517493904242,2|0,1:0|0:0,0:0:0:0:
397,149,65009,1,0,0:0:0:0:
401,141,65060,2,0,B|383:118|344:114|319:151|319:151|295:187|256:183|238:161,1,191.733755339266,2|0,1:0|2:0,0:0:0:0:
185,107,65266,2,0,B|168:74|201:42|201:42|185:74|201:107,1,127.82250355951,2|0,0:0|0:0,0:0:0:0:
0,309,65471,6,0,P|101:304|165:171,1,255.645007119021,2|0,1:0|0:0,0:0:0:0:
42,9,65779,1,2,0:0:0:0:
108,41,65882,2,0,B|121:67|94:94|94:94|108:67|94:41,1,99.1087469754411,0|0,1:0|2:0,0:0:0:0:
8,100,66087,5,2,0:0:0:0:
9,108,66139,1,0,0:0:0:0:
10,116,66190,1,0,0:0:0:0:
7,122,66242,1,0,0:0:0:0:
7,132,66293,2,0,P|33:180|70:167,1,99.1087469754411,0|0,1:0|2:0,0:0:0:0:
67,169,66498,6,0,P|103:128|202:159,1,145.421250554738,2|0,0:0|2:0,0:0:0:0:
248,207,66704,6,0,P|332:226|417:314,1,191.733755339266,2|0,1:0|2:0,0:0:0:0:
407,296,66909,2,0,P|374:306|348:289,1,66.0724979836274,2|0,0:0|0:0,0:0:0:0:
245,78,67115,6,0,B|271:158|164:185|191:266,1,191.733755339266,2|0,1:0|2:0,0:0:0:0:
110,256,67320,1,2,0:0:0:0:
97,251,67423,1,0,0:0:0:0:
228,342,67526,1,2,1:0:0:0:
241,337,67629,1,0,0:0:0:0:
46,383,67731,5,2,0:0:0:0:
44,374,67783,1,0,0:0:0:0:
41,365,67834,1,0,0:0:0:0:
38,356,67885,1,0,0:0:0:0:
34,349,67937,1,0,1:0:0:0:
348,206,68142,5,2,0:0:0:0:
351,219,68245,1,0,0:0:0:0:
381,140,68348,2,0,B|392:105|392:105|355:135|323:139|279:121|279:121|300:151,1,191.733755339266,2|0,1:0|2:0,0:0:0:0:
325,39,68553,6,0,B|332:23|332:23|312:15|305:32|299:49|319:56|319:56|339:64|346:47|352:30|332:23|332:23,1,132.144995967255,2|0,0:0|1:0,0:0:0:0:
158,256,68964,5,2,0:0:0:0:
155,269,69067,1,0,0:0:0:0:
125,190,69170,2,0,B|113:155|113:155|150:185|182:189|226:171|226:171|205:201,1,191.733755339266,2|0,1:0|2:0,0:0:0:0:
181,89,69375,6,0,B|174:73|174:73|194:65|201:82|207:99|187:106|187:106|167:114|160:97|154:80|174:73|174:73,1,132.144995967255,2|0,0:0|1:0,0:0:0:0:
317,264,69786,6,0,B|388:228|424:335|496:299,1,191.733755339266,2|0,0:0|2:0,0:0:0:0:
488,292,69992,2,0,P|401:296|298:351,1,191.733755339266,2|0,1:0|2:0,0:0:0:0:
305,351,70197,2,0,P|236:370|209:322,1,127.82250355951,2|0,0:0|0:0,0:0:0:0:
225,158,70403,2,0,B|257:177|270:229|224:268|224:268|179:307|192:359|224:379,1,255.645007119021,2|2,1:0|0:0,0:0:0:0:
220,376,70711,1,0,0:0:0:0:
151,215,70813,2,0,P|85:200|19:182,1,127.82250355951,2|0,1:0|0:0,0:0:0:0:
240,24,71019,1,2,0:0:0:0:
241,33,71070,1,0,0:0:0:0:
242,42,71122,1,0,0:0:0:0:
243,51,71173,1,0,0:0:0:0:
244,60,71224,1,2,1:0:0:0:
391,240,71430,5,0,0:0:0:0:
410,244,71533,1,0,0:0:0:0:
378,163,71635,2,0,P|344:253|290:332,1,191.733755339266,2|0,1:0|2:0,0:0:0:0:
282,330,71841,2,0,P|315:289|330:264,1,66.0724979836274,2|0,0:0|0:0,0:0:0:0:
222,125,72046,6,0,B|189:105|137:118|124:176|124:176|111:234|60:247|27:228,1,255.645007119021,0|2,1:0|0:0,0:0:0:0:
30,230,72355,1,0,0:0:0:0:
173,301,72457,2,0,B|179:321|165:349|165:349|200:314|183:279,1,127.82250355951,0|0,1:0|0:0,0:0:0:0:
44,39,72663,5,2,0:0:0:0:
41,33,72714,1,0,0:0:0:0:
41,26,72766,1,0,0:0:0:0:
43,20,72817,1,0,0:0:0:0:
45,14,72868,2,0,P|229:52|443:123,1,383.467510678531,4|8,1:0|0:3,0:0:0:0:
454,322,73279,2,0,P|372:299|389:188,1,191.733755339266,2|0,1:0|2:0,0:0:0:0:
376,199,73485,2,0,P|394:239|380:266,1,66.0724979836274,2|0,0:0|0:0,0:0:0:0:
245,301,73690,2,0,P|192:249|59:251,1,191.733755339266,2|0,1:0|2:0,0:0:0:0:
76,251,73896,2,0,P|115:268|134:256,1,66.0724979836274,6|8,0:3|0:0,0:0:0:0:
251,175,74101,5,10,0:0:0:0:
226,108,74204,1,8,0:3:0:0:
278,55,74307,1,10,0:0:0:0:
273,40,74409,1,8,3:3:0:0:
240,184,74512,5,2,1:0:0:0:
240,184,74923,6,0,P|224:80|203:-11,1,191.733755339266,6|0,1:0|2:0,0:0:0:0:
196,0,75129,2,0,P|211:61|222:124,1,127.82250355951,2|0,0:0|0:0,0:0:0:0:
142,299,75334,2,0,B|108:354|-6:350|-30:252|51:201|80:249,1,255.645007119021,2|0,1:0|0:0,0:0:0:0:
204,352,75643,1,2,0:0:0:0:
270,309,75745,6,0,L|291:226,1,66.0724979836274,0|0,1:0|0:0,0:0:0:0:
353,15,75950,5,2,0:0:0:0:
346,17,76002,1,0,0:0:0:0:
339,18,76053,1,0,0:0:0:0:
332,19,76105,1,0,0:0:0:0:
326,21,76156,2,0,B|320:71|285:108|285:108|335:113|372:148,1,191.733755339266,0|0,1:0|2:0,0:0:0:0:
381,147,76361,6,0,P|351:123|315:107,1,66.0724979836274,2|0,0:0|0:0,0:0:0:0:
159,14,76567,6,0,B|164:64|199:101|199:101|149:106|112:141,1,191.733755339266,2|0,1:0|2:0,0:0:0:0:
104,140,76772,2,0,P|134:116|170:100,1,66.0724979836274,2|0,0:0|0:0,0:0:0:0:
447,275,76978,6,0,P|317:220|176:194,1,280.344995936161,2|0,1:0|0:0,0:0:0:0:
75,352,77286,1,0,0:0:0:0:
31,292,77389,2,0,B|55:259|46:197|46:197|67:256|93:276,1,191.733755339266,2|0,1:0|2:0,0:0:0:0:
75,352,77594,6,0,L|61:270,1,66.0724979836274,2|0,0:0|0:0,0:0:0:0:
254,0,77800,6,0,B|214:23|199:85|254:132|254:132|308:179|293:241|254:265|254:265|283:214|246:163,1,420.517493904242,2|0,1:0|0:0,0:0:0:0:
189,221,78160,1,0,0:0:0:0:
183,224,78211,2,0,P|136:188|172:148,1,127.82250355951,2|0,1:0|0:0,0:0:0:0:
351,123,78416,2,0,P|398:87|362:47,1,127.82250355951,2|0,0:0|0:0,0:0:0:0:
74,84,78622,6,0,P|245:127|456:210,1,383.467510678531,2|2,1:0|0:0,0:0:0:0:
382,330,79033,2,0,B|362:347|352:373|352:373|335:353|309:344,1,99.1087469754411,0|0,1:0|2:0,0:0:0:0:
337,271,79238,5,2,0:0:0:0:
330,269,79290,1,0,0:0:0:0:
323,267,79341,1,0,0:0:0:0:
316,265,79392,1,0,0:0:0:0:
309,263,79444,2,0,P|279:264|235:321,1,99.1087469754411,0|0,1:0|2:0,0:0:0:0:
234,323,79649,6,0,P|190:357|97:316,1,145.421250554738,2|0,0:0|2:0,0:0:0:0:
39,329,79855,2,0,P|21:262|80:145,1,191.733755339266,2|0,1:0|2:0,0:0:0:0:
67,147,80060,6,0,P|44:171|24:209,1,66.0724979836274,2|0,0:0|0:0,0:0:0:0:
217,48,80266,6,0,B|242:27|289:33|303:105|303:105|318:177|364:183|390:162,1,255.645007119021,2|2,1:0|0:0,0:0:0:0:
390,162,80574,1,0,0:0:0:0:
298,234,80676,6,0,L|330:10,1,198.217493950882,2|0,1:0|0:0,0:0:0:0:
11,102,81087,6,0,P|56:112|79:162,1,85.2150023730069,14|0,1:2|0:0,0:0:0:0:
156,155,81224,2,0,P|156:201|112:234,1,85.2150023730069,2|0,0:0|0:0,0:0:0:0:
126,309,81361,2,0,P|81:319|38:284,1,85.2150023730069,2|0,0:0|0:0,0:0:0:0:
8,212,81498,6,0,L|244:260,1,220.241659945425,10|0,1:2|0:0,0:0:0:0:
282,207,81909,6,0,P|305:168|323:126,1,85.2150023730069,10|0,1:2|0:0,0:0:0:0:
441,327,82046,2,0,P|395:328|350:335,1,85.2150023730069,2|0,0:0|0:0,0:0:0:0:
446,119,82183,2,0,P|470:156|500:191,1,85.2150023730069,2|0,0:0|0:0,0:0:0:0:
387,223,82320,6,0,B|394:203|394:203|371:194|362:214|356:234|379:242|379:242|402:251|411:231|417:211|394:203|394:203,1,158.491663522759,10|0,1:2|0:0,0:0:0:0:
17,104,82731,6,0,P|44:80|94:86,1,72.8650023626424,10|0,1:2|0:0,0:0:0:0:
121,12,82868,2,0,P|150:32|155:82,1,72.8650023626424,2|0,0:0|0:0,0:0:0:0:
228,96,83005,2,0,P|214:129|166:145,1,72.8650023626424,2|0,0:0|0:0,0:0:0:0:
77,154,83142,6,0,P|79:190|119:220,1,72.8650023626424,10|0,1:2|0:0,0:0:0:0:
87,292,83279,2,0,P|122:297|161:265,1,72.8650023626424,2|0,0:0|0:0,0:0:0:0:
223,306,83416,2,0,P|236:272|213:227,1,72.8650023626424,2|0,0:0|0:0,0:0:0:0:
183,146,83553,6,0,P|346:167|511:228,1,339.316251294389,10|0,1:2|2:0,0:0:0:0:
508,219,83964,6,0,P|471:202|432:186,1,78.4224994016838,10|0,1:2|0:0,0:0:0:0:
187,140,84170,2,0,P|228:141|267:147,1,78.4224994016838,2|0,0:0|0:0,0:0:0:0:
366,92,84375,5,6,1:2:0:0:
363,76,84478,1,0,3:0:0:0:
348,186,84581,5,2,3:0:0:0:
345,202,84684,1,0,3:0:0:0:
388,267,84786,5,2,3:0:0:0:
373,273,84889,1,0,3:0:0:0:
337,345,84992,5,2,3:0:0:0:
323,336,85095,1,0,3:0:0:0:
274,267,85197,6,0,P|202:279|120:319,1,156.844998803368,10|0,0:0|0:0,0:0:0:0:
4,326,85505,1,0,3:0:0:0:
69,368,85608,2,0,P|104:314|79:253,1,117.633749102526,2|0,3:0|2:0,0:0:0:0:
83,261,85813,2,0,P|52:224|60:183,1,78.4224994016838,2|0,3:0|3:0,0:0:0:0:
140,71,86019,6,0,B|240:63|256:133|357:125,1,198.217493950882,4|0,3:2|3:0,0:0:0:0:
389,77,86430,2,0,P|378:45|367:2,1,66.0724979836274,0|0,3:0|0:0,0:0:0:0:
445,139,86635,1,0,3:0:0:0:
457,143,86738,1,0,3:0:0:0:
387,198,86841,6,0,P|355:206|323:217,1,66.0724979836274,0|0,3:0|0:0,0:0:0:0:
240,303,87046,1,0,3:0:0:0:
236,315,87149,1,0,3:0:0:0:
279,381,87252,6,0,B|219:287|346:220|287:127,1,264.28999193451,8|4,0:0|1:0,0:0:0:0:
89,158,88074,6,0,P|62:132|74:83,1,66.0724979836274,2|0,0:0|0:0,0:0:0:0:
135,70,88279,2,0,P|162:96|150:145,1,66.0724979836274,2|0,0:0|0:0,0:0:0:0:
64,24,88485,6,0,L|323:72,1,235.267498205051,14|2,0:2|0:0,0:0:0:0:
398,0,88896,6,0,L|425:185,1,181.544991551022,4|2,1:3|0:0,0:0:0:0:
470,285,89204,1,0,0:0:0:0:
474,272,89307,2,0,P|413:275|394:349,1,132.144995967255,2|0,0:0|0:0,0:0:0:0:
229,334,89615,2,0,P|290:331|309:257,1,132.144995967255,2|0,0:0|0:0,0:0:0:0:
251,219,89923,2,0,P|213:237|207:288,1,66.0724979836274,2|0,0:0|0:0,0:0:0:0:
82,352,90129,6,0,L|42:103,1,235.267498205051,10|2,0:0|0:0,0:0:0:0:
131,5,90540,6,0,B|180:29|180:29|131:129,1,166.416246698896,4|0,1:2|2:0,0:0:0:0:
64,49,90950,6,0,B|98:28|153:42|167:104|167:104|181:166|236:179|270:159,1,272.317487326533,6|2,1:0|0:0,0:0:0:0:
375,7,91361,6,0,P|402:33|390:82,1,66.0724979836274
329,95,91566,2,0,P|302:69|314:20,1,66.0724979836274,2|0,0:0|0:0,0:0:0:0:
391,140,91772,6,0,L|368:307,1,156.844998803368,10|4,0:0|1:3,0:0:0:0:
276,352,92081,2,0,P|228:308|156:332,1,132.144995967255,2|0,0:0|0:0,0:0:0:0:
38,334,92389,2,0,P|83:357|98:350,1,66.0724979836274,2|0,0:0|0:0,0:0:0:0:
141,237,92594,6,0,B|115:221|105:181|141:150|141:150|176:120|166:79|145:67,1,198.217493950882,2|2,0:0|0:0,0:0:0:0:
211,196,93005,2,0,L|290:174,1,78.4224994016838,4|0,1:3|0:0,0:0:0:0:
330,71,93211,1,2,0:0:0:0:
324,56,93313,1,0,0:0:0:0:
406,39,93416,2,0,L|391:141,1,78.4224994016838,10|0,0:0|1:0,0:0:0:0:
490,186,93622,1,0,1:0:0:0:
494,170,93724,1,0,1:0:0:0:
424,266,93827,6,0,L|251:301,1,166.416246698896,6|0,1:2|2:0,0:0:0:0:
255,292,94238,6,0,L|357:270,1,90.772495775511,6|0,1:2|0:0,0:0:0:0:
262,78,94855,5,2,1:0:0:0:
247,152,94957,1,0,1:0:0:0:
203,17,95060,6,0,L|46:43,1,156.844998803368,10|0,0:0|0:0,0:0:0:0:
48,42,95368,1,2,0:0:0:0:
26,180,95471,2,0,P|46:141|96:137,1,78.4224994016838,4|0,1:0|0:0,0:0:0:0:
201,221,95676,1,2,0:0:0:0:
196,236,95779,1,2,0:0:0:0:
192,251,95882,1,2,0:0:0:0:
413,354,96190,5,2,0:0:0:0:
344,382,96293,2,0,L|315:218,1,156.844998803368,0|2,1:3|0:0,0:0:0:0:
316,227,96601,1,2,0:0:0:0:
375,155,96704,2,0,P|410:188|403:230,2,78.4224994016838,10|0|0,0:0|0:0|0:0,0:0:0:0:
303,3,97012,1,2,0:0:0:0:
269,68,97115,6,0,L|97:117,1,166.416246698896,4|0,1:0|2:0,0:0:0:0:
54,52,97526,6,0,B|79:26|129:26|154:102|154:102|179:177|229:177|254:152,1,272.317487326533,6|2,1:0|0:0,0:0:0:0:
27,238,98142,1,2,0:0:0:0:
24,253,98245,1,2,0:0:0:0:
63,317,98348,2,0,P|98:299|148:304,1,78.4224994016838,10|0,0:0|0:0,0:0:0:0:
282,361,98553,1,4,1:3:0:0:
254,293,98656,1,2,0:0:0:0:
318,203,98759,2,0,P|304:268|291:377,1,156.844998803368,4|2,1:3|0:0,0:0:0:0:
470,302,99067,5,0,0:0:0:0:
460,307,99170,2,0,P|428:278|432:223,1,78.4224994016838,2|0,3:0|0:0,0:0:0:0:
388,164,99375,2,0,P|409:126|463:117,1,78.4224994016838,10|0,0:0|0:0,0:0:0:0:
170,284,99581,2,0,P|202:255|198:200,1,78.4224994016838,2|0,3:0|0:0,0:0:0:0:
242,141,99786,2,0,P|220:103|166:94,1,78.4224994016838,2|0,3:0|0:0,0:0:0:0:
306,212,99992,5,10,0:0:0:0:
130,119,100813,6,0,B|202:100|173:-14|48:-24|0:110|57:178,1,327.892510631891,6|0,1:0|0:0,0:0:0:0:
212,289,101224,2,0,P|258:298|314:316,1,90.772495775511,2|0,1:0|0:0,0:0:0:0:
437,219,101430,1,2,0:0:0:0:
441,201,101533,1,0,0:0:0:0:
391,148,101635,2,0,P|402:206|412:289,1,136.158743663266,2|0,1:0|2:0,0:0:0:0:
407,286,101841,2,0,P|399:237|392:191,1,90.772495775511,2|0,0:0|0:0,0:0:0:0:
232,37,102046,2,0,P|294:96|350:77,1,136.158743663266,2|0,1:0|2:0,0:0:0:0:
337,79,102252,2,0,P|288:86|252:62,1,90.772495775511,2|0,0:0|0:0,0:0:0:0:
71,19,102457,6,0,B|94:33|105:75|68:107|68:107|30:139|41:182|68:198|68:198|44:170|54:140,1,272.317487326533,2|0,1:0|0:0,0:0:0:0:
204,273,102868,2,0,P|219:210|121:155,1,181.544991551022,2|0,1:0|0:0,0:0:0:0:
12,344,103176,1,0,0:0:0:0:
52,283,103279,2,0,P|94:279|151:355,1,136.158743663266,2|0,1:0|2:0,0:0:0:0:
154,356,103485,6,0,L|262:335,1,90.772495775511,2|0,0:0|0:0,0:0:0:0:
443,293,103690,1,2,1:0:0:0:
288,32,103896,6,0,L|293:0,3,33.0362489918137
192,6,104101,6,0,B|225:68|225:138|225:138|287:105|357:105,1,272.317487326533,2|0,1:0|0:0,0:0:0:0:
360,241,104512,2,0,P|319:205|274:220,1,90.772495775511,2|0,1:0|0:0,0:0:0:0:
75,77,104718,2,0,P|125:95|133:142,1,90.772495775511,2|0,0:0|0:0,0:0:0:0:
244,305,104923,2,0,P|262:344|305:355,1,90.772495775511,2|0,1:0|0:0,0:0:0:0:
94,222,105129,2,0,P|50:224|20:191,1,90.772495775511,2|0,0:0|0:0,0:0:0:0:
236,131,105334,6,0,P|195:195|132:384,1,272.317487326533,2|0,1:0|0:0,0:0:0:0:
81,143,105745,2,0,P|70:96|48:38,1,90.772495775511,2|0,1:0|0:0,0:0:0:0:
303,63,105950,2,0,P|314:110|336:168,1,90.772495775511,2|0,0:0|0:0,0:0:0:0:
402,317,106156,6,0,B|458:364|571:324|562:219|467:195|451:255,1,272.317487326533,2|0,1:0|0:0,0:0:0:0:
319,353,106567,6,0,P|305:335|284:325,1,45.3862478877555,2|0,1:0|2:0,0:0:0:0:
284,324,106670,1,0,3:0:0:0:
136,312,106772,6,0,P|160:314|190:299,1,45.3862478877555,2|0,3:0|2:0,0:0:0:0:
180,308,106875,1,0,3:0:0:0:
303,240,106978,6,0,P|280:236|259:243,1,45.3862478877555,2|0,1:0|2:0,0:0:0:0:
258,243,107081,1,0,3:0:0:0:
121,200,107183,6,0,P|134:217|155:227,1,45.3862478877555,2|0,3:0|2:0,0:0:0:0:
155,228,107286,1,0,3:0:0:0:
234,384,107389,6,0,P|202:210|191:59,1,327.892510631891,6|0,1:0|0:0,0:0:0:0:
197,50,107748,5,0,0:0:0:0:
203,43,107800,2,0,P|256:27|285:51,1,90.772495775511,10|0,1:2|0:0,0:0:0:0:
361,225,108005,1,2,3:0:0:0:
361,225,108211,6,0,P|371:175|386:123,1,90.772495775511,10|0,1:2|0:0,0:0:0:0:
470,343,108416,1,2,3:0:0:0:
470,343,108622,6,0,P|418:328|371:308,1,90.772495775511,10|0,1:2|0:0,0:0:0:0:
159,353,108827,1,2,3:0:0:0:
159,353,109033,6,0,B|192:332|206:278|158:237|158:237|111:197|124:142|158:122,1,272.317487326533,10|0,1:2|0:0,0:0:0:0:
167,118,109392,1,0,0:0:0:0:
175,114,109444,2,0,P|189:83|156:39,1,90.772495775511,10|0,1:2|0:0,0:0:0:0:
320,179,109649,1,2,3:0:0:0:
337,176,109752,1,0,3:0:0:0:
394,132,109855,6,0,P|405:85|423:28,1,90.772495775511,10|0,1:2|0:0,0:0:0:0:
261,233,110060,2,0,P|250:280|232:337,1,90.772495775511,2|0,3:0|0:0,0:0:0:0:
372,249,110266,6,0,P|419:260|476:278,1,90.772495775511,10|0,1:2|0:0,0:0:0:0:
271,116,110471,2,0,P|224:105|167:87,1,90.772495775511,2|0,3:0|0:0,0:0:0:0:
1,177,110676,5,10,1:2:0:0:
8,204,110779,1,0,3:0:0:0:
15,231,110882,1,0,3:0:0:0:
20,258,110985,1,0,3:0:0:0:
92,196,111087,5,10,1:2:0:0:
110,198,111190,1,0,3:0:0:0:
168,277,111293,5,2,3:0:0:0:
160,260,111396,1,0,3:0:0:0:
206,176,111498,5,10,1:2:0:0:
195,191,111601,1,0,3:0:0:0:
62,124,111704,6,0,P|46:79|32:24,1,90.772495775511,2|0,3:0|3:0,0:0:0:0:
168,277,111909,6,0,P|134:310|91:347,1,90.772495775511,10|0,1:2|3:0,0:0:0:0:
211,102,112115,6,0,P|256:112|311:129,1,90.772495775511,2|0,3:0|3:0,0:0:0:0:
247,290,113142,5,8,0:3:0:0:
206,231,113245,1,8,0:3:0:0:
244,174,113348,1,8,0:3:0:0:
239,156,113450,1,4,0:3:0:0:
239,298,113553,6,0,P|256:166|277:36,1,264.28999193451,10|4,0:0|1:0,0:0:0:0:
42,92,116841,6,0,B|60:43|60:43|109:62,1,99.1087469754411,8|0,0:0|2:0,0:0:0:0:
113,57,117046,2,0,L|66:38,1,47.5474990568276,8|4,0:3|0:3,0:0:0:0:
160,151,117252,5,14,1:2:0:0:
211,99,117355,1,0,0:0:0:0:
194,18,117457,1,2,0:0:0:0:
211,88,117560,1,0,0:0:0:0:
362,67,117663,5,10,1:2:0:0:
281,34,117766,1,0,0:0:0:0:
294,127,117868,1,2,0:0:0:0:
300,110,117971,1,0,0:0:0:0:
352,191,118074,6,0,P|397:201|457:222,1,90.772495775511,10|0,1:2|0:0,0:0:0:0:
298,295,118279,1,2,0:0:0:0:
300,285,118382,1,0,0:0:0:0:
261,222,118485,5,10,1:2:0:0:
377,289,118587,1,0,0:0:0:0:
261,357,118690,1,2,0:0:0:0:
252,353,118793,1,0,0:0:0:0:
170,384,118896,6,0,P|126:370|82:359,2,90.772495775511,10|0|2,1:2|0:0|0:0,0:0:0:0:
170,384,119204,1,0,0:0:0:0:
98,275,119307,5,10,1:2:0:0:
167,232,119409,1,0,0:0:0:0:
126,162,119512,1,2,0:0:0:0:
55,204,119615,1,0,0:0:0:0:
204,161,119718,5,10,1:2:0:0:
208,143,119820,1,0,0:0:0:0:
242,21,119923,5,2,0:0:0:0:
238,39,120025,1,0,0:0:0:0:
170,77,120129,5,10,1:2:0:0:
289,160,120231,1,0,0:0:0:0:
361,90,120334,1,2,0:0:0:0:
422,138,120437,1,0,0:0:0:0:
332,2,120539,5,10,1:2:0:0:
94,255,120745,1,2,3:0:0:0:
96,268,120796,1,0,3:0:0:0:
99,281,120847,1,0,3:0:0:0:
102,294,120899,1,0,3:0:0:0:
105,308,120950,1,10,1:2:0:0:
422,138,121156,1,2,0:0:0:0:
439,142,121259,1,0,0:0:0:0:
434,55,121361,6,0,P|391:68|335:84,1,90.772495775511,14|0,1:2|0:0,0:0:0:0:
222,154,121567,1,2,0:0:0:0:
220,164,121670,1,0,0:0:0:0:
259,227,121773,5,10,1:2:0:0:
143,160,121875,1,0,0:0:0:0:
259,92,121978,1,2,0:0:0:0:
28,293,122183,6,0,P|71:305|114:318,1,90.772495775511,10|0,1:2|0:0,0:0:0:0:
261,357,122389,5,2,0:0:0:0:
268,340,122492,1,0,0:0:0:0:
356,319,122594,5,10,1:2:0:0:
346,303,122697,1,0,0:0:0:0:
403,233,122800,5,2,0:0:0:0:
384,232,122903,1,0,0:0:0:0:
289,238,123005,5,10,1:2:0:0:
254,172,123108,1,8,0:3:0:0:
259,154,123211,1,10,0:3:0:0:
324,109,123313,1,12,0:3:0:0:
266,56,123416,6,0,P|242:66|212:75,1,45.3862478877555,10|0,1:2|2:0,0:0:0:0:
380,50,123519,6,0,P|383:24|392:-5,1,45.3862478877555,2|0,0:0|2:0,0:0:0:0:
350,181,123622,6,0,P|370:197|390:221,1,45.3862478877555,2|0,0:0|2:0,0:0:0:0:
324,109,123827,5,6,1:0:0:0:
154,323,124135,5,0,0:0:0:0:
37,64,124444,5,0,1:0:0:0:
145,187,124649,5,8,0:0:0:0:
153,176,124752,2,0,P|235:159|319:147,1,165.181244959068,0|0,0:0|2:0,0:0:0:0:
315,147,125060,2,0,P|296:178|268:182,1,66.0724979836274,0|0,1:0|0:0,0:0:0:0:
169,86,125266,2,0,P|138:76|111:93,1,66.0724979836274
221,239,125471,6,0,P|235:135|254:21,2,198.217493950882,4|0|0,1:0|0:0|1:0,0:0:0:0:
427,344,126293,2,0,P|459:335|496:322,2,66.0724979836274,8|8|8,0:3|0:3|0:3,0:0:0:0:
345,329,126601,1,12,0:3:0:0:
340,316,126704,1,0,3:0:0:0:
256,192,127115,5,4,0:0:0:0:
44,167,140266,6,0,L|182:201,1,124.117494128964,4|0,1:0|0:0,0:0:0:0:
220,143,140676,6,0,L|233:88,1,41.3724980429879,2|0,0:0|0:0,0:0:0:0:
298,278,140882,2,0,L|285:333,1,41.3724980429879,2|0,0:0|0:0,0:0:0:0:
373,220,141087,6,0,P|324:256|268:234,1,124.117494128964,2|0,0:0|0:0,0:0:0:0:
269,235,141498,1,2,0:0:0:0:
431,148,141704,2,0,L|407:26,1,124.117494128964,2|0,0:0|0:0,0:0:0:0:
330,30,142115,2,0,L|353:151,1,124.117494128964,2|0,0:0|0:0,0:0:0:0:
353,151,142526,1,2,0:0:0:0:
218,37,142731,2,0,P|177:28|142:62,2,82.7449960859758,2|0|0,0:0|0:0|0:0,0:0:0:0:
218,37,143348,1,0,1:0:0:0:
86,189,143553,6,0,P|69:99|46:20,1,165.489992171952,2|2,1:0|0:0,0:0:0:0:
48,28,144170,1,0,0:0:0:0:
180,141,144375,2,0,P|166:198|161:279,1,124.117494128964,2|0,0:0|0:0,0:0:0:0:
73,326,144786,6,0,L|11:343,1,41.3724980429879,2|0,0:0|0:0,0:0:0:0:
172,260,144992,2,0,L|234:277,1,41.3724980429879,2|0,0:0|0:0,0:0:0:0:
371,306,145197,1,0,1:0:0:0:
371,306,145403,6,0,P|347:262|364:182,1,124.117494128964,2|0,0:0|0:0,0:0:0:0:
357,191,145813,1,2,0:0:0:0:
479,96,146019,2,0,P|458:141|415:150,2,82.7449960859758,2|0|0,1:0|0:0|0:0,0:0:0:0:
234,20,146635,5,0,3:0:0:0:
235,26,146687,1,0,3:0:0:0:
236,32,146738,1,0,3:0:0:0:
237,38,146790,1,0,3:0:0:0:
238,44,146841,2,0,P|213:82|163:70,1,95.0949981136551,2|0,1:0|0:0,0:0:0:0:
311,187,147252,2,0,P|266:196|238:153,1,95.0949981136551,2|2,1:0|0:0,0:0:0:0:
206,299,147663,2,0,P|167:275|177:224,1,95.0949981136551,2|0,1:0|0:0,0:0:0:0:
65,376,148074,2,0,P|53:331|95:302,1,95.0949981136551,2|2,1:0|0:0,0:0:0:0:
365,324,148485,6,0,P|399:294|387:251,1,95.0949981136551,0|2,1:0|0:0,0:0:0:0:
272,167,148793,1,0,0:0:0:0:
258,172,148896,2,0,P|223:142|235:99,1,95.0949981136551,0|2,1:0|0:0,0:0:0:0:
295,33,149204,1,0,0:0:0:0:
309,28,149307,2,0,P|343:57|331:100,1,95.0949981136551,0|2,1:0|0:0,0:0:0:0:
189,11,149615,1,0,0:0:0:0:
175,16,149718,2,0,P|147:10|116:-1,1,47.5474990568276,0|0,1:0|0:0,0:0:0:0:
104,80,149923,2,0,P|131:85|163:97,1,47.5474990568276,2|0,0:0|0:0,0:0:0:0:
198,306,150129,6,0,P|170:323|147:356,1,53.7225004508572,2|0,1:0|0:0,0:0:0:0:
299,312,150334,2,0,P|324:332|344:367,1,53.7225004508572,0|0,1:0|0:0,0:0:0:0:
184,230,150540,6,0,P|151:223|112:230,1,59.8975014166432,2|0,1:0|0:0,0:0:0:0:
328,236,150745,2,0,P|360:232|399:244,1,59.8975014166432,2|0,1:0|0:0,0:0:0:0:
96,144,150950,6,0,P|68:161|41:213,1,66.0724979836274,2|0,1:0|0:0,0:0:0:0:
421,153,151156,2,0,P|446:173|468:227,1,66.0724979836274,0|0,1:0|0:0,0:0:0:0:
134,66,151361,6,0,P|101:59|36:75,1,72.2475002756023,2|0,1:0|0:0,0:0:0:0:
391,73,151567,6,0,P|423:68|488:89,1,72.2475002756023,2|0,1:0|0:0,0:0:0:0:
254,18,151772,5,0,1:0:0:0:
214,78,151875,1,0,1:0:0:0:
253,138,151978,1,2,1:0:0:0:
212,198,152081,1,0,1:0:0:0:
278,242,152183,5,0,1:0:0:0:
280,256,152286,1,0,3:0:0:0:
218,305,152389,5,2,3:0:0:0:
216,319,152492,1,0,3:0:0:0:
274,368,152594,5,2,3:0:0:0:
274,368,153416,6,0,L|318:380,3,41.9900002562866,14|8|8|8,0:1|0:1|0:1|0:1,0:0:0:0:
204,28,155060,6,0,L|159:40,3,41.9900002562866,8|8|8|8,0:1|0:1|0:1|0:1,0:0:0:0:
80,210,156704,6,0,L|68:250,3,41.9900002562866,8|8|8|8,0:1|0:1|0:1|0:1,0:0:0:0:
420,140,158348,6,0,L|408:99,3,41.9900002562866,8|8|8|8,0:1|0:1|0:1|0:1,0:0:0:0:
260,27,159992,6,0,L|243:150,1,96.9475003698254,4|0,1:0|0:0,0:0:0:0:
213,327,160402,5,8,0:1:0:0:
148,285,160608,2,0,P|138:247|117:195,1,70.3949991406861,0|10,0:0|0:1,0:0:0:0:
284,290,161019,2,0,P|294:252|315:200,1,70.3949991406861,2|8,0:0|0:1,0:0:0:0:
230,95,161430,1,2,0:0:0:0:
219,169,161635,1,8,0:1:0:0:
369,160,161840,1,2,0:0:0:0:
369,160,161943,1,2,0:0:0:0:
369,160,162046,2,0,P|336:147|291:135,2,70.3949991406861,10|0|8,0:1|0:0|0:1,0:0:0:0:
343,46,162663,1,0,0:0:0:0:
340,34,162868,1,8,0:1:0:0:
153,132,163074,6,0,L|84:117,1,66.0724979836274,0|0,1:0|0:0,0:0:0:0:
165,17,163279,6,0,L|197:337,1,290.842501109476,4|2,1:0|0:0,0:0:0:0:
185,311,163690,2,0,L|178:239,1,66.0724979836274,8|0,0:1|0:0,0:0:0:0:
355,6,163896,6,0,L|387:326,1,290.842501109476,6|0,1:0|0:0,0:0:0:0:
375,300,164307,2,0,L|368:225,1,70.3949991406861,2|8,0:0|0:1,0:0:0:0:
136,73,164718,6,0,L|68:57,1,47.5474990568276,2|0,0:0|0:0,0:0:0:0:
251,137,164923,6,0,L|300:88,1,47.5474990568276,10|0,0:1|0:0,0:0:0:0:
143,213,165129,6,0,L|158:280,1,47.5474990568276,2|0,0:0|0:0,0:0:0:0:
172,141,165334,5,10,0:1:0:0:
435,318,165540,1,0,0:0:0:0:
440,311,165642,6,0,L|507:326,1,47.5474990568276,2|0,0:0|3:0,0:0:0:0:
325,247,165847,6,0,L|275:295,1,47.5474990568276,2|0,3:0|0:0,0:0:0:0:
433,171,166053,6,0,L|417:103,2,47.5474990568276,2|0|0,3:0|0:0|0:0,0:0:0:0:
404,243,166361,5,10,0:0:0:0:
15,162,166567,6,0,P|115:186|231:266,1,242.368750924563,6|0,1:0|2:0,0:0:0:0:
230,273,166875,1,0,0:0:0:0:
162,124,166978,2,0,P|176:71|228:64,1,84.5975023880826,2|0,3:0|0:0,0:0:0:0:
143,286,167183,2,0,P|130:339|78:346,1,84.5975023880826,2|0,3:0|0:0,0:0:0:0:
247,128,167389,6,0,P|314:114|392:92,1,126.896253582124,10|0,0:0|2:0,0:0:0:0:
371,92,167594,2,0,P|326:105|280:116,1,84.5975023880826,2|0,3:0|0:0,0:0:0:0:
214,348,167800,6,0,P|281:361|359:383,1,126.896253582124,2|0,3:0|2:0,0:0:0:0:
338,384,168005,2,0,P|293:370|247:359,1,84.5975023880826,2|0,3:0|0:0,0:0:0:0:
421,263,168211,6,0,P|452:125|480:13,1,242.368750924563,2|0,1:0|2:0,0:0:0:0:
470,20,168519,1,0,0:0:0:0:
380,126,168622,2,0,P|337:133|278:148,1,84.5975023880826,2|0,3:0|0:0,0:0:0:0:
56,40,168827,2,0,P|103:30|171:14,1,84.5975023880826,2|0,3:0|0:0,0:0:0:0:
97,301,169033,6,0,P|73:243|38:178,1,126.896253582124,10|0,0:0|2:0,0:0:0:0:
33,185,169238,2,0,P|61:144|98:147,1,84.5975023880826,2|0,3:0|0:0,0:0:0:0:
415,301,169444,6,0,P|438:243|474:178,1,126.896253582124,2|0,3:0|2:0,0:0:0:0:
479,185,169649,2,0,P|451:144|414:147,1,84.5975023880826,2|0,1:0|0:0,0:0:0:0:
157,217,169855,6,0,L|328:255,1,173.208746564158,6|0,1:0|2:0,0:0:0:0:
333,252,170060,2,0,L|317:163,1,90.772495775511,2|0,1:0|0:0,0:0:0:0:
45,102,170266,2,0,L|61:13,1,90.772495775511,2|0,1:0|0:0,0:0:0:0:
392,109,170471,6,0,L|221:147,1,173.208746564158,2|0,1:0|2:0,0:0:0:0:
214,139,170676,2,0,L|230:50,1,90.772495775511,2|0,1:0|0:0,0:0:0:0:
474,265,170882,2,0,L|458:354,1,90.772495775511,2|0,1:0|0:0,0:0:0:0:
0,267,171087,6,0,L|171:305,1,173.208746564158,2|0,1:0|2:0,0:0:0:0:
177,298,171293,2,0,L|161:209,1,90.772495775511,2|0,1:0|0:0,0:0:0:0:
280,36,171498,5,2,1:0:0:0:
349,16,171601,1,0,1:0:0:0:
394,73,171704,1,2,1:0:0:0:
385,144,171807,1,0,1:0:0:0:
306,123,171909,5,2,1:0:0:0:
354,261,172012,1,0,1:0:0:0:
303,206,172115,5,2,1:0:0:0:
285,202,172218,1,0,1:0:0:0:
184,118,172320,5,2,1:0:0:0:
136,256,172423,1,0,1:0:0:0:
187,201,172526,5,2,1:0:0:0:
205,197,172629,1,0,1:0:0:0:
239,299,172731,6,0,L|204:292,3,33.0362489918137,2|0|0|0,0:0|0:0|0:0|0:0,0:0:0:0:
304,348,172937,5,2,0:0:0:0:
313,345,172988,1,0,0:0:0:0:
323,343,173039,1,0,0:0:0:0:
332,340,173091,1,0,0:0:0:0:
342,338,173142,1,0,1:0:0:0:
42,93,174375,5,12,0:0:0:0:
42,93,174786,6,0,B|22:106|-3:103|-3:103|31:142|20:191|20:191|80:153|152:159|152:159|103:91|121:19,1,420.517493904242,6|0,1:0|0:0,0:0:0:0:
303,12,175197,2,0,P|202:35|217:105,1,191.733755339266,2|0,1:0|2:0,0:0:0:0:
218,108,175403,2,0,P|272:137|323:93,1,127.82250355951,2|0,0:0|0:0,0:0:0:0:
474,6,175608,6,0,P|453:115|432:288,1,255.645007119021,2|0,1:0|0:0,0:0:0:0:
323,366,175917,1,2,0:0:0:0:
271,303,176019,6,0,L|335:286,1,66.0724979836274,0|0,1:0|0:0,0:0:0:0:
127,317,176225,5,2,0:0:0:0:
129,307,176276,1,0,0:0:0:0:
130,299,176328,1,0,0:0:0:0:
132,293,176379,1,0,0:0:0:0:
134,282,176430,1,0,1:0:0:0:
248,38,176635,6,0,P|292:38|308:98,1,99.1087469754411,2|0,0:0|2:0,0:0:0:0:
319,91,176841,2,0,P|273:145|221:121,1,127.82250355951,2|0,1:0|0:0,0:0:0:0:
100,22,177046,6,0,P|56:22|40:82,1,99.1087469754411,2|0,0:0|2:0,0:0:0:0:
108,99,177252,6,0,B|143:120|157:176|107:218|107:218|58:260|72:317|107:338,1,280.344995936161,2|0,1:0|0:0,0:0:0:0:
106,337,177560,1,0,0:0:0:0:
346,328,177663,2,0,P|258:298|151:280,1,191.733755339266,2|0,1:0|2:0,0:0:0:0:
162,273,177868,2,0,P|192:277|235:285,1,66.0724979836274,2|0,0:0|0:0,0:0:0:0:
419,212,178074,6,0,B|503:221|593:93|506:-11|385:34|412:105,1,346.417493128315,2|0,1:0|0:0,0:0:0:0:
420,110,178434,1,0,0:0:0:0:
425,119,178485,2,0,P|362:140|298:112,1,127.82250355951,2|0,1:0|0:0,0:0:0:0:
67,46,178690,2,0,P|130:25|194:53,1,127.82250355951,2|0,0:0|0:0,0:0:0:0:
231,337,178896,6,0,P|175:279|220:124,1,255.645007119021,2|0,1:0|0:0,0:0:0:0:
419,21,179204,1,2,0:0:0:0:
353,54,179307,2,0,P|317:39|279:46,1,66.0724979836274,0|0,1:0|0:0,0:0:0:0:
44,179,179512,5,2,0:0:0:0:
46,189,179563,1,0,0:0:0:0:
47,197,179615,1,0,0:0:0:0:
49,203,179666,1,0,0:0:0:0:
51,213,179717,1,0,1:0:0:0:
352,366,179923,6,0,P|375:331|336:278,1,99.1087469754411,2|0,0:0|2:0,0:0:0:0:
351,274,180129,2,0,P|290:247|239:285,1,127.82250355951,2|0,1:0|0:0,0:0:0:0:
87,341,180334,2,0,P|134:362|175:332,1,99.1087469754411,2|0,0:0|2:0,0:0:0:0:
166,259,180540,6,0,P|147:157|131:26,1,191.733755339266,2|0,1:0|2:0,0:0:0:0:
66,39,180745,1,2,0:0:0:0:
53,34,180848,1,0,0:0:0:0:
206,35,180951,1,2,1:0:0:0:
219,30,181054,1,0,0:0:0:0:
237,151,181156,5,2,0:0:0:0:
247,153,181207,1,0,0:0:0:0:
255,154,181259,1,0,0:0:0:0:
261,156,181310,1,0,0:0:0:0:
271,158,181361,1,0,1:0:0:0:
77,319,181567,5,2,0:0:0:0:
80,332,181670,1,0,0:0:0:0:
110,253,181773,2,0,B|121:218|121:218|84:248|52:252|8:234|8:234|29:264,1,191.733755339266,2|0,1:0|2:0,0:0:0:0:
54,152,181978,6,0,B|61:136|61:136|41:128|34:145|28:162|48:169|48:169|68:177|75:160|81:143|61:136|61:136,1,132.144995967255,2|0,0:0|1:0,0:0:0:0:
374,333,182389,5,2,0:0:0:0:
371,346,182492,1,0,0:0:0:0:
341,267,182595,2,0,B|329:232|329:232|366:262|398:266|442:248|442:248|421:278,1,191.733755339266,2|0,1:0|2:0,0:0:0:0:
397,166,182800,6,0,B|390:150|390:150|410:142|417:159|423:176|403:183|403:183|383:191|376:174|370:157|390:150|390:150,1,132.144995967255,2|0,0:0|1:0,0:0:0:0:
233,352,183211,6,0,P|221:257|203:160,1,191.733755339266,2|0,0:0|2:0,0:0:0:0:
209,158,183416,2,0,P|227:252|239:348,1,191.733755339266,2|0,1:0|2:0,0:0:0:0:
247,352,183622,2,0,P|310:365|327:309,1,127.82250355951,2|0,0:0|0:0,0:0:0:0:
198,153,183828,2,0,B|167:131|114:140|97:198|97:198|80:255|27:264|-3:243,1,255.645007119021,2|2,1:0|0:0,0:0:0:0:
0,245,184136,1,0,0:0:0:0:
67,65,184238,2,0,P|46:126|95:178,1,127.82250355951,2|0,1:0|0:0,0:0:0:0:
273,69,184444,5,2,0:0:0:0:
282,71,184495,1,0,0:0:0:0:
290,74,184546,1,0,0:0:0:0:
299,77,184598,1,0,0:0:0:0:
307,80,184649,1,2,1:0:0:0:
224,311,184855,5,0,0:0:0:0:
210,313,184958,1,0,0:0:0:0:
253,374,185060,2,0,P|264:307|280:243,1,127.82250355951,2|0,1:0|0:0,0:0:0:0:
326,0,185266,6,0,P|314:50|305:101,1,99.1087469754411,2|0,0:0|2:0,0:0:0:0:
306,97,185471,6,0,B|339:77|391:90|404:148|404:148|417:206|468:219|501:200,1,255.645007119021,0|2,1:0|0:0,0:0:0:0:
497,201,185780,1,0,0:0:0:0:
391,259,185882,2,0,P|376:321|365:384,1,127.82250355951,0|0,1:0|0:0,0:0:0:0:
75,153,186088,5,2,0:0:0:0:
72,147,186139,1,0,0:0:0:0:
72,140,186191,1,0,0:0:0:0:
74,134,186242,1,0,0:0:0:0:
76,128,186293,2,0,L|474:46,1,383.467510678531,4|8,1:0|0:3,0:0:0:0:
195,363,186704,6,0,P|119:313|146:209,1,191.733755339266,2|0,1:0|2:0,0:0:0:0:
130,215,186909,2,0,P|168:203|202:220,1,66.0724979836274,2|0,0:0|0:0,0:0:0:0:
417,315,187115,6,0,P|466:239|399:155,1,191.733755339266,2|0,1:0|2:0,0:0:0:0:
416,154,187320,2,0,P|376:159|351:188,1,66.0724979836274,10|4,0:3|0:3,0:0:0:0:
313,340,187526,5,10,0:0:0:0:
262,291,187629,1,8,0:3:0:0:
279,211,187732,1,10,0:0:0:0:
284,219,187834,1,8,0:3:0:0:
308,351,187937,5,2,1:0:0:0:
308,351,188348,6,0,P|324:247|345:156,1,191.733755339266,6|0,1:0|2:0,0:0:0:0:
352,167,188554,2,0,P|337:228|326:291,1,127.82250355951,2|0,0:0|0:0,0:0:0:0:
238,140,188759,6,0,B|216:121|177:124|159:165|159:165|142:206|103:209|81:190,1,191.733755339266,2|0,1:0|2:0,0:0:0:0:
77,185,188964,2,0,B|60:151|93:117|93:117|77:151|93:185,1,127.82250355951,2|2,0:0|0:0,0:0:0:0:
180,283,189170,1,0,1:0:0:0:
436,185,189375,5,2,0:0:0:0:
428,183,189427,1,0,0:0:0:0:
421,183,189478,1,0,0:0:0:0:
414,183,189530,1,0,0:0:0:0:
407,183,189581,2,0,B|336:124|402:64|402:64|384:93|395:123,1,191.733755339266,0|0,1:0|2:0,0:0:0:0:
465,101,189786,2,0,P|477:68|467:28,1,66.0724979836274,2|0,0:0|0:0,0:0:0:0:
266,198,189992,2,0,B|320:123|241:82|241:82|265:105|262:137,1,191.733755339266,2|0,1:0|2:0,0:0:0:0:
190,133,190197,2,0,P|170:104|170:62,1,66.0724979836274,2|0,0:0|0:0,0:0:0:0:
13,266,190403,6,0,B|45:240|102:247|124:308|124:308|146:369|203:376|235:351,1,280.344995936161,2|0,1:0|0:0,0:0:0:0:
339,234,190711,1,0,0:0:0:0:
405,276,190813,2,0,B|430:327|379:379|379:379|405:327|379:276,1,191.733755339266,2|0,1:0|2:0,0:0:0:0:
339,234,191019,6,0,L|270:218,1,66.0724979836274,2|0,0:0|0:0,0:0:0:0:
100,178,191224,6,0,B|111:219|111:219|156:199|193:103|109:34|8:105|15:182|15:182|36:257,1,420.517493904242,2|0,1:0|0:0,0:0:0:0:
62,325,191584,1,0,0:0:0:0:
65,330,191635,2,0,L|201:360,1,127.82250355951,2|0,1:0|0:0,0:0:0:0:
455,150,191841,2,0,L|319:120,1,127.82250355951,2|0,0:0|0:0,0:0:0:0:
275,381,192046,6,0,P|255:189|225:-3,1,383.467510678531,2|2,1:0|0:0,0:0:0:0:
6,130,192457,2,0,P|2:178|46:192,1,99.1087469754411,0|0,1:0|2:0,0:0:0:0:
85,117,192663,5,2,0:0:0:0:
92,115,192715,1,0,0:0:0:0:
99,113,192766,1,0,0:0:0:0:
106,111,192817,1,0,0:0:0:0:
112,110,192868,2,0,P|154:126|149:172,1,99.1087469754411,0|0,1:0|2:0,0:0:0:0:
145,181,193074,2,0,P|139:226|225:257,1,145.421250554738,2|0,0:0|2:0,0:0:0:0:
221,252,193279,2,0,P|295:212|429:186,1,191.733755339266,2|0,1:0|2:0,0:0:0:0:
401,181,193485,2,0,P|342:188|326:192,1,66.0724979836274,2|0,0:0|0:0,0:0:0:0:
298,364,193690,6,0,P|284:247|245:104,1,255.645007119021,2|2,1:0|0:0,0:0:0:0:
333,108,193999,1,0,0:0:0:0:
195,205,194101,2,0,P|205:116|234:8,1,198.217493950882,2|0,1:0|0:0,0:0:0:0:
36,286,194512,6,0,L|133:263,1,85.2150023730069,2|0,1:0|0:0,0:0:0:0:
206,334,194649,2,0,L|303:311,1,85.2150023730069,2|0,0:0|0:0,0:0:0:0:
336,227,194786,2,0,L|433:204,1,85.2150023730069,2|0,0:0|0:0,0:0:0:0:
467,310,194923,6,0,L|243:255,1,220.241659945425,2|0,1:0|0:0,0:0:0:0:
37,275,195334,6,0,L|134:252,1,85.2150023730069,2|0,1:0|0:0,0:0:0:0:
207,323,195471,2,0,L|304:300,1,85.2150023730069,2|0,0:0|0:0,0:0:0:0:
337,216,195608,2,0,L|434:193,1,85.2150023730069,2|0,0:0|0:0,0:0:0:0:
468,299,195745,6,0,L|303:258,1,158.491663522759,2|0,1:0|0:0,0:0:0:0:
246,124,196156,6,0,P|235:81|190:55,1,72.8650023626424,2|0,1:0|0:0,0:0:0:0:
235,232,196293,2,0,P|201:260|197:311,1,72.8650023626424,2|0,0:0|0:0,0:0:0:0:
351,190,196430,2,0,P|392:203|438:179,1,72.8650023626424,2|0,0:0|0:0,0:0:0:0:
237,125,196567,6,0,P|222:84|174:64,1,72.8650023626424,2|0,1:0|0:0,0:0:0:0:
240,234,196704,2,0,P|210:266|212:318,1,72.8650023626424,2|0,0:0|0:0,0:0:0:0:
350,178,196841,2,0,P|393:186|435:157,1,72.8650023626424,2|0,0:0|0:0,0:0:0:0:
448,49,196978,6,0,P|287:103|140:197,1,339.316251294389,2|0,1:0|2:0,0:0:0:0:
116,262,197389,6,0,P|79:270|53:242,1,78.4224994016838,2|0,1:0|0:0,0:0:0:0:
148,42,197594,2,0,P|203:87|193:123,1,117.633749102526,2|0,0:0|2:0,0:0:0:0:
153,197,197800,6,0,P|296:106|456:52,1,339.316251294389,4|2,1:0|1:0,0:0:0:0:
455,332,198416,2,0,P|462:290|492:237,1,84.5975023880826,2|0,0:0|0:0,0:0:0:0:
307,185,198622,2,0,P|350:240|367:355,1,169.195004776165,2|0,1:0|0:0,0:0:0:0:
165,316,198930,1,0,0:0:0:0:
224,368,199033,2,0,P|246:330|244:275,1,84.5975023880826,2|0,1:0|0:0,0:0:0:0:
106,116,199238,2,0,P|108:157|166:225,1,126.896253582124,2|0,0:0|2:0,0:0:0:0:
238,217,199444,5,0,1:0:0:0:
238,217,199855,5,0,0:0:0:0:
238,217,200266,5,8,0:0:0:0:
199,152,200368,1,8,0:0:0:0:
276,109,200471,1,8,0:0:0:0:
173,30,200574,1,8,0:0:0:0:
332,58,200676,6,0,P|220:89|113:133,1,231.253742942696,12|0,0:0|2:0,0:0:0:0:
107,131,201087,6,0,B|32:137|-35:40|30:-40|123:-5|101:53,1,272.317487326533,6|0,1:0|0:0,0:0:0:0:
10,268,201498,6,0,L|-1:207,1,58.3537514246521,0|0,1:0|2:0,0:0:0:0:
4,201,201909,6,0,P|50:206|89:288,1,136.158743663266,2|0,1:0|2:0,0:0:0:0:
87,287,202115,2,0,P|101:328|143:341,1,90.772495775511,2|0,0:0|0:0,0:0:0:0:
344,306,202320,6,0,P|297:300|259:219,1,136.158743663266,2|0,1:0|2:0,0:0:0:0:
261,220,202526,2,0,P|246:178|204:165,1,90.772495775511,2|0,0:0|0:0,0:0:0:0:
168,251,202731,6,0,B|190:279|240:285|274:213|274:213|309:140|359:146|381:175,1,272.317487326533,2|0,1:0|0:0,0:0:0:0:
482,315,203142,6,0,L|493:254,1,58.3537514246521,0|0,1:0|2:0,0:0:0:0:
492,246,203553,6,0,P|446:245|397:322,1,136.158743663266,2|0,1:0|0:0,0:0:0:0:
399,321,203759,2,0,P|380:360|337:368,1,90.772495775511,2|0,0:0|0:0,0:0:0:0:
141,308,203964,6,0,P|188:308|236:232,1,136.158743663266,2|0,1:0|2:0,0:0:0:0:
234,233,204170,2,0,P|254:193|297:185,1,90.772495775511,2|0,0:0|0:0,0:0:0:0:
130,379,204375,6,0,P|114:261|83:146,1,226.931239438777,2|0,1:0|2:0,0:0:0:0:
76,153,204683,1,2,0:0:0:0:
0,23,204786,2,0,P|12:70|54:79,1,90.772495775511,2|0,1:0|0:0,0:0:0:0:
202,80,204992,2,0,P|156:65|126:96,1,90.772495775511,2|0,0:0|0:0,0:0:0:0:
212,238,205197,2,0,P|222:194|242:153,1,90.772495775511,0|0,1:0|0:0,0:0:0:0:
408,118,205403,1,2,0:0:0:0:
424,124,205505,1,0,0:0:0:0:
369,56,205608,2,0,P|329:70|274:83,1,90.772495775511,2|0,1:0|0:0,0:0:0:0:
440,229,205813,2,0,P|462:131|499:38,1,181.544991551022,2|0,0:0|1:0,0:0:0:0:
232,222,206224,5,2,0:0:0:0:
217,232,206327,1,2,0:0:0:0:
273,156,206430,2,0,P|315:173|359:184,1,90.772495775511,2|0,1:0|0:0,0:0:0:0:
211,325,206635,6,0,P|196:228|175:143,1,181.544991551022,2|0,0:0|1:0,0:0:0:0:
176,147,206944,1,0,0:0:0:0:
33,118,207046,5,2,0:0:0:0:
65,53,207149,1,2,0:0:0:0:
28,132,207252,2,0,P|43:175|57:231,1,90.772495775511,2|0,1:0|0:0,0:0:0:0:
290,188,207457,2,0,P|279:144|232:5,1,181.544991551022,2|8,0:0|1:2,0:0:0:0:
45,207,208074,6,0,P|77:271|173:271,1,136.158743663266,6|0,1:0|2:0,0:0:0:0:
139,293,208279,2,0,P|183:283|212:250,1,90.772495775511,2|0,3:0|0:0,0:0:0:0:
366,17,208485,6,0,P|295:10|244:92,1,136.158743663266,2|0,1:0|2:0,0:0:0:0:
243,51,208690,2,0,P|228:93|241:136,1,90.772495775511,2|0,3:0|0:0,0:0:0:0:
373,383,208896,6,0,P|416:326|374:240,1,136.158743663266,2|0,1:0|2:0,0:0:0:0:
409,260,209101,2,0,P|381:225|338:214,1,90.772495775511,2|0,3:0|0:0,0:0:0:0:
63,340,209307,6,0,P|53:273|37:207,1,136.158743663266,2|0,1:0|2:0,0:0:0:0:
42,198,209512,2,0,P|52:239|64:296,1,90.772495775511,2|0,3:0|0:0,0:0:0:0:
449,340,209718,6,0,P|459:273|475:207,1,136.158743663266,2|0,1:0|2:0,0:0:0:0:
470,198,209923,2,0,P|460:239|448:296,1,90.772495775511,2|0,3:0|0:0,0:0:0:0:
103,49,210129,6,0,P|127:113|145:178,1,136.158743663266,2|0,1:0|2:0,0:0:0:0:
154,183,210334,1,2,3:0:0:0:
291,225,210437,1,0,0:0:0:0:
245,167,210539,2,0,P|234:124|217:70,1,90.772495775511,2|0,1:0|0:0,0:0:0:0:
344,287,210745,2,0,P|333:330|316:384,1,90.772495775511,2|0,3:0|0:0,0:0:0:0:
393,67,210950,5,6,1:0:0:0:
409,62,211053,1,0,3:0:0:0:
424,56,211156,1,0,3:0:0:0:
440,51,211259,1,0,3:0:0:0:
390,154,211361,5,10,3:2:0:0:
374,149,211464,1,0,3:0:0:0:
359,143,211567,1,0,3:0:0:0:
343,138,211670,1,0,3:0:0:0:
390,240,211772,5,10,3:2:0:0:
406,235,211875,1,0,3:0:0:0:
421,229,211978,1,0,3:0:0:0:
437,224,212081,1,0,3:0:0:0:
389,325,212183,5,10,3:2:0:0:
373,320,212286,1,0,3:0:0:0:
358,314,212389,1,0,3:0:0:0:
342,309,212492,1,0,3:0:0:0:
278,348,212594,6,0,P|263:319|265:286,1,66.0724979836274,14|0,0:0|0:0,0:0:0:0:
299,136,212800,2,0,P|301:169|286:198,1,66.0724979836274,2|8,0:0|0:3,0:0:0:0:
143,245,213005,2,0,P|171:231|212:221,1,66.0724979836274,10|8,0:3|0:3,0:0:0:0:
106,106,213211,5,2,3:0:0:0:
109,93,213313,1,0,3:0:0:0:
68,26,213416,5,10,0:0:0:0:
191,97,213519,1,8,0:3:0:0:
68,170,213622,1,6,0:3:0:0:
56,164,213724,1,12,0:3:0:0:
55,253,213827,6,0,L|132:230,1,66.0724979836274,2|0,3:0|0:0,0:0:0:0:
142,306,214033,2,0,L|65:329,1,66.0724979836274,2|0,3:0|0:0,0:0:0:0:
256,192,214649,5,14,1:2:0:0:
