osu file format v14

[General]
AudioFilename: audio.mp3
AudioLeadIn: 0
PreviewTime:160711
Countdown: 0
SampleSet: Soft
StackLeniency: 0.7
Mode: 0
LetterboxInBreaks: 0
WidescreenStoryboard: 1

[Editor]
DistanceSpacing: 1.4
BeatDivisor: 4
GridSize: 32
TimelineZoom: 1.399999

[Metadata]
Title:WWW
TitleUnicode:WWW
Artist:HIMEHINA
ArtistUnicode:HIMEHINA
Creator:SMOKELIND
Version:Ex x Maot's Hard
Source:
Tags:Moonlight Seeker Japanese Electronic Pop Virtual Youtuber Virtual Singer VTuber VSinger 田中ヒメ Tanaka Hime 鈴木ヒナ Suzuki Hina -ex- -_ex_- - ex - Maot My Angel Jeremy gazimal
BeatmapID:4196359
BeatmapSetID:2003700

[Difficulty]
HPDrainRate:4.5
CircleSize:4
OverallDifficulty:6
ApproachRate:8
SliderMultiplier:1.6
SliderTickRate:1

[Events]
//Background and Video events
Video,50,"vid.mp4"
0,0,"BG.jpg",0,0
//Break Periods
2,740,2872
2,4644,6365
2,41835,47461
2,114164,116091
2,127315,139516
2,153616,159242
//Storyboard Layer 0 (Background)
//Storyboard Layer 1 (Fail)
//Storyboard Layer 2 (Pass)
//Storyboard Layer 3 (Foreground)
//Storyboard Layer 4 (Overlay)
//Storyboard Sound Samples

[TimingPoints]
540,410.958904109589,4,2,77,77,1,0
745,-100,4,2,77,47,0,0
3622,-100,4,2,77,77,0,0
4855,-100,4,2,77,47,0,0
7115,-125,4,2,77,77,0,0
7525,-125,4,2,77,57,0,0
8759,-125,4,2,77,77,0,0
9169,-125,4,2,77,57,0,0
10197,-125,4,2,77,77,0,0
10813,-100,4,2,77,77,0,0
13690,-100,4,2,77,47,0,0
14923,-100,4,2,77,77,0,0
15334,-100,4,2,77,67,0,0
26841,-100,4,2,77,47,0,0
28485,-100,4,2,77,67,0,0
39786,-100,4,2,77,47,0,0
48211,-125,4,2,77,57,0,0
58074,-125,4,2,77,67,0,0
59718,-125,4,2,77,47,0,0
60129,-100,4,2,77,47,0,0
61361,-90.9090909090909,4,2,77,87,0,0
84375,-90.9090909090909,4,2,77,77,0,0
86019,-90.9090909090909,4,2,77,57,0,0
87663,-90.9090909090909,4,2,77,67,0,0
88074,-90.9090909090909,4,2,77,37,0,0
88485,-100,4,2,77,67,0,0
114170,-100,4,2,77,47,0,0
116841,-100,4,2,77,47,0,0
117252,-100,4,2,77,67,0,0
127115,-100,4,2,77,47,0,0
140266,-125,4,2,77,47,0,0
150129,-111.111111111111,4,2,77,57,0,0
153416,-111.111111111111,4,2,77,37,0,0
159992,-111.111111111111,4,2,77,77,0,0
160197,-111.111111111111,4,2,77,47,0,0
160608,-111.111111111111,4,2,77,47,0,0
163074,-111.111111111111,4,2,77,77,0,0
163896,-100,4,2,77,77,0,0
164306,-100,4,2,77,47,0,0
164717,-100,4,2,77,47,0,0
164923,-111.111111111111,4,2,77,47,0,0
166567,-111.111111111111,4,2,77,77,0,0
166978,-100,4,2,77,77,0,0
174786,-90.9090909090909,4,2,77,87,0,0
197800,-90.9090909090909,4,2,77,77,0,0
199444,-90.9090909090909,4,2,77,57,0,0
201087,-111.111111111111,4,2,77,67,0,0
208074,-100,4,2,77,67,0,0

[Colours]
Combo1 : 124,74,255
Combo2 : 255,74,74

[HitObjects]
454,267,540,5,4,1:0:0:0:
454,267,3622,5,0,1:0:0:0:
491,185,3827,1,4,1:0:0:0:
223,210,4444,1,6,1:0:0:0:
223,210,7115,6,0,P|168:221|88:247,1,128,6|2,1:0|3:0,0:0:0:0:
27,189,7731,1,0,3:0:0:0:
76,114,7937,2,0,P|66:73|53:44,1,64,2|2,3:0|3:0,0:0:0:0:
71,39,8245,1,0,3:0:0:0:
84,25,8348,1,2,3:0:0:0:
171,45,8553,1,2,3:0:0:0:
279,14,8759,6,0,B|341:13|377:59|377:59|403:41,1,128,2|2,1:0|3:0,0:0:0:0:
295,112,9375,1,0,3:0:0:0:
359,174,9581,2,0,P|396:182|428:194,1,64,0|2,3:0|3:0,0:0:0:0:
493,290,9992,2,0,P|462:279|431:273,1,64,2|2,3:0|1:0,0:0:0:0:
338,333,10403,5,6,1:0:0:0:
338,333,10608,1,0,1:0:0:0:
234,289,10813,2,0,P|225:332|211:370,1,80,0|2,1:0|1:0,0:0:0:0:
342,301,11224,2,0,P|355:263|363:224,1,80,0|0,1:0|1:0,0:0:0:0:
285,143,11635,1,2,1:0:0:0:
373,73,11841,1,0,1:0:0:0:
275,18,12046,6,0,P|227:26|209:31,3,40,0|0|0|0,1:0|1:0|1:0|1:0,0:0:0:0:
229,47,12457,2,0,P|181:55|163:60,3,40,0|0|0|0,1:0|1:0|1:0|1:0,0:0:0:0:
183,76,12868,2,0,P|135:84|117:89,7,40,0|0|0|0|0|0|0|0,3:0|3:0|3:0|3:0|3:0|3:0|3:0|3:0,0:0:0:0:
114,118,13690,5,2,0:0:0:0:
308,355,14307,1,2,0:0:0:0:
308,355,14409,1,2,0:0:0:0:
308,355,14512,2,0,P|296:308|280:273,1,80,10|10,0:0|0:0,0:0:0:0:
294,262,14820,1,12,0:3:0:0:
308,248,14923,2,0,P|348:235|362:228,3,40,14|0|0|0,1:2|0:0|0:0|0:0,0:0:0:0:
375,215,15334,6,0,B|354:111|325:174|299:68,1,160,6|0,1:0|1:0,0:0:0:0:
228,122,15950,1,0,0:0:0:0:
153,166,16156,2,0,P|107:180|42:184,1,80,0|2,1:0|0:0,0:0:0:0:
48,174,16464,1,0,0:0:0:0:
48,174,16567,1,2,1:0:0:0:
74,268,16772,1,2,0:0:0:0:
104,364,16978,6,0,P|194:357|235:376,1,120,2|0,1:0|0:0,0:0:0:0:
229,372,17389,2,0,P|235:319|241:281,1,80,2|2,1:0|0:0,0:0:0:0:
216,201,17800,1,2,1:0:0:0:
313,230,18005,1,2,0:0:0:0:
313,230,18108,1,0,0:0:0:0:
313,230,18211,2,0,P|308:190|302:150,1,80,2|2,1:0|0:0,0:0:0:0:
361,70,18622,6,0,P|419:82|475:56,1,120,2|0,1:0|0:0,0:0:0:0:
493,63,19033,2,0,P|487:102|482:142,1,80,2|2,1:0|0:0,0:0:0:0:
420,204,19444,1,2,1:0:0:0:
488,278,19649,1,2,0:0:0:0:
488,278,19752,1,0,0:0:0:0:
488,278,19855,2,0,P|432:298|404:308,1,80,2|2,1:0|0:0,0:0:0:0:
327,369,20266,6,0,P|309:302|325:238,1,120,0|0,1:0|0:0,0:0:0:0:
305,244,20676,2,0,P|259:241|210:231,1,80,2|0,1:0|0:0,0:0:0:0:
211,241,20985,1,0,0:0:0:0:
196,248,21087,1,2,1:0:0:0:
217,152,21293,2,0,P|225:132|233:100,2,40,2|2|2,0:0|3:0|1:0,0:0:0:0:
118,127,21704,1,2,0:0:0:0:
88,224,21909,6,0,P|103:283|116:341,1,120,6|0,1:0|0:0,0:0:0:0:
93,362,22320,1,2,1:0:0:0:
191,384,22526,1,2,0:0:0:0:
238,304,22731,2,0,L|325:326,1,80,2|2,1:0|0:0,0:0:0:0:
345,312,23039,1,0,0:0:0:0:
359,297,23142,2,0,P|373:251|345:199,1,80,0|2,1:0|0:0,0:0:0:0:
418,159,23553,6,0,L|505:174,1,80,0|2,1:0|0:0,0:0:0:0:
508,157,23861,1,0,0:0:0:0:
512,140,23964,2,0,P|494:92|464:62,1,80,2|2,1:0|0:0,0:0:0:0:
424,0,24375,2,0,P|366:24|349:64,1,80,2|2,1:0|0:0,0:0:0:0:
346,59,24683,1,0,0:0:0:0:
335,81,24786,2,0,P|269:70|239:55,1,80,0|0,1:0|0:0,0:0:0:0:
187,138,25197,6,0,P|179:199|221:265,1,120,2|0,1:0|0:0,0:0:0:0:
232,250,25608,1,2,1:0:0:0:
252,341,25813,1,2,0:0:0:0:
168,371,26019,2,0,P|105:363|70:362,1,80,2|2,1:0|0:0,0:0:0:0:
67,347,26327,1,0,0:0:0:0:
51,327,26430,2,0,P|52:273|66:212,1,80,0|2,1:0|0:0,0:0:0:0:
130,208,26841,5,0,0:0:0:0:
68,108,27149,1,4,0:3:0:0:
68,108,27252,1,10,0:0:0:0:
136,59,27457,1,10,0:0:0:0:
210,99,27663,1,0,3:0:0:0:
265,39,27868,2,0,L|438:67,1,160,2|0,3:0|3:0,0:0:0:0:
502,146,28485,6,0,B|520:212|475:262|475:262|470:236|448:225,1,160,6|2,1:0|1:0,0:0:0:0:
387,158,29101,1,2,0:0:0:0:
387,158,29204,1,0,0:0:0:0:
387,158,29307,1,2,1:0:0:0:
287,210,29512,2,0,P|250:224|209:236,1,80,2|0,0:0|1:0,0:0:0:0:
130,312,29923,2,0,P|92:297|51:286,1,80,2|0,0:0|1:0,0:0:0:0:
11,182,30334,5,2,0:0:0:0:
91,104,30539,1,2,1:0:0:0:
185,164,30745,2,0,P|223:174|260:189,1,80,2|0,0:0|1:0,0:0:0:0:
373,158,31156,2,0,P|402:187|413:205,1,40,2|0,3:0|0:0,0:0:0:0:
441,187,31361,2,0,P|441:228|436:248,1,40,2|0,1:0|0:0,0:0:0:0:
462,259,31567,2,0,P|432:288|414:299,1,40,2|0,3:0|0:0,0:0:0:0:
417,319,31772,6,0,B|354:304|311:341|311:341|265:319,1,160,2|2,1:0|1:0,0:0:0:0:
171,274,32389,1,2,0:0:0:0:
171,274,32492,1,0,0:0:0:0:
171,274,32594,1,2,1:0:0:0:
64,304,32800,2,0,P|69:361|74:390,1,80,2|0,0:0|1:0,0:0:0:0:
163,243,33211,2,0,P|157:203|154:163,1,80,2|0,0:0|1:0,0:0:0:0:
101,66,33622,5,2,0:0:0:0:
212,84,33827,2,0,P|251:89|291:92,1,80,2|0,1:0|0:0,0:0:0:0:
406,89,34238,2,0,P|416:127|420:146,1,40,2|0,1:0|3:0,0:0:0:0:
455,150,34444,2,0,P|441:186|433:204,1,40,2|0,3:0|3:0,0:0:0:0:
425,218,34649,1,2,1:0:0:0:
371,318,34855,1,2,1:0:0:0:
270,241,35060,6,0,B|312:181|279:113|279:113|243:126,1,160,6|2,1:0|1:0,0:0:0:0:
160,176,35676,1,2,0:0:0:0:
160,176,35882,1,2,1:0:0:0:
67,113,36087,2,0,P|57:67|46:26,1,80,2|0,0:0|1:0,0:0:0:0:
6,176,36498,2,0,P|16:214|24:253,1,80,2|0,0:0|1:0,0:0:0:0:
81,361,36909,5,2,0:0:0:0:
81,361,37012,1,0,0:0:0:0:
81,361,37115,2,0,P|135:373|172:385,1,80,2|2,1:0|0:0,0:0:0:0:
242,305,37526,1,2,1:0:0:0:
242,305,37731,1,2,0:0:0:0:
347,267,37937,2,0,P|401:279|438:291,1,80,2|2,1:0|0:0,0:0:0:0:
311,169,38348,5,2,1:0:0:0:
311,169,38759,2,0,P|300:119|288:83,1,80,2|2,1:0|0:0,0:0:0:0:
410,201,39170,1,2,1:0:0:0:
410,201,39375,2,0,P|421:151|433:115,1,80,2|0,0:0|1:0,0:0:0:0:
499,35,39786,6,0,P|424:0|333:16,1,160,2|2,0:0|0:0,0:0:0:0:
269,88,40403,1,2,0:0:0:0:
189,167,40608,1,2,0:0:0:0:
189,167,40711,1,8,0:0:0:0:
189,167,40813,2,0,P|130:155|94:144,1,80,10|10,0:0|0:0,0:0:0:0:
25,29,41224,2,0,P|63:39|151:54,1,120,14|0,0:0|0:0,0:0:0:0:
165,33,41635,5,6,1:0:0:0:
405,87,48211,6,0,P|393:108|379:159,1,64,6|2,1:0|3:0,0:0:0:0:
388,163,48519,1,0,3:0:0:0:
399,178,48622,1,2,3:0:0:0:
325,250,48827,1,2,3:0:0:0:
250,192,49033,2,0,P|191:210|137:209,1,96,2|2,3:0|3:0,0:0:0:0:
132,196,49444,1,0,0:0:0:0:
37,205,49649,5,2,3:0:0:0:
37,205,49752,1,2,3:0:0:0:
37,205,49855,2,0,P|43:158|39:118,1,64,2|2,3:0|3:0,0:0:0:0:
55,127,50163,1,0,3:0:0:0:
68,113,50266,2,0,P|115:103|147:90,1,64,2|2,3:0|3:0,0:0:0:0:
215,143,50676,2,0,P|262:142|308:198,1,96,2|2,3:0|3:0,0:0:0:0:
311,188,51087,1,0,0:0:0:0:
302,281,51293,6,0,L|249:300,2,32,2|0|0,3:0|3:0|1:0,0:0:0:0:
407,297,51704,1,2,3:0:0:0:
407,297,51807,1,0,3:0:0:0:
407,297,51909,2,0,P|406:259|388:221,1,64,2|0,3:0|3:0,0:0:0:0:
464,173,52320,1,2,3:0:0:0:
378,134,52526,1,2,3:0:0:0:
446,71,52731,2,0,P|457:35|460:5,1,64,0|2,3:0|3:0,0:0:0:0:
350,42,53142,6,0,P|307:55|277:81,1,64,0|2,3:0|3:0,0:0:0:0:
280,81,53450,1,0,3:0:0:0:
271,98,53553,1,2,3:0:0:0:
175,77,53759,1,2,3:0:0:0:
81,56,53964,2,0,P|73:105|58:167,1,96,2|2,1:0|3:0,0:0:0:0:
72,167,54375,1,0,3:0:0:0:
168,192,54581,5,2,3:0:0:0:
168,192,54683,1,0,3:0:0:0:
168,192,54786,2,0,P|154:236|147:270,1,64,4|0,1:0|0:0,0:0:0:0:
228,324,55197,2,0,P|242:280|249:246,1,64,0|0,1:0|0:0,0:0:0:0:
261,249,55505,1,0,0:0:0:0:
276,238,55608,2,0,P|327:254|351:257,1,64,0|0,1:0|0:0,0:0:0:0:
352,244,55916,1,0,0:0:0:0:
365,229,56019,2,0,P|362:198|356:181,2,32,0|0|0,1:0|0:0|0:0,0:0:0:0:
294,127,56430,6,0,P|310:76|313:52,1,64,0|2,1:0|0:0,0:0:0:0:
327,54,56738,1,0,0:0:0:0:
344,45,56841,2,0,P|399:54|447:118,1,128,0|2,1:0|1:0,0:0:0:0:
494,199,57457,1,0,0:0:0:0:
494,199,57560,1,2,0:0:0:0:
494,199,57663,2,0,P|505:249|506:280,1,64,0|2,1:0|0:0,0:0:0:0:
459,341,58074,6,0,P|406:332|379:332,1,64,10|0,1:2|1:0,0:0:0:0:
316,369,58485,1,10,1:2:0:0:
316,369,58690,1,0,1:0:0:0:
237,291,58896,2,0,P|248:247|253:217,1,64,10|0,1:2|1:0,0:0:0:0:
240,212,59204,1,0,1:0:0:0:
227,197,59307,2,0,P|188:201|183:204,2,32,8|0|0,1:2|1:0|1:0,0:0:0:0:
288,114,59718,5,2,0:0:0:0:
288,114,60129,2,0,B|319:155|344:207|344:207|375:167|375:167|407:202|407:202|423:145|460:85,1,320,0|12,0:0|0:0,0:0:0:0:
193,78,61361,6,0,P|167:21|149:-4,1,88.000002685547,6|0,1:0|0:0,0:0:0:0:
63,85,61772,1,2,1:0:0:0:
119,210,61978,1,2,0:0:0:0:
119,210,62081,1,0,0:0:0:0:
119,210,62183,2,0,P|145:267|163:292,1,88.000002685547,2|0,1:0|0:0,0:0:0:0:
184,297,62492,1,2,0:0:0:0:
209,304,62594,2,0,L|284:289,1,44.0000013427735,0|0,1:0|0:0,0:0:0:0:
284,285,62800,6,0,B|344:283|394:334|394:334|417:309|439:299,1,176.000005371094,2|2,0:0|0:0,0:0:0:0:
512,185,63416,2,0,P|456:170|418:150,1,88.000002685547,2|2,1:0|0:0,0:0:0:0:
406,142,63724,1,0,0:0:0:0:
381,133,63827,2,0,P|363:173|353:215,1,88.000002685547,2|0,1:0|0:0,0:0:0:0:
228,227,64238,2,0,P|181:217|159:209,1,44.0000013427735,2|0,1:0|0:0,0:0:0:0:
149,239,64444,2,0,P|116:203|102:184,1,44.0000013427735,2|0,0:0|0:0,0:0:0:0:
83,204,64649,6,0,P|62:150|38:111,1,88.000002685547,2|0,1:0|0:0,0:0:0:0:
65,105,64957,1,0,0:0:0:0:
80,85,65060,1,2,1:0:0:0:
197,119,65266,1,2,0:0:0:0:
273,21,65471,2,0,P|294:59|308:100,1,88.000002685547,2|0,1:0|0:0,0:0:0:0:
335,100,65779,2,0,P|330:143|318:186,1,88.000002685547,2|0,0:0|0:0,0:0:0:0:
337,204,66087,5,2,0:0:0:0:
505,349,66498,2,0,B|482:369|482:369|425:358,1,88.000002685547,2|2,0:0|1:0,0:0:0:0:
307,323,66909,1,2,0:0:0:0:
276,203,67115,1,2,1:0:0:0:
382,148,67320,2,0,L|368:90,1,44.0000013427735,2|0,0:0|0:0,0:0:0:0:
340,73,67526,2,0,L|282:59,1,44.0000013427735,2|0,1:0|0:0,0:0:0:0:
260,87,67731,1,2,0:0:0:0:
148,34,67937,5,0,1:0:0:0:
55,117,68142,2,0,P|62:164|66:187,1,44.0000013427735,2|0,0:0|0:0,0:0:0:0:
94,190,68348,2,0,P|87:237|83:260,1,44.0000013427735,2|0,1:0|0:0,0:0:0:0:
91,276,68553,2,0,P|25:262|-11:249,1,88.000002685547,2|0,0:0|1:0,0:0:0:0:
174,340,68964,6,0,P|221:333|244:329,1,44.0000013427735,2|0,0:0|0:0,0:0:0:0:
237,295,69170,2,0,P|284:302|307:306,1,44.0000013427735,2|0,1:0|0:0,0:0:0:0:
310,284,69375,2,0,P|376:298|412:311,1,88.000002685547,2|0,0:0|1:0,0:0:0:0:
505,211,69786,5,2,0:0:0:0:
398,155,69992,2,0,P|344:138|301:118,1,88.000002685547,2|2,1:0|0:0,0:0:0:0:
229,55,70403,2,0,P|208:64|188:71,1,44.0000013427735,2|0,1:0|0:0,0:0:0:0:
163,40,70608,2,0,P|142:48|121:54,1,44.0000013427735,2|0,0:0|0:0,0:0:0:0:
91,27,70813,1,2,1:0:0:0:
11,117,71019,1,2,0:0:0:0:
14,249,71224,6,0,B|83:272|134:231|134:231|152:258|178:275,1,176.000005371094,2|2,1:0|1:0,0:0:0:0:
248,163,71841,2,0,P|187:143|148:123,1,88.000002685547,2|0,0:0|1:0,0:0:0:0:
270,262,72252,2,0,P|310:279|352:292,1,88.000002685547,2|0,0:0|1:0,0:0:0:0:
467,244,72663,6,0,B|507:169|473:104|473:104|443:134,1,176.000005371094,2|10,0:0|0:3,0:0:0:0:
428,112,73176,1,8,0:3:0:0:
407,95,73279,1,2,1:0:0:0:
292,45,73485,1,2,0:0:0:0:
170,102,73690,1,2,1:0:0:0:
167,112,73792,1,0,0:0:0:0:
165,123,73895,1,6,0:3:0:0:
162,134,73998,1,8,0:0:0:0:
159,144,74101,2,0,P|170:190|177:217,3,44.0000013427735,10|8|10|8,0:0|0:3|0:0|3:3,0:0:0:0:
153,214,74512,5,2,1:0:0:0:
153,214,74923,2,0,P|101:205|51:172,1,88.000002685547,6|2,1:0|0:0,0:0:0:0:
23,293,75334,2,0,L|53:400,1,88.000002685547,2|0,1:0|0:0,0:0:0:0:
71,374,75642,1,2,0:0:0:0:
82,364,75745,2,0,P|123:357|163:362,1,44.0000013427735,0|0,1:0|0:0,0:0:0:0:
162,374,75950,6,0,P|196:346|173:215,1,176.000005371094,2|2,0:0|0:0,0:0:0:0:
312,220,76567,2,0,P|367:219|410:221,1,88.000002685547,2|2,1:0|0:0,0:0:0:0:
426,219,76875,1,0,0:0:0:0:
450,216,76978,1,2,1:0:0:0:
475,99,77183,1,0,0:0:0:0:
357,56,77389,2,0,P|328:69|302:89,1,44.0000013427735,2|0,1:0|0:0,0:0:0:0:
280,44,77594,2,0,P|265:77|267:109,1,44.0000013427735,2|0,0:0|0:0,0:0:0:0:
220,80,77800,6,0,P|224:131|286:165,1,88.000002685547,2|0,1:0|0:0,0:0:0:0:
266,174,78108,1,0,0:0:0:0:
284,192,78211,2,0,P|271:238|261:310,1,88.000002685547,2|2,1:0|0:0,0:0:0:0:
352,373,78622,2,0,P|365:327|375:255,1,88.000002685547,2|0,1:0|0:0,0:0:0:0:
390,268,78930,1,2,0:0:0:0:
408,249,79033,2,0,P|446:263|464:265,1,44.0000013427735,0|0,1:0|0:0,0:0:0:0:
484,281,79238,6,0,P|507:207|473:151,1,132.00000402832,2|0,0:0|0:0,0:0:0:0:
470,146,79649,1,2,0:0:0:0:
440,25,79855,1,2,1:0:0:0:
349,107,80061,1,2,0:0:0:0:
349,107,80163,1,0,0:0:0:0:
349,107,80266,2,0,P|285:122|233:131,1,88.000002685547,2|2,1:0|0:0,0:0:0:0:
180,192,80676,2,0,P|167:146|157:74,1,88.000002685547,2|0,1:0|0:0,0:0:0:0:
83,219,81087,6,0,P|55:242|9:242,2,58.6666684570313,14|2|2,1:2|0:0|0:0,0:0:0:0:
139,279,81498,2,0,P|198:300|226:317,1,88.000002685547,10|0,1:2|0:0,0:0:0:0:
311,373,81909,6,0,P|323:339|324:314,2,58.6666684570313,10|2|2,1:2|0:0|0:0,0:0:0:0:
397,365,82320,2,0,P|462:372|512:363,1,88.000002685547,10|0,1:2|0:0,0:0:0:0:
452,271,82731,6,0,P|454:242|468:206,2,58.6666684570313,10|2|2,1:2|0:0|0:0,0:0:0:0:
375,241,83142,1,10,1:2:0:0:
375,241,83279,2,0,P|336:236|318:227,1,58.6666684570313,2|2,0:0|0:0,0:0:0:0:
242,267,83553,2,0,P|243:196|259:154,1,88.000002685547,10|0,1:2|0:0,0:0:0:0:
318,79,83964,1,10,1:2:0:0:
203,32,84170,1,2,0:0:0:0:
131,131,84375,6,0,L|88:141,2,44.0000013427735,6|0|2,1:2|3:0|3:0,0:0:0:0:
218,218,84786,1,2,3:0:0:0:
305,130,84992,1,2,3:0:0:0:
387,205,85197,2,0,P|442:216|490:216,1,88.000002685547,10|0,0:0|0:0,0:0:0:0:
492,198,85505,1,0,3:0:0:0:
509,178,85608,1,2,3:0:0:0:
480,333,85813,2,0,P|469:334|434:340,1,44.0000013427735,2|0,3:0|3:0,0:0:0:0:
405,345,86019,5,4,3:2:0:0:
256,192,86122,12,8,87252,0:0:0:0:
349,360,87663,5,4,1:0:0:0:
349,360,88485,2,0,B|311:376|311:376|220:342,1,120,14|2,0:2|0:0,0:0:0:0:
219,329,88896,2,0,P|167:337|130:349,1,80,4|2,1:3|0:0,0:0:0:0:
258,234,89307,5,2,0:0:0:0:
258,234,89718,2,0,B|267:194|267:194|252:148,1,80,4|2,1:3|0:0,0:0:0:0:
350,97,90129,2,0,P|325:62|284:40,1,80,10|0,0:0|0:0,0:0:0:0:
186,9,90540,2,0,P|178:68|166:127,1,120,4|0,1:2|0:0,0:0:0:0:
156,154,90950,6,0,P|117:145|77:123,1,80,6|0,1:0|0:0,0:0:0:0:
8,246,91361,1,0,0:0:0:0:
8,246,91772,2,0,P|52:239|94:227,1,80,10|4,0:0|1:3,0:0:0:0:
165,309,92183,2,0,P|178:354|183:371,2,40,4|0|2,1:3|0:0|0:0,0:0:0:0:
262,253,92594,6,0,P|317:267|358:283,1,80,2|0,0:0|0:0,0:0:0:0:
410,361,93005,2,0,P|465:347|506:331,1,80,4|2,1:3|0:0,0:0:0:0:
456,231,93416,2,0,P|465:187|472:165,1,40,10|0,0:0|1:0,0:0:0:0:
439,169,93622,2,0,P|448:125|455:103,1,40,0|0,1:0|1:0,0:0:0:0:
454,95,93827,1,6,1:2:0:0:
255,141,94238,5,6,1:2:0:0:
255,141,94649,2,0,P|309:153|346:167,1,80,2|2,0:0|1:0,0:0:0:0:
349,178,94957,1,0,1:0:0:0:
366,195,95060,2,0,P|420:183|457:169,1,80,10|0,0:0|0:0,0:0:0:0:
333,286,95471,1,4,1:0:0:0:
333,286,95882,6,0,P|279:274|242:260,1,80,2|0,0:0|0:0,0:0:0:0:
163,216,96293,2,0,P|113:236|107:312,1,120,0|2,1:3|0:0,0:0:0:0:
116,321,96704,2,0,P|166:337|200:356,1,80,10|0,0:0|0:0,0:0:0:0:
3,249,97115,2,0,P|38:231|77:220,1,80,4|2,1:0|0:0,0:0:0:0:
193,220,97526,5,6,1:0:0:0:
193,220,97937,2,0,P|179:154|166:80,1,120,0|2,0:0|0:0,0:0:0:0:
178,91,98348,2,0,P|215:82|259:73,1,80,10|4,0:0|1:3,0:0:0:0:
281,77,98656,1,2,0:0:0:0:
303,86,98759,2,0,P|342:104|350:171,1,80,4|2,1:3|0:0,0:0:0:0:
326,225,99170,5,2,3:0:0:0:
431,202,99375,1,10,0:0:0:0:
394,281,99581,1,2,3:0:0:0:
488,258,99786,2,0,L|492:302,2,40,2|0|10,3:0|0:0|0:0,0:0:0:0:
442,373,100197,1,0,0:0:0:0:
347,350,100403,1,2,1:0:0:0:
189,290,100813,6,0,P|184:212|225:151,1,120,6|0,1:0|0:0,0:0:0:0:
209,166,101224,2,0,P|254:186|297:193,1,80,2|2,1:0|0:0,0:0:0:0:
364,135,101635,1,2,1:0:0:0:
276,86,101841,1,2,0:0:0:0:
276,86,101944,1,0,0:0:0:0:
276,86,102046,2,0,L|273:-8,1,80,2|2,1:0|0:0,0:0:0:0:
184,42,102457,6,0,B|89:58|136:9|2:35,2,160,2|2|2,1:0|1:0|1:0,0:0:0:0:
263,113,103485,1,2,0:0:0:0:
263,113,103587,1,0,0:0:0:0:
263,113,103690,1,2,1:0:0:0:
170,153,103896,1,0,0:0:0:0:
249,203,104101,6,0,P|257:301|260:345,1,120,2|0,1:0|0:0,0:0:0:0:
248,341,104512,2,0,P|214:355|151:353,1,80,2|2,1:0|0:0,0:0:0:0:
102,302,104923,1,2,1:0:0:0:
19,292,105129,1,2,0:0:0:0:
19,292,105231,1,0,0:0:0:0:
19,292,105334,2,0,P|5:350|-4:381,1,80,2|0,1:0|0:0,0:0:0:0:
102,278,105745,5,2,1:0:0:0:
116,191,105950,1,2,0:0:0:0:
131,103,106156,1,2,1:0:0:0:
72,43,106361,6,0,L|7:66,2,40,0|0|2,0:0|0:0|1:0,0:0:0:0:
141,105,106772,1,2,3:0:0:0:
210,38,106978,1,2,1:0:0:0:
280,121,107183,5,2,3:0:0:0:
280,121,107286,1,0,3:0:0:0:
280,121,107389,2,0,P|332:109|363:96,1,80,6|0,1:0|0:0,0:0:0:0:
435,178,107800,2,0,P|487:190|518:203,1,80,10|2,1:2|3:0,0:0:0:0:
449,293,108211,2,0,P|437:345|424:376,1,80,10|2,1:2|3:0,0:0:0:0:
334,306,108622,1,10,1:2:0:0:
334,306,108827,1,2,3:0:0:0:
227,342,109033,6,0,B|173:336|117:372|117:372|78:350,1,160,10|10,1:2|1:2,0:0:0:0:
61,333,109546,1,0,0:0:0:0:
43,315,109649,1,2,3:0:0:0:
13,206,109855,2,0,P|70:189|96:176,1,80,10|2,1:2|3:0,0:0:0:0:
189,239,110266,1,10,1:2:0:0:
189,239,110471,1,2,3:0:0:0:
300,231,110676,6,0,P|308:172|287:116,1,120,10|0,1:2|3:0,0:0:0:0:
280,107,111087,2,0,P|243:124|205:132,1,80,10|2,1:2|3:0,0:0:0:0:
321,29,111498,2,0,P|359:20|395:3,1,80,10|2,1:2|3:0,0:0:0:0:
413,20,111807,1,0,3:0:0:0:
429,36,111909,2,0,P|459:42|488:56,3,40,10|0|2|0,1:2|3:0|3:0|3:0,0:0:0:0:
410,262,113142,6,0,P|362:251|355:249,1,40,8|8,0:3|0:3,0:0:0:0:
337,270,113348,2,0,P|289:259|282:257,1,40,8|4,0:3|0:3,0:0:0:0:
277,236,113553,2,0,P|224:241|197:315,1,120,10|0,0:0|0:0,0:0:0:0:
196,323,113964,5,4,1:0:0:0:
196,323,116841,6,0,P|156:311|139:303,1,40,8|0,0:0|0:0,0:0:0:0:
126,343,117046,2,0,P|100:310|90:293,1,40,8|4,0:3|0:3,0:0:0:0:
51,286,117252,6,0,P|67:263|106:245,3,40,14|0|2|0,1:2|0:0|0:0|0:0,0:0:0:0:
57,205,117663,2,0,L|106:222,1,40,10|0,1:2|0:0,0:0:0:0:
125,207,117868,1,2,0:0:0:0:
218,158,118074,1,10,1:2:0:0:
313,228,118279,6,0,P|358:219|383:217,3,40,2|0|10|0,0:0|0:0|1:2|0:0,0:0:0:0:
377,241,118690,1,2,0:0:0:0:
428,164,118896,6,0,P|432:144|437:125,3,40,10|0|2|0,1:2|0:0|0:0|0:0,0:0:0:0:
402,104,119307,2,0,P|397:84|392:65,3,40,10|0|2|0,1:2|0:0|0:0|0:0,0:0:0:0:
358,68,119718,2,0,P|339:72|320:77,3,40,10|0|2|0,1:2|0:0|0:0|0:0,0:0:0:0:
292,99,120129,2,0,L|239:87,1,40,10|0,1:2|0:0,0:0:0:0:
208,68,120334,2,0,L|155:80,1,40,2|0,0:0|0:0,0:0:0:0:
129,68,120539,6,0,P|120:116|111:154,1,80,10|2,1:2|3:0,0:0:0:0:
55,246,120950,2,0,L|144:236,1,80,10|2,1:2|0:0,0:0:0:0:
241,292,121361,2,0,P|293:320|334:332,1,80,14|2,1:2|0:0,0:0:0:0:
335,320,121670,1,0,0:0:0:0:
350,334,121772,1,10,1:2:0:0:
446,286,121978,1,2,0:0:0:0:
374,195,122183,6,0,P|377:149|378:97,1,80,10|2,1:2|0:0,0:0:0:0:
368,92,122492,1,0,0:0:0:0:
351,86,122594,2,0,P|308:100|288:134,1,80,10|2,1:2|0:0,0:0:0:0:
262,136,122903,1,0,0:0:0:0:
247,153,123005,2,0,L|262:215,3,40,10|8|10|0,1:2|0:3|0:3|0:0,0:0:0:0:
272,216,123416,2,0,L|331:226,1,40,10|2,1:2|0:0,0:0:0:0:
333,240,123622,5,2,0:0:0:0:
334,257,123724,1,0,0:0:0:0:
336,274,123827,2,0,B|233:277|296:324|177:331,1,160,6|0,1:0|0:0,0:0:0:0:
108,256,124444,1,0,1:0:0:0:
7,292,124649,2,0,P|61:252|64:154,1,160,8|0,0:0|1:0,0:0:0:0:
172,123,125266,1,0,0:0:0:0:
95,54,125471,6,0,P|51:73|20:75,1,80,4|0,1:0|0:0,0:0:0:0:
172,123,125882,2,0,L|353:100,1,160,0|8,0:0|0:3,0:0:0:0:
409,74,126498,2,0,P|407:94|417:124,2,40,8|12|0,0:3|0:3|3:0,0:0:0:0:
428,213,127115,5,4,0:0:0:0:
506,233,140266,6,0,B|464:253|464:253|367:224,1,128,4|2,1:0|0:0,0:0:0:0:
322,166,140882,1,2,0:0:0:0:
244,210,141087,2,0,P|238:264|222:341,1,128,2|2,0:0|0:0,0:0:0:0:
133,348,141704,6,0,P|94:360|64:372,1,64,2|0,0:0|0:0,0:0:0:0:
8,284,142115,2,0,B|57:254|132:265|132:265|177:213|252:209,1,256,2|0,0:0|0:0,0:0:0:0:
396,304,143348,1,0,1:0:0:0:
465,227,143553,6,0,P|485:182|455:103,1,128,2|2,1:0|0:0,0:0:0:0:
418,30,144170,1,0,0:0:0:0:
337,69,144375,2,0,P|278:57|206:38,1,128,2|2,0:0|0:0,0:0:0:0:
126,10,144992,6,0,P|90:17|46:28,1,64,2|0,0:0|1:0,0:0:0:0:
37,127,145403,2,0,P|68:119|99:113,1,64,2|0,0:0|0:0,0:0:0:0:
177,156,145813,2,0,P|225:166|278:180,1,96,2|0,0:0|0:0,0:0:0:0:
294,189,146224,2,0,P|357:176|422:159,1,128,0|0,0:0|3:0,0:0:0:0:
503,225,146841,5,2,1:0:0:0:
503,225,147252,2,0,P|491:266|480:293,1,64,2|2,1:0|0:0,0:0:0:0:
384,312,147663,2,0,P|395:282|403:251,1,64,2|0,1:0|0:0,0:0:0:0:
355,175,148074,1,2,1:0:0:0:
430,103,148279,6,0,P|465:100|506:98,1,64,2|0,0:0|1:0,0:0:0:0:
355,175,148690,2,0,P|323:176|291:179,1,64,2|0,0:0|1:0,0:0:0:0:
216,129,149101,2,0,P|183:137|138:222,1,128,2|2,0:0|0:0,0:0:0:0:
183,290,149718,2,0,P|176:336|169:367,1,64,0|2,1:0|0:0,0:0:0:0:
73,374,150129,6,0,P|57:306|53:202,1,144.000005493164,2|2,1:0|1:0,0:0:0:0:
126,154,150745,1,2,1:0:0:0:
212,217,150950,2,0,P|276:225|302:223,1,72.0000027465821,2|0,1:0|1:0,0:0:0:0:
370,145,151361,1,2,1:0:0:0:
445,235,151567,1,2,1:0:0:0:
472,113,151772,6,0,P|477:77|484:53,3,36.0000013732911,0|0|2|0,1:0|1:0|1:0|1:0,0:0:0:0:
477,44,152183,2,0,P|437:43|393:33,1,72.0000027465821,0|2,1:0|3:0,0:0:0:0:
296,85,152594,1,2,3:0:0:0:
41,336,153416,5,14,0:1:0:0:
323,247,159992,6,0,B|404:279|466:227|466:227|436:202|421:178,1,215.999993408203,4|0,1:0|0:0,0:0:0:0:
357,104,160813,1,10,0:1:0:0:
357,104,161019,2,0,P|369:56|381:19,1,71.9999978027344,2|8,0:0|0:1,0:0:0:0:
277,12,161430,1,2,0:0:0:0:
208,85,161635,6,0,P|139:95|60:123,1,143.999995605469,8|10,0:1|0:1,0:0:0:0:
6,199,162252,1,0,0:0:0:0:
94,246,162457,2,0,P|137:231|183:224,1,71.9999978027344,8|0,0:1|0:0,0:0:0:0:
248,172,162868,1,8,0:1:0:0:
248,172,163074,1,0,1:0:0:0:
332,226,163279,6,0,B|370:218|370:218|443:264|443:264|479:242,1,143.999995605469,4|8,1:0|0:1,0:0:0:0:
356,316,163896,6,0,B|309:367|240:376|190:340|178:276|178:276|247:249|287:294,1,320,6|2,1:0|0:0,0:0:0:0:
303,182,164923,6,0,P|321:112|339:72,2,107.999996704102,10|0|0,0:1|0:0|0:0,0:0:0:0:
202,173,165745,2,0,P|150:185|118:195,1,71.9999978027344,0|0,3:0|0:0,0:0:0:0:
112,180,166053,1,2,3:0:0:0:
93,169,166156,1,0,0:0:0:0:
17,102,166361,1,10,0:0:0:0:
95,22,166567,5,6,1:0:0:0:
95,22,166978,2,0,P|140:35|177:54,1,80,2|2,3:0|3:0,0:0:0:0:
270,99,167389,2,0,B|320:77|394:120|394:120|423:94,1,160,10|2,0:0|3:0,0:0:0:0:
474,195,168005,1,2,3:0:0:0:
378,254,168211,6,0,P|303:236|222:205,1,160,2|2,1:0|3:0,0:0:0:0:
133,142,168827,1,2,3:0:0:0:
75,238,169033,2,0,P|37:247|-3:262,2,80,10|2|2,0:0|3:0|3:0,0:0:0:0:
148,323,169649,1,2,1:0:0:0:
253,360,169855,6,0,P|307:367|346:376,1,80,6|2,1:0|1:0,0:0:0:0:
412,294,170266,2,0,P|466:287|505:278,1,80,2|2,1:0|1:0,0:0:0:0:
313,254,170676,2,0,P|304:199|295:162,1,80,2|2,1:0|1:0,0:0:0:0:
381,99,171087,1,2,1:0:0:0:
381,99,171293,1,2,1:0:0:0:
274,63,171498,6,0,P|231:75|221:80,3,40,2|0|2|0,1:0|1:0|1:0|1:0,0:0:0:0:
220,91,171909,2,0,P|177:79|167:74,3,40,2|0|2|0,1:0|1:0|1:0|1:0,0:0:0:0:
166,63,172320,2,0,P|123:75|113:80,3,40,2|0|2|0,1:0|1:0|1:0|1:0,0:0:0:0:
100,90,172731,2,0,P|57:82|19:71,1,80,2|2,0:0|0:0,0:0:0:0:
124,194,173142,5,0,1:0:0:0:
124,194,173553,2,0,B|155:235|180:287|180:287|211:247|211:247|243:282|243:282|259:225|296:165,1,320,0|12,0:0|0:0,0:0:0:0:
429,296,174786,6,0,P|482:311|517:325,1,88.000002685547,6|0,1:0|0:0,0:0:0:0:
359,212,175197,1,2,1:0:0:0:
477,167,175403,1,2,0:0:0:0:
477,167,175505,1,0,0:0:0:0:
477,167,175608,2,0,P|492:109|508:62,1,88.000002685547,2|0,1:0|0:0,0:0:0:0:
481,63,175916,1,2,0:0:0:0:
462,44,176019,2,0,P|414:50|385:54,1,44.0000013427735,0|0,1:0|0:0,0:0:0:0:
386,58,176224,6,0,B|307:39|303:81|205:49,1,176.000005371094,2|2,0:0|0:0,0:0:0:0:
89,87,176841,2,0,P|75:40|60:5,1,88.000002685547,2|2,1:0|0:0,0:0:0:0:
165,138,177252,2,0,P|182:178|194:220,1,88.000002685547,2|0,1:0|0:0,0:0:0:0:
311,245,177663,2,0,P|301:292|293:314,1,44.0000013427735,2|0,1:0|0:0,0:0:0:0:
331,317,177869,2,0,P|295:350|276:364,1,44.0000013427735,2|0,0:0|0:0,0:0:0:0:
268,366,178074,6,0,P|203:356|176:349,1,88.000002685547,2|0,1:0|0:0,0:0:0:0:
155,350,178382,1,0,0:0:0:0:
127,346,178485,1,2,1:0:0:0:
42,257,178690,1,2,0:0:0:0:
148,192,178896,2,0,P|190:183|234:177,1,88.000002685547,2|0,1:0|0:0,0:0:0:0:
253,195,179204,2,0,P|295:204|339:210,1,88.000002685547,2|0,0:0|0:0,0:0:0:0:
358,191,179512,5,2,0:0:0:0:
512,21,179923,2,0,P|467:11|417:-3,1,88.000002685547,2|2,0:0|1:0,0:0:0:0:
322,65,180334,1,2,0:0:0:0:
188,62,180540,2,0,P|141:54|125:51,1,44.0000013427735,2|0,1:0|0:0,0:0:0:0:
118,80,180745,2,0,P|71:72|55:69,1,44.0000013427735,2|0,0:0|0:0,0:0:0:0:
38,98,180950,1,2,1:0:0:0:
72,216,181156,1,2,0:0:0:0:
201,181,181361,5,0,1:0:0:0:
277,278,181567,2,0,P|324:268|346:260,1,44.0000013427735,2|0,0:0|0:0,0:0:0:0:
348,296,181773,2,0,P|381:260|395:241,1,44.0000013427735,2|0,1:0|0:0,0:0:0:0:
415,266,181978,2,0,P|427:210|439:176,1,88.000002685547,2|0,0:0|1:0,0:0:0:0:
413,45,182389,6,0,P|366:55|344:63,1,44.0000013427735,2|0,0:0|0:0,0:0:0:0:
341,17,182595,2,0,P|308:53|294:72,1,44.0000013427735,2|0,1:0|0:0,0:0:0:0:
275,47,182800,2,0,P|263:103|251:137,1,88.000002685547,2|0,0:0|1:0,0:0:0:0:
267,269,183211,5,2,0:0:0:0:
172,344,183416,2,0,P|116:351|64:359,1,88.000002685547,2|2,1:0|0:0,0:0:0:0:
33,235,183827,2,0,P|22:186|18:169,1,44.0000013427735,2|0,1:0|0:0,0:0:0:0:
63,178,184033,2,0,P|52:129|48:112,1,44.0000013427735,2|0,0:0|0:0,0:0:0:0:
38,100,184238,1,2,1:0:0:0:
141,27,184444,1,2,0:0:0:0:
279,83,184649,6,0,B|355:69|410:106|410:106|450:75,1,176.000005371094,2|2,1:0|1:0,0:0:0:0:
327,183,185266,2,0,P|264:198|227:211,1,88.000002685547,2|0,0:0|1:0,0:0:0:0:
399,256,185676,2,0,P|441:242|484:233,1,88.000002685547,2|0,0:0|1:0,0:0:0:0:
392,359,186087,6,0,B|307:383|306:340|198:359,1,176.000005371094,2|10,0:0|0:3,0:0:0:0:
198,337,186601,1,8,0:3:0:0:
179,318,186704,1,2,1:0:0:0:
245,209,186909,1,2,0:0:0:0:
120,172,187115,1,2,1:0:0:0:
110,169,187217,1,0,0:0:0:0:
99,167,187320,1,10,0:3:0:0:
88,164,187423,1,4,0:3:0:0:
78,161,187526,2,0,P|32:172|5:179,3,44.0000013427735,10|8|10|8,0:0|0:3|0:0|0:3,0:0:0:0:
18,151,187936,5,2,1:0:0:0:
18,151,188348,2,0,P|70:142|120:109,1,88.000002685547,6|2,1:0|0:0,0:0:0:0:
241,205,188759,2,0,P|189:214|139:247,1,88.000002685547,2|2,1:0|0:0,0:0:0:0:
136,245,189067,1,2,0:0:0:0:
117,263,189170,2,0,P|109:317|106:331,1,44.0000013427735,0|0,1:0|0:0,0:0:0:0:
104,345,189375,6,0,P|181:317|287:354,1,176.000005371094,2|2,0:0|0:0,0:0:0:0:
369,271,189992,2,0,P|385:327|401:362,1,88.000002685547,2|2,1:0|0:0,0:0:0:0:
423,354,190300,1,0,0:0:0:0:
449,356,190403,1,2,1:0:0:0:
512,256,190608,1,0,0:0:0:0:
459,143,190813,2,0,P|420:155|395:166,1,44.0000013427735,2|0,1:0|0:0,0:0:0:0:
377,122,191019,2,0,P|369:142|364:164,1,44.0000013427735,2|0,0:0|0:0,0:0:0:0:
344,190,191224,6,0,P|294:197|246:209,1,88.000002685547,2|0,1:0|0:0,0:0:0:0:
238,224,191533,1,0,0:0:0:0:
219,242,191635,2,0,P|169:235|121:223,1,88.000002685547,2|2,1:0|0:0,0:0:0:0:
0,125,192046,2,0,P|42:134|86:140,1,88.000002685547,2|0,1:0|0:0,0:0:0:0:
102,124,192355,1,2,0:0:0:0:
117,108,192457,2,0,P|146:101|177:97,1,44.0000013427735,0|0,1:0|0:0,0:0:0:0:
185,71,192663,6,0,P|260:85|324:104,1,132.00000402832,2|0,0:0|0:0,0:0:0:0:
337,83,193074,1,2,0:0:0:0:
457,116,193279,1,2,1:0:0:0:
418,238,193485,1,2,0:0:0:0:
418,238,193587,1,0,0:0:0:0:
418,238,193690,2,0,P|411:290|402:339,1,88.000002685547,2|2,1:0|0:0,0:0:0:0:
280,373,194101,2,0,P|287:329|293:286,1,88.000002685547,2|0,1:0|0:0,0:0:0:0:
344,173,194512,6,0,P|372:150|418:150,2,58.6666684570313,2|2|2,1:0|0:0|0:0,0:0:0:0:
288,113,194923,2,0,P|229:92|201:75,1,88.000002685547,2|0,1:0|0:0,0:0:0:0:
98,20,195334,6,0,P|70:30|41:33,2,58.6666684570313,2|2|2,1:0|0:0|0:0,0:0:0:0:
90,106,195745,2,0,P|97:149|94:193,1,88.000002685547,2|0,1:0|0:0,0:0:0:0:
185,275,196156,6,0,P|214:277|241:286,2,58.6666684570313,2|2|2,1:0|0:0|0:0,0:0:0:0:
215,198,196567,1,2,1:0:0:0:
215,198,196704,2,0,P|217:168|228:141,1,58.6666684570313,2|2,0:0|0:0,0:0:0:0:
189,65,196978,2,0,P|232:61|275:70,1,88.000002685547,2|0,1:0|0:0,0:0:0:0:
389,116,197389,1,2,1:0:0:0:
322,219,197594,1,2,0:0:0:0:
416,298,197800,6,0,P|461:291|481:284,2,44.0000013427735,4|0|2,1:0|0:0|0:0,0:0:0:0:
314,367,198211,1,2,1:0:0:0:
206,307,198416,1,2,0:0:0:0:
94,361,198622,2,0,P|84:304|75:266,1,88.000002685547,2|0,1:0|0:0,0:0:0:0:
59,255,198930,1,0,0:0:0:0:
45,232,199033,1,2,1:0:0:0:
128,141,199238,1,2,0:0:0:0:
28,67,199444,5,0,1:0:0:0:
256,192,199546,12,12,200676,0:0:0:0:
28,67,201087,6,0,B|73:87|73:87|184:60,2,143.999995605469,6|0|2,1:0|1:0|1:0,0:0:0:0:
8,166,202115,1,2,0:0:0:0:
94,216,202320,2,0,P|146:204|175:197,1,71.9999978027344,2|2,1:0|0:0,0:0:0:0:
241,265,202731,6,0,P|293:277|322:284,1,71.9999978027344,2|0,1:0|0:0,0:0:0:0:
397,228,203142,1,0,1:0:0:0:
397,228,203553,2,0,P|410:293|418:319,1,71.9999978027344,2|2,1:0|0:0,0:0:0:0:
499,225,203964,2,0,P|490:190|484:154,1,71.9999978027344,2|2,1:0|0:0,0:0:0:0:
443,62,204375,6,0,P|503:45|532:37,1,71.9999978027344,2|2,1:0|0:0,0:0:0:0:
356,18,204786,2,0,P|321:27|286:37,1,71.9999978027344,2|2,1:0|0:0,0:0:0:0:
194,8,205197,1,0,1:0:0:0:
194,8,205403,1,2,0:0:0:0:
180,107,205608,2,0,P|189:151|197:186,1,71.9999978027344,2|2,1:0|0:0,0:0:0:0:
220,275,206019,5,0,1:0:0:0:
220,275,206430,2,0,P|267:283|306:295,1,71.9999978027344,2|2,1:0|0:0,0:0:0:0:
173,367,206841,1,0,1:0:0:0:
173,367,207046,1,2,0:0:0:0:
101,295,207252,2,0,P|54:303|15:315,1,71.9999978027344,2|2,1:0|0:0,0:0:0:0:
9,199,207663,5,8,1:2:0:0:
9,199,208074,2,0,P|58:186|98:162,1,80,6|2,1:0|3:0,0:0:0:0:
100,155,208382,1,0,0:0:0:0:
117,137,208485,1,2,1:0:0:0:
196,57,208690,1,2,3:0:0:0:
279,131,208896,6,0,P|337:146|371:157,1,80,2|2,1:0|3:0,0:0:0:0:
248,234,209307,2,0,P|209:222|170:213,1,80,2|2,1:0|3:0,0:0:0:0:
224,336,209718,1,2,1:0:0:0:
224,336,209923,1,2,3:0:0:0:
336,338,210129,6,0,P|375:350|414:359,1,80,2|2,1:0|3:0,0:0:0:0:
435,349,210437,1,0,0:0:0:0:
454,335,210539,1,2,1:0:0:0:
509,237,210745,1,2,3:0:0:0:
415,175,210950,6,0,P|424:92|441:9,1,160,6|10,1:0|3:2,0:0:0:0:
326,6,211567,1,0,3:0:0:0:
290,112,211772,2,0,P|284:163|273:215,1,80,10|0,3:2|3:0,0:0:0:0:
179,139,212183,2,0,P|127:133|75:122,1,80,10|0,3:2|3:0,0:0:0:0:
13,203,212594,5,14,0:0:0:0:
13,203,213005,2,0,P|22:246|24:258,3,40,10|8|2|0,0:3|0:3|3:0|3:0,0:0:0:0:
49,253,213416,2,0,P|58:296|60:308,3,40,10|8|6|12,0:0|0:3|0:3|0:3,0:0:0:0:
67,320,213827,1,2,3:0:0:0:
160,257,214033,1,2,3:0:0:0:
475,372,214649,5,14,1:2:0:0:
