osu file format v14

[General]
AudioFilename: audio.mp3
AudioLeadIn: 0
PreviewTime: 75330
Countdown: 0
SampleSet: Soft
StackLeniency: 0.3
Mode: 0
LetterboxInBreaks: 0
WidescreenStoryboard: 0

[Editor]
Bookmarks: 20904,33877,59823,76039,114958,127931,153877,170093,196039,221985,236580,251985,290903,303876
DistanceSpacing: 0.6
BeatDivisor: 4
GridSize: 32
TimelineZoom: 3.199999

[Metadata]
Title:Rondo & Naide
TitleUnicode:ボクラハ&ナイデ
Artist:HIMEHINA
ArtistUnicode:HIMEHINA
Creator:Vanya2
Version:Misunderstood
Source:
Tags:Japanese Rock JRock J-Rock Virtual Youtuber Singer VSinger Vtuber ゴゴ Mao 希織歌 kiryca 田中ヒメ Tanaka Hime 鈴木ヒナ Suzuki Hina
BeatmapID:4037927
BeatmapSetID:1950297

[Difficulty]
HPDrainRate:5
CircleSize:4
OverallDifficulty:9.2
ApproachRate:9.6
SliderMultiplier:2.4
SliderTickRate:1

[Events]
//Background and Video events
0,0,"bqtaeeqb.png",0,0
//Break Periods
//Storyboard Layer 0 (Background)
//Storyboard Layer 1 (Fail)
//Storyboard Layer 2 (Pass)
//Storyboard Layer 3 (Foreground)
//Storyboard Layer 4 (Overlay)
//Storyboard Sound Samples

[TimingPoints]
1618,800,4,2,1,50,1,0
14418,405.405405405405,4,2,1,70,1,0
14418,-133.333333333333,4,2,1,70,0,0
17661,-100,4,2,1,70,0,0
19282,-100,4,2,2,70,0,0
19485,-83.3333333333333,4,2,2,70,0,0
20295,-83.3333333333333,4,2,1,70,0,0
20904,-71.4285714285714,4,2,1,80,0,0
21917,-71.4285714285714,4,2,2,80,0,0
22019,-71.4285714285714,4,2,1,80,0,0
23133,-71.4285714285714,4,2,2,80,0,0
23336,-71.4285714285714,4,2,1,80,0,0
24755,-71.4285714285714,4,2,2,80,0,0
24958,-71.4285714285714,4,2,1,80,0,0
25160,-71.4285714285714,4,2,2,80,0,0
25262,-71.4285714285714,4,2,1,80,0,0
26377,-71.4285714285714,4,2,2,80,0,0
26478,-71.4285714285714,4,2,1,80,0,0
27187,-71.4285714285714,4,2,2,80,0,0
27390,-71.4285714285714,4,2,1,80,0,0
27999,-71.4285714285714,4,2,2,80,0,0
28201,-71.4285714285714,4,2,1,80,0,0
28809,-71.4285714285714,4,2,2,80,0,0
29012,-71.4285714285714,4,2,1,80,0,0
29620,-71.4285714285714,4,2,2,80,0,0
29823,-71.4285714285714,4,2,1,80,0,0
30430,-71.4285714285714,4,2,2,80,0,0
30634,-71.4285714285714,4,2,1,80,0,0
31242,-71.4285714285714,4,2,2,80,0,0
31445,-71.4285714285714,4,2,1,80,0,0
32053,-71.4285714285714,4,2,2,80,0,0
32458,-71.4285714285714,4,2,1,80,0,0
33573,-71.4285714285714,4,2,3,80,0,0
33674,-71.4285714285714,4,2,1,80,0,0
33877,-100,4,2,1,60,0,0
57390,-83.3333333333333,4,2,1,60,0,0
59215,-83.3333333333333,4,2,2,60,0,0
59823,-66.6666666666667,4,2,4,70,0,0
60025,-66.6666666666667,4,2,1,70,0,0
61039,-100,4,2,1,70,0,0
61445,-66.6666666666667,4,2,4,70,0,0
61647,-66.6666666666667,4,2,1,70,0,0
63066,-83.3333333333333,4,2,1,70,0,0
63674,-83.3333333333333,4,2,2,70,0,0
64080,-83.3333333333333,4,2,1,70,0,0
64890,-83.3333333333333,4,2,5,70,0,0
65904,-83.3333333333333,4,2,3,70,0,0
66107,-83.3333333333333,4,2,5,70,0,0
66309,-71.4285714285714,4,2,4,70,0,0
66511,-71.4285714285714,4,2,1,70,0,0
67526,-83.3333333333333,4,2,1,70,0,0
67931,-71.4285714285714,4,2,4,70,0,0
68133,-71.4285714285714,4,2,1,70,0,0
72796,-71.4285714285714,4,2,3,70,0,0
73404,-133.333333333333,4,2,3,70,0,0
73607,-71.4285714285714,4,2,5,70,0,0
74316,-62.5,4,2,5,70,0,0
74417,-62.5,4,2,1,70,0,0
76039,-62.5,4,2,1,90,0,0
76242,-62.5,4,2,2,90,0,0
77661,-62.5,4,2,1,90,0,0
79079,-62.5,4,2,2,90,0,0
79282,-62.5,4,2,1,90,0,0
79485,-62.5,4,2,2,90,0,0
80904,-62.5,4,2,1,90,0,0
81512,-62.5,4,2,2,90,0,0
81715,-62.5,4,2,1,90,0,0
82323,-62.5,4,2,2,90,0,0
82526,-62.5,4,2,1,90,0,0
83134,-62.5,4,2,2,90,0,0
84147,-62.5,4,2,1,90,0,0
84349,-62.5,4,2,2,90,0,0
84958,-62.5,4,2,1,90,0,0
85161,-62.5,4,2,2,90,0,0
85769,-62.5,4,2,1,90,0,0
86174,-62.5,4,2,2,90,0,0
87999,-62.5,4,2,5,90,0,0
88201,-62.5,4,2,2,90,0,0
89012,-62.5,4,2,1,90,0,0
89215,-62.5,4,2,2,90,0,0
90634,-62.5,4,2,1,90,0,0
91647,-62.5,4,2,2,90,0,0
91850,-62.5,4,2,1,90,0,0
92052,-62.5,4,2,2,90,0,0
92255,-62.5,4,2,1,90,0,0
92458,-62.5,4,2,2,90,0,0
93877,-62.5,4,2,1,90,0,0
94485,-62.5,4,2,2,90,0,0
94688,-62.5,4,2,1,90,0,0
95295,-62.5,4,2,2,90,0,0
95499,-62.5,4,2,1,90,0,0
95701,-62.5,4,2,2,90,0,0
97120,-62.5,4,2,1,90,0,0
97322,-62.5,4,2,2,90,0,0
98742,-62.5,4,2,1,90,0,0
102187,-62.5,4,2,2,90,0,0
103607,-62.5,4,2,1,90,0,0
104215,-62.5,4,2,2,90,0,0
104417,-62.5,4,2,1,90,0,0
105430,-62.5,4,2,2,90,0,0
106850,-62.5,4,2,1,90,0,0
107458,-62.5,4,2,2,90,0,0
107661,-62.5,4,2,1,90,0,0
108268,-62.5,4,2,2,90,0,0
108472,-62.5,4,2,1,90,0,0
108674,-62.5,4,2,2,90,0,0
110093,-62.5,4,2,1,90,0,0
110701,-62.5,4,2,2,90,0,0
110904,-62.5,4,2,1,90,0,0
111106,-62.5,4,2,2,90,0,0
111309,-62.5,4,2,1,90,0,0
111511,-62.5,4,2,2,90,0,0
111715,-62.5,4,2,1,90,0,0
111917,-62.5,4,2,2,90,0,0
112019,-62.5,4,2,1,90,0,0
112728,-62.5,4,2,2,90,0,0
112931,-62.5,4,2,1,90,0,0
113134,-62.5,4,2,2,90,0,0
113336,-62.5,4,2,1,90,0,0
113539,-62.5,4,2,2,90,0,0
113640,-62.5,4,2,1,90,0,0
114958,-71.4285714285714,4,2,1,80,0,0
115566,-71.4285714285714,4,2,2,80,0,0
116073,-71.4285714285714,4,2,1,80,0,0
117187,-71.4285714285714,4,2,2,80,0,0
117390,-71.4285714285714,4,2,1,80,0,0
117593,-71.4285714285714,4,2,2,80,0,0
117796,-71.4285714285714,4,2,1,80,0,0
118809,-71.4285714285714,4,2,2,80,0,0
119316,-71.4285714285714,4,2,1,80,0,0
120431,-71.4285714285714,4,2,2,80,0,0
120532,-71.4285714285714,4,2,1,80,0,0
121242,-71.4285714285714,4,2,2,80,0,0
121445,-71.4285714285714,4,2,1,80,0,0
122052,-71.4285714285714,4,2,2,80,0,0
122458,-71.4285714285714,4,2,1,80,0,0
122863,-71.4285714285714,4,2,2,80,0,0
123066,-71.4285714285714,4,2,1,80,0,0
123674,-71.4285714285714,4,2,2,80,0,0
123877,-71.4285714285714,4,2,1,80,0,0
124484,-71.4285714285714,4,2,2,80,0,0
124688,-71.4285714285714,4,2,1,80,0,0
125296,-71.4285714285714,4,2,2,80,0,0
125499,-71.4285714285714,4,2,1,80,0,0
126107,-71.4285714285714,4,2,2,80,0,0
127120,-71.4285714285714,4,2,1,80,0,0
127931,-100,4,2,1,60,0,0
132390,-100,4,2,2,60,0,0
132593,-100,4,2,4,60,0,0
133100,-100,4,2,1,60,0,0
135836,-100,4,2,4,60,0,0
136038,-100,4,2,1,60,0,0
145363,-100,4,2,2,60,0,0
145566,-100,4,2,4,60,0,0
145870,-100,4,2,1,60,0,0
151445,-83.3333333333333,4,2,1,60,0,0
151749,-83.3333333333333,4,2,2,60,0,0
152053,-83.3333333333333,4,2,1,60,0,0
153269,-83.3333333333333,4,2,2,60,0,0
153877,-71.4285714285714,4,2,4,70,0,0
154079,-71.4285714285714,4,2,1,70,0,0
155093,-83.3333333333333,4,2,1,70,0,0
155499,-71.4285714285714,4,2,4,70,0,0
155701,-71.4285714285714,4,2,1,70,0,0
157120,-83.3333333333333,4,2,1,70,0,0
157728,-83.3333333333333,4,2,2,70,0,0
158134,-83.3333333333333,4,2,1,70,0,0
158945,-83.3333333333333,4,2,5,70,0,0
159958,-83.3333333333333,4,2,3,70,0,0
160160,-83.3333333333333,4,2,5,70,0,0
160363,-71.4285714285714,4,2,4,70,0,0
160565,-71.4285714285714,4,2,1,70,0,0
161580,-83.3333333333333,4,2,1,70,0,0
161985,-71.4285714285714,4,2,4,70,0,0
162187,-71.4285714285714,4,2,1,70,0,0
163607,-83.3333333333333,4,2,1,70,0,0
168472,-83.3333333333333,4,2,2,70,0,0
169688,-250,4,2,2,70,0,0
170093,-62.5,4,2,1,90,0,0
170296,-62.5,4,2,2,90,0,0
171715,-62.5,4,2,1,90,0,0
173133,-62.5,4,2,2,90,0,0
173336,-62.5,4,2,1,90,0,0
173539,-62.5,4,2,2,90,0,0
174958,-62.5,4,2,1,90,0,0
175566,-62.5,4,2,2,90,0,0
175769,-62.5,4,2,1,90,0,0
176377,-62.5,4,2,2,90,0,0
176580,-62.5,4,2,1,90,0,0
176782,-62.5,4,2,2,90,0,0
178201,-62.5,4,2,1,90,0,0
178403,-62.5,4,2,2,90,0,0
179012,-62.5,4,2,1,90,0,0
179215,-62.5,4,2,2,90,0,0
179823,-62.5,4,2,1,90,0,0
180228,-62.5,4,2,2,90,0,0
182053,-62.5,4,2,5,90,0,0
182255,-62.5,4,2,2,90,0,0
183066,-62.5,4,2,1,90,0,0
183269,-62.5,4,2,2,90,0,0
184688,-62.5,4,2,1,90,0,0
185701,-62.5,4,2,2,90,0,0
185904,-62.5,4,2,1,90,0,0
186106,-62.5,4,2,2,90,0,0
186309,-62.5,4,2,1,90,0,0
186512,-62.5,4,2,2,90,0,0
187931,-62.5,4,2,1,90,0,0
188539,-62.5,4,2,2,90,0,0
188742,-62.5,4,2,1,90,0,0
189349,-62.5,4,2,2,90,0,0
189553,-62.5,4,2,1,90,0,0
190161,-62.5,4,2,2,90,0,0
191174,-62.5,4,2,1,90,0,0
191376,-62.5,4,2,2,90,0,0
192796,-62.5,4,2,1,90,0,0
196039,-62.5,4,2,1,90,0,1
196241,-62.5,4,2,2,90,0,1
196343,-62.5,4,2,1,90,0,1
196647,-62.5,4,2,2,90,0,1
196749,-62.5,4,2,1,90,0,1
200295,-62.5,4,2,2,90,0,1
200397,-62.5,4,2,1,90,0,1
201512,-62.5,4,2,2,90,0,1
201613,-62.5,4,2,1,90,0,1
204349,-62.5,4,2,2,90,0,1
204451,-62.5,4,2,1,90,0,1
205160,-62.5,4,2,2,90,0,1
205262,-62.5,4,2,1,90,0,1
209012,-62.5,4,2,3,90,0,1
209214,-62.5,4,2,5,90,0,1
209316,-62.5,4,2,3,90,0,1
212457,-62.5,4,2,5,90,0,1
212559,-62.5,4,2,3,90,0,1
215701,-62.5,4,2,5,90,0,1
215803,-62.5,4,2,3,90,0,1
221782,-62.5,4,2,5,90,0,1
221850,-62.5,4,2,3,90,0,1
221985,-62.5,4,2,1,90,0,1
222187,-62.5,4,2,2,90,0,1
223607,-62.5,4,2,1,90,0,1
223809,-62.5,4,2,2,90,0,1
226850,-62.5,4,2,1,90,0,1
227458,-62.5,4,2,2,90,0,1
227661,-62.5,4,2,1,90,0,1
227863,-62.5,4,2,2,90,0,1
228066,-62.5,4,2,1,90,0,1
228674,-62.5,4,2,2,90,0,1
230093,-62.5,4,2,1,90,0,1
230296,-62.5,4,2,2,90,0,1
230397,-62.5,4,2,1,90,0,1
231106,-62.5,4,2,2,90,0,1
231208,-62.5,4,2,1,90,0,1
236580,405.405405405405,4,2,1,50,1,0
236580,-200,4,2,1,50,0,0
243066,-166.666666666667,4,2,1,50,0,0
251985,405.405405405405,4,2,1,90,1,0
251985,-62.5,4,2,1,90,0,0
252187,-62.5,4,2,2,90,0,0
253606,-62.5,4,2,1,90,0,0
254619,-62.5,4,2,2,90,0,0
254822,-62.5,4,2,1,90,0,0
255024,-62.5,4,2,2,90,0,0
255228,-62.5,4,2,1,90,0,0
255430,-62.5,4,2,2,90,0,0
256849,-62.5,4,2,1,90,0,0
257457,-62.5,4,2,2,90,0,0
257660,-62.5,4,2,1,90,0,0
258268,-62.5,4,2,2,90,0,0
258471,-62.5,4,2,1,90,0,0
258673,-62.5,4,2,2,90,0,0
260093,-62.5,4,2,1,90,0,0
260295,-62.5,4,2,2,90,0,0
260903,-62.5,4,2,1,90,0,0
261106,-62.5,4,2,2,90,0,0
261714,-62.5,4,2,1,90,0,0
262120,-62.5,4,2,2,90,0,0
263944,-62.5,4,2,5,90,0,0
264147,-62.5,4,2,2,90,0,0
264957,-62.5,4,2,1,90,0,0
265160,-62.5,4,2,2,90,0,0
266579,-62.5,4,2,1,90,0,0
267592,-62.5,4,2,2,90,0,0
267795,-62.5,4,2,1,90,0,0
267997,-62.5,4,2,2,90,0,0
268201,-62.5,4,2,1,90,0,0
268403,-62.5,4,2,2,90,0,0
269822,-62.5,4,2,1,90,0,0
270430,-62.5,4,2,2,90,0,0
270633,-62.5,4,2,1,90,0,0
271241,-62.5,4,2,2,90,0,0
271444,-62.5,4,2,1,90,0,0
272052,-62.5,4,2,2,90,0,0
273066,-62.5,4,2,1,90,0,0
273268,-62.5,4,2,2,90,0,0
274687,-62.5,4,2,1,90,0,0
278132,-62.5,4,2,2,90,0,0
279552,-62.5,4,2,1,90,0,0
280160,-62.5,4,2,2,90,0,0
280363,-62.5,4,2,1,90,0,0
281376,-62.5,4,2,2,90,0,0
282795,-62.5,4,2,1,90,0,0
283403,-62.5,4,2,2,90,0,0
283606,-62.5,4,2,1,90,0,0
284214,-62.5,4,2,2,90,0,0
284417,-62.5,4,2,1,90,0,0
284619,-62.5,4,2,2,90,0,0
286039,-62.5,4,2,1,90,0,0
286647,-62.5,4,2,2,90,0,0
286849,-62.5,4,2,1,90,0,0
287051,-62.5,4,2,2,90,0,0
287255,-62.5,4,2,1,90,0,0
287457,-62.5,4,2,2,90,0,0
287660,-62.5,4,2,1,90,0,0
287862,-62.5,4,2,2,90,0,0
287964,-62.5,4,2,1,90,0,0
288674,-62.5,4,2,2,90,0,0
288876,-62.5,4,2,1,90,0,0
289079,-62.5,4,2,2,90,0,0
289282,-62.5,4,2,1,90,0,0
290903,-62.5,4,2,1,90,0,1
291106,-62.5,4,2,2,90,0,1
291207,-62.5,4,2,1,90,0,1
292322,-62.5,4,2,2,90,0,1
292525,-62.5,4,2,1,90,0,1
292727,-62.5,4,2,2,90,0,1
292829,-62.5,4,2,1,90,0,1
293943,-62.5,4,2,2,90,0,1
294147,-62.5,4,2,1,90,0,1
294349,-62.5,4,2,2,90,0,1
294451,-62.5,4,2,1,90,0,1
295565,-62.5,4,2,2,90,0,1
295768,-62.5,4,2,1,90,0,1
295971,-62.5,4,2,2,90,0,1
296072,-62.5,4,2,1,90,0,1
296781,-62.5,4,2,2,90,0,1
296984,-62.5,4,2,1,90,0,1
297186,-62.5,4,2,2,90,0,1
297390,-62.5,4,2,1,90,0,1
303876,-83.3333333333333,4,2,3,80,0,0
304484,-83.3333333333333,4,2,5,80,0,0
304991,-83.3333333333333,4,2,3,80,0,0
306106,-83.3333333333333,4,2,5,80,0,0
306714,-83.3333333333333,4,2,3,80,0,0
307727,-83.3333333333333,4,2,5,80,0,0
308234,-83.3333333333333,4,2,3,80,0,0
308741,-83.3333333333333,4,2,1,80,0,0
309349,-83.3333333333333,4,2,2,80,0,0
309450,-83.3333333333333,4,2,1,80,0,0
309755,-83.3333333333333,4,2,2,80,0,0
309957,-83.3333333333333,4,2,1,80,0,0
310160,-83.3333333333333,4,2,2,80,0,0
310363,-83.3333333333333,4,2,3,80,0,0
310565,-83.3333333333333,4,2,5,80,0,0
310667,-83.3333333333333,4,2,3,80,0,0
311781,-83.3333333333333,4,2,5,80,0,0
311984,-83.3333333333333,4,2,3,80,0,0
312187,-83.3333333333333,4,2,5,80,0,0
312289,-83.3333333333333,4,2,3,80,0,0
313403,-83.3333333333333,4,2,5,80,0,0
313606,-83.3333333333333,4,2,3,80,0,0
313808,-83.3333333333333,4,2,5,80,0,0
313910,-83.3333333333333,4,2,3,80,0,0
315228,-62.5,4,2,3,80,0,0
318876,-62.5,4,2,3,5,0,0

[Colours]
Combo1 : 37,226,170
Combo2 : 152,250,165
Combo3 : 252,153,148
Combo4 : 168,228,239

[HitObjects]
383,67,1618,6,0,P|411:75|441:80,1,60,2|0,2:2|2:2,0:0:0:0:
461,166,2018,2,0,P|432:157|402:152,1,60,2|0,2:2|2:2,0:0:0:0:
313,24,2418,2,0,P|255:30|231:82,1,120,2|2,2:2|2:2,0:0:0:0:
169,133,3018,2,0,P|111:137|77:91,2,120,0|0|0,2:2|2:2|2:2,0:0:0:0:
257,220,4018,2,0,B|323:243|290:262|352:289,1,120,2|2,2:2|2:2,0:0:0:0:
352,289,4818,6,0,P|409:271|468:261,1,120,2|2,2:2|2:2,0:0:0:0:
242,211,5618,2,0,P|184:228|125:238,1,120,2|2,2:2|2:2,0:0:0:0:
283,366,6418,2,0,P|313:302|315:120,1,240,2|2,2:2|2:2,0:0:0:0:
126,310,8018,6,0,P|121:280|112:251,1,60,2|0,2:2|2:2,0:0:0:0:
177,208,8418,2,0,P|182:178|191:150,1,60,2|0,2:2|2:2,0:0:0:0:
64,31,8818,2,0,P|76:74|154:83,1,120,2|2,2:2|2:2,0:0:0:0:
200,141,9418,2,0,P|243:152|290:89,2,120,0|0|0,2:2|2:2|2:2,0:0:0:0:
377,13,10418,2,0,P|370:72|365:132,1,120,2|0,2:2|2:2,0:0:0:0:
433,271,11218,6,0,P|490:243|481:166,1,120,2|2,2:2|2:2,0:0:0:0:
304,206,12018,2,0,P|299:269|370:300,1,120,2|2,2:2|2:2,0:0:0:0:
374,138,12818,2,0,P|257:164|138:181,1,240,2|2,2:2|2:2,0:0:0:0:
0,294,14418,6,0,P|63:280|110:325,1,135.000005149841,6|0,3:2|2:2,0:0:0:0:
173,371,14823,2,0,P|220:361|236:308,1,90.0000034332277,0|0,3:3|2:2,0:0:0:0:
290,139,15228,2,0,L|307:298,1,135.000005149841,0|0,3:3|2:2,0:0:0:0:
241,314,15634,2,0,P|194:304|178:251,1,90.0000034332277,0|2,3:3|2:3,0:0:0:0:
419,370,16039,6,0,L|428:280,1,90.0000034332277,0|0,3:3|2:2,0:0:0:0:
438,275,16343,1,0,2:2:0:0:
491,220,16445,2,0,B|521:252|521:252|510:296,1,90.0000034332277,0|0,3:3|2:2,0:0:0:0:
346,187,16850,2,0,B|337:112|307:138|296:63,1,135.000005149841,0|0,3:3|2:2,0:0:0:0:
233,12,17255,2,0,B|202:44|202:44|213:88,1,90.0000034332277,0|2,3:3|2:3,0:0:0:0:
100,264,17661,6,0,P|29:261|14:146,1,180,2|0,3:2|2:2,0:0:0:0:
60,122,18066,2,0,B|108:132|108:132|123:144|123:144|173:153,1,120,0|0,3:3|2:2,0:0:0:0:
226,212,18370,1,0,2:2:0:0:
237,216,18472,2,0,L|434:188,1,180,0|0,3:3|2:2,0:0:0:0:
423,183,18877,2,0,L|324:169,1,60,0|0,3:3|2:2,0:0:0:0:
312,0,19080,2,0,L|295:118,1,120,2|6,2:2|3:3,0:0:0:0:
112,314,19485,5,0,1:1:0:0:
105,302,19586,1,0,1:1:0:0:
36,280,19688,5,0,1:1:0:0:
147,236,19789,2,0,P|212:244|233:332,1,143.999995605469,0|0,1:1|1:1,0:0:0:0:
371,375,20093,5,0,1:1:0:0:
426,378,20194,1,0,1:1:0:0:
465,339,20295,1,8,2:3:0:0:
461,282,20397,1,4,2:3:0:0:
400,227,20499,5,0,3:3:0:0:
371,206,20601,1,8,2:3:0:0:
368,171,20702,1,4,2:3:0:0:
392,144,20803,1,4,3:3:0:0:
407,139,20904,6,0,P|448:147|489:153,1,83.9999974365235,6|0,3:2|2:2,0:0:0:0:
346,0,21107,2,0,P|339:41|331:82,1,83.9999974365235,2|0,2:3|2:2,0:0:0:0:
177,166,21309,1,0,1:1:0:0:
165,172,21411,2,0,P|128:173|82:56,1,167.999994873047,2|0,2:2|2:2,0:0:0:0:
240,214,21715,5,2,3:2:0:0:
307,176,21816,2,0,P|313:134|321:93,1,83.9999974365235,0|2,2:2|2:3,0:0:0:0:
468,315,22019,1,2,2:2:0:0:
474,237,22120,2,0,B|447:243|417:247|417:247|388:293|388:293|360:297|332:304,1,167.999994873047,0|2,1:1|2:3,0:0:0:0:
81,376,22526,5,2,3:2:0:0:
46,310,22627,1,0,2:2:0:0:
101,263,22728,2,0,L|204:280,1,83.9999974365235,2|0,2:3|2:2,0:0:0:0:
307,176,22931,1,0,1:1:0:0:
342,110,23032,1,2,2:2:0:0:
287,63,23133,2,0,L|184:80,1,83.9999974365235,2|0,2:3|2:2,0:0:0:0:
31,166,23336,5,2,3:2:0:0:
6,96,23438,2,0,P|93:87|144:185,1,167.999994873047,0|0,1:1|3:3,0:0:0:0:
259,262,23742,5,2,1:2:0:0:
333,249,23843,1,0,2:2:0:0:
408,236,23944,1,2,2:3:0:0:
482,223,24046,1,0,2:2:0:0:
394,341,24147,6,0,B|337:347|315:289|335:311|311:252|258:261,1,167.999994873047,2|2,3:2|2:3,0:0:0:0:
194,303,24451,1,0,2:2:0:0:
127,263,24553,2,0,L|31:280,1,83.9999974365235,0|2,1:1|2:2,0:0:0:0:
257,129,24755,1,2,2:3:0:0:
204,76,24857,1,0,2:2:0:0:
265,136,24958,6,0,L|99:106,1,167.999994873047,2|2,3:2|2:3,0:0:0:0:
323,197,25262,1,2,2:2:0:0:
334,190,25363,2,0,B|357:157|357:157|344:115,1,83.9999974365235,0|0,1:1|2:2,0:0:0:0:
162,196,25566,1,2,2:3:0:0:
127,263,25667,1,0,2:2:0:0:
195,303,25769,6,0,P|109:308|83:384,1,167.999994873047,2|2,3:2|2:3,0:0:0:0:
230,233,26073,2,0,P|316:238|342:314,1,167.999994873047,0|2,2:2|2:2,0:0:0:0:
162,196,26377,2,0,P|156:154|148:113,1,83.9999974365235,2|2,2:3|2:2,0:0:0:0:
384,106,26580,5,2,3:2:0:0:
360,35,26681,2,0,P|343:117|332:200,1,167.999994873047,2|0,1:2|3:3,0:0:0:0:
157,36,26985,5,2,1:2:0:0:
84,22,27086,1,0,2:2:0:0:
25,65,27187,1,2,1:3:0:0:
16,138,27289,1,0,1:1:0:0:
162,196,27390,6,0,B|189:190|219:186|219:186|248:140|248:140|276:136|302:129,2,167.999994873047,6|2|0,3:2|2:3|1:1,0:0:0:0:
368,341,27999,1,2,2:3:0:0:
427,293,28100,1,0,2:2:0:0:
390,228,28201,2,0,L|307:214,1,83.9999974365235,2|0,3:2|2:2,0:0:0:0:
215,380,28404,2,0,L|201:297,1,83.9999974365235,2|0,2:3|2:2,0:0:0:0:
94,147,28607,2,0,P|16:168|0:246,1,167.999994873047,2|2,1:2|2:3,0:0:0:0:
62,286,28911,1,0,2:2:0:0:
171,182,29012,6,0,P|185:89|161:13,1,167.999994873047,6|2,3:2|2:3,0:0:0:0:
151,16,29316,1,0,2:2:0:0:
91,65,29417,2,0,B|52:74|52:74|45:72|45:72|9:81,1,83.9999974365235,0|2,1:1|2:2,0:0:0:0:
182,194,29620,2,0,B|220:203|220:203|227:201|227:201|263:210,1,83.9999974365235,2|0,2:3|2:2,0:0:0:0:
439,90,29823,5,2,3:2:0:0:
384,36,29924,2,0,P|341:46|319:90,1,83.9999974365235,0|2,2:2|2:3,0:0:0:0:
414,252,30127,1,0,2:2:0:0:
480,200,30228,5,2,1:2:0:0:
405,211,30329,1,0,1:1:0:0:
330,222,30430,1,2,1:3:0:0:
255,234,30532,1,0,1:1:0:0:
159,330,30634,6,0,P|76:342|45:238,1,167.999994873047,6|2,3:2|2:3,0:0:0:0:
163,100,30938,1,0,2:2:0:0:
171,110,31039,2,0,L|186:235,1,83.9999974365235,0|2,1:1|2:2,0:0:0:0:
328,327,31242,2,0,L|203:312,1,83.9999974365235,2|0,1:3|1:1,0:0:0:0:
75,212,31445,5,2,1:2:0:0:
21,157,31546,1,0,1:1:0:0:
68,102,31647,2,0,L|193:87,1,83.9999974365235,2|0,3:3|2:2,0:0:0:0:
267,239,31850,2,0,L|350:249,1,83.9999974365235,2|0,2:2|2:2,0:0:0:0:
512,115,32053,2,0,P|444:105|397:184,1,167.999994873047,2|0,1:3|2:2,0:0:0:0:
396,180,32458,5,2,2:2:0:0:
444,344,32661,1,2,3:2:0:0:
436,354,32762,2,0,P|370:347|365:257,1,167.999994873047,2|0,3:2|2:2,0:0:0:0:
442,252,33066,6,0,B|355:222|366:274|276:246,1,167.999994873047,2|2,3:2|2:2,0:0:0:0:
211,283,33370,1,2,2:2:0:0:
149,234,33472,1,2,3:2:0:0:
140,227,33573,2,0,B|131:214|131:214|144:117,2,83.9999974365235,2|2|0,2:3|2:3|2:2,0:0:0:0:
80,279,33877,5,6,3:2:0:0:
252,165,34080,1,0,2:2:0:0:
117,14,34282,2,0,L|130:152,1,120,0|0,1:1|3:3,0:0:0:0:
203,30,34586,1,0,1:1:0:0:
211,22,34688,2,0,P|274:17|326:107,1,120,2|0,3:3|2:2,0:0:0:0:
116,148,34992,2,0,P|53:153|1:63,1,120,2|0,3:3|2:2,0:0:0:0:
239,247,35296,5,2,3:3:0:0:
239,247,35701,2,0,L|312:260,1,60,0|0,3:3|2:2,0:0:0:0:
429,373,35904,2,0,P|483:355|496:299,1,120,0|0,1:1|3:3,0:0:0:0:
449,238,36208,1,0,1:1:0:0:
389,279,36309,2,0,L|316:292,1,60,0|0,3:3|2:2,0:0:0:0:
241,164,36512,2,0,L|314:177,1,60,0|0,3:3|2:2,0:0:0:0:
499,66,36715,2,0,B|444:43|444:43|397:80,1,120,0|0,1:1|1:1,0:0:0:0:
454,129,37019,1,0,1:1:0:0:
386,80,37120,6,0,B|325:73|302:135|323:111|298:174|241:164,1,180,6|0,3:2|2:2,0:0:0:0:
183,117,37526,1,0,1:1:0:0:
9,269,37728,1,0,3:3:0:0:
0,260,37830,1,0,1:1:0:0:
43,196,37931,2,0,P|100:198|132:246,1,120,2|0,3:3|2:2,0:0:0:0:
193,297,38235,2,0,L|184:357,1,60,2|0,3:3|2:2,0:0:0:0:
234,54,38539,5,2,3:3:0:0:
234,54,38945,2,0,L|146:73,1,60,0|0,3:3|2:2,0:0:0:0:
290,113,39147,2,0,P|352:120|381:193,1,120,0|0,1:1|3:3,0:0:0:0:
346,229,39451,1,0,1:1:0:0:
399,289,39553,2,0,P|432:294|468:303,1,60,0|0,3:3|2:2,0:0:0:0:
456,157,39755,2,0,P|426:163|397:168,1,60,0|0,3:3|2:2,0:0:0:0:
263,233,39958,2,0,B|193:220|214:255|145:243,1,120,0|0,1:1|1:1,0:0:0:0:
81,204,40262,1,0,1:1:0:0:
103,314,40363,6,0,L|127:119,1,180,6|0,3:2|2:2,0:0:0:0:
69,86,40769,1,0,1:1:0:0:
242,157,40972,1,0,3:3:0:0:
247,148,41073,1,0,1:1:0:0:
310,106,41174,2,0,P|316:48|251:18,1,120,2|0,3:3|2:2,0:0:0:0:
425,189,41478,2,0,P|478:165|471:93,1,120,2|0,3:3|2:2,0:0:0:0:
324,272,41782,5,2,3:3:0:0:
324,272,42188,2,0,L|398:286,1,60,0|0,3:3|2:2,0:0:0:0:
265,335,42390,2,0,P|218:370|160:363,1,120,0|0,1:1|3:3,0:0:0:0:
110,309,42695,1,0,1:1:0:0:
59,363,42796,2,0,L|0:373,1,60,0|0,3:3|2:2,0:0:0:0:
120,235,42999,2,0,L|110:176,1,60,0|0,3:3|2:2,0:0:0:0:
243,255,43201,2,0,L|263:136,1,120,0|0,1:1|1:1,0:0:0:0:
331,93,43505,1,0,1:1:0:0:
221,58,43607,6,0,P|278:99|348:63,1,120,6|0,3:2|2:2,0:0:0:0:
120,160,44012,2,0,P|63:201|-7:165,1,120,0|0,1:1|3:3,0:0:0:0:
180,303,44316,1,0,1:1:0:0:
243,255,44417,2,0,B|313:242|292:277|361:265,1,120,2|0,3:3|2:2,0:0:0:0:
428,231,44722,2,0,L|436:165,1,60,0|0,1:1|2:2,0:0:0:0:
234,366,45026,5,2,3:3:0:0:
234,366,45431,2,0,L|300:374,1,60,0|0,3:3|2:2,0:0:0:0:
180,303,45634,2,0,P|103:322|87:388,1,120,4|0,1:2|3:3,0:0:0:0:
243,255,45938,1,0,1:1:0:0:
236,246,46039,2,0,B|231:189|231:189|228:184|228:184|223:127,1,120,0|0,3:3|3:3,0:0:0:0:
439,3,46445,5,0,1:1:0:0:
488,19,46546,1,0,1:1:0:0:
507,67,46647,1,0,1:1:0:0:
481,113,46749,1,0,1:1:0:0:
409,78,46850,5,6,3:2:0:0:
236,136,47053,1,0,2:2:0:0:
110,35,47255,2,0,P|41:61|38:131,1,120,0|0,1:1|3:3,0:0:0:0:
186,62,47559,1,0,1:1:0:0:
193,71,47661,2,0,B|172:223,1,120,2|0,3:3|2:2,0:0:0:0:
382,254,47965,2,0,B|365:135,1,120,2|0,3:3|2:2,0:0:0:0:
119,245,48269,5,2,3:3:0:0:
119,245,48674,2,0,L|24:263,1,60,0|0,3:3|2:2,0:0:0:0:
162,310,48877,2,0,B|206:354|206:354|259:333,1,120,0|0,1:1|3:3,0:0:0:0:
330,370,49181,1,0,1:1:0:0:
394,333,49282,2,0,P|424:336|448:354,1,60,0|0,3:3|2:2,0:0:0:0:
426,218,49485,2,0,P|398:229|381:253,1,60,0|0,3:3|2:2,0:0:0:0:
499,175,49688,2,0,P|433:173|387:92,1,120,0|0,1:1|1:1,0:0:0:0:
424,72,49992,1,0,1:1:0:0:
382,135,50093,6,0,B|355:121|355:121|193:156,1,180,6|0,3:2|2:2,0:0:0:0:
152,101,50499,1,0,1:1:0:0:
50,285,50701,1,0,3:3:0:0:
52,274,50803,1,0,1:1:0:0:
1,222,50904,2,0,L|118:244,1,120,2|0,3:3|2:2,0:0:0:0:
166,304,51208,2,0,L|224:315,1,60,2|0,3:3|2:2,0:0:0:0:
382,135,51512,5,2,3:3:0:0:
382,135,51917,2,0,L|370:76,1,60,0|0,3:3|2:2,0:0:0:0:
312,176,52120,2,0,B|259:197|259:197|215:153,1,120,0|0,1:1|3:3,0:0:0:0:
150,111,52424,1,0,1:1:0:0:
90,156,52526,2,0,L|97:215,1,60,0|0,3:3|2:2,0:0:0:0:
278,102,52728,2,0,L|285:42,1,60,0|0,3:3|2:2,0:0:0:0:
206,164,52931,5,0,1:1:0:0:
212,217,53032,1,0,2:2:0:0:
219,271,53133,1,0,1:1:0:0:
225,324,53235,1,0,1:1:0:0:
183,384,53336,6,0,P|248:328|330:356,1,180,6|0,3:2|2:2,0:0:0:0:
403,371,53742,1,0,1:1:0:0:
479,180,53945,1,0,3:3:0:0:
476,191,54046,1,0,1:1:0:0:
512,260,54147,2,0,B|454:276|454:276|410:234,1,120,2|0,3:3|2:2,0:0:0:0:
334,240,54451,2,0,L|318:134,1,60,2|0,3:3|2:2,0:0:0:0:
59,302,54755,5,2,3:3:0:0:
59,302,55161,2,0,L|0:293,1,60,0|0,3:3|2:2,0:0:0:0:
133,268,55363,2,0,P|153:194|116:115,1,120,0|0,1:1|3:3,0:0:0:0:
187,92,55667,1,0,1:1:0:0:
141,31,55769,2,0,L|81:41,1,60,0|0,3:3|2:2,0:0:0:0:
240,147,55972,2,0,L|299:157,1,60,0|0,3:3|2:2,0:0:0:0:
398,84,56174,2,0,P|458:104|463:174,1,120,0|0,1:1|1:1,0:0:0:0:
418,207,56478,1,0,1:1:0:0:
480,165,56580,6,0,L|260:200,1,180,6|0,3:2|2:2,0:0:0:0:
240,147,56985,2,0,L|250:87,1,60,0|0,1:1|2:2,0:0:0:0:
30,231,57188,1,0,3:3:0:0:
25,221,57289,1,0,1:1:0:0:
45,151,57390,2,0,P|118:144|172:229,1,143.999995605469,2|0,3:3|2:2,0:0:0:0:
221,250,57695,2,0,L|208:320,1,71.9999978027344,0|0,1:2|1:1,0:0:0:0:
461,304,57999,6,0,B|495:345|495:345|296:284,1,215.999993408203,6|0,3:2|2:2,0:0:0:0:
289,238,58404,2,0,B|279:233|279:233|182:260,1,71.9999978027344,0|0,3:3|2:2,0:0:0:0:
94,375,58607,2,0,P|16:357|39:258,1,143.999995605469,0|0,1:1|1:1,0:0:0:0:
61,249,58911,1,0,1:1:0:0:
118,297,59012,2,0,L|100:388,1,71.9999978027344,0|0,3:3|2:2,0:0:0:0:
223,163,59215,2,0,L|209:233,1,71.9999978027344,2|0,3:3|2:2,0:0:0:0:
24,142,59417,5,0,1:1:0:0:
77,155,59518,1,0,1:1:0:0:
125,126,59619,1,0,1:1:0:0:
135,71,59721,1,0,1:1:0:0:
98,0,59823,6,0,P|170:52|259:58,1,180.000006866455,6|0,3:3|2:2,0:0:0:0:
225,143,60127,2,0,P|296:90|385:84,1,180.000006866455,2|0,3:3|2:2,0:0:0:0:
453,127,60431,2,0,P|485:97|482:53,1,90.0000034332277,2|0,3:3|2:2,0:0:0:0:
315,0,60634,5,2,3:2:0:0:
397,272,60938,1,0,1:1:0:0:
406,281,61039,2,0,L|498:295,1,60,8|4,2:3|2:3,0:0:0:0:
338,355,61242,1,0,1:1:0:0:
334,343,61343,1,0,1:1:0:0:
277,295,61445,6,0,P|196:302|171:417,1,180.000006866455,6|0,3:3|2:2,0:0:0:0:
182,114,61749,2,0,P|147:187|235:266,1,180.000006866455,2|0,3:3|2:2,0:0:0:0:
27,157,62053,2,0,P|83:173|133:135,1,90.0000034332277,2|0,3:3|2:2,0:0:0:0:
69,285,62255,5,2,3:2:0:0:
305,101,62458,1,0,1:1:0:0:
303,93,62559,1,0,1:1:0:0:
358,40,62661,2,0,P|401:44|426:80,1,90.0000034332277,0|8,3:3|2:3,0:0:0:0:
250,154,62863,2,0,P|206:149|181:113,1,90.0000034332277,4|4,2:3|3:3,0:0:0:0:
270,16,63066,6,0,L|305:235,1,215.999993408203,6|0,3:2|2:2,0:0:0:0:
361,283,63472,2,0,B|457:299|457:299|479:284|471:259,1,143.999995605469,0|2,1:1|2:3,0:0:0:0:
195,368,63776,5,0,1:1:0:0:
143,314,63877,1,0,3:3:0:0:
145,302,63978,1,0,1:1:0:0:
211,265,64080,2,0,L|222:193,1,71.9999978027344,2|0,2:3|2:2,0:0:0:0:
46,115,64282,2,0,L|57:186,1,71.9999978027344,0|0,1:1|2:2,0:0:0:0:
0,257,64485,6,0,B|53:245|53:245|76:225|76:225|133:213,2,143.999995605469,6|0|2,3:2|2:2|3:3,0:0:0:0:
211,0,65093,2,0,P|252:11|274:66,1,71.9999978027344,0|0,1:1|2:2,0:0:0:0:
345,26,65296,2,0,P|355:67|318:114,1,71.9999978027344,2|0,3:3|1:1,0:0:0:0:
249,199,65499,1,0,3:3:0:0:
195,149,65600,2,0,L|337:171,1,143.999995605469,0|0,1:1|2:2,0:0:0:0:
490,231,65904,2,0,B|509:202|509:202|495:167,1,71.9999978027344,4|0,1:2|2:2,0:0:0:0:
336,289,66107,1,2,1:3:0:0:
340,301,66208,1,0,1:1:0:0:
418,349,66309,6,0,B|339:337|339:337|325:340|325:340|252:327,1,167.999994873047,6|0,3:3|1:1,0:0:0:0:
198,271,66613,2,0,B|125:283|125:283|111:280|111:280|32:292,1,167.999994873047,2|0,3:3|2:2,0:0:0:0:
125,239,66917,2,0,B|132:229|132:229|111:133,1,83.9999974365235,2|0,3:3|2:2,0:0:0:0:
192,381,67120,5,2,3:2:0:0:
354,178,67424,1,0,1:1:0:0:
344,169,67526,2,0,L|331:75,1,71.9999978027344,8|4,2:3|2:3,0:0:0:0:
233,46,67728,1,0,1:1:0:0:
230,35,67830,1,0,1:1:0:0:
160,74,67931,6,0,B|182:59|182:59|321:82,1,167.999994873047,6|8,3:3|2:3,0:0:0:0:
163,165,68235,2,0,B|141:150|141:150|1:173,1,167.999994873047,4|0,2:3|2:2,0:0:0:0:
133,311,68539,2,0,B|108:280|108:280|124:237,1,83.9999974365235,4|0,3:3|2:2,0:0:0:0:
95,24,68742,5,2,3:2:0:0:
276,238,68945,1,0,1:1:0:0:
507,126,69147,1,0,3:3:0:0:
507,126,69350,1,0,1:1:0:0:
503,114,69451,1,0,1:1:0:0:
460,52,69553,6,0,B|447:245|450:207,1,167.999994873047,6|0,3:2|1:1,0:0:0:0:
442,220,69857,1,0,2:2:0:0:
506,281,69958,2,0,P|449:260|384:358,1,167.999994873047,0|0,3:3|1:1,0:0:0:0:
372,342,70262,1,0,2:2:0:0:
299,359,70363,2,0,P|270:347|259:287,1,83.9999974365235,0|0,3:3|2:2,0:0:0:0:
120,230,70566,2,0,P|115:198|162:159,1,83.9999974365235,0|0,1:1|3:3,0:0:0:0:
211,40,70769,2,0,P|235:20|293:41,1,83.9999974365235,0|0,2:2|3:3,0:0:0:0:
294,215,70972,6,0,B|221:228|221:228|200:222|200:222|129:236,2,167.999994873047,6|0|0,1:2|3:3|1:1,0:0:0:0:
65,88,71580,2,0,L|51:170,1,83.9999974365235,0|0,3:3|2:2,0:0:0:0:
120,317,71782,2,0,B|191:303|191:303|211:309|211:309|284:295,1,167.999994873047,6|0,1:2|3:3,0:0:0:0:
299,301,72086,1,0,2:2:0:0:
362,352,72188,2,0,P|400:338|416:300,1,83.9999974365235,0|0,1:1|2:2,0:0:0:0:
309,132,72390,2,0,L|226:145,1,83.9999974365235,0|0,3:3|2:2,0:0:0:0:
436,0,72593,2,0,L|422:82,1,83.9999974365235,0|0,1:1|2:2,0:0:0:0:
494,280,72796,5,4,3:2:0:0:
455,210,72897,2,0,B|360:180|402:164|307:131,2,167.999994873047,0|0|0,2:2|2:2|2:2,0:0:0:0:
494,280,73404,2,0,L|485:324,1,45.0000017166138,0|0,2:2|2:2,0:0:0:0:
256,384,73607,5,2,2:3:0:0:
256,384,74012,5,2,2:3:0:0:
16,168,74316,6,0,B|10:148|10:148|20:123,1,48,0|0,3:3|3:3,0:0:0:0:
33,115,74417,2,0,B|63:121|97:126|97:126|130:178|130:178|161:182|193:190,1,192,4|0,1:2|3:3,0:0:0:0:
337,60,74722,2,0,B|248:24|248:24|184:97,1,192,4|0,1:2|3:3,0:0:0:0:
275,225,75026,2,0,B|312:220|312:220|334:224|334:224|370:218,1,96,4|0,1:2|2:2,0:0:0:0:
139,384,75228,5,6,3:2:0:0:
109,336,75329,1,0,3:3:0:0:
130,284,75430,1,0,3:3:0:0:
183,270,75532,1,0,3:3:0:0:
257,296,75634,5,6,1:2:0:0:
275,225,75736,1,0,3:3:0:0:
344,199,75837,1,0,3:3:0:0:
407,238,75938,1,0,3:3:0:0:
363,355,76039,5,6,3:2:0:0:
407,44,76242,2,0,L|394:139,1,96,2|0,2:3|2:2,0:0:0:0:
202,192,76445,2,0,P|164:164|159:117,1,96,0|0,1:1|2:2,0:0:0:0:
310,38,76647,1,2,2:3:0:0:
233,19,76749,2,0,L|245:114,1,96,0|0,2:2|3:3,0:0:0:0:
117,238,76951,6,0,L|21:225,1,96,0|2,2:2|2:3,0:0:0:0:
206,370,77154,1,0,2:2:0:0:
270,332,77255,2,0,P|288:289|269:246,1,96,0|0,1:1|2:2,0:0:0:0:
43,309,77458,2,0,L|138:321,1,96,2|0,2:3|2:2,0:0:0:0:
262,164,77661,5,2,3:2:0:0:
271,158,77762,1,2,2:2:0:0:
286,156,77863,1,2,2:3:0:0:
306,163,77965,1,2,2:2:0:0:
330,188,78066,1,2,1:2:0:0:
344,226,78167,1,2,2:2:0:0:
387,260,78269,1,2,2:3:0:0:
450,259,78370,1,2,2:2:0:0:
485,193,78472,5,2,3:2:0:0:
423,155,78573,2,0,B|358:148|333:213|356:188|329:255|269:245,1,192,0|0,1:1|2:2,0:0:0:0:
345,353,78877,2,0,B|280:360|255:295|278:320|251:253|191:263,1,192,2|2,1:2|2:3,0:0:0:0:
124,302,79181,1,0,2:2:0:0:
0,211,79282,6,0,P|57:211|88:259,1,96,6|0,3:2|2:2,0:0:0:0:
248,122,79485,1,2,2:3:0:0:
293,58,79586,1,0,2:2:0:0:
231,16,79688,2,0,L|76:37,1,96,0|0,1:1|2:2,0:0:0:0:
293,189,79890,1,2,2:3:0:0:
366,166,79992,2,0,P|386:123|369:80,1,96,0|0,2:2|3:3,0:0:0:0:
193,177,80195,6,0,P|172:219|189:262,1,96,0|2,2:2|2:3,0:0:0:0:
256,302,80397,1,0,2:2:0:0:
388,291,80499,2,0,B|308:281|308:281|290:268|290:268|201:258,1,192,0|2,1:1|2:3,0:0:0:0:
189,262,80803,1,0,2:2:0:0:
86,340,80904,6,0,P|38:331|33:260,1,96,2|0,3:2|2:2,0:0:0:0:
256,384,81107,2,0,L|269:271,1,96,2|0,2:3|2:2,0:0:0:0:
324,237,81309,1,0,1:1:0:0:
182,81,81411,2,0,L|195:194,1,96,2|2,2:2|2:3,0:0:0:0:
268,128,81613,1,0,2:2:0:0:
403,39,81715,5,2,3:2:0:0:
467,1,81816,2,0,P|535:55|493:147,1,192,0|0,1:1|2:2,0:0:0:0:
338,84,82120,2,0,B|311:43|311:43|328:-1,1,96,2|0,1:2|2:2,0:0:0:0:
453,287,82323,1,2,1:3:0:0:
494,223,82424,1,0,1:1:0:0:
431,176,82526,5,6,3:2:0:0:
337,248,82627,2,0,B|223:267|290:318|175:339,1,192,0|0,2:2|2:2,0:0:0:0:
111,291,82931,2,0,P|148:250|210:272,1,96,0|0,1:1|2:2,0:0:0:0:
362,382,83134,1,2,2:3:0:0:
436,371,83235,2,0,P|457:329|439:286,1,96,0|0,2:2|3:3,0:0:0:0:
256,101,83438,6,0,L|243:214,1,96,0|2,2:2|2:3,0:0:0:0:
185,251,83640,1,0,2:2:0:0:
21,216,83742,2,0,L|134:203,1,96,0|0,1:1|2:2,0:0:0:0:
291,352,83945,2,0,L|301:256,1,96,2|0,2:3|2:2,0:0:0:0:
196,44,84147,6,0,P|105:44|73:129,1,192,6|2,3:2|2:3,0:0:0:0:
124,192,84451,1,0,2:2:0:0:
269,89,84553,2,0,B|376:59|376:59|422:81|406:123,2,192,0|2|2,1:1|2:3|3:2,0:0:0:0:
31,319,85161,6,0,B|1:285|1:285|11:235,1,96,2|0,2:3|2:2,0:0:0:0:
202,356,85363,1,0,1:1:0:0:
275,366,85464,1,0,1:1:0:0:
325,312,85565,1,2,1:3:0:0:
311,240,85667,1,0,1:1:0:0:
235,228,85769,5,6,3:2:0:0:
337,319,85870,2,0,B|389:330|372:344|424:356,1,96,0|0,2:2|3:3,0:0:0:0:
362,181,86073,5,0,3:3:0:0:
226,239,86174,2,0,B|174:250|191:264|138:276,1,96,2|0,1:3|2:2,0:0:0:0:
267,33,86377,5,0,1:1:0:0:
190,13,86478,2,0,B|194:59|194:59|197:60|197:60|203:106,1,96,0|2,3:3|1:3,0:0:0:0:
18,280,86681,5,0,3:3:0:0:
0,201,86782,2,0,B|46:205|46:205|47:208|47:208|93:214,1,96,0|0,3:3|3:3,0:0:0:0:
234,373,86985,2,0,P|318:323|304:231,1,192,2|0,1:3|1:1,0:0:0:0:
237,257,87289,1,0,1:1:0:0:
310,226,87390,5,6,3:3:0:0:
417,317,87492,2,0,B|428:322|428:322|530:304,1,96,0|0,2:2|1:1,0:0:0:0:
430,205,87695,5,0,3:3:0:0:
466,106,87796,2,0,B|464:152|445:153|443:198,1,96,2|0,2:3|1:1,0:0:0:0:
267,33,87999,5,2,3:3:0:0:
303,132,88100,2,0,B|301:86|282:85|280:39,1,96,0|6,1:1|3:3,0:0:0:0:
136,193,88303,5,0,3:3:0:0:
67,161,88404,1,0,1:1:0:0:
91,88,88505,1,0,1:1:0:0:
196,148,88607,5,2,3:3:0:0:
144,204,88708,1,0,1:1:0:0:
111,273,88809,1,0,1:1:0:0:
101,349,88911,1,0,1:1:0:0:
8,303,89012,5,6,3:2:0:0:
296,383,89215,1,2,2:3:0:0:
345,324,89316,1,0,2:2:0:0:
293,268,89417,2,0,L|198:281,1,96,0|0,1:1|2:2,0:0:0:0:
386,125,89620,1,2,2:3:0:0:
458,156,89722,2,0,P|487:192|480:238,1,96,0|0,2:2|3:3,0:0:0:0:
308,96,89924,6,0,L|295:1,1,96,0|2,2:2|2:3,0:0:0:0:
166,200,90127,1,0,2:2:0:0:
136,122,90228,2,0,L|231:135,1,96,0|0,1:1|2:2,0:0:0:0:
367,235,90431,2,0,P|320:228|284:257,1,96,2|0,2:3|2:2,0:0:0:0:
104,380,90634,5,2,3:2:0:0:
90,377,90735,1,2,2:2:0:0:
75,359,90836,1,2,2:3:0:0:
66,320,90938,1,2,2:2:0:0:
90,274,91039,1,2,1:2:0:0:
153,250,91140,1,2,2:2:0:0:
178,182,91242,1,2,2:3:0:0:
136,122,91343,1,2,2:2:0:0:
59,133,91445,6,0,L|315:166,1,192,2|2,3:2|2:3,0:0:0:0:
259,151,91749,1,0,2:2:0:0:
53,121,91850,6,0,L|309:154,1,192,2|2,1:2|2:3,0:0:0:0:
253,139,92154,1,0,2:2:0:0:
195,43,92255,6,0,P|156:52|141:135,1,96,6|0,3:2|2:2,0:0:0:0:
299,260,92458,1,2,2:3:0:0:
247,314,92559,1,0,2:2:0:0:
183,275,92661,2,0,L|168:159,1,96,0|0,1:1|2:2,0:0:0:0:
321,96,92863,1,2,2:3:0:0:
388,136,92965,2,0,P|398:181|372:220,1,96,0|0,2:2|3:3,0:0:0:0:
121,112,93167,6,0,L|5:126,1,96,0|2,2:2|2:3,0:0:0:0:
183,275,93370,1,0,2:2:0:0:
132,335,93472,2,0,P|86:345|47:319,1,96,0|0,1:1|2:2,0:0:0:0:
253,139,93674,2,0,L|267:254,1,96,2|0,2:3|2:2,0:0:0:0:
476,375,93877,6,0,P|502:336|491:290,1,96,2|0,3:2|2:2,0:0:0:0:
289,371,94080,2,0,L|173:385,1,96,2|0,2:3|2:2,0:0:0:0:
132,335,94282,1,0,1:1:0:0:
253,237,94384,2,0,B|300:225|300:225|341:261,1,96,2|2,2:2|2:3,0:0:0:0:
178,115,94586,1,0,2:2:0:0:
142,184,94688,5,2,3:2:0:0:
253,139,94789,2,0,L|21:178,1,192,0|0,1:1|2:2,0:0:0:0:
211,43,95093,2,0,P|261:119|353:117,1,192,2|2,1:2|1:3,0:0:0:0:
361,107,95397,1,0,1:1:0:0:
428,69,95499,5,6,3:2:0:0:
482,118,95600,2,0,L|468:239,1,96,0|2,2:2|2:3,0:0:0:0:
313,306,95803,1,0,2:2:0:0:
257,252,95904,2,0,P|184:257|141:366,1,192,0|2,1:1|2:3,0:0:0:0:
386,270,96208,2,0,B|399:281|399:281|389:363,1,96,0|0,2:2|3:3,0:0:0:0:
185,121,96411,6,0,B|172:132|172:132|182:214,1,96,0|2,2:2|2:3,0:0:0:0:
359,75,96613,1,0,2:2:0:0:
327,4,96715,2,0,P|320:101|313:205,1,192,0|2,1:1|2:3,0:0:0:0:
321,206,97019,1,0,2:2:0:0:
191,295,97120,6,0,B|126:288|101:353|124:328|97:395|37:385,1,192,6|2,3:2|2:3,0:0:0:0:
88,318,97424,1,0,2:2:0:0:
237,384,97526,2,0,P|230:288|223:192,2,192,0|2|0,1:1|2:3|3:3,0:0:0:0:
54,0,98134,6,0,P|14:25|8:71,1,96,2|0,2:3|2:2,0:0:0:0:
155,168,98336,1,0,1:1:0:0:
223,192,98437,1,0,1:1:0:0:
289,156,98538,1,2,1:3:0:0:
305,84,98640,1,0,1:1:0:0:
308,17,98742,5,6,3:2:0:0:
318,72,98843,1,2,2:2:0:0:
369,105,98944,1,2,3:2:0:0:
425,86,99046,1,2,3:2:0:0:
399,13,99147,2,0,L|377:203,1,192,2|2,1:2|1:2,0:0:0:0:
219,290,99451,2,0,P|203:266|239:190,1,96,2|0,3:2|2:2,0:0:0:0:
417,301,99654,6,0,L|512:290,1,96,2|0,3:2|2:2,0:0:0:0:
303,162,99857,1,2,3:2:0:0:
298,173,99958,1,0,1:1:0:0:
230,197,100059,1,2,1:2:0:0:
164,161,100160,1,0,1:1:0:0:
148,89,100262,1,0,1:1:0:0:
150,23,100364,5,6,3:2:0:0:
139,78,100465,1,0,2:2:0:0:
88,111,100566,1,2,3:2:0:0:
32,92,100668,1,2,3:2:0:0:
54,17,100769,2,0,L|75:207,1,192,2|2,1:2|1:2,0:0:0:0:
226,382,101073,2,0,P|242:358|206:282,1,96,6|0,3:2|2:2,0:0:0:0:
0,342,101276,6,0,B|52:331|35:317|87:305,1,96,2|0,3:2|2:2,0:0:0:0:
298,169,101478,1,2,1:2:0:0:
392,253,101580,5,0,1:1:0:0:
465,246,101681,1,2,1:2:0:0:
504,183,101782,1,0,1:1:0:0:
477,114,101884,1,0,1:1:0:0:
379,147,101985,6,0,B|314:154|289:89|312:114|285:47|225:57,1,192,6|2,3:2|2:3,0:0:0:0:
209,48,102289,2,0,B|248:41|248:41|265:33|265:33|302:28,1,96,0|0,2:2|1:1,0:0:0:0:
180,206,102492,1,0,2:2:0:0:
123,154,102593,2,0,P|64:147|3:259,1,192,2|0,2:3|3:3,0:0:0:0:
9,259,102897,1,0,2:2:0:0:
57,319,102999,2,0,P|104:325|151:333,1,96,2|0,2:3|2:2,0:0:0:0:
284,170,103201,2,0,B|314:164|348:159|348:159|381:107|381:107|412:103|444:95,1,192,0|2,1:1|2:3,0:0:0:0:
29,119,103607,6,0,P|76:125|123:133,1,96,2|0,3:2|2:2,0:0:0:0:
483,265,103809,2,0,P|435:258|388:250,1,96,2|0,2:3|2:2,0:0:0:0:
124,241,104012,6,0,P|171:234|218:226,1,96,0|2,1:1|2:2,0:0:0:0:
388,143,104215,2,0,P|340:149|293:157,1,96,2|0,2:3|2:2,0:0:0:0:
123,358,104417,6,0,P|32:296|42:121,1,288,2|0,3:2|2:2,0:0:0:0:
389,26,104823,2,0,P|494:115|477:252,1,288,2|0,1:2|2:2,0:0:0:0:
243,381,105228,6,0,B|253:307|253:307|245:263|245:263|257:191,1,192,6|2,3:2|2:3,0:0:0:0:
267,184,105532,2,0,B|276:201|276:201|265:278,1,96,0|0,2:2|1:1,0:0:0:0:
74,106,105735,1,0,2:2:0:0:
20,158,105836,2,0,L|222:121,1,192,2|0,2:3|3:3,0:0:0:0:
216,114,106140,1,0,2:2:0:0:
250,45,106242,2,0,P|218:12|171:12,1,96,2|0,2:3|2:2,0:0:0:0:
267,184,106445,2,0,P|365:183|373:79,1,192,0|2,1:1|2:3,0:0:0:0:
453,334,106850,6,0,P|430:301|335:303,1,96,2|0,3:2|2:2,0:0:0:0:
124,121,107053,2,0,P|106:157|156:238,1,96,2|0,2:3|2:2,0:0:0:0:
350,133,107255,6,0,P|309:136|264:219,1,96,0|2,1:1|2:2,0:0:0:0:
1,311,107458,2,0,P|23:343|118:341,1,96,2|0,2:3|2:2,0:0:0:0:
215,318,107661,5,2,3:2:0:0:
177,384,107762,2,0,P|168:288|160:192,1,192,0|0,1:1|2:2,0:0:0:0:
406,12,108066,2,0,P|397:107|389:203,1,192,2|2,1:2|1:3,0:0:0:0:
319,236,108370,1,0,1:1:0:0:
195,115,108472,6,0,P|134:112|99:256,1,192,6|2,3:2|2:3,0:0:0:0:
256,161,108776,1,0,2:2:0:0:
316,112,108877,2,0,L|307:16,1,96,0|0,1:1|2:2,0:0:0:0:
464,311,109080,6,0,B|399:318|374:253|397:278|370:211|310:221,1,192,2|0,2:3|3:3,0:0:0:0:
250,273,109384,1,0,2:2:0:0:
373,291,109485,2,0,L|183:322,2,192,2|0|2,2:3|1:1|2:3,0:0:0:0:
0,197,110093,6,0,B|28:159|28:159|76:165,1,96,6|0,3:2|2:2,0:0:0:0:
255,54,110296,2,0,B|302:60|302:60|321:104,1,96,2|0,2:3|2:2,0:0:0:0:
92,37,110499,6,0,B|111:81|111:81|158:87,1,96,0|2,1:1|2:2,0:0:0:0:
315,189,110701,2,0,B|363:194|363:194|391:157,1,96,2|0,2:3|2:2,0:0:0:0:
431,0,110904,6,0,B|443:100|497:71|512:169,1,192,2|2,3:2|2:3,0:0:0:0:
507,183,111208,1,0,2:2:0:0:
315,189,111309,6,0,B|302:289|248:260|233:358,1,192,2|2,1:2|2:3,0:0:0:0:
239,372,111613,1,0,2:2:0:0:
444,358,111715,6,0,P|408:274|317:275,1,192,6|2,3:2|2:3,0:0:0:0:
311,288,112019,1,2,2:2:0:0:
217,200,112120,2,0,P|127:189|82:267,1,192,0|2,1:1|2:3,0:0:0:0:
91,276,112424,1,0,2:2:0:0:
230,192,112526,2,0,B|237:154|262:147|268:104,1,96,0|2,3:3|2:2,0:0:0:0:
134,0,112728,6,0,P|126:46|154:83,1,96,2|0,2:3|2:2,0:0:0:0:
403,192,112931,2,0,L|498:176,1,96,2|0,1:2|2:2,0:0:0:0:
295,382,113134,2,0,L|310:287,1,96,2|0,2:3|2:2,0:0:0:0:
116,150,113336,6,0,P|72:166|53:209,1,96,2|0,3:2|2:2,0:0:0:0:
231,317,113539,1,2,2:3:0:0:
300,282,113640,2,0,L|315:187,1,96,2|0,2:2|1:1,0:0:0:0:
225,45,113843,1,0,2:2:0:0:
291,5,113945,2,0,P|333:23|350:67,1,96,2|0,2:3|2:2,0:0:0:0:
67,303,114147,5,2,1:2:0:0:
62,295,114249,1,0,2:2:0:0:
70,291,114350,1,2,1:3:0:0:
74,299,114451,1,0,1:1:0:0:
4,350,114553,5,2,1:2:0:0:
75,335,114654,1,0,1:1:0:0:
146,322,114755,1,2,1:3:0:0:
218,309,114857,1,0,1:1:0:0:
156,213,114958,6,0,B|213:206|235:263|214:242|238:300|291:292,1,167.999994873047,6|2,3:2|2:3,0:0:0:0:
316,217,115262,2,0,B|301:209|301:209|236:226,1,83.9999974365235,0|0,2:2|1:1,0:0:0:0:
331,68,115465,2,0,B|358:95|358:95|347:140,1,83.9999974365235,2|2,2:2|2:3,0:0:0:0:
156,213,115667,6,0,P|81:166|102:84,1,167.999994873047,0|0,2:2|2:2,0:0:0:0:
251,0,115972,2,0,L|241:116,1,83.9999974365235,2|2,2:3|2:2,0:0:0:0:
414,241,116174,2,0,P|489:194|468:112,1,167.999994873047,0|2,1:1|2:3,0:0:0:0:
469,120,116478,1,0,2:2:0:0:
405,80,116580,5,2,3:2:0:0:
342,128,116681,2,0,P|298:135|253:86,1,83.9999974365235,0|2,2:2|2:3,0:0:0:0:
93,0,116884,2,0,B|97:38|97:38|100:42|100:42|105:84,1,83.9999974365235,0|0,2:2|1:1,0:0:0:0:
0,217,117086,2,0,P|35:196|76:204,1,83.9999974365235,2|2,2:2|2:3,0:0:0:0:
236,350,117289,6,0,B|240:309|240:309|242:305|242:305|247:267,1,83.9999974365235,0|2,2:2|3:2,0:0:0:0:
137,380,117492,1,0,1:1:0:0:
64,358,117593,2,0,P|43:322|51:281,1,83.9999974365235,2|0,2:3|3:3,0:0:0:0:
187,168,117796,2,0,P|238:220|341:236,1,167.999994873047,2|2,1:2|2:3,0:0:0:0:
340,230,118100,1,0,2:2:0:0:
348,313,118201,6,0,B|340:260|398:236|377:257|434:235|427:178,1,167.999994873047,2|2,3:2|2:3,0:0:0:0:
377,116,118505,2,0,P|336:120|312:153,1,83.9999974365235,0|0,2:2|1:1,0:0:0:0:
479,302,118708,2,0,P|454:269|414:264,1,83.9999974365235,2|2,2:2|2:3,0:0:0:0:
274,350,118911,6,0,B|245:366|245:366|108:334,1,167.999994873047,0|0,2:2|2:2,0:0:0:0:
103,343,119215,2,0,L|212:323,1,83.9999974365235,2|2,2:3|2:2,0:0:0:0:
260,216,119417,2,0,L|290:50,1,167.999994873047,0|2,1:1|2:3,0:0:0:0:
302,46,119722,1,0,2:2:0:0:
365,87,119823,6,0,B|294:95|294:95|278:107|278:107|201:115,1,167.999994873047,2|2,3:2|2:3,0:0:0:0:
138,71,120127,2,0,B|127:26|127:26|154:-1,1,83.9999974365235,0|0,2:2|1:1,0:0:0:0:
73,124,120330,2,0,B|29:111|29:111|18:73,1,83.9999974365235,2|2,2:2|2:3,0:0:0:0:
119,255,120532,1,2,2:2:0:0:
42,237,120634,5,2,3:2:0:0:
154,188,120735,2,0,L|132:363,1,167.999994873047,2|0,1:2|3:3,0:0:0:0:
143,369,121039,2,0,L|153:285,1,83.9999974365235,2|0,1:2|2:2,0:0:0:0:
365,87,121242,1,2,1:3:0:0:
302,46,121343,1,0,1:1:0:0:
248,102,121445,6,0,L|270:277,1,167.999994873047,6|2,3:2|2:3,0:0:0:0:
449,359,121749,2,0,L|459:275,1,83.9999974365235,0|0,2:2|1:1,0:0:0:0:
371,174,121951,2,0,P|330:167|296:190,1,83.9999974365235,2|2,2:2|2:3,0:0:0:0:
199,306,122154,6,0,P|137:313|86:216,1,167.999994873047,0|0,2:2|2:2,0:0:0:0:
175,91,122458,2,0,L|189:-25,1,83.9999974365235,2|0,2:3|2:2,0:0:0:0:
0,130,122661,2,0,B|71:122|71:122|87:110|87:110|164:102,1,167.999994873047,2|2,1:2|2:3,0:0:0:0:
175,91,122965,1,0,2:2:0:0:
242,131,123066,5,6,3:2:0:0:
305,85,123167,2,0,L|291:-31,1,83.9999974365235,0|2,2:2|2:3,0:0:0:0:
437,215,123370,2,0,P|468:238|528:235,1,83.9999974365235,0|0,2:2|1:1,0:0:0:0:
512,86,123573,2,0,P|470:87|436:111,1,83.9999974365235,2|2,2:2|2:3,0:0:0:0:
289,198,123776,2,0,L|275:314,1,83.9999974365235,0|2,2:2|3:2,0:0:0:0:
127,357,123978,5,0,2:2:0:0:
59,317,124080,2,0,L|48:233,1,83.9999974365235,2|0,2:3|2:2,0:0:0:0:
136,35,124282,5,2,1:2:0:0:
63,24,124383,1,0,1:1:0:0:
13,77,124484,1,2,1:3:0:0:
25,148,124586,1,0,1:1:0:0:
140,141,124688,6,0,B|197:134|219:191|198:170|222:228|275:220,1,167.999994873047,6|2,3:2|2:3,0:0:0:0:
341,259,124992,1,0,2:2:0:0:
406,215,125093,5,0,1:1:0:0:
420,219,125195,1,2,2:2:0:0:
444,212,125296,1,2,1:3:0:0:
470,178,125397,1,0,1:1:0:0:
461,120,125499,1,2,1:2:0:0:
396,84,125600,1,0,1:1:0:0:
326,119,125701,2,0,P|284:120|246:57,1,83.9999974365235,2|0,3:3|2:2,0:0:0:0:
67,6,125904,2,0,L|80:88,1,83.9999974365235,2|0,2:2|2:2,0:0:0:0:
0,288,126107,2,0,B|27:282|57:278|57:278|86:232|86:232|114:228|142:221,1,167.999994873047,2|0,1:3|2:2,0:0:0:0:
153,212,126512,6,0,L|194:218,2,41.9999987182618,0|0|0,1:1|1:1|1:1,0:0:0:0:
240,282,126715,1,0,1:1:0:0:
256,279,126816,1,0,1:1:0:0:
273,277,126917,1,0,1:1:0:0:
289,274,127019,1,0,1:1:0:0:
339,218,127120,6,0,P|378:229|398:265,1,83.9999974365235,4|4,2:3|3:3,0:0:0:0:
354,328,127323,1,0,3:3:0:0:
512,353,127526,2,0,L|344:337,1,167.999994873047,0|0,1:1|1:1,0:0:0:0:
281,383,127830,1,0,1:1:0:0:
207,362,127931,6,0,B|196:251|152:305|138:199,1,180,6|0,3:2|2:2,0:0:0:0:
79,154,128336,2,0,P|31:153|9:236,1,120,0|0,1:1|3:3,0:0:0:0:
203,145,128742,6,0,L|218:10,1,120,2|0,3:3|2:2,0:0:0:0:
295,16,129046,2,0,L|281:135,1,120,2|0,3:3|2:2,0:0:0:0:
441,251,129350,5,2,1:3:0:0:
441,251,129755,2,0,L|500:244,1,60,0|0,3:3|2:2,0:0:0:0:
380,307,129958,2,0,P|322:304|288:351,1,120,0|0,1:1|3:3,0:0:0:0:
219,384,130262,1,0,1:1:0:0:
151,352,130363,2,0,L|144:292,1,60,0|0,3:3|1:1,0:0:0:0:
317,200,130566,2,0,L|310:259,1,60,0|0,3:3|1:1,0:0:0:0:
129,156,130769,5,0,1:1:0:0:
76,129,130870,1,8,2:3:0:0:
21,150,130971,1,0,1:1:0:0:
0,204,131073,1,0,1:1:0:0:
48,263,131174,6,0,P|136:247|225:233,1,180,6|0,3:2|2:2,0:0:0:0:
232,216,131580,2,0,P|202:221|172:226,1,60,0|0,1:1|2:2,0:0:0:0:
91,58,131782,2,0,P|86:87|80:117,1,60,0|0,3:3|1:1,0:0:0:0:
179,28,131985,5,2,3:3:0:0:
188,20,132086,2,0,P|249:29|267:91,1,120,0|0,1:1|1:1,0:0:0:0:
323,129,132390,2,0,P|352:137|381:129,1,60,2|0,3:3|2:2,0:0:0:0:
512,0,132593,5,6,3:3:0:0:
512,0,132999,2,0,L|503:61,1,60,0|0,3:3|2:2,0:0:0:0:
395,143,133201,2,0,L|412:261,1,120,0|0,1:1|3:3,0:0:0:0:
405,275,133505,1,0,1:1:0:0:
344,327,133607,5,0,3:3:0:0:
277,289,133708,2,0,B|210:312|236:323|173:348,2,120,0|0|0,3:2|3:2|3:2,0:0:0:0:
10,174,134316,5,0,1:1:0:0:
55,113,134417,2,0,B|44:212|44:212|84:245|116:215,1,180,6|0,3:2|2:2,0:0:0:0:
195,207,134823,2,0,P|213:152|179:106,1,120,0|0,1:1|3:3,0:0:0:0:
117,61,135127,1,0,1:1:0:0:
188,95,135228,6,0,L|248:83,2,60,2|0|0,3:3|1:1|3:3,0:0:0:0:
350,248,135634,2,0,L|362:188,1,60,0|0,1:1|2:2,0:0:0:0:
445,90,135836,6,0,L|327:113,1,120,6|0,3:3|2:2,0:0:0:0:
257,78,136140,1,0,1:1:0:0:
191,121,136242,2,0,L|202:179,1,60,0|0,3:3|2:2,0:0:0:0:
284,331,136445,2,0,P|351:304|350:238,1,120,0|0,1:1|3:3,0:0:0:0:
302,212,136749,1,0,1:1:0:0:
237,258,136850,6,0,L|178:269,1,60,0|0,3:3|2:2,0:0:0:0:
0,229,137053,2,0,L|58:217,1,60,0|0,3:3|2:2,0:0:0:0:
175,113,137255,2,0,P|173:83|157:58,1,60,0|0,1:1|2:2,0:0:0:0:
71,225,137458,1,0,1:1:0:0:
122,173,137559,1,0,1:1:0:0:
197,191,137661,6,0,B|225:299|267:239|280:344,1,180,6|0,3:2|2:2,0:0:0:0:
349,377,138066,2,0,P|415:365|417:283,1,120,0|0,1:1|3:3,0:0:0:0:
484,267,138370,1,0,1:1:0:0:
434,206,138472,6,0,L|349:197,2,60,2|0|0,3:3|1:1|3:3,0:0:0:0:
276,26,138877,2,0,L|285:110,1,60,0|0,1:1|2:2,0:0:0:0:
184,197,139080,6,0,P|102:202|73:135,1,120,2|0,3:3|2:2,0:0:0:0:
18,130,139384,1,0,1:1:0:0:
69,69,139485,2,0,L|62:9,1,60,0|0,3:3|2:2,0:0:0:0:
197,208,139688,2,0,L|184:327,1,120,4|0,1:2|3:3,0:0:0:0:
112,307,139992,1,0,1:1:0:0:
193,338,140093,6,0,L|252:331,1,60,0|0,3:3|2:2,0:0:0:0:
390,227,140296,2,0,L|330:220,1,60,0|0,3:3|2:2,0:0:0:0:
171,124,140499,2,0,P|154:65|214:9,1,120,0|0,1:1|3:3,0:0:0:0:
184,19,140904,5,2,2:2:0:0:
184,19,141715,5,2,2:2:0:0:
171,97,142019,5,2,2:2:0:0:
159,173,142323,5,2,2:2:0:0:
26,373,143539,6,0,B|11:348|11:348|17:317,1,60,0|0,3:3|2:2,0:0:0:0:
69,263,143742,2,0,P|141:267|161:349,1,120,0|0,1:1|1:1,0:0:0:0:
161,312,144046,1,0,1:1:0:0:
225,367,144147,6,0,P|291:372|354:285,1,180,6|0,3:2|2:2,0:0:0:0:
426,266,144553,2,0,L|416:181,1,60,0|0,1:1|2:2,0:0:0:0:
254,70,144755,1,0,3:3:0:0:
319,29,144857,1,0,1:1:0:0:
371,87,144958,2,0,L|363:146,1,60,2|0,3:3|1:1,0:0:0:0:
207,192,145161,2,0,L|199:132,1,60,0|2,3:3|3:2,0:0:0:0:
22,63,145363,2,0,P|8:89|11:118,1,60,2|0,1:3|2:2,0:0:0:0:
178,311,145566,6,0,L|199:132,1,180,6|0,3:3|1:2,0:0:0:0:
145,84,145972,2,0,P|115:85|91:102,1,60,0|0,3:3|2:2,0:0:0:0:
263,255,146174,2,0,B|328:270|311:215|375:230,1,120,0|0,1:1|3:3,0:0:0:0:
434,277,146478,1,0,1:1:0:0:
498,234,146580,6,0,L|504:174,2,60,0|0|0,3:3|1:1|3:3,0:0:0:0:
275,374,146985,2,0,L|262:254,1,120,0|0,1:1|1:1,0:0:0:0:
202,209,147289,1,0,1:1:0:0:
103,278,147390,6,0,P|39:282|13:210,1,120,6|0,3:2|2:2,0:0:0:0:
54,178,147695,1,0,2:2:0:0:
5,114,147796,2,0,B|60:138|60:138|109:104,1,120,0|0,1:1|3:3,0:0:0:0:
162,45,148100,1,0,1:1:0:0:
223,94,148201,6,0,L|299:105,1,60,2|0,3:3|2:2,0:0:0:0:
154,352,148505,6,0,L|78:363,1,60,2|0,3:3|2:2,0:0:0:0:
341,160,148809,6,0,L|459:177,1,120,2|0,3:3|2:2,0:0:0:0:
459,177,149215,1,0,3:3:0:0:
301,354,149417,2,0,P|244:327|246:254,1,120,0|0,1:1|3:3,0:0:0:0:
288,220,149722,1,0,1:1:0:0:
237,156,149823,2,0,L|150:171,1,60,0|0,3:3|2:2,0:0:0:0:
330,71,150026,2,0,L|345:-16,1,60,0|0,3:3|2:2,0:0:0:0:
395,220,150228,2,0,P|463:243|473:319,1,120,0|0,1:1|1:1,0:0:0:0:
421,331,150532,1,0,1:1:0:0:
512,384,150634,6,0,B|424:371|424:371|415:374|415:374|334:361,1,180,6|0,3:2|2:2,0:0:0:0:
270,317,151039,2,0,P|234:330|218:368,1,60,0|0,1:1|2:2,0:0:0:0:
63,245,151242,1,0,3:3:0:0:
60,255,151343,1,0,1:1:0:0:
110,317,151445,2,0,L|90:134,1,143.999995605469,2|0,3:3|2:2,0:0:0:0:
31,131,151749,2,0,L|41:39,1,71.9999978027344,2|0,3:3|2:2,0:0:0:0:
258,197,152053,6,0,B|373:225|373:225|419:188|388:139,1,215.999993408203,6|0,3:2|2:2,0:0:0:0:
342,81,152458,2,0,P|307:90|287:119,1,71.9999978027344,0|0,3:3|2:2,0:0:0:0:
383,247,152661,2,0,B|456:273|420:310|495:347,1,143.999995605469,4|0,1:2|1:1,0:0:0:0:
468,268,152965,1,0,1:1:0:0:
366,326,153066,2,0,B|358:331|358:331|296:319,1,71.9999978027344,0|0,3:3|2:2,0:0:0:0:
159,201,153269,2,0,B|151:196|151:196|89:207,1,71.9999978027344,2|0,3:3|2:2,0:0:0:0:
174,357,153472,5,0,1:1:0:0:
219,298,153573,1,0,1:1:0:0:
236,226,153674,1,0,1:1:0:0:
222,153,153776,1,0,1:1:0:0:
155,109,153877,6,0,B|190:124|190:124|342:85,1,167.999994873047,6|0,3:3|2:2,0:0:0:0:
339,16,154181,2,0,B|343:53|343:53|453:165,1,167.999994873047,2|0,3:3|2:2,0:0:0:0:
488,93,154485,2,0,B|460:62|460:62|418:73,1,83.9999974365235,2|0,3:3|2:2,0:0:0:0:
198,36,154688,5,2,3:2:0:0:
79,255,154992,1,0,1:1:0:0:
70,264,155093,2,0,L|0:279,1,71.9999978027344,8|4,2:3|2:3,0:0:0:0:
125,328,155296,1,0,1:1:0:0:
128,317,155397,1,0,1:1:0:0:
198,279,155499,6,0,B|235:258|235:258|309:266|300:347,1,167.999994873047,6|0,3:3|2:2,0:0:0:0:
267,98,155803,2,0,B|303:120|303:120|333:188|258:221,1,167.999994873047,2|0,3:3|2:2,0:0:0:0:
412,90,156107,2,0,B|398:119|398:119|376:129|329:115,1,83.9999974365235,2|0,3:3|2:2,0:0:0:0:
409,248,156309,5,2,3:2:0:0:
168,136,156512,1,0,1:1:0:0:
166,147,156613,1,0,1:1:0:0:
91,164,156715,5,0,3:3:0:0:
47,151,156816,1,8,2:3:0:0:
31,108,156917,1,4,2:3:0:0:
57,71,157019,1,4,3:3:0:0:
14,8,157120,6,0,P|87:29|229:56,1,215.999993408203,6|0,3:2|2:2,0:0:0:0:
283,109,157526,2,0,P|366:101|388:21,1,143.999995605469,0|2,1:1|2:3,0:0:0:0:
342,0,157830,1,0,1:1:0:0:
402,50,157931,6,0,L|415:147,1,71.9999978027344,0|0,3:3|1:1,0:0:0:0:
292,235,158134,2,0,L|220:225,1,71.9999978027344,2|0,2:3|2:2,0:0:0:0:
76,276,158336,2,0,P|54:313|72:370,1,71.9999978027344,0|0,1:1|2:2,0:0:0:0:
216,333,158539,6,0,B|223:259|150:231|178:257|103:226|114:159,1,215.999993408203,6|0,3:2|2:2,0:0:0:0:
125,151,158945,2,0,P|147:188|129:245,1,71.9999978027344,2|0,3:3|2:2,0:0:0:0:
63,352,159147,2,0,L|251:322,1,143.999995605469,0|2,1:1|3:3,0:0:0:0:
274,378,159451,1,0,1:1:0:0:
338,335,159553,5,0,3:3:0:0:
284,275,159654,2,0,P|352:287|401:238,1,143.999995605469,0|0,1:1|2:2,0:0:0:0:
231,196,159958,2,0,P|163:208|114:159,1,143.999995605469,4|2,1:2|1:3,0:0:0:0:
162,98,160262,1,0,1:1:0:0:
57,47,160363,6,0,P|90:118|168:108,1,167.999994873047,6|0,3:3|1:1,0:0:0:0:
238,186,160667,2,0,P|316:192|346:120,1,167.999994873047,2|0,3:3|2:2,0:0:0:0:
436,84,160972,2,0,P|444:46|389:12,1,83.9999974365235,2|0,3:3|2:2,0:0:0:0:
250,2,161174,5,2,3:2:0:0:
418,244,161478,1,0,1:1:0:0:
427,256,161580,2,0,B|462:270|462:270|491:252,1,71.9999978027344,8|4,2:3|2:3,0:0:0:0:
397,369,161782,1,0,1:1:0:0:
390,355,161884,1,0,1:1:0:0:
347,283,161985,6,0,B|290:267|320:225|204:200,1,167.999994873047,6|8,3:3|2:3,0:0:0:0:
224,300,162289,2,0,B|107:325|138:367|81:382,1,167.999994873047,4|0,2:3|2:2,0:0:0:0:
17,333,162593,2,0,P|34:296|73:285,1,83.9999974365235,4|0,3:3|2:2,0:0:0:0:
279,368,162796,5,2,3:2:0:0:
96,199,162999,1,0,1:1:0:0:
233,0,163201,1,0,3:3:0:0:
233,0,163404,1,0,1:1:0:0:
231,12,163505,1,0,1:1:0:0:
172,63,163607,6,0,P|96:64|66:-10,1,143.999995605469,6|0,3:2|1:1,0:0:0:0:
82,15,163911,1,0,2:2:0:0:
179,74,164012,2,0,B|192:143|234:121|246:197,1,143.999995605469,0|0,3:3|1:1,0:0:0:0:
256,207,164316,1,0,2:2:0:0:
310,261,164417,2,0,P|345:265|381:270,1,71.9999978027344,0|0,3:3|2:2,0:0:0:0:
220,361,164620,2,0,P|184:366|148:370,1,71.9999978027344,0|0,1:1|3:3,0:0:0:0:
8,209,164823,2,0,P|7:173|28:144,1,71.9999978027344,0|0,2:2|3:3,0:0:0:0:
116,297,165026,6,0,P|50:323|14:384,2,143.999995605469,6|0|0,1:2|3:3|1:1,0:0:0:0:
173,241,165532,1,0,2:2:0:0:
238,284,165634,2,0,P|273:284|302:263,1,71.9999978027344,0|0,3:3|2:2,0:0:0:0:
410,110,165836,2,0,P|475:136|511:197,1,143.999995605469,6|0,1:2|3:3,0:0:0:0:
505,209,166140,1,0,2:2:0:0:
433,242,166242,2,0,P|402:224|387:192,1,71.9999978027344,0|0,1:1|2:2,0:0:0:0:
289,66,166445,5,0,3:3:0:0:
217,40,166546,1,0,1:2:0:0:
161,92,166647,1,0,1:1:0:0:
181,164,166749,1,0,1:2:0:0:
302,181,166850,6,0,B|375:188|403:115|377:143|408:68|475:79,1,215.999993408203,4|0,3:2|2:2,0:0:0:0:
490,93,167255,2,0,L|386:77,1,71.9999978027344,0|0,1:1|2:2,0:0:0:0:
137,302,167559,1,0,1:1:0:0:
73,263,167661,2,0,L|1:273,2,71.9999978027344,0|0|0,3:3|1:1|3:3,0:0:0:0:
230,383,168066,2,0,P|258:318|256:246,1,143.999995605469,0|0,1:1|3:3,0:0:0:0:
302,181,168370,1,0,1:1:0:0:
241,128,168472,6,0,P|228:94|230:58,1,71.9999978027344,6|0,3:3|2:2,0:0:0:0:
502,256,168776,6,0,P|514:222|512:186,1,71.9999978027344,2|0,3:3|2:2,0:0:0:0:
300,301,168978,2,0,P|272:278|256:246,1,71.9999978027344,2|0,3:3|2:2,0:0:0:0:
421,114,169181,5,0,1:1:0:0:
390,48,169282,2,0,L|367:266,1,215.999993408203,2|0,3:3|2:2,0:0:0:0:
380,272,169688,2,0,L|387:200,1,71.9999978027344,2|0,2:3|2:2,0:0:0:0:
404,38,170093,5,6,3:2:0:0:
131,235,170296,1,2,2:3:0:0:
89,169,170397,1,0,2:2:0:0:
145,115,170499,2,0,L|240:127,1,96,0|0,1:1|2:2,0:0:0:0:
394,281,170701,1,2,2:3:0:0:
465,248,170803,2,0,P|477:202|443:159,1,96,0|0,2:2|3:3,0:0:0:0:
259,317,171005,6,0,P|213:329|174:303,1,96,0|2,2:2|2:3,0:0:0:0:
229,141,171208,1,0,2:2:0:0:
305,168,171309,2,0,L|317:263,1,96,0|0,1:1|2:2,0:0:0:0:
95,346,171512,2,0,L|107:251,1,96,2|0,2:3|2:2,0:0:0:0:
212,61,171715,5,2,3:2:0:0:
215,50,171816,1,2,2:2:0:0:
210,35,171917,1,2,2:3:0:0:
193,15,172019,1,2,2:2:0:0:
145,0,172120,1,2,1:2:0:0:
86,17,172222,1,2,2:2:0:0:
52,77,172323,1,2,2:3:0:0:
76,148,172424,1,2,2:2:0:0:
142,187,172526,5,2,3:2:0:0:
214,150,172627,2,0,B|300:160|300:160|315:168|315:168|403:179,1,192,0|0,1:1|2:2,0:0:0:0:
210,234,172931,2,0,B|123:244|123:244|109:252|109:252|21:263,1,192,2|2,1:2|2:3,0:0:0:0:
93,297,173235,1,0,2:2:0:0:
244,356,173336,6,0,L|252:291,2,48,6|0|0,3:2|2:2|2:2,0:0:0:0:
418,172,173539,1,2,2:3:0:0:
473,226,173640,1,0,2:2:0:0:
425,287,173742,2,0,P|378:291|346:257,1,96,0|0,1:1|2:2,0:0:0:0:
235,67,173945,1,2,2:3:0:0:
312,34,174046,2,0,L|299:175,1,96,0|0,2:2|3:3,0:0:0:0:
92,214,174249,6,0,L|187:222,1,96,0|2,2:2|2:3,0:0:0:0:
251,181,174451,1,0,2:2:0:0:
119,85,174553,2,0,P|73:95|54:137,1,96,0|0,1:1|2:2,0:0:0:0:
129,295,174755,2,0,L|224:303,1,96,2|0,2:3|2:2,0:0:0:0:
320,129,174958,6,0,L|312:34,1,96,2|0,3:2|2:2,0:0:0:0:
478,193,175161,2,0,L|383:185,1,96,2|0,2:3|2:2,0:0:0:0:
319,237,175363,1,0,1:1:0:0:
402,383,175465,2,0,P|447:371|466:329,1,96,2|2,2:2|2:3,0:0:0:0:
424,266,175667,1,0,2:2:0:0:
307,340,175769,5,2,3:2:0:0:
254,285,175870,2,0,P|162:295|125:379,1,192,0|0,1:1|2:2,0:0:0:0:
319,237,176174,2,0,B|336:193|336:193|309:152,1,96,2|0,1:2|2:2,0:0:0:0:
142,31,176377,1,2,1:3:0:0:
82,83,176478,1,0,1:1:0:0:
128,147,176580,5,6,3:2:0:0:
247,100,176681,2,0,L|255:5,2,96,0|2|0,2:2|2:3|2:2,0:0:0:0:
404,222,176985,2,0,P|450:234|493:200,1,96,0|0,1:1|2:2,0:0:0:0:
325,72,177188,1,2,2:3:0:0:
256,110,177289,2,0,L|264:205,1,96,0|0,2:2|3:3,0:0:0:0:
144,339,177492,6,0,P|98:351|55:317,1,96,0|2,2:2|2:3,0:0:0:0:
0,193,177695,1,0,2:2:0:0:
55,143,177796,2,0,P|101:131|144:165,1,96,0|0,1:1|2:2,0:0:0:0:
226,289,177999,2,0,P|272:301|315:267,1,96,2|0,2:3|2:2,0:0:0:0:
479,90,178201,6,0,P|389:77|340:154,1,192,6|2,3:2|2:3,0:0:0:0:
389,214,178505,1,0,2:2:0:0:
275,348,178607,2,0,B|245:342|211:337|211:337|178:285|178:285|147:281|115:273,2,192,0|2|2,1:1|2:3|3:2,0:0:0:0:
57,52,179215,6,0,B|45:64|45:64|54:142,1,96,2|0,2:3|2:2,0:0:0:0:
280,213,179417,1,0,1:1:0:0:
332,160,179518,1,0,1:1:0:0:
319,88,179619,1,2,1:3:0:0:
251,59,179721,1,0,1:1:0:0:
153,108,179823,6,0,B|111:112|104:136|67:146,1,96,6|0,3:2|2:2,0:0:0:0:
203,245,180026,1,0,3:3:0:0:
134,216,180127,1,0,3:3:0:0:
187,321,180228,2,0,B|229:325|236:349|273:359,1,96,2|0,1:3|2:2,0:0:0:0:
472,229,180431,5,0,1:1:0:0:
419,176,180532,2,0,P|375:192|371:278,1,96,0|2,3:3|1:3,0:0:0:0:
308,11,180735,5,0,3:3:0:0:
240,52,180836,2,0,P|231:98|304:144,1,96,0|0,3:3|3:3,0:0:0:0:
109,292,181039,2,0,P|19:283|3:195,1,192,2|0,1:3|1:1,0:0:0:0:
71,157,181343,1,0,1:1:0:0:
167,240,181445,5,6,3:3:0:0:
185,243,181546,1,0,2:2:0:0:
204,246,181647,1,0,1:1:0:0:
223,249,181749,1,0,3:3:0:0:
292,208,181850,5,2,2:3:0:0:
301,116,181951,2,0,B|269:151|269:151|281:197,1,96,0|2,1:1|3:3,0:0:0:0:
396,376,182154,5,0,1:1:0:0:
511,316,182255,2,0,B|422:332|422:332|411:340|411:340|324:354,1,192,6|0,3:3|1:1,0:0:0:0:
259,319,182559,1,0,1:1:0:0:
191,362,182661,5,2,3:3:0:0:
116,368,182762,1,0,1:1:0:0:
63,316,182863,1,0,1:1:0:0:
69,242,182965,1,0,1:1:0:0:
192,158,183066,5,6,3:2:0:0:
440,291,183269,1,2,2:3:0:0:
486,230,183370,1,0,2:2:0:0:
429,180,183472,2,0,L|334:192,1,96,0|0,1:1|2:2,0:0:0:0:
176,76,183674,1,2,2:3:0:0:
242,40,183776,2,0,P|286:55|305:97,1,96,0|0,2:2|3:3,0:0:0:0:
110,168,183978,6,0,P|65:152|46:110,1,96,0|2,2:2|2:3,0:0:0:0:
175,326,184181,1,0,2:2:0:0:
245,302,184282,2,0,L|257:207,1,96,0|0,1:1|2:2,0:0:0:0:
45,253,184485,2,0,L|57:348,1,96,2|0,2:3|2:2,0:0:0:0:
290,371,184688,5,2,3:2:0:0:
299,376,184789,1,2,2:2:0:0:
314,376,184890,1,2,2:3:0:0:
331,365,184992,1,2,2:2:0:0:
346,330,185093,1,2,1:2:0:0:
332,274,185195,1,2,2:2:0:0:
365,219,185296,1,2,2:3:0:0:
437,214,185397,1,2,2:2:0:0:
486,274,185499,6,0,P|402:239|400:148,1,192,2|2,3:2|2:3,0:0:0:0:
411,144,185803,1,0,2:2:0:0:
512,66,185904,6,0,P|440:121|360:77,1,192,2|2,1:2|2:3,0:0:0:0:
361,65,186208,1,0,2:2:0:0:
208,0,186309,6,0,L|196:95,1,96,6|0,3:2|2:2,0:0:0:0:
57,267,186512,1,2,2:3:0:0:
4,210,186613,1,0,2:2:0:0:
53,152,186715,2,0,L|148:164,1,96,0|0,1:1|2:2,0:0:0:0:
303,318,186917,1,2,2:3:0:0:
365,273,187019,2,0,P|370:226|339:191,1,96,0|0,2:2|3:3,0:0:0:0:
288,3,187222,6,0,L|276:98,1,96,0|2,2:2|2:3,0:0:0:0:
232,162,187424,1,0,2:2:0:0:
77,44,187526,1,0,1:1:0:0:
13,85,187627,1,0,0:0:0:0:
53,152,187728,2,0,L|148:164,1,96,2|0,2:3|2:2,0:0:0:0:
231,331,187931,6,0,P|276:339|314:312,1,96,2|0,3:2|2:2,0:0:0:0:
431,216,188134,2,0,L|419:121,1,96,2|0,2:3|2:2,0:0:0:0:
360,77,188336,1,0,1:1:0:0:
232,162,188438,2,0,P|223:207|250:245,1,96,2|2,2:2|2:3,0:0:0:0:
492,384,188640,1,0,2:2:0:0:
512,303,188742,5,2,3:2:0:0:
420,359,188843,2,0,B|326:347|326:347|323:344|323:344|228:330,1,192,0|0,1:1|2:2,0:0:0:0:
37,202,189147,2,0,B|-9:215|-9:215|-44:295|27:339,1,192,2|2,1:2|1:3,0:0:0:0:
45,340,189451,1,0,1:1:0:0:
116,313,189553,5,6,3:2:0:0:
152,381,189654,2,0,B|145:316|210:291|185:314|252:287|242:227,1,192,0|0,2:2|2:2,0:0:0:0:
350,97,189958,2,0,P|406:105|427:156,1,96,0|0,1:1|2:2,0:0:0:0:
420,211,190161,1,2,2:3:0:0:
275,151,190262,2,0,L|263:56,1,96,0|0,2:2|3:3,0:0:0:0:
67,16,190465,6,0,L|55:111,1,96,0|2,2:2|2:3,0:0:0:0:
36,235,190667,1,0,2:2:0:0:
0,168,190769,2,0,P|90:153|146:225,1,192,0|2,1:1|2:3,0:0:0:0:
141,238,191073,1,0,2:2:0:0:
249,334,191174,6,0,B|381:304|381:304|326:287,1,192,6|2,3:2|2:3,0:0:0:0:
258,252,191478,1,0,2:2:0:0:
347,362,191580,2,0,P|357:266|371:171,2,192,0|2|0,1:1|2:3|3:3,0:0:0:0:
264,5,192188,6,0,P|270:52|276:100,1,96,2|0,2:3|2:2,0:0:0:0:
441,256,192390,1,0,1:1:0:0:
501,213,192491,1,0,1:1:0:0:
504,139,192592,1,2,1:3:0:0:
447,92,192694,1,0,1:1:0:0:
347,179,192796,5,6,3:2:0:0:
299,215,192897,1,2,2:2:0:0:
242,201,192998,1,2,3:2:0:0:
217,147,193100,1,2,3:2:0:0:
276,100,193201,6,0,B|211:93|186:158|209:133|182:200|122:190,1,192,2|2,1:2|1:2,0:0:0:0:
96,24,193505,2,0,B|143:10|143:10|180:39,1,96,2|0,3:2|2:2,0:0:0:0:
44,166,193708,2,0,B|33:177|33:177|58:282,1,96,2|0,3:2|2:2,0:0:0:0:
252,367,193911,2,0,B|263:356|263:356|238:251,1,96,2|0,3:2|1:1,0:0:0:0:
43,384,194113,5,2,1:2:0:0:
0,320,194215,1,0,1:1:0:0:
58,272,194316,1,0,1:1:0:0:
133,327,194417,5,6,3:2:0:0:
191,323,194518,1,0,2:2:0:0:
228,276,194619,1,0,3:3:0:0:
217,218,194721,1,0,3:3:0:0:
147,191,194823,5,0,1:1:0:0:
110,128,194924,1,0,2:2:0:0:
130,58,195025,1,0,1:1:0:0:
197,29,195127,1,0,1:1:0:0:
273,15,195228,5,2,3:2:0:0:
277,37,195330,1,0,1:1:0:0:
351,40,195431,5,2,1:2:0:0:
337,78,195533,1,0,1:1:0:0:
408,112,195634,5,2,1:2:0:0:
362,148,195736,1,8,2:3:0:0:
409,212,195836,5,4,2:3:0:0:
334,221,195938,1,4,3:3:0:0:
377,283,196039,6,0,L|161:249,1,192,6|2,3:2|2:3,0:0:0:0:
58,357,196343,2,0,P|104:352|131:314,1,96,2|0,2:2|1:1,0:0:0:0:
104,146,196546,2,0,P|84:188|104:230,1,96,2|2,2:2|2:3,0:0:0:0:
272,302,196749,6,0,B|265:237|330:212|305:235|372:208|362:148,1,192,2|2,2:2|2:2,0:0:0:0:
430,106,197053,5,2,2:3:0:0:
217,204,197255,5,2,1:2:0:0:
32,76,197458,5,2,2:3:0:0:
241,15,197661,6,0,L|272:307,1,288,2|0,3:2|2:2,0:0:0:0:
352,313,198066,5,2,1:2:0:0:
346,316,198134,2,0,L|338:389,1,64,2|2,2:2|2:2,0:0:0:0:
414,265,198269,5,2,2:3:0:0:
420,268,198337,2,0,L|427:340,1,64,2|2,2:2|2:2,0:0:0:0:
353,218,198472,5,2,3:2:0:0:
343,212,198539,1,2,2:2:0:0:
335,219,198607,1,2,2:2:0:0:
326,229,198674,1,2,2:3:0:0:
314,222,198742,1,2,2:2:0:0:
300,226,198809,1,2,2:2:0:0:
287,221,198877,6,0,P|253:229|231:257,1,64,2|2,1:2|2:2,0:0:0:0:
164,238,199012,5,2,2:2:0:0:
155,240,199080,2,0,P|144:273|158:306,1,64,2|2,2:3|2:2,0:0:0:0:
200,360,199215,5,2,2:2:0:0:
204,351,199282,2,0,B|193:214|193:214|189:203|189:203|180:65,1,288,2|0,3:2|2:2,0:0:0:0:
111,31,199688,2,0,P|75:47|78:122,1,96,2|0,1:2|2:2,0:0:0:0:
225,186,199890,2,0,L|364:169,1,96,2|0,2:3|2:2,0:0:0:0:
84,370,200093,6,0,P|-1:345|1:256,1,192,2|2,3:2|2:3,0:0:0:0:
66,211,200397,1,2,2:2:0:0:
188,268,200499,2,0,L|378:244,1,192,0|2,1:1|2:3,0:0:0:0:
386,253,200803,1,0,2:2:0:0:
455,220,200904,6,0,P|483:195|449:126,1,96,2|0,3:2|2:2,0:0:0:0:
271,26,201107,2,0,P|243:51|277:120,1,96,2|0,2:3|2:2,0:0:0:0:
455,40,201309,1,2,1:2:0:0:
383,4,201411,2,0,L|371:99,1,96,2|2,2:2|2:3,0:0:0:0:
273,242,201613,6,0,L|178:254,1,96,2|0,2:2|3:3,0:0:0:0:
109,219,201816,1,2,2:2:0:0:
42,347,201917,2,0,B|75:377|75:377|124:366,1,96,4|0,1:2|2:2,0:0:0:0:
83,140,202120,2,0,B|132:129|132:129|166:160,1,96,2|0,1:2|2:2,0:0:0:0:
246,328,202323,2,0,B|294:339|294:339|328:308,1,96,6|0,2:2|2:2,0:0:0:0:
469,148,202526,6,0,P|379:146|357:232,1,192,6|2,3:2|2:3,0:0:0:0:
407,289,202796,1,2,2:2:0:0:
415,294,202863,1,2,2:2:0:0:
423,292,202931,2,0,P|454:295|486:301,1,64,2|2,1:2|2:2,0:0:0:0:
285,240,203066,5,2,2:2:0:0:
293,242,203134,2,0,P|324:238|356:232,1,64,2|2,2:3|2:2,0:0:0:0:
252,319,203269,5,2,2:2:0:0:
242,325,203336,1,2,3:2:0:0:
232,318,203404,1,2,2:2:0:0:
220,316,203472,1,2,2:2:0:0:
211,327,203539,1,2,2:3:0:0:
197,326,203607,1,2,2:2:0:0:
184,322,203674,1,2,2:2:0:0:
173,330,203742,6,0,B|108:337|83:271|106:297|79:230|19:240,1,192,2|2,1:2|2:3,0:0:0:0:
9,254,204046,1,0,2:2:0:0:
108,239,204147,6,0,P|144:181|116:52,1,192,2|2,3:2|2:3,0:0:0:0:
119,54,204451,2,0,L|96:173,1,96,2|0,2:2|1:1,0:0:0:0:
285,240,204654,1,0,2:2:0:0:
342,193,204755,2,0,L|323:98,1,96,2|0,2:3|2:2,0:0:0:0:
481,329,204958,5,2,3:2:0:0:
495,255,205059,2,0,P|454:219|388:243,1,96,2|2,2:2|2:3,0:0:0:0:
289,324,205262,1,2,2:2:0:0:
223,292,205363,2,0,B|116:323|116:323|72:308|76:261,1,192,0|2,1:1|2:3,0:0:0:0:
149,21,205769,6,0,B|142:86|207:111|182:88|249:115|239:175,1,192,6|2,3:2|2:3,0:0:0:0:
171,214,206073,1,0,2:2:0:0:
103,150,206174,6,0,P|134:143|164:132,1,64,2|2,1:2|2:2,0:0:0:0:
238,175,206309,5,2,2:2:0:0:
244,180,206377,2,0,P|275:186|305:197,1,64,2|2,2:3|2:2,0:0:0:0:
378,173,206512,5,2,2:2:0:0:
387,176,206580,2,0,P|411:159|416:104,1,64,6|2,3:2|2:2,0:0:0:0:
495,103,206715,5,2,2:2:0:0:
502,96,206783,2,0,P|499:66|454:34,1,64,2|2,2:3|2:2,0:0:0:0:
409,9,206917,5,2,2:2:0:0:
403,16,206985,2,0,P|290:49|174:73,1,192,2|2,1:2|2:3,0:0:0:0:
0,6,207390,5,6,3:2:0:0:
11,1,207458,1,0,2:2:0:0:
22,0,207526,1,2,2:2:0:0:
32,3,207593,2,0,L|51:112,2,64,2|0|2,1:3|2:2|2:2,0:0:0:0:
143,105,207796,5,2,3:2:0:0:
132,100,207864,1,0,2:2:0:0:
121,99,207932,1,2,2:2:0:0:
111,102,207999,2,0,L|92:211,2,64,2|0|2,1:3|2:2|2:2,0:0:0:0:
44,219,208201,5,2,3:2:0:0:
41,228,208269,1,0,2:2:0:0:
46,235,208336,1,2,2:2:0:0:
44,248,208404,1,2,1:3:0:0:
37,257,208472,1,0,2:2:0:0:
39,269,208539,1,2,2:2:0:0:
44,281,208607,2,0,L|63:390,1,64,8|0,2:3|2:2,0:0:0:0:
126,375,208742,5,2,2:2:0:0:
133,370,208809,2,0,L|143:306,1,64,4|0,2:3|2:2,0:0:0:0:
204,262,208945,5,0,2:2:0:0:
212,256,209012,2,0,P|290:245|348:335,1,192,6|2,3:2|2:3,0:0:0:0:
408,379,209316,1,2,2:2:0:0:
478,352,209417,2,0,L|491:256,1,96,0|0,1:1|2:2,0:0:0:0:
290,116,209620,2,0,L|303:211,1,96,2|0,2:3|1:1,0:0:0:0:
495,179,209823,5,2,3:2:0:0:
443,125,209924,2,0,B|378:132|353:66|376:92|349:25|289:35,1,192,0|2,1:1|2:2,0:0:0:0:
92,137,210228,2,0,P|43:113|44:37,1,96,0|2,1:1|2:2,0:0:0:0:
225,248,210431,2,0,L|211:152,1,96,2|0,2:3|2:2,0:0:0:0:
6,302,210634,5,6,3:2:0:0:
0,293,210735,2,0,L|190:320,1,192,0|2,2:2|2:2,0:0:0:0:
254,167,211039,2,0,B|211:151|211:151|169:178,1,96,0|0,1:1|2:2,0:0:0:0:
260,364,211242,2,0,B|303:380|303:380|344:352,1,96,2|0,2:3|1:1,0:0:0:0:
496,192,211445,5,2,3:2:0:0:
434,236,211546,2,0,P|365:216|355:100,1,192,0|0,1:1|2:2,0:0:0:0:
463,0,211850,2,0,P|459:47|415:74,1,96,2|0,1:2|2:2,0:0:0:0:
251,19,212053,2,0,L|155:32,1,96,2|0,2:3|2:2,0:0:0:0:
0,175,212255,6,0,B|84:187|84:187|104:199|104:199|187:209,1,192,6|2,3:2|2:3,0:0:0:0:
252,167,212559,1,2,2:2:0:0:
197,218,212661,2,0,L|101:231,1,96,0|0,1:1|2:2,0:0:0:0:
299,103,212863,2,0,L|395:90,1,96,2|0,2:3|1:1,0:0:0:0:
484,293,213066,5,2,3:2:0:0:
434,236,213167,2,0,B|378:214|330:266|330:266|324:308|284:324,1,192,0|2,1:1|2:2,0:0:0:0:
156,154,213472,2,0,L|252:167,1,96,0|0,1:1|2:2,0:0:0:0:
74,321,213674,2,0,P|71:263|139:232,1,96,2|0,2:3|2:2,0:0:0:0:
199,357,213877,6,0,P|124:349|107:237,1,192,6|2,3:2|2:3,0:0:0:0:
174,232,214181,1,0,2:2:0:0:
262,160,214282,2,0,B|271:148|271:148|256:46,1,96,2|0,1:2|2:2,0:0:0:0:
99,6,214485,2,0,B|86:14|86:14|65:115,1,96,2|0,2:3|2:2,0:0:0:0:
26,166,214688,5,6,3:2:0:0:
353,4,214890,2,0,L|344:99,1,96,2|0,1:3|2:2,0:0:0:0:
485,285,215093,5,2,3:2:0:0:
158,123,215296,2,0,L|166:218,1,96,2|0,1:3|2:2,0:0:0:0:
255,383,215499,6,0,P|280:291|252:202,1,192,6|2,3:2|2:3,0:0:0:0:
178,206,215803,1,2,2:2:0:0:
93,290,215904,2,0,B|55:297|55:297|41:305|41:305|0:311,1,96,0|0,1:1|2:2,0:0:0:0:
191,332,216107,5,2,2:3:0:0:
253,369,216208,1,2,1:2:0:0:
315,323,216309,1,2,3:2:0:0:
313,311,216411,1,2,1:2:0:0:
376,365,216512,1,2,2:3:0:0:
374,377,216614,1,2,2:2:0:0:
446,336,216715,2,0,P|473:296|425:237,1,96,2|0,1:2|2:2,0:0:0:0:
271,107,216917,2,0,P|244:147|292:206,1,96,2|0,2:3|2:2,0:0:0:0:
506,71,217120,5,2,3:2:0:0:
456,127,217222,1,2,2:2:0:0:
388,95,217323,1,2,2:3:0:0:
433,4,217424,2,0,B|443:64|376:91|401:68|336:93|343:158,1,192,2|0,2:2|2:2,0:0:0:0:
165,95,217728,2,0,L|149:-26,1,96,2|2,2:3|1:2,0:0:0:0:
0,229,217931,5,2,3:2:0:0:
11,224,217999,1,2,2:2:0:0:
18,230,218066,1,2,2:2:0:0:
28,238,218134,1,2,2:3:0:0:
46,239,218201,1,2,2:2:0:0:
65,227,218269,1,2,2:2:0:0:
82,234,218336,1,2,1:2:0:0:
92,250,218404,1,2,2:2:0:0:
109,250,218472,1,2,2:2:0:0:
133,238,218539,1,2,2:3:0:0:
149,248,218607,1,2,2:2:0:0:
165,261,218674,1,2,2:2:0:0:
191,246,218742,6,0,P|277:253|282:371,1,192,6|2,3:2|2:3,0:0:0:0:
233,384,219046,1,2,2:2:0:0:
292,337,219147,5,2,1:2:0:0:
366,335,219248,1,2,2:2:0:0:
419,281,219349,1,2,2:3:0:0:
418,206,219451,1,2,1:2:0:0:
352,167,219553,5,2,3:2:0:0:
380,114,219654,1,2,1:2:0:0:
364,56,219755,1,2,2:3:0:0:
312,27,219857,1,2,2:2:0:0:
242,65,219958,5,2,1:2:0:0:
215,24,220059,1,2,2:2:0:0:
169,12,220160,1,2,2:3:0:0:
128,37,220262,1,2,2:2:0:0:
97,117,220363,5,2,3:2:0:0:
23,98,220465,1,2,2:2:0:0:
42,24,220566,1,6,1:3:0:0:
115,43,220667,1,2,2:2:0:0:
126,203,220769,5,2,1:2:0:0:
105,129,220871,1,2,2:2:0:0:
179,108,220972,1,2,1:3:0:0:
199,181,221073,1,2,2:2:0:0:
67,261,221174,6,0,L|-2:252,2,64,2|0|0,3:2|2:2|2:2,0:0:0:0:
111,324,221377,5,2,1:3:0:0:
117,318,221445,2,0,L|186:309,1,64,0|0,2:2|2:2,0:0:0:0:
356,236,221580,5,0,3:3:0:0:
367,242,221647,1,2,2:2:0:0:
376,239,221715,1,2,2:2:0:0:
390,242,221782,1,4,2:3:0:0:
403,237,221850,1,2,2:2:0:0:
415,249,221917,1,2,2:2:0:0:
430,242,221985,6,0,P|501:210|499:104,1,192,6|2,3:2|2:3,0:0:0:0:
453,47,222289,1,0,2:2:0:0:
326,145,222390,2,0,P|278:153|231:159,1,96,0|0,1:1|2:2,0:0:0:0:
45,69,222593,1,2,2:3:0:0:
90,7,222695,1,0,2:2:0:0:
164,32,222796,6,0,P|147:126|134:221,1,192,0|2,3:3|2:3,0:0:0:0:
184,280,223100,1,0,2:2:0:0:
39,369,223201,2,0,B|7:337|7:337|18:287,1,96,0|0,1:1|2:2,0:0:0:0:
125,119,223404,2,0,P|133:166|140:213,1,96,2|0,2:3|2:2,0:0:0:0:
345,339,223607,6,0,P|433:357|484:282,1,192,2|2,3:2|2:3,0:0:0:0:
435,225,223911,1,0,2:2:0:0:
334,332,224012,2,0,P|286:338|239:345,1,96,0|0,1:1|2:2,0:0:0:0:
127,204,224215,2,0,P|174:197|221:190,1,96,2|0,2:3|2:2,0:0:0:0:
397,75,224417,6,0,B|367:69|333:64|333:64|300:12|300:12|269:8|237:0,1,192,0|2,3:3|2:3,0:0:0:0:
175,44,224722,1,0,2:2:0:0:
228,183,224823,2,0,P|272:168|290:125,1,96,0|0,1:1|2:2,0:0:0:0:
44,218,225026,1,2,2:3:0:0:
6,150,225127,1,0,2:2:0:0:
67,99,225228,6,0,B|132:92|157:157|134:132|161:199|221:189,1,192,4|2,3:2|2:3,0:0:0:0:
279,248,225532,1,0,2:2:0:0:
407,192,225634,2,0,B|446:180|446:159|491:148,1,96,0|0,1:1|2:2,0:0:0:0:
377,383,225836,1,2,2:3:0:0:
316,333,225938,1,0,2:2:0:0:
357,271,226039,6,0,P|283:330|201:274,1,192,0|2,3:3|2:3,0:0:0:0:
159,229,226343,1,0,2:2:0:0:
40,363,226445,2,0,L|25:232,1,96,0|0,1:1|2:2,0:0:0:0:
181,89,226647,2,0,P|140:113|127:158,1,96,2|0,2:3|2:2,0:0:0:0:
279,248,226850,6,0,B|290:166|290:166|303:142|303:142|316:61,1,192,2|2,3:2|2:3,0:0:0:0:
245,33,227154,1,0,2:2:0:0:
342,141,227255,2,0,P|388:140|417:104,1,96,0|2,1:1|2:2,0:0:0:0:
198,211,227458,2,0,P|151:210|122:174,1,96,2|0,2:3|2:2,0:0:0:0:
367,384,227661,6,0,B|361:343|361:343|354:331|354:331|348:290,1,96,2|0,3:2|2:2,0:0:0:0:
110,175,227863,1,2,1:3:0:0:
47,219,227965,1,0,1:1:0:0:
84,286,228066,2,0,L|178:301,1,96,8|4,2:3|2:3,0:0:0:0:
436,125,228269,2,0,L|341:140,1,96,4|0,3:3|3:3,0:0:0:0:
161,0,228472,6,0,B|154:65|219:90|194:67|261:94|251:154,2,192,6|2|0,3:2|2:3|1:1,0:0:0:0:
455,208,229080,2,0,L|439:302,1,96,2|0,2:3|1:1,0:0:0:0:
217,370,229282,1,0,3:3:0:0:
169,312,229384,1,0,1:1:0:0:
224,255,229485,2,0,P|272:256|299:330,1,96,2|0,3:3|2:2,0:0:0:0:
110,364,229688,2,0,P|30:354|12:239,1,192,0|2,1:1|1:3,0:0:0:0:
71,219,229992,1,0,1:1:0:0:
15,265,230093,5,2,3:2:0:0:
32,153,230195,2,0,L|19:53,1,96,0|2,1:1|2:3,0:0:0:0:
261,181,230397,1,2,3:2:0:0:
209,241,230499,2,0,L|233:50,1,192,0|2,1:1|2:3,0:0:0:0:
167,15,230803,1,0,1:1:0:0:
132,81,230904,5,2,3:2:0:0:
243,41,231005,2,0,B|293:30|293:30|325:62,1,96,0|2,1:1|3:3,0:0:0:0:
483,139,231208,1,2,2:2:0:0:
464,66,231309,2,0,P|367:66|351:173,1,192,0|2,1:1|3:3,0:0:0:0:
456,340,231613,1,0,1:1:0:0:
512,288,231715,6,0,B|480:256|480:256|430:267,1,96,4|0,3:2|2:2,0:0:0:0:
243,379,231917,1,0,1:1:0:0:
169,355,232019,2,0,P|140:318|149:272,1,96,0|0,1:1|2:2,0:0:0:0:
331,158,232222,2,0,P|359:194|350:240,1,96,0|0,1:1|2:2,0:0:0:0:
205,108,232424,6,0,B|216:65|232:61|241:20,1,96,0|0,1:1|2:2,0:0:0:0:
88,217,232627,2,0,B|45:228|41:244|0:253,1,96,0|0,1:1|2:2,0:0:0:0:
72,105,232830,5,0,1:1:0:0:
191,210,232931,2,0,B|234:221|238:237|279:246,1,96,4|0,3:2|2:2,0:0:0:0:
355,32,233336,5,6,1:2:0:0:
263,117,233438,1,2,1:2:0:0:
387,100,233539,1,2,1:2:0:0:
277,40,233640,2,0,B|235:30|231:14|188:3,1,96,2|0,1:2|2:2,0:0:0:0:
417,243,233843,2,0,P|448:209|438:164,1,96,2|0,1:2|2:2,0:0:0:0:
105,301,234046,6,0,P|73:334|83:379,1,96,2|0,1:2|2:2,0:0:0:0:
259,224,234249,2,0,L|247:81,1,96,2|0,1:2|2:2,0:0:0:0:
1,119,234451,5,2,1:2:0:0:
30,47,234553,2,0,P|144:15|238:138,1,288,6|0,1:2|2:2,0:0:0:0:
512,282,236580,6,0,P|450:293|380:308,1,120,6|2,2:2|2:2,0:0:0:0:
348,363,237188,2,0,P|253:358|221:272,1,180,2|2,2:2|2:2,0:0:0:0:
274,236,237998,1,2,2:2:0:0:
274,236,238201,6,0,P|284:207|290:178,1,60,2|2,2:2|2:2,0:0:0:0:
210,153,238607,2,0,P|200:181|194:210,1,60,2|2,2:2|2:2,0:0:0:0:
144,263,239012,1,2,2:2:0:0:
134,269,239215,1,2,2:2:0:0:
107,268,239417,1,2,2:2:0:0:
61,223,239620,1,2,2:2:0:0:
92,150,239823,6,0,L|84:72,1,60,2|2,2:2|2:2,0:0:0:0:
159,48,240228,2,0,L|165:107,1,60,2|2,2:2|2:2,0:0:0:0:
230,163,240634,2,0,B|255:180|288:179|288:179|317:169|332:143,1,120,0|2,2:2|2:2,0:0:0:0:
400,101,241242,1,2,2:2:0:0:
459,159,241444,6,0,L|450:236,1,60,2|2,2:2|2:2,0:0:0:0:
391,268,241850,1,2,2:2:0:0:
444,325,242052,2,0,L|324:311,1,120,2|2,2:2|2:2,0:0:0:0:
259,267,242661,2,0,P|230:274|211:297,1,60,2|2,2:2|2:2,0:0:0:0:
121,364,243066,6,0,P|86:355|64:327,1,71.9999978027344,2|2,2:2|2:2,0:0:0:0:
6,278,243471,1,2,2:2:0:0:
58,216,243674,2,0,B|73:139|106:169|123:87,1,143.999995605469,2|2,2:2|2:2,0:0:0:0:
66,34,244282,2,0,P|17:49|7:78,1,71.9999978027344,2|2,2:2|2:2,0:0:0:0:
129,174,244688,6,0,B|192:179|192:179|207:176|207:176|273:182,1,143.999995605469,2|0,2:2|2:2,0:0:0:0:
334,138,245296,2,0,P|380:112|453:179,1,143.999995605469,2|2,2:2|2:2,0:0:0:0:
392,83,245904,2,0,L|381:3,1,71.9999978027344,2|2,2:2|2:2,0:0:0:0:
458,170,246309,6,0,L|448:241,1,71.9999978027344,2|2,2:2|2:2,0:0:0:0:
383,287,246715,1,2,2:2:0:0:
305,272,246917,2,0,B|288:262|288:262|261:112,1,143.999995605469,2|0,2:2|2:2,0:0:0:0:
210,91,247525,1,2,2:2:0:0:
138,120,247728,1,2,2:2:0:0:
58,16,247931,6,0,L|69:111,1,71.9999978027344,2|2,2:2|2:2,0:0:0:0:
18,142,248336,1,2,2:2:0:0:
83,188,248539,1,2,2:2:0:0:
38,254,248742,5,2,2:2:0:0:
256,192,248843,12,2,251174,2:2:0:0:
256,192,251985,5,6,3:2:0:0:
16,56,252187,1,2,2:3:0:0:
70,0,252289,1,0,2:2:0:0:
139,35,252390,2,0,L|153:154,1,96,0|0,1:1|2:2,0:0:0:0:
318,250,252593,1,2,2:3:0:0:
389,222,252694,2,0,P|402:180|358:126,1,96,0|0,2:2|3:3,0:0:0:0:
180,235,252897,6,0,L|84:223,1,96,0|2,2:2|2:3,0:0:0:0:
289,60,253099,1,0,2:2:0:0:
233,9,253201,2,0,P|186:9|153:42,1,96,0|0,1:1|2:2,0:0:0:0:
367,145,253403,2,0,L|462:133,1,96,2|0,2:3|2:2,0:0:0:0:
229,381,253606,5,2,3:2:0:0:
218,381,253707,1,2,2:2:0:0:
204,372,253809,1,2,2:3:0:0:
195,343,253910,1,2,2:2:0:0:
219,304,254012,1,2,1:2:0:0:
271,294,254113,1,2,2:2:0:0:
309,244,254214,1,2,2:3:0:0:
280,179,254316,1,2,2:2:0:0:
215,221,254417,6,0,B|207:286|273:311|248:288|315:315|305:375,1,192,2|2,3:2|2:3,0:0:0:0:
317,383,254721,1,0,2:2:0:0:
416,295,254822,6,0,B|406:235|473:207|448:231|513:206|506:141,1,192,2|2,1:2|2:3,0:0:0:0:
493,132,255126,1,0,2:2:0:0:
508,226,255228,6,0,L|389:212,1,96,6|0,3:2|2:2,0:0:0:0:
233,115,255430,1,2,2:3:0:0:
186,57,255532,1,0,2:2:0:0:
231,0,255633,2,0,P|284:2|315:69,1,96,0|0,1:1|2:2,0:0:0:0:
177,171,255836,1,2,2:3:0:0:
109,134,255937,2,0,L|13:145,1,96,0|0,2:2|3:3,0:0:0:0:
225,243,256140,6,0,L|320:254,1,96,0|2,2:2|2:3,0:0:0:0:
360,322,256343,1,0,2:2:0:0:
203,384,256444,2,0,P|170:350|171:303,1,96,0|0,1:1|2:2,0:0:0:0:
356,123,256647,2,0,P|388:156|387:203,1,96,2|0,2:3|2:2,0:0:0:0:
221,9,256849,6,0,L|232:104,1,96,2|0,3:2|2:2,0:0:0:0:
59,256,257052,2,0,B|27:221|27:221|41:174,1,96,2|0,2:3|2:2,0:0:0:0:
109,134,257255,1,0,1:1:0:0:
216,234,257356,2,0,B|255:222|255:201|300:190,1,96,2|2,2:2|2:3,0:0:0:0:
367,228,257559,1,0,2:2:0:0:
495,142,257660,5,2,3:2:0:0:
465,72,257762,2,0,L|443:262,1,192,0|0,1:1|2:2,0:0:0:0:
217,343,258066,2,0,L|206:248,1,96,2|0,1:2|2:2,0:0:0:0:
64,60,258268,1,2,1:3:0:0:
4,107,258370,1,0,1:1:0:0:
41,174,258471,6,0,L|136:163,2,96,6|0|2,3:2|2:2|2:3,0:0:0:0:
233,14,258775,2,0,P|279:12|313:44,1,96,0|0,2:2|1:1,0:0:0:0:
453,167,258978,2,0,L|442:262,1,96,0|2,2:2|2:3,0:0:0:0:
217,343,259180,2,0,L|206:248,1,96,0|0,2:2|3:3,0:0:0:0:
54,184,259383,6,0,P|12:206|0:250,1,96,0|2,2:2|2:3,0:0:0:0:
206,122,259586,1,0,2:2:0:0:
135,95,259687,2,0,L|124:0,1,96,0|0,1:1|2:2,0:0:0:0:
264,185,259890,2,0,L|359:196,1,96,2|0,2:3|2:2,0:0:0:0:
124,355,260093,6,0,P|77:356|43:324,1,96,6|0,3:2|2:2,0:0:0:0:
271,200,260295,2,0,L|282:295,1,96,2|0,2:3|2:2,0:0:0:0:
482,381,260498,2,0,B|510:347|510:347|493:297,1,96,0|0,1:1|2:2,0:0:0:0:
304,104,260701,2,0,L|282:294,2,192,2|2|2,2:3|3:2|2:3,0:0:0:0:
51,206,261309,1,0,1:1:0:0:
0,152,261410,1,0,1:1:0:0:
22,82,261511,1,2,1:3:0:0:
94,67,261613,1,0,1:1:0:0:
185,134,261714,5,6,3:2:0:0:
300,85,261816,2,0,B|288:45|267:46|256:1,1,96,0|0,2:2|3:3,0:0:0:0:
353,13,262018,5,0,3:3:0:0:
468,62,262120,2,0,B|456:101|435:101|424:146,1,96,2|0,1:3|2:2,0:0:0:0:
358,185,262322,5,0,1:1:0:0:
439,253,262424,2,0,B|399:258|399:258|387:264|387:264|345:271,1,96,0|2,3:3|1:3,0:0:0:0:
251,351,262626,5,0,3:3:0:0:
332,283,262728,2,0,B|292:277|292:277|280:271|280:271|238:264,1,96,0|0,3:3|3:3,0:0:0:0:
80,378,262930,2,0,P|4:344|42:220,1,192,2|0,1:3|1:1,0:0:0:0:
77,209,263235,1,0,1:1:0:0:
6,233,263336,5,6,3:3:0:0:
127,272,263437,2,0,B|169:265|169:265|181:259|181:259|221:253,1,96,0|0,2:2|1:1,0:0:0:0:
269,190,263640,5,0,3:3:0:0:
165,77,263741,2,0,P|120:89|105:133,1,96,2|0,2:3|1:1,0:0:0:0:
212,19,263944,5,2,3:3:0:0:
279,60,264045,1,0,1:1:0:0:
387,14,264147,2,0,P|478:29|485:143,1,192,6|0,3:3|1:1,0:0:0:0:
443,167,264451,1,0,1:1:0:0:
502,227,264552,5,2,3:3:0:0:
427,212,264653,1,0,1:1:0:0:
360,246,264754,1,0,1:1:0:0:
327,314,264856,1,0,1:1:0:0:
464,363,264957,5,6,3:2:0:0:
250,229,265160,1,2,2:3:0:0:
197,282,265262,1,0,2:2:0:0:
236,345,265363,2,0,P|285:354|325:310,1,96,0|0,1:1|2:2,0:0:0:0:
125,251,265566,1,2,2:3:0:0:
59,288,265667,2,0,L|45:407,1,96,0|0,2:2|3:3,0:0:0:0:
256,220,265870,6,0,L|244:124,1,96,0|2,2:2|2:3,0:0:0:0:
56,59,266072,1,0,2:2:0:0:
114,6,266174,2,0,P|163:-3|203:41,1,96,0|0,1:1|2:2,0:0:0:0:
30,138,266376,2,0,P|79:147|119:103,1,96,2|0,2:3|2:2,0:0:0:0:
314,5,266579,5,2,3:2:0:0:
303,9,266680,1,2,2:2:0:0:
297,21,266782,1,2,2:3:0:0:
295,47,266883,1,2,2:2:0:0:
311,93,266985,1,2,1:2:0:0:
362,129,267086,1,2,2:2:0:0:
433,117,267187,1,2,2:3:0:0:
481,57,267289,1,2,2:2:0:0:
430,0,267390,6,0,P|416:95|408:190,1,192,2|2,3:2|2:3,0:0:0:0:
419,200,267694,1,0,2:2:0:0:
229,162,267795,6,0,P|242:257|250:352,1,192,2|2,1:2|2:3,0:0:0:0:
240,362,268099,1,0,2:2:0:0:
340,282,268201,6,0,P|325:238|281:223,1,96,6|0,3:2|2:2,0:0:0:0:
146,327,268403,1,2,2:3:0:0:
82,372,268505,1,0,2:2:0:0:
14,334,268606,2,0,P|4:288|34:253,1,96,0|0,1:1|2:2,0:0:0:0:
150,117,268809,1,2,2:3:0:0:
70,94,268910,2,0,L|84:213,1,96,0|0,2:2|3:3,0:0:0:0:
255,54,269113,6,0,L|241:173,1,96,0|2,2:2|2:3,0:0:0:0:
403,258,269316,1,0,2:2:0:0:
332,291,269417,2,0,P|290:275|273:217,1,96,0|0,1:1|2:2,0:0:0:0:
404,101,269620,2,0,L|523:87,1,96,2|0,2:3|2:2,0:0:0:0:
341,17,269822,6,0,B|294:3|294:3|259:35,1,96,2|0,3:2|2:2,0:0:0:0:
102,178,270025,2,0,L|-17:164,1,96,2|0,2:3|2:2,0:0:0:0:
35,245,270228,1,0,1:1:0:0:
187,182,270329,2,0,L|173:63,1,96,2|2,2:2|2:3,0:0:0:0:
239,42,270532,1,0,2:2:0:0:
341,149,270633,5,2,3:2:0:0:
404,101,270735,2,0,P|486:126|472:254,1,192,0|0,1:1|2:2,0:0:0:0:
265,241,271039,2,0,B|275:181|208:154|233:177|167:152|175:87,1,192,2|2,1:2|1:3,0:0:0:0:
167,73,271343,1,0,1:1:0:0:
47,123,271444,5,6,3:2:0:0:
91,56,271545,2,0,P|172:57|224:147,1,192,0|0,2:2|2:2,0:0:0:0:
93,218,271849,2,0,B|51:212|51:212|35:205|35:205|0:200,1,96,0|0,1:1|2:2,0:0:0:0:
100,380,272052,1,2,2:3:0:0:
171,352,272153,2,0,P|178:299|148:266,1,96,0|0,2:2|3:3,0:0:0:0:
0,199,272356,6,0,P|42:231|85:222,1,96,0|2,2:2|2:3,0:0:0:0:
239,140,272559,1,0,2:2:0:0:
179,95,272660,2,0,L|167:0,1,96,0|0,1:1|2:2,0:0:0:0:
384,135,272863,2,0,P|392:173|338:228,1,96,2|0,2:3|2:2,0:0:0:0:
512,93,273066,6,0,P|379:97|339:44,1,192,6|2,3:2|2:3,0:0:0:0:
353,48,273370,1,0,2:2:0:0:
239,140,273471,2,0,P|148:117|73:172,2,192,0|2|0,1:1|2:3|3:3,0:0:0:0:
475,343,274079,2,0,B|482:306|505:297|512:256,1,96,2|0,2:3|2:2,0:0:0:0:
346,60,274282,5,0,1:1:0:0:
329,131,274383,1,0,1:1:0:0:
314,203,274484,1,2,1:3:0:0:
299,275,274586,1,0,1:1:0:0:
318,342,274687,5,6,3:2:0:0:
290,288,274788,1,2,2:2:0:0:
232,274,274889,1,2,3:2:0:0:
183,308,274991,1,2,3:2:0:0:
120,362,275093,6,0,P|34:335|33:245,1,192,2|2,1:2|1:2,0:0:0:0:
166,124,275397,2,0,L|177:28,1,96,2|0,3:2|2:2,0:0:0:0:
315,182,275599,2,0,B|303:173|303:173|179:193,1,96,2|0,3:2|2:2,0:0:0:0:
83,96,275802,1,2,3:2:0:0:
23,156,275903,5,0,1:1:0:0:
94,139,276004,1,2,1:2:0:0:
166,124,276105,1,0,1:1:0:0:
238,109,276207,1,0,1:1:0:0:
289,165,276309,5,6,3:2:0:0:
250,118,276411,1,0,2:2:0:0:
258,57,276512,1,2,3:2:0:0:
310,29,276613,1,2,3:2:0:0:
388,37,276714,6,0,P|426:119|368:189,1,192,2|2,1:2|1:2,0:0:0:0:
244,289,277018,2,0,L|232:384,1,96,6|0,3:2|3:3,0:0:0:0:
410,300,277221,2,0,B|377:268|377:268|328:277,1,96,2|0,1:2|1:1,0:0:0:0:
166,124,277424,1,2,1:2:0:0:
109,234,277525,5,8,2:3:0:0:
35,229,277626,1,4,2:3:0:0:
0,165,277727,1,4,3:3:0:0:
34,100,277829,1,0,3:3:0:0:
166,124,277930,6,0,L|144:314,1,192,6|2,3:2|2:3,0:0:0:0:
155,327,278235,2,0,B|109:325|104:347|61:347,1,96,0|0,2:2|1:1,0:0:0:0:
197,195,278437,1,0,2:2:0:0:
239,257,278539,2,0,B|328:293|328:293|391:220,1,192,2|0,2:3|3:3,0:0:0:0:
395,207,278843,1,0,2:2:0:0:
314,115,278944,2,0,P|290:154|304:198,1,96,2|0,2:3|2:2,0:0:0:0:
470,368,279147,2,0,B|464:338|459:304|459:304|407:271|407:271|403:240|395:208,1,192,0|2,1:1|2:3,0:0:0:0:
175,18,279552,6,0,B|168:28|168:28|184:110,1,96,2|0,3:2|2:2,0:0:0:0:
337,18,279755,2,0,B|343:28|343:28|327:110,1,96,2|0,2:3|2:2,0:0:0:0:
118,206,279957,6,0,B|111:216|111:216|127:298,1,96,0|2,1:1|2:2,0:0:0:0:
394,206,280160,2,0,B|400:216|400:216|384:298,1,96,2|0,2:3|2:2,0:0:0:0:
120,374,280363,6,0,L|66:90,1,288,2|0,3:2|2:2,0:0:0:0:
392,374,280768,2,0,L|445:90,1,288,2|0,1:2|2:2,0:0:0:0:
249,0,281174,6,0,B|259:74|259:74|251:118|251:118|263:190,1,192,6|2,3:2|2:3,0:0:0:0:
280,197,281478,2,0,P|306:158|292:114,1,96,0|0,2:2|1:1,0:0:0:0:
223,73,281680,1,0,2:2:0:0:
109,165,281782,2,0,B|-11:141|-11:141|-35:102|0:81,1,192,2|0,2:3|3:3,0:0:0:0:
120,174,282086,2,0,B|128:216|157:220|163:258,1,96,0|2,2:2|2:3,0:0:0:0:
49,365,282289,1,0,2:2:0:0:
23,288,282390,2,0,L|260:319,1,192,0|2,1:1|2:3,0:0:0:0:
399,384,282795,6,0,P|400:339|336:304,1,96,2|0,3:2|2:2,0:0:0:0:
337,40,282998,2,0,P|297:63|287:108,1,96,2|0,2:3|2:2,0:0:0:0:
467,194,283201,6,0,P|427:171|383:185,1,96,0|2,1:1|2:2,0:0:0:0:
138,75,283403,2,0,P|137:119|200:154,1,96,2|0,2:3|2:2,0:0:0:0:
502,122,283606,5,2,3:2:0:0:
450,65,283707,2,0,P|351:51|297:138,1,192,0|0,1:1|2:2,0:0:0:0:
157,273,284012,2,0,P|112:287|72:263,1,96,2|0,1:2|2:2,0:0:0:0:
256,35,284214,1,2,1:3:0:0:
181,12,284316,1,0,1:1:0:0:
138,75,284417,6,0,B|130:140|196:165|171:142|238:169|228:229,1,192,6|2,3:2|2:3,0:0:0:0:
11,212,284721,2,0,P|21:166|62:143,1,96,0|0,2:2|1:1,0:0:0:0:
137,165,284924,1,0,2:2:0:0:
239,239,285025,2,0,P|309:300|401:291,1,192,2|0,2:3|3:3,0:0:0:0:
408,281,285329,1,0,2:2:0:0:
480,309,285430,2,0,P|509:275|489:212,1,96,2|0,2:3|2:2,0:0:0:0:
364,152,285633,2,0,L|349:343,1,192,0|2,1:1|2:3,0:0:0:0:
102,196,286039,6,0,B|60:205|59:222|14:235,1,96,6|0,3:2|2:2,0:0:0:0:
173,141,286241,2,0,B|128:127|127:110|85:101,1,96,2|0,2:3|2:2,0:0:0:0:
214,239,286444,6,0,B|182:267|189:283|158:316,1,96,0|2,1:1|2:2,0:0:0:0:
256,102,286647,2,0,B|224:68|231:53|200:24,1,96,2|0,2:3|2:2,0:0:0:0:
419,224,286849,6,0,P|504:194|505:104,1,192,2|2,3:2|2:3,0:0:0:0:
492,96,287153,1,0,2:2:0:0:
349,156,287255,2,0,B|284:148|259:214|282:189|255:256|195:246,1,192,2|2,1:2|2:3,0:0:0:0:
123,207,287559,1,0,1:1:0:0:
142,317,287660,6,0,B|150:241|150:241|160:217|160:217|170:126,1,192,6|2,3:2|2:3,0:0:0:0:
160,119,287964,1,2,2:2:0:0:
302,219,288066,2,0,B|293:143|293:143|284:119|284:119|274:28,1,192,0|2,1:1|2:3,0:0:0:0:
284,21,288370,1,0,2:2:0:0:
393,80,288471,6,0,P|377:124|335:144,1,96,0|2,3:3|1:2,0:0:0:0:
222,224,288674,2,0,P|176:232|137:206,1,96,2|0,2:3|2:2,0:0:0:0:
26,178,288876,2,0,P|-4:142|0:96,1,96,2|0,1:2|2:2,0:0:0:0:
181,34,289079,1,2,2:3:0:0:
113,0,289180,1,0,1:1:0:0:
149,117,289282,6,0,L|268:103,1,96,6|0,3:2|2:2,0:0:0:0:
466,286,289484,1,0,1:1:0:0:
506,216,289586,2,0,L|410:204,1,96,0|0,3:3|2:2,0:0:0:0:
99,354,289789,1,0,1:1:0:0:
59,284,289891,2,0,L|154:272,1,96,0|0,3:3|2:2,0:0:0:0:
339,332,290093,5,4,3:2:0:0:
351,325,290194,1,0,3:3:0:0:
358,312,290295,1,0,3:3:0:0:
357,298,290397,1,0,3:3:0:0:
271,384,290498,5,0,1:1:0:0:
264,307,290599,1,0,1:1:0:0:
258,230,290700,1,0,1:1:0:0:
251,154,290802,1,0,1:1:0:0:
374,53,290903,6,0,P|418:66|439:108,1,96,6|0,3:2|2:2,0:0:0:0:
385,167,291106,1,2,2:3:0:0:
280,73,291207,2,0,B|234:58|234:58|194:87,1,96,2|0,2:2|1:1,0:0:0:0:
56,188,291410,1,0,2:2:0:0:
28,112,291512,2,0,L|123:124,1,96,2|0,2:3|2:2,0:0:0:0:
265,306,291714,5,0,3:3:0:0:
258,230,291816,2,0,B|266:295|200:320|225:297|158:324|168:384,1,192,2|0,2:2|2:2,0:0:0:0:
339,269,292120,2,0,B|350:312|350:312|354:316|354:316|364:360,1,96,2|0,1:2|2:2,0:0:0:0:
152,215,292322,2,0,B|120:246|120:246|118:251|118:251|85:283,1,96,2|0,2:3|2:2,0:0:0:0:
278,154,292525,6,0,B|270:89|336:64|311:87|378:60|368:0,1,192,2|2,3:2|2:3,0:0:0:0:
433,158,292829,2,0,B|482:135|482:135|440:136,1,96,2|0,2:2|1:1,0:0:0:0:
263,66,293032,1,0,2:2:0:0:
190,50,293133,2,0,B|159:5|159:5|194:27,1,96,2|0,2:3|2:2,0:0:0:0:
308,224,293336,5,0,3:3:0:0:
277,154,293437,2,0,P|202:207|203:299,1,192,2|0,2:2|2:2,0:0:0:0:
413,384,293741,2,0,P|488:331|487:239,1,192,2|2,1:2|2:3,0:0:0:0:
471,230,294045,1,0,2:2:0:0:
287,311,294147,6,0,B|181:324|216:360|107:372,1,192,2|2,3:2|2:3,0:0:0:0:
0,243,294451,2,0,P|20:284|67:297,1,96,2|0,2:2|1:1,0:0:0:0:
216,101,294653,1,0,2:2:0:0:
141,87,294755,2,0,P|115:125|127:173,1,96,2|0,2:3|2:2,0:0:0:0:
296,301,294957,5,0,3:3:0:0:
364,264,295059,2,0,P|376:168|392:74,1,192,2|0,2:2|2:2,0:0:0:0:
168,10,295363,2,0,P|183:104|196:199,1,192,2|2,1:2|2:3,0:0:0:0:
191,209,295667,1,0,2:2:0:0:
114,184,295768,6,0,B|75:191|75:191|61:200|61:200|21:207,1,96,2|0,3:2|2:2,0:0:0:0:
288,86,295971,2,0,B|327:78|327:78|341:69|341:69|380:62,1,96,2|2,2:3|2:2,0:0:0:0:
5,70,296174,6,0,B|44:77|44:77|58:86|58:86|97:93,1,96,0|0,1:1|2:2,0:0:0:0:
369,190,296376,2,0,B|329:182|329:182|315:173|315:173|276:166,1,96,2|0,2:3|2:2,0:0:0:0:
168,9,296579,6,0,P|180:104|196:198,1,192,0|2,3:3|2:3,0:0:0:0:
191,209,296883,1,0,2:2:0:0:
61,339,296984,2,0,P|-15:274|63:198,1,192,2|2,1:2|2:3,0:0:0:0:
33,214,297289,1,0,2:2:0:0:
202,292,297390,5,6,3:2:0:0:
256,192,297491,12,6,303876,3:2:0:0:
202,292,304079,5,2,2:3:0:0:
135,255,304180,2,0,P|131:219|126:183,1,71.9999978027344,0|0,2:2|1:1,0:0:0:0:
247,353,304383,2,0,P|282:356|318:361,1,71.9999978027344,2|2,2:2|2:3,0:0:0:0:
474,225,304586,2,0,P|404:225|365:282,1,143.999995605469,0|0,2:2|2:2,0:0:0:0:
512,369,304890,6,0,B|520:355|520:355|504:287,1,71.9999978027344,2|2,2:3|2:2,0:0:0:0:
391,183,305093,2,0,B|375:155|375:155|400:46,1,143.999995605469,0|2,1:1|2:3,0:0:0:0:
394,38,305397,1,0,2:2:0:0:
319,67,305498,5,2,3:2:0:0:
259,21,305599,2,0,P|223:23|196:46,1,71.9999978027344,0|2,2:2|2:3,0:0:0:0:
68,137,305802,2,0,P|32:134|5:111,1,71.9999978027344,0|0,2:2|1:1,0:0:0:0:
143,256,306005,2,0,L|134:184,1,71.9999978027344,2|2,2:2|2:3,0:0:0:0:
130,9,306207,2,0,B|113:95|89:56|67:136,1,143.999995605469,0|0,2:2|1:1,0:0:0:0:
134,184,306512,2,0,L|205:192,1,71.9999978027344,2|0,2:3|3:3,0:0:0:0:
359,319,306714,2,0,P|433:308|438:222,1,143.999995605469,2|2,1:2|2:3,0:0:0:0:
443,241,307018,1,0,2:2:0:0:
379,200,307120,5,2,3:2:0:0:
321,250,307221,2,0,L|249:258,1,71.9999978027344,0|2,2:2|2:3,0:0:0:0:
127,346,307424,2,0,P|95:341|68:284,1,71.9999978027344,0|0,2:2|1:1,0:0:0:0:
0,195,307626,2,0,L|8:123,1,71.9999978027344,2|2,2:2|2:3,0:0:0:0:
103,19,307829,2,0,L|120:161,1,143.999995605469,0|0,2:2|2:2,0:0:0:0:
255,54,308133,2,0,B|226:35|226:35|190:45,1,71.9999978027344,2|2,2:3|2:2,0:0:0:0:
201,196,308336,6,0,B|278:173|239:137|316:117,1,143.999995605469,0|2,1:1|2:3,0:0:0:0:
328,108,308640,1,0,2:2:0:0:
392,153,308741,5,2,3:2:0:0:
464,127,308843,2,0,P|474:97|425:39,1,71.9999978027344,0|2,2:2|2:3,0:0:0:0:
510,193,309045,2,0,P|441:183|390:231,1,143.999995605469,0|2,2:2|2:2,0:0:0:0:
245,280,309349,2,0,P|209:274|173:269,1,71.9999978027344,2|2,2:3|2:2,0:0:0:0:
316,117,309552,2,0,P|321:152|326:188,1,71.9999978027344,2|2,3:2|1:2,0:0:0:0:
119,114,309755,1,2,2:3:0:0:
169,63,309856,1,0,3:3:0:0:
233,95,309957,2,0,P|238:130|243:166,1,71.9999978027344,2|0,1:2|2:2,0:0:0:0:
10,335,310160,1,2,1:3:0:0:
6,326,310261,1,0,1:1:0:0:
51,265,310363,6,0,P|118:276|144:340,1,143.999995605469,6|2,3:2|2:3,0:0:0:0:
320,223,310667,2,0,L|214:243,1,71.9999978027344,2|0,2:2|1:1,0:0:0:0:
90,81,310870,1,0,2:2:0:0:
169,63,310971,2,0,L|149:169,1,71.9999978027344,2|0,2:3|2:2,0:0:0:0:
51,265,311174,1,0,3:3:0:0:
0,205,311275,2,0,L|13:134,2,71.9999978027344,2|2|0,2:2|2:3|2:2,0:0:0:0:
147,354,311579,2,0,P|216:361|264:311,1,143.999995605469,2|2,1:2|2:3,0:0:0:0:
241,238,311883,1,0,2:2:0:0:
312,210,311984,6,0,L|432:228,1,71.9999978027344,6|0,3:2|2:2,0:0:0:0:
512,162,312187,1,2,2:3:0:0:
459,108,312289,2,0,P|427:113|400:170,1,71.9999978027344,2|0,2:2|1:1,0:0:0:0:
512,296,312491,2,0,P|477:289|454:262,1,71.9999978027344,0|2,2:2|2:3,0:0:0:0:
339,365,312694,2,0,L|321:222,1,143.999995605469,0|2,2:2|2:2,0:0:0:0:
227,159,312998,2,0,P|192:165|169:192,1,71.9999978027344,2|0,2:3|2:2,0:0:0:0:
68,269,313201,2,0,P|-2:237|8:166,1,143.999995605469,2|2,1:2|2:3,0:0:0:0:
66,134,313505,1,0,2:2:0:0:
10,78,313606,6,0,L|173:105,1,143.999995605469,6|2,3:2|2:3,0:0:0:0:
223,71,313910,2,0,L|209:-10,1,71.9999978027344,2|0,2:2|1:1,0:0:0:0:
326,147,314113,2,0,L|339:228,1,71.9999978027344,0|2,2:2|2:3,0:0:0:0:
385,91,314316,2,0,P|464:86|495:182,1,143.999995605469,0|2,2:2|2:2,0:0:0:0:
422,239,314620,2,0,L|350:227,1,71.9999978027344,2|0,2:3|2:2,0:0:0:0:
224,302,314822,2,0,B|143:325|182:358|110:384,1,143.999995605469,2|2,1:2|2:3,0:0:0:0:
101,374,315126,1,0,2:2:0:0:
17,270,315228,5,4,1:2:0:0:
146,305,315329,1,0,1:1:0:0:
22,353,315430,1,2,1:2:0:0:
95,242,315532,2,0,B|101:201|122:196|129:153,1,96,0|0,1:1|3:3,0:0:0:0:
50,0,315734,1,0,1:1:0:0:
0,57,315836,2,0,P|23:90|112:84,1,96,0|0,1:1|2:2,0:0:0:0:
245,20,316039,5,0,1:1:0:0:
198,118,316140,1,0,1:1:0:0:
172,46,316241,1,2,1:2:0:0:
270,91,316343,1,0,1:1:0:0:
365,41,316444,2,0,P|454:58|473:147,1,192,0|0,1:1|1:1,0:0:0:0:
477,226,316748,1,0,1:1:0:0:
353,250,316849,5,6,1:2:0:0:
468,303,316951,1,0,1:1:0:0:
407,193,317052,1,2,1:2:0:0:
391,319,317153,2,0,B|350:325|345:346|302:353,1,96,0|2,1:1|3:2,0:0:0:0:
123,269,317356,2,0,P|117:222|143:183,1,96,0|2,1:1|2:2,0:0:0:0:
272,212,317559,2,0,P|277:258|251:297,1,96,0|2,1:1|3:2,0:0:0:0:
84,346,317762,5,0,1:1:0:0:
37,248,317863,1,2,1:2:0:0:
12,319,317964,1,0,1:1:0:0:
110,274,318066,2,0,B|150:267|155:246|198:239,1,96,2|0,1:2|2:2,0:0:0:0:
478,109,318268,6,0,B|520:64|631:190|409:257|398:103|398:103|393:32|306:-2|257:40|257:40|315:28|352:75,1,576,6|0,1:2|2:2,0:0:0:0:
