osu file format v14

[General]
AudioFilename: audio.mp3
AudioLeadIn: 0
PreviewTime: 62397
Countdown: 0
SampleSet: Soft
StackLeniency: 0.7
Mode: 0
LetterboxInBreaks: 0
WidescreenStoryboard: 1

[Editor]
Bookmarks: 214,36669,89834,108062,127808,153631,165783,191606,205275
DistanceSpacing: 1.4
BeatDivisor: 4
GridSize: 32
TimelineZoom: 1.8

[Metadata]
Title:Hitogata Rock
TitleUnicode:ヒトガタRock
Artist:HIMEHINA
ArtistUnicode:HIMEHINA
Creator:dkblaze
Version:Collab Hard
Source:バーチャルさんはみている
Tags:Yuuma Shizuku- Kazato Asa Shikibe Mayu Amateurre Heilia virtual san wa miteiru YouTuber vtuber 藍の華 田中ヒメ 鈴木ヒナ Tanaka Hime Suzuki Hina jpop j-pop pop jrock j-rock rock female vocal Divine Flowers Japanese
BeatmapID:2940867
BeatmapSetID:1361614

[Difficulty]
HPDrainRate:4.5
CircleSize:3.5
OverallDifficulty:6
ApproachRate:8
SliderMultiplier:1.5
SliderTickRate:1

[Events]
//Background and Video events
0,0,"BG2.jpg",0,0
//Break Periods
//Storyboard Layer 0 (Background)
//Storyboard Layer 1 (Fail)
//Storyboard Layer 2 (Pass)
//Storyboard Layer 3 (Foreground)
//Storyboard Layer 4 (Overlay)
//Storyboard Sound Samples

[TimingPoints]
218,379.746835443038,4,2,6,40,1,0
218,-100,4,2,6,40,0,0
597,-142.857142857143,4,2,6,40,0,0
5534,-111.111111111111,4,2,6,70,0,0
6293,-100,4,2,6,70,0,0
6673,-125,4,2,6,70,0,0
12369,-100,4,2,6,80,0,0
24521,-125,4,2,6,70,0,0
48825,-100,4,2,6,70,0,0
62496,-90.9090909090909,4,2,6,85,0,1
74648,-111.111111111111,4,2,6,85,0,1
77686,-90.9090909090909,4,2,6,85,0,1
86800,-100,4,2,6,70,0,0
89838,-100,4,2,6,70,0,0
95914,-125,4,2,6,70,0,0
101990,-99.9999999999999,4,2,6,70,0,0
127812,-90.9090909090909,4,2,6,85,0,1
139964,-111.111111111111,4,2,6,85,0,1
143002,-90.9090909090909,4,2,6,85,0,1
152116,-100,4,2,6,70,0,0
153635,-125,4,2,6,60,0,0
165787,-100,4,2,6,75,0,0
180977,-100,4,2,6,85,0,1
193118,315.789473684211,4,2,6,85,1,1
193118,-100,4,2,6,85,0,1
194065,379.746835443038,4,2,6,85,1,1
194065,-100,4,2,6,85,0,1
194634,189.873417721519,4,2,6,85,1,1
194634,-200,4,2,6,85,0,1
203747,379.746835443038,4,2,6,75,1,0
203747,-100,4,2,6,75,0,0
205265,-100,4,2,6,80,0,0
211341,-100,4,2,6,80,0,0
211436,-100,4,2,6,60,0,0
212101,-100,4,2,6,65,0,0
212860,-100,4,2,6,70,0,0
213620,-100,4,2,6,75,0,0
214379,-100,4,2,6,80,0,0
215139,-100,4,2,6,85,0,0
215898,-100,4,2,6,90,0,0
216658,-100,4,2,6,95,0,0
217417,-125,4,2,6,50,0,0

[Colours]
Combo1 : 126,139,252
Combo2 : 254,227,165
Combo3 : 183,165,254
Combo4 : 249,183,221

[HitObjects]
57,78,218,6,0,L|70:189,1,112.5,6|0,3:2|0:0,0:0:0:0:
78,225,597,6,0,B|119:231|119:231|152:213,1,78.7499975967408,2|0,0:0|0:0,0:0:0:0:
186,192,977,2,0,B|219:174|219:174|260:180,2,78.7499975967408,2|2|2,0:0|0:0|0:0,0:0:0:0:
243,293,1926,1,2,0:0:0:0:
243,293,2116,2,0,P|283:309|315:304,1,52.4999983978272,2|0,0:0|0:0,0:0:0:0:
369,266,2496,2,0,P|375:240|374:214,1,52.4999983978272,2|0,0:0|0:0,0:0:0:0:
359,183,2781,2,0,P|352:157|353:131,1,52.4999983978272,2|2,0:0|0:0,0:0:0:0:
368,98,3066,1,2,0:0:0:0:
301,36,3255,6,0,B|260:30|260:30|226:47,1,78.7499975967408,2|0,0:0|0:0,0:0:0:0:
194,69,3635,2,0,B|160:86|160:86|119:80,1,78.7499975967408,2|0,0:0|0:0,0:0:0:0:
81,71,4015,2,0,L|91:140,1,52.4999983978272,2|2,0:0|0:0,0:0:0:0:
63,154,4300,2,0,L|73:223,1,52.4999983978272,2|2,0:0|0:0,0:0:0:0:
46,236,4585,1,2,0:0:0:0:
145,315,4964,1,2,0:0:0:0:
144,315,5154,2,0,P|170:308|196:304,1,52.4999983978272,2|0,0:0|0:0,0:0:0:0:
295,324,5534,6,0,P|313:330|332:330,3,33.7499989700318,10|10|10|2,3:2|0:0|0:0|3:2,0:0:0:0:
415,280,6009,2,0,P|426:242|420:206,1,67.4999979400635,2|10,3:2|0:0,0:0:0:0:
411,178,6293,6,0,B|369:182|369:182|344:198|344:198|304:202,1,112.5,6|2,3:2|0:0,0:0:0:0:
273,208,6673,1,2,3:2:0:0:
154,179,7053,2,0,B|134:132|134:132|145:76,1,90,2|2,0:0|0:0,0:0:0:0:
151,66,7433,2,0,L|211:59,1,60,0|2,3:0|0:0,0:0:0:0:
327,92,8002,1,2,0:0:0:0:
327,92,8192,2,0,L|397:80,1,60,2|0,3:2|0:0,0:0:0:0:
468,133,8572,2,0,P|477:161|469:199,1,60,2|0,0:0|0:0,0:0:0:0:
456,218,8857,1,2,0:0:0:0:
456,218,8952,2,0,P|447:246|455:284,1,60,0|2,3:0|0:0,0:0:0:0:
390,344,9331,6,0,P|327:318|265:316,1,120,2|2,0:0|3:2,0:0:0:0:
159,343,10091,2,0,P|115:358|50:351,1,90,2|2,0:0|0:0,0:0:0:0:
46,343,10471,1,0,3:0:0:0:
19,246,10661,1,2,0:0:0:0:
19,246,10755,1,8,0:0:0:0:
19,246,10850,6,0,L|26:206,2,30,8|0|6,0:0|0:0|3:3,0:0:0:0:
125,225,11230,2,0,L|115:153,1,60,10|4,0:0|0:3,0:0:0:0:
112,135,11515,1,0,0:0:0:0:
112,135,11610,2,0,P|83:127|75:127,4,30,10|10|10|10|0,0:0|0:0|0:0|0:0|0:0,0:0:0:0:
245,231,12369,5,4,3:2:0:0:
338,166,12559,2,0,L|331:84,2,75,2|10|2,0:0|0:0|0:0,0:0:0:0:
439,223,13129,2,0,P|489:224|517:205,1,75,2|2,3:2|0:0,0:0:0:0:
490,101,13509,2,0,P|440:100|412:119,1,75,10|2,0:0|0:0,0:0:0:0:
333,188,13888,5,2,3:2:0:0:
333,188,14078,1,2,0:0:0:0:
358,290,14268,1,10,0:0:0:0:
358,290,14458,1,2,0:0:0:0:
250,289,14648,2,0,P|186:267|164:267,1,75,2|2,3:2|0:0,0:0:0:0:
74,227,15028,2,0,P|49:175|66:95,1,112.5,10|0,0:0|0:0,0:0:0:0:
67,86,15407,1,0,3:0:0:0:
167,149,15597,6,0,P|221:173|249:173,2,75,2|10|2,0:0|0:0|0:0,0:0:0:0:
262,87,16167,2,0,L|253:4,1,75,2|0,3:2|0:0,0:0:0:0:
367,41,16547,2,0,L|375:115,1,75,10|2,0:0|0:0,0:0:0:0:
392,229,16926,5,2,3:2:0:0:
392,229,17116,1,2,0:0:0:0:
291,278,17306,1,10,0:0:0:0:
291,278,17496,1,2,0:0:0:0:
187,228,17686,2,0,P|135:211|109:217,1,75,2|2,3:2|0:0,0:0:0:0:
131,330,18066,1,10,0:0:0:0:
131,330,18161,1,8,0:0:0:0:
131,330,18255,2,0,L|123:373,2,37.5,8|8|4,0:0|0:0|3:2,0:0:0:0:
240,302,18635,6,0,L|231:220,2,75,2|10|2,0:0|0:0|0:0,0:0:0:0:
343,355,19205,2,0,P|379:342|400:299,1,75,2|0,3:2|0:0,0:0:0:0:
506,269,19585,2,0,P|493:233|450:212,1,75,10|2,0:0|0:0,0:0:0:0:
382,139,19964,5,2,3:2:0:0:
382,139,20154,1,2,0:0:0:0:
317,230,20344,1,10,0:0:0:0:
317,230,20534,1,2,0:0:0:0:
211,191,20724,2,0,L|204:106,1,75,2|2,3:2|0:0,0:0:0:0:
200,78,21009,1,0,0:0:0:0:
200,78,21104,2,0,P|146:53|115:61,1,75,10|0,0:0|0:0,0:0:0:0:
25,99,21483,1,4,3:2:0:0:
61,214,21673,5,2,0:0:0:0:
61,214,21863,2,0,P|115:239|146:231,1,75,10|2,0:0|0:0,0:0:0:0:
232,176,22243,2,0,P|286:151|317:159,1,75,6|2,3:2|0:0,0:0:0:0:
413,206,22623,2,0,L|404:294,1,75,10|6,0:0|3:2,0:0:0:0:
310,363,23002,6,0,L|302:288,1,75,2|2,0:0|3:2,0:0:0:0:
201,221,23382,2,0,L|192:309,1,75,14|10,0:0|0:0,0:0:0:0:
171,326,23667,1,8,0:0:0:0:
171,326,23762,2,0,P|145:333|130:333,3,37.5,10|8|10|8,3:2|0:0|0:0|0:0,0:0:0:0:
96,325,24142,2,0,P|69:310|58:292,3,37.5,10|8|8|8,0:0|0:0|0:0|0:0,0:0:0:0:
47,276,24521,6,0,P|37:243|41:202,1,60,6|2,3:2|0:0,0:0:0:0:
82,134,24901,2,0,L|156:143,1,60,10|2,0:0|0:0,0:0:0:0:
173,162,25186,1,8,0:0:0:0:
173,162,25281,2,0,L|232:154,2,60,2|2|8,3:2|3:2|0:0,0:0:0:0:
226,280,26040,6,0,P|290:284|334:245,1,120,2|10,3:2|0:0,0:0:0:0:
418,280,26610,2,0,P|422:216|383:172,1,120,2|2,3:2|3:2,0:0:0:0:
311,128,27180,1,10,0:0:0:0:
311,128,27369,1,2,0:0:0:0:
263,207,27559,6,0,L|274:286,1,60,2|2,3:2|0:0,0:0:0:0:
187,306,27939,2,0,L|178:246,1,60,10|2,0:0|0:0,0:0:0:0:
153,226,28224,1,8,0:0:0:0:
153,226,28319,2,0,L|161:166,1,60,2|2,3:2|3:2,0:0:0:0:
174,76,28699,1,10,0:0:0:0:
266,113,28888,6,0,P|300:126|327:127,1,60,2|0,3:2|0:0,0:0:0:0:
415,105,29268,1,2,3:2:0:0:
377,22,29458,1,10,0:0:0:0:
415,105,29648,2,0,P|435:173|438:233,1,120,2|2,3:2|3:2,0:0:0:0:
416,315,30218,1,10,0:0:0:0:
416,315,30312,1,8,0:0:0:0:
416,315,30407,1,6,0:3:0:0:
326,330,30597,6,0,L|253:338,2,60,6|2|10,3:2|0:0|0:0,0:0:0:0:
288,246,31167,1,2,0:0:0:0:
288,246,31262,1,8,0:0:0:0:
288,246,31357,2,0,L|215:254,1,60,2|2,3:2|3:2,0:0:0:0:
163,315,31736,2,0,L|90:323,1,60,10|2,0:0|0:0,0:0:0:0:
72,328,32021,1,8,0:0:0:0:
72,328,32116,6,0,P|58:259|59:205,1,120,2|8,3:2|0:0,0:0:0:0:
75,118,32686,1,2,3:2:0:0:
75,118,32876,2,0,P|80:72|76:46,2,60,2|2|10,0:0|3:2|0:0,0:0:0:0:
179,202,33635,6,0,P|221:184|260:180,1,60,2|0,3:2|0:0,0:0:0:0:
323,219,34015,2,0,P|374:235|403:235,1,60,10|0,0:0|0:0,0:0:0:0:
453,172,34395,2,0,P|455:142|449:112,2,60,2|2|10,3:2|3:2|0:0,0:0:0:0:
487,266,34964,5,2,3:2:0:0:
412,326,35154,1,2,0:0:0:0:
380,235,35344,1,2,3:2:0:0:
380,235,35534,1,10,0:0:0:0:
308,299,35724,2,0,P|267:330|194:318,1,120,2|0,3:2|3:0,0:0:0:0:
126,270,36293,2,0,L|121:224,3,30,8|8|4|4,0:0|0:0|0:3|0:3,0:0:0:0:
145,219,36673,6,0,P|149:187|155:132,1,60,6|2,3:2|0:0,0:0:0:0:
83,100,37053,2,0,P|82:77|75:23,1,60,10|2,0:0|0:0,0:0:0:0:
160,2,37433,1,2,3:2:0:0:
160,2,37623,2,0,P|187:7|230:15,1,60,2|8,3:2|0:0,0:0:0:0:
285,73,38002,6,0,P|323:61|411:43,1,120,2|2,0:0|0:0,0:0:0:0:
471,101,38572,1,10,0:0:0:0:
471,101,38762,2,0,P|473:137|451:166,1,60,2|0,3:2|0:0,0:0:0:0:
377,191,39142,1,2,3:2:0:0:
377,191,39331,2,0,P|351:185|299:169,1,60,10|2,0:0|0:0,0:0:0:0:
294,158,39616,1,0,0:0:0:0:
294,158,39711,6,0,P|267:162|230:169,1,60,2|2,3:2|0:0,0:0:0:0:
169,232,40091,2,0,P|165:271|185:298,1,60,10|2,0:0|0:0,0:0:0:0:
257,324,40471,2,0,P|253:353|252:383,2,60,2|2|8,3:2|3:2|0:0,0:0:0:0:
429,374,41230,6,0,P|443:358|442:303,1,60,2|2,0:0|3:2,0:0:0:0:
497,244,41610,1,10,0:0:0:0:
426,187,41800,2,0,P|379:194|306:208,1,120,2|2,3:2|3:2,0:0:0:0:
218,163,42369,2,0,P|204:158|180:153,3,30,10|8|6|4,0:0|0:0|0:3|0:3,0:0:0:0:
163,171,42749,6,0,P|147:149|149:103,1,60,6|0,3:2|0:0,0:0:0:0:
159,27,43129,2,0,P|187:15|229:23,1,60,10|2,0:0|0:0,0:0:0:0:
286,74,43509,2,0,P|279:130|277:149,1,60,2|2,3:2|3:2,0:0:0:0:
294,158,43793,1,0,0:0:0:0:
294,158,43888,2,0,P|299:205|301:230,1,60,10|0,0:0|0:0,0:0:0:0:
311,307,44268,5,2,3:2:0:0:
234,354,44458,2,0,P|231:374|228:397,2,30,0|0|8,0:0|3:0|0:0,0:0:0:0:
155,309,44838,1,2,3:2:0:0:
155,309,45028,2,0,P|116:317|84:328,1,60,2|2,0:0|3:2,0:0:0:0:
14,359,45407,2,0,P|6:344|24:282,1,60,10|2,0:0|0:0,0:0:0:0:
49,221,45787,6,0,P|52:201|57:139,2,60,2|2|10,3:2|0:0|0:0,0:0:0:0:
202,125,46547,1,2,3:2:0:0:
202,125,46736,2,0,P|207:98|132:46,1,120,2|2,3:2|3:2,0:0:0:0:
49,48,47306,5,2,0:0:0:0:
49,48,47496,1,2,3:2:0:0:
7,142,47686,1,10,0:0:0:0:
7,142,47876,1,6,3:2:0:0:
84,198,48066,2,0,P|86:183|94:153,4,30,10|10|10|10|10,3:2|0:0|0:0|0:0|0:0,0:0:0:0:
261,124,48825,6,0,P|269:188|273:226,1,75,14|0,0:0|0:0,0:0:0:0:
296,225,49110,2,0,P|288:291|287:308,1,75,4|0,3:3|0:0,0:0:0:0:
283,337,49395,1,4,3:3:0:0:
177,377,49585,1,10,0:0:0:0:
177,377,50344,6,0,P|133:372|102:327,1,75,14|0,0:0|0:0,0:0:0:0:
74,344,50629,2,0,P|68:309|93:253,1,75,4|0,3:3|0:0,0:0:0:0:
119,231,50914,1,4,3:3:0:0:
222,275,51104,1,10,0:0:0:0:
222,275,51483,2,0,P|238:269|269:263,3,37.5,10|8|4|4,0:3|0:3|0:3|0:3,0:0:0:0:
286,289,51863,6,0,P|330:301|396:317,1,112.5,2|0,3:2|0:0,0:0:0:0:
428,333,52243,2,0,P|446:314|445:243,1,75,14|0,0:0|0:0,0:0:0:0:
371,202,52623,2,0,P|368:174|359:116,1,75,2|0,3:2|3:0,0:0:0:0:
466,128,53002,2,0,P|469:100|484:27,1,75,10|0,0:0|3:0,0:0:0:0:
384,3,53382,6,0,P|337:4|308:26,1,75,14|0,0:0|3:0,0:0:0:0:
242,95,53762,2,0,P|222:89|192:81,3,37.5,10|8|4|4,0:0|0:3|0:3|0:3,0:0:0:0:
177,59,54142,2,0,P|157:65|127:73,3,37.5,10|8|4|4,0:0|0:3|0:3|0:3,0:0:0:0:
118,99,54521,2,0,P|103:139|112:183,1,75,10|2,0:0|0:0,0:0:0:0:
177,238,54901,6,0,P|206:229|259:216,1,75,6|10,3:2|0:0,0:0:0:0:
328,275,55281,2,0,P|354:284|381:290,3,37.5,10|8|10|8,3:2|0:0|0:0|0:0,0:0:0:0:
406,311,55661,2,0,P|435:291|437:223,1,75,10|8,3:2|0:0,0:0:0:0:
427,158,56040,1,10,3:2:0:0:
338,117,56230,1,10,0:0:0:0:
338,117,56325,1,8,0:0:0:0:
338,117,56420,6,0,P|297:124|255:133,1,75,10|10,3:2|0:0,0:0:0:0:
197,202,56800,2,0,P|205:252|208:276,1,75,10|8,3:2|0:0,0:0:0:0:
146,352,57180,2,0,P|106:362|72:348,1,75,10|10,3:2|0:0,0:0:0:0:
13,274,57559,1,10,3:2:0:0:
13,274,57749,1,10,0:0:0:0:
72,196,57939,6,0,P|77:172|82:145,3,37.5,10|8|8|8,3:2|0:0|0:0|0:0,0:0:0:0:
47,121,58319,2,0,P|44:101|39:72,3,37.5,10|8|8|8,3:2|0:0|0:0|0:0,0:0:0:0:
76,49,58699,2,0,P|96:55|127:64,3,37.5,10|8|8|8,3:2|0:0|0:0|0:0,0:0:0:0:
150,89,59078,2,0,P|165:84|202:73,3,37.5,10|8|8|8,3:2|0:0|0:0|0:0,0:0:0:0:
225,48,59458,6,0,P|242:53|272:63,4,37.5,6|2|2|2|2,3:2|0:0|0:0|0:0|0:0,0:0:0:0:
307,149,60028,2,0,P|296:190|291:211,4,37.5,6|2|2|2|2,3:2|0:0|0:0|0:0|0:0,0:0:0:0:
414,117,60597,5,8,0:0:0:0:
414,117,60692,1,8,0:3:0:0:
414,117,60787,1,4,0:3:0:0:
332,38,60977,1,12,0:0:0:0:
332,38,61736,6,0,P|333:26|339:1,3,37.5,0|0|0|0,0:0|0:0|0:0|0:0,0:0:0:0:
312,51,62116,2,0,P|284:47|226:29,1,75,4|0,0:3|0:0,0:0:0:0:
169,116,62496,5,6,3:2:0:0:
169,116,62686,1,2,0:0:0:0:
252,183,62876,2,0,P|243:241|242:266,1,82.5000025177003,10|0,0:0|0:0,0:0:0:0:
202,364,63255,1,2,3:2:0:0:
202,364,63445,2,0,P|250:320|327:341,1,123.75000377655,2|0,0:0|0:0,0:0:0:0:
334,354,63825,1,2,0:0:0:0:
437,383,64015,6,0,P|433:356|418:295,1,82.5000025177003,2|2,3:2|0:0,0:0:0:0:
498,227,64395,2,0,P|502:202|514:138,1,82.5000025177003,10|0,0:0|0:0,0:0:0:0:
426,80,64774,2,0,P|423:53|410:-23,2,82.5000025177003,2|0|8,3:2|0:0|0:0,0:0:0:0:
347,153,65344,1,2,0:0:0:0:
347,153,65534,6,0,P|312:138|256:125,1,82.5000025177003,2|2,3:2|0:0,0:0:0:0:
165,96,65914,2,0,P|142:147|162:186,1,82.5000025177003,10|2,0:0|0:0,0:0:0:0:
242,221,66293,1,2,3:2:0:0:
242,221,66483,1,2,0:0:0:0:
253,327,66673,1,10,0:0:0:0:
253,327,66863,1,2,0:0:0:0:
159,379,67053,2,0,P|127:366|73:346,1,82.5000025177003,2|0,3:2|0:0,0:0:0:0:
29,243,67433,6,0,P|33:215|55:97,1,123.75000377655,10|0,0:0|0:0,0:0:0:0:
70,81,67812,2,0,P|115:81|146:124,1,82.5000025177003,2|2,3:2|0:0,0:0:0:0:
241,106,68192,1,10,3:2:0:0:
241,106,68287,1,8,0:0:0:0:
241,106,68382,1,10,0:0:0:0:
241,106,68477,1,8,0:0:0:0:
241,106,68572,6,0,P|276:115|340:132,1,82.5000025177003,6|2,3:2|0:0,0:0:0:0:
404,59,68952,2,0,B|344:96|344:96|377:194,1,165.000005035401,10|2,0:0|3:2,0:0:0:0:
393,291,69521,2,0,P|435:297|476:258,1,82.5000025177003,2|8,0:0|0:0,0:0:0:0:
484,169,69901,1,2,0:0:0:0:
410,90,70091,5,2,3:2:0:0:
410,90,70281,1,2,0:0:0:0:
310,129,70471,2,0,P|267:115|186:93,1,123.75000377655,10|0,0:0|0:0,0:0:0:0:
158,120,70850,2,0,P|118:130|68:145,2,82.5000025177003,2|0|8,3:2|0:0|0:0,0:0:0:0:
222,206,71420,5,2,0:0:0:0:
123,248,71610,2,0,P|114:294|109:343,1,82.5000025177003,6|2,3:2|0:0,0:0:0:0:
206,377,71990,2,0,P|248:383|297:343,1,82.5000025177003,10|2,0:0|0:0,0:0:0:0:
320,264,72369,1,2,3:2:0:0:
320,264,72559,1,2,0:0:0:0:
258,176,72749,1,10,0:0:0:0:
258,176,72939,1,2,0:0:0:0:
318,87,73129,6,0,P|356:73|405:59,1,82.5000025177003,2|12,3:2|0:0,0:0:0:0:
470,140,73509,2,0,P|471:207|396:215,1,123.75000377655,10|8,3:2|0:0,0:0:0:0:
381,212,73888,2,0,P|373:242|370:266,2,41.2500012588501,10|8|8,3:2|0:0|0:3,0:0:0:0:
266,194,74268,1,6,3:3:0:0:
266,194,74363,1,4,0:3:0:0:
266,194,74458,1,6,0:3:0:0:
266,194,74553,1,4,0:3:0:0:
266,194,74648,6,0,B|200:159|200:159|238:306,1,202.499993820191,6|2,3:2|3:2,0:0:0:0:
219,378,75407,1,10,0:0:0:0:
219,378,75977,1,2,3:2:0:0:
219,378,76167,6,0,P|236:320|356:348,1,202.499993820191,2|2,0:0|3:2,0:0:0:0:
415,277,76926,1,10,0:0:0:0:
383,194,77116,1,0,3:0:0:0:
383,194,77211,1,0,3:0:0:0:
383,194,77306,2,0,P|340:202|287:218,1,67.4999979400635,12|2,0:0|0:0,0:0:0:0:
233,237,77686,6,0,P|221:214|243:151,1,82.5000025177003,4|2,3:2|0:0,0:0:0:0:
290,69,78066,2,0,P|245:55|199:44,1,82.5000025177003,10|0,0:0|0:0,0:0:0:0:
119,103,78445,2,0,P|77:111|35:120,2,82.5000025177003,2|0|8,3:2|0:0|0:0,0:0:0:0:
222,133,79015,6,0,P|242:177|231:227,1,82.5000025177003,2|0,0:0|3:0,0:0:0:0:
144,263,79395,1,2,0:0:0:0:
144,263,79490,1,2,0:0:0:0:
144,263,79585,2,0,P|136:327|136:349,1,82.5000025177003,10|0,0:0|0:0,0:0:0:0:
239,372,79964,2,0,P|277:362|388:341,1,123.75000377655,2|0,3:2|0:0,0:0:0:0:
407,354,80344,1,10,0:0:0:0:
407,354,80439,1,8,0:0:0:0:
407,354,80534,1,6,0:3:0:0:
407,354,80629,1,4,0:3:0:0:
407,354,80724,6,0,P|411:323|431:187,1,165.000005035401,6|8,3:2|0:0,0:0:0:0:
357,121,81293,1,2,0:0:0:0:
271,171,81483,1,2,3:2:0:0:
271,171,81673,2,0,P|234:182|177:166,1,82.5000025177003,0|8,0:0|0:0,0:0:0:0:
105,109,82053,1,2,0:0:0:0:
166,20,82243,6,0,P|220:4|272:-6,1,82.5000025177003,2|0,3:2|0:0,0:0:0:0:
339,51,82623,2,0,P|354:102|333:145,1,82.5000025177003,8|2,0:0|0:0,0:0:0:0:
251,180,83002,1,2,3:2:0:0:
251,180,83097,1,0,0:0:0:0:
251,180,83192,1,0,0:0:0:0:
302,274,83382,2,0,P|290:341|287:361,1,82.5000025177003,8|2,0:0|0:0,0:0:0:0:
181,374,83762,5,4,3:2:0:0:
181,374,83952,1,2,0:0:0:0:
90,316,84142,2,0,P|85:288|118:231,1,82.5000025177003,10|0,0:0|0:0,0:0:0:0:
192,175,84521,2,0,P|231:183|290:199,1,82.5000025177003,2|0,3:2|0:0,0:0:0:0:
312,216,84806,1,0,0:0:0:0:
312,216,84901,1,8,0:0:0:0:
376,130,85091,1,2,0:0:0:0:
322,37,85281,6,0,P|293:38|224:49,1,82.5000025177003,2|14,3:2|0:0,0:0:0:0:
123,18,85661,2,0,P|117:56|113:81,3,41.2500012588501,2|8|8|8,3:2|0:0|0:0|0:0,0:0:0:0:
75,92,86040,2,0,P|81:130|85:155,3,41.2500012588501,10|8|4|0,3:2|0:3|0:3|0:0,0:0:0:0:
126,163,86420,2,0,P|120:201|116:226,3,41.2500012588501,10|8|6|4,0:3|0:3|0:3|0:3,0:0:0:0:
94,246,86800,1,0,3:0:0:0:
256,64,89838,5,6,0:0:0:0:
256,64,90597,2,0,P|237:130|238:183,2,112.5,2|2|2,3:2|3:2|3:2,0:0:0:0:
474,150,92116,6,0,P|490:199|490:254,1,75,6|10,3:2|0:0,0:0:0:0:
483,258,92401,1,10,0:0:0:0:
483,258,92496,2,0,L|393:250,1,75,10|8,0:0|0:3,0:0:0:0:
298,223,92876,5,6,0:0:0:0:
298,223,93635,2,0,P|229:193|192:200,2,112.5,2|2|2,3:2|3:2|3:2,0:0:0:0:
126,352,95154,2,0,P|81:345|56:323,1,75,6|10,3:2|0:0,0:0:0:0:
40,296,95439,1,8,0:0:0:0:
40,296,95534,2,0,L|32:206,1,75,10|8,0:0|0:3,0:0:0:0:
51,124,95914,5,6,3:2:0:0:
177,60,96293,2,0,P|220:51|250:54,1,60,10|2,0:0|3:2,0:0:0:0:
268,67,96578,1,2,0:0:0:0:
268,67,96673,2,0,L|278:148,1,60,2|2,3:2|0:0,0:0:0:0:
280,157,96958,1,2,3:2:0:0:
280,157,97053,1,2,0:0:0:0:
368,115,97243,6,0,P|418:134|437:204,1,120,12|0,0:0|3:0,0:0:0:0:
408,285,97812,2,0,L|353:278,3,30,10|2|2|10,0:0|0:0|0:0|0:0,0:0:0:0:
353,302,98192,2,0,L|270:290,1,60,2|2,3:2|0:0,0:0:0:0:
274,315,98477,1,0,3:0:0:0:
274,315,98572,1,10,0:0:0:0:
225,235,98762,1,0,3:0:0:0:
280,157,98952,1,2,3:2:0:0:
207,96,99142,6,0,L|166:102,5,30,2|2|10|2|2|2,0:0|3:2|0:0|0:0|3:2|0:0,0:0:0:0:
148,85,99711,2,0,P|150:55|144:25,2,60,2|2|2,3:2|0:0|0:0,0:0:0:0:
95,165,100281,1,14,0:0:0:0:
95,165,100471,6,0,P|89:194|91:224,1,60,2|2,0:0|3:0,0:0:0:0:
131,312,100850,1,10,0:0:0:0:
213,265,101040,1,2,0:0:0:0:
213,265,101135,1,8,0:0:0:0:
213,265,101230,2,0,P|234:257|252:256,3,30,10|10|10|10,3:2|0:0|0:0|0:0,0:0:0:0:
271,268,101610,2,0,P|330:285|348:282,1,60,10|6,3:2|0:3,0:0:0:0:
426,217,101990,6,0,P|434:172|429:130,1,75,6|2,3:2|0:0,0:0:0:0:
422,107,102274,1,2,0:0:0:0:
422,107,102369,2,0,B|387:92|387:92|350:95,1,75,10|2,0:0|0:0,0:0:0:0:
276,181,102749,2,0,B|199:191|199:191|122:160,1,150,2|10,3:2|0:0,0:0:0:0:
39,94,103319,6,0,P|92:49|177:64,1,150,2|2,0:0|0:0,0:0:0:0:
250,138,103888,2,0,L|240:224,1,75,10|2,0:0|0:0,0:0:0:0:
222,248,104173,1,2,0:0:0:0:
222,248,104268,2,0,L|226:295,3,37.5,2|2|2|2,3:2|0:0|0:0|0:0,0:0:0:0:
248,318,104648,1,10,0:0:0:0:
142,357,104838,1,2,0:0:0:0:
45,296,105028,6,0,P|31:260|33:219,1,75,2|2,3:2|0:0,0:0:0:0:
97,128,105407,2,0,L|90:89,2,37.5,10|2|2,0:0|0:0|0:0,0:0:0:0:
194,190,105787,1,2,3:2:0:0:
194,190,105882,1,2,0:0:0:0:
194,190,105977,2,0,L|187:226,2,37.5,2|0|10,0:0|0:0|0:0,0:0:0:0:
300,140,106357,5,2,0:0:0:0:
300,140,106452,1,0,0:0:0:0:
300,140,106547,2,0,P|334:122|376:125,1,75,2|2,3:2|0:0,0:0:0:0:
451,203,106926,2,0,L|457:239,3,37.5,10|2|2|0,0:0|0:0|0:0|0:0,0:0:0:0:
485,266,107306,1,2,3:2:0:0:
385,329,107496,1,2,0:0:0:0:
296,288,107686,2,0,P|270:281|246:276,2,37.5,10|8|6,0:0|0:0|0:3,0:0:0:0:
344,202,108066,5,6,3:2:0:0:
289,122,108255,2,0,P|287:109|283:72,4,37.5,2|2|10|2|0,0:0|0:0|0:0|0:0|0:0,0:0:0:0:
202,168,108825,2,0,P|197:128|181:44,2,112.5,2|2|2,3:2|0:0|0:0,0:0:0:0:
124,228,109585,6,0,P|117:257|115:276,3,37.5,2|2|0|2,3:2|0:0|0:0|0:0,0:0:0:0:
113,313,109964,2,0,P|78:317|40:280,2,75,10|2|2,0:0|0:0|3:2,0:0:0:0:
204,361,110534,1,2,0:0:0:0:
204,361,110724,2,0,P|207:337|215:283,1,75,10|2,0:0|0:0,0:0:0:0:
255,208,111104,6,0,P|253:188|249:157,3,37.5,2|2|2|2,3:2|0:0|0:0|0:0,0:0:0:0:
291,142,111483,2,0,P|293:123|302:90,2,37.5,10|2|2,0:0|0:0|0:0,0:0:0:0:
372,197,111863,1,2,3:2:0:0:
459,153,112053,2,0,P|456:123|446:64,2,75,2|10|2,0:0|0:0|0:0,0:0:0:0:
488,176,112528,1,0,0:0:0:0:
488,176,112623,6,0,P|502:219|492:259,1,75,2|12,3:2|0:0,0:0:0:0:
494,345,113002,2,0,P|472:338|442:326,3,37.5,2|2|10|10,3:2|0:0|0:0|0:0,0:0:0:0:
419,362,113382,1,2,3:2:0:0:
346,296,113572,1,10,0:3:0:0:
346,296,113667,1,10,0:3:0:0:
346,296,113762,2,0,P|330:299|301:306,2,37.5,6|4|6,0:3|0:3|0:3,0:0:0:0:
420,231,114142,6,0,P|433:207|431:147,1,75,14|0,0:0|0:0,0:0:0:0:
464,120,114426,2,0,P|451:90|409:67,1,75,4|0,3:3|0:0,0:0:0:0:
369,83,114711,1,4,3:3:0:0:
282,37,114901,1,10,0:0:0:0:
282,37,115661,6,0,P|271:111|269:133,1,75,14|0,0:0|0:0,0:0:0:0:
232,140,115945,2,0,P|238:205|241:231,1,75,4|0,3:3|0:0,0:0:0:0:
279,243,116230,1,4,3:3:0:0:
303,337,116420,1,10,0:0:0:0:
111,375,116800,2,0,P|91:367|59:358,4,37.5,10|8|4|4|4,0:3|0:3|0:3|0:3|0:3,0:0:0:0:
168,295,117369,5,2,0:0:0:0:
168,295,117559,2,0,P|173:265|181:213,1,75,12|2,0:0|0:0,0:0:0:0:
208,196,117844,1,8,0:0:0:0:
208,196,117939,2,0,P|196:171|152:145,1,75,2|0,3:2|3:0,0:0:0:0:
65,182,118319,1,10,0:0:0:0:
65,182,118509,1,2,3:2:0:0:
7,103,118699,6,0,P|9:78|26:9,1,75,12|2,0:0|3:2,0:0:0:0:
113,3,119078,2,0,P|132:10|156:18,3,37.5,10|8|4|4,3:2|0:3|0:3|0:3,0:0:0:0:
169,47,119458,2,0,P|188:40|212:32,3,37.5,10|8|4|4,3:2|0:3|0:3|0:3,0:0:0:0:
238,17,119838,2,0,P|260:56|251:94,1,75,8|2,0:0|0:0,0:0:0:0:
191,158,120218,6,0,P|187:193|182:240,1,75,14|10,3:2|0:0,0:0:0:0:
148,323,120597,2,0,P|166:325|185:333,3,37.5,10|8|10|8,3:2|0:0|0:0|0:0,0:0:0:0:
220,365,120977,2,0,P|253:357|305:351,1,75,10|8,3:2|0:0,0:0:0:0:
358,278,121357,1,10,3:2:0:0:
287,210,121547,1,10,0:0:0:0:
287,210,121642,1,8,0:0:0:0:
287,210,121736,6,0,P|285:182|280:126,1,75,10|10,3:2|0:0,0:0:0:0:
252,41,122116,2,0,P|272:21|327:18,1,75,10|8,3:2|0:0,0:0:0:0:
407,50,122496,2,0,P|449:66|484:77,1,75,10|10,3:2|0:0,0:0:0:0:
496,171,122876,1,10,3:2:0:0:
496,171,123066,1,10,0:0:0:0:
429,241,123255,6,0,P|403:247|384:252,3,37.5,10|8|8|8,3:2|0:0|0:0|0:0,0:0:0:0:
360,212,123635,2,0,P|334:206|315:201,3,37.5,10|8|8|8,3:2|0:0|0:0|0:0,0:0:0:0:
302,247,124015,2,0,P|276:253|257:258,3,37.5,10|8|8|8,3:2|0:0|0:0|0:0,0:0:0:0:
235,216,124395,2,0,P|209:210|190:205,3,37.5,10|8|8|8,3:2|0:0|0:0|0:0,0:0:0:0:
162,240,124774,6,0,P|168:265|171:284,4,37.5,6|2|2|2|2,3:2|0:0|0:0|0:0|0:0,0:0:0:0:
79,186,125344,2,0,P|83:170|88:146,4,37.5,6|2|2|2|2,3:2|0:0|0:0|0:0|0:0,0:0:0:0:
0,243,125914,5,8,0:0:0:0:
0,243,126009,1,8,0:3:0:0:
0,243,126104,1,4,0:3:0:0:
47,327,126293,1,12,0:0:0:0:
47,327,127053,6,0,P|61:322|86:314,3,37.5,2|2|2|2,0:0|0:0|0:0|0:0,0:0:0:0:
124,340,127433,2,0,P|161:350|209:364,1,75,4|0,3:3|0:0,0:0:0:0:
315,321,127812,6,0,P|327:281|325:234,1,82.5000025177003,6|2,3:2|0:0,0:0:0:0:
294,124,128192,1,10,0:0:0:0:
294,124,128572,2,0,P|236:135|193:155,1,82.5000025177003,2|2,3:2|0:0,0:0:0:0:
326,240,128952,2,0,P|384:229|427:209,1,82.5000025177003,8|2,0:0|0:0,0:0:0:0:
454,103,129331,5,2,3:2:0:0:
454,103,129521,1,2,0:0:0:0:
354,43,129711,2,0,P|334:91|342:141,1,82.5000025177003,10|0,0:0|0:0,0:0:0:0:
408,217,130091,2,0,P|419:260|383:377,1,165.000005035401,2|8,3:2|0:0,0:0:0:0:
266,379,130661,5,2,0:0:0:0:
266,379,130850,2,0,P|225:373|192:349,1,82.5000025177003,2|2,3:2|0:0,0:0:0:0:
88,276,131230,2,0,P|112:243|150:227,1,82.5000025177003,10|2,0:0|0:0,0:0:0:0:
265,174,131610,2,0,P|280:211|275:252,1,82.5000025177003,2|2,3:2|0:0,0:0:0:0:
150,227,131990,2,0,P|134:189|139:148,1,82.5000025177003,10|2,0:0|0:0,0:0:0:0:
225,73,132369,1,2,3:2:0:0:
225,73,132749,6,0,P|311:113|363:119,1,123.75000377655,10|0,0:0|0:0,0:0:0:0:
351,162,133129,2,0,P|418:149|440:136,1,82.5000025177003,2|2,3:2|0:0,0:0:0:0:
499,86,133509,1,10,3:2:0:0:
499,86,133604,1,8,0:0:0:0:
499,86,133699,1,10,0:0:0:0:
499,86,133793,1,8,0:0:0:0:
499,86,133888,6,0,P|511:140|515:181,1,82.5000025177003,6|2,3:2|0:0,0:0:0:0:
463,250,134268,1,10,0:0:0:0:
293,160,134648,1,2,3:2:0:0:
293,160,134838,2,0,L|271:331,1,165.000005035401,2|2,0:0|0:0,0:0:0:0:
155,366,135407,6,0,P|100:364|75:341,1,82.5000025177003,2|2,3:2|0:0,0:0:0:0:
151,234,135787,2,0,B|249:212|224:292|312:265,2,165.000005035401,10|2|8,0:0|3:2|0:0,0:0:0:0:
26,232,136736,5,2,0:0:0:0:
61,119,136926,2,0,P|44:81|43:40,2,82.5000025177003,6|2|10,3:2|0:0|0:0,0:0:0:0:
179,143,137496,1,2,0:0:0:0:
239,22,137686,2,0,P|198:16|160:31,1,82.5000025177003,2|2,3:2|0:0,0:0:0:0:
179,143,138066,2,0,P|219:148|257:133,1,82.5000025177003,10|2,0:0|0:0,0:0:0:0:
357,80,138445,5,2,3:2:0:0:
437,184,138635,1,12,0:0:0:0:
364,295,138825,2,0,L|315:285,3,41.2500012588501,10|8|8|8,3:2|0:0|0:0|0:0,0:0:0:0:
286,305,139205,2,0,L|237:295,3,41.2500012588501,10|8|8|8,3:2|0:0|0:0|0:0,0:0:0:0:
210,319,139585,2,0,L|161:309,3,41.2500012588501,6|4|6|4,3:3|0:3|0:3|0:3,0:0:0:0:
140,333,139964,6,0,B|101:324|101:324|79:285|90:245|111:260|121:207|100:168,1,202.499993820191,6|2,3:2|3:2,0:0:0:0:
16,117,140724,2,0,P|54:76|141:83,1,134.999995880127,10|0,0:0|0:0,0:0:0:0:
226,126,141293,1,2,3:2:0:0:
226,126,141483,2,0,P|260:140|299:140,2,67.4999979400635,2|0|0,0:0|3:0|0:0,0:0:0:0:
282,36,142053,1,2,3:2:0:0:
374,83,142243,2,0,P|386:136|385:167,1,67.4999979400635,10|0,0:0|3:0,0:0:0:0:
322,225,142623,2,0,P|310:278|311:309,1,67.4999979400635,12|2,0:0|0:0,0:0:0:0:
417,363,143002,6,0,P|472:353|476:257,2,165.000005035401,4|10|2,3:2|0:0|3:2,0:0:0:0:
309,290,143952,1,0,0:0:0:0:
309,290,144142,2,0,P|250:298|200:321,1,82.5000025177003,8|2,0:0|0:0,0:0:0:0:
116,354,144521,5,2,3:2:0:0:
32,273,144711,1,2,0:0:0:0:
32,273,144901,2,0,P|20:206|22:168,1,82.5000025177003,10|0,0:0|0:0,0:0:0:0:
27,75,145281,2,0,P|91:98|95:130,1,82.5000025177003,2|0,3:2|0:0,0:0:0:0:
173,189,145661,1,10,0:0:0:0:
173,189,145755,1,8,0:0:0:0:
173,189,145850,1,6,0:3:0:0:
173,189,145945,1,4,0:3:0:0:
173,189,146040,6,0,P|177:141|193:8,1,165.000005035401,6|8,3:2|0:0,0:0:0:0:
296,7,146610,1,2,0:0:0:0:
328,117,146800,2,0,B|407:145|392:41|488:77,1,165.000005035401,2|8,3:2|0:0,0:0:0:0:
512,199,147369,1,2,0:0:0:0:
441,292,147559,6,0,P|347:300|297:230,1,165.000005035401,2|8,3:2|0:0,0:0:0:0:
303,131,148129,1,2,0:0:0:0:
211,54,148319,2,0,P|160:59|125:75,1,82.5000025177003,2|0,3:2|0:0,0:0:0:0:
33,154,148699,2,0,P|84:159|119:175,1,82.5000025177003,8|2,0:0|0:0,0:0:0:0:
230,197,149078,5,4,3:2:0:0:
160,291,149268,1,2,0:0:0:0:
160,291,149458,2,0,L|257:289,1,82.5000025177003,10|0,0:0|0:0,0:0:0:0:
344,332,149838,2,0,P|355:280|342:235,1,82.5000025177003,2|0,3:2|0:0,0:0:0:0:
291,145,150218,2,0,L|299:43,1,82.5000025177003,8|2,0:0|0:0,0:0:0:0:
176,19,150597,5,2,3:2:0:0:
71,88,150787,1,14,0:0:0:0:
99,215,150977,2,0,L|109:265,3,41.2500012588501,2|8|8|8,3:2|0:0|0:0|0:0,0:0:0:0:
119,299,151357,2,0,L|166:322,3,41.2500012588501,6|8|4|0,0:3|0:3|0:3|0:0,0:0:0:0:
196,329,151736,2,0,L|245:319,3,41.2500012588501,10|8|6|4,0:3|0:3|0:3|0:3,0:0:0:0:
276,310,152116,1,0,3:0:0:0:
276,310,153635,6,0,P|271:275|253:172,2,120,4|2|2,3:2|3:2|3:2,0:0:0:0:
427,236,154774,1,2,3:2:0:0:
416,152,154964,2,0,P|377:140|336:131,1,60,2|0,0:0|3:0,0:0:0:0:
286,180,155344,2,0,P|209:192|143:203,2,120,2|10|10,0:0|0:3|0:3,0:0:0:0:
338,245,156293,1,6,0:3:0:0:
338,245,156483,1,10,0:0:0:0:
300,320,156673,6,0,P|262:348|200:340,1,90,0|0,3:0|0:0,0:0:0:0:
196,330,157053,2,0,P|192:309|184:263,1,60,2|8,3:2|0:3,0:0:0:0:
229,198,157433,2,0,P|231:180|244:72,1,120,2|2,3:2|3:2,0:0:0:0:
186,16,158002,1,10,0:0:0:0:
186,16,158097,1,8,0:0:0:0:
186,16,158192,1,0,3:0:0:0:
120,69,158382,2,0,P|66:58|-6:41,2,120,2|10|10,0:0|0:3|0:3,0:0:0:0:
173,134,159331,2,0,P|168:163|167:177,3,30,6|6|10|8,3:3|0:3|0:0|0:0,0:0:0:0:
135,191,159711,5,4,3:2:0:0:
135,191,160091,2,0,P|145:249|153:325,2,120,2|2|2,3:2|3:2|3:2,0:0:0:0:
57,158,161040,1,10,0:0:0:0:
57,158,161135,1,8,0:0:0:0:
57,158,161230,1,0,3:0:0:0:
125,109,161420,2,0,P|193:121|223:167,2,120,2|10|10,0:0|0:3|0:3,0:0:0:0:
57,158,162369,1,10,3:3:0:0:
57,158,162559,1,10,0:0:0:0:
99,230,162749,6,0,P|112:300|117:336,1,90,4|0,3:2|0:0,0:0:0:0:
90,353,163129,2,0,P|110:363|160:363,1,60,2|8,3:2|0:0,0:0:0:0:
215,318,163509,2,0,P|231:315|254:309,3,30,6|4|4|4,3:3|0:3|0:3|0:3,0:0:0:0:
277,337,163888,2,0,P|313:347|355:361,1,60,2|10,3:2|0:0,0:0:0:0:
398,298,164268,5,4,3:2:0:0:
347,230,164458,1,10,0:0:0:0:
347,230,164553,1,8,0:0:0:0:
347,230,164648,2,0,P|326:233|305:239,2,30,10|6|6,3:2|0:3|0:3,0:0:0:0:
408,147,165028,1,10,0:0:0:0:
358,62,165218,1,2,3:2:0:0:
195,142,165597,5,2,0:0:0:0:
195,142,165787,2,0,P|134:121|111:117,1,75,6|2,3:2|0:0,0:0:0:0:
39,192,166167,2,0,P|51:255|59:277,1,75,10|2,0:0|0:0,0:0:0:0:
161,303,166547,2,0,P|209:260|224:242,2,75,2|2|10,3:2|3:2|0:0,0:0:0:0:
128,215,167116,1,2,0:0:0:0:
208,129,167306,6,0,L|200:40,2,75,2|2|10,3:2|0:0|0:0,0:0:0:0:
289,181,167876,1,2,0:0:0:0:
380,122,168066,2,0,L|464:108,1,75,0|2,3:0|3:2,0:0:0:0:
492,208,168445,2,0,L|418:220,1,75,10|2,0:0|0:0,0:0:0:0:
318,278,168825,6,0,P|303:233|308:196,2,75,2|2|10,3:2|0:0|0:0,0:0:0:0:
379,376,169395,1,2,0:0:0:0:
262,384,169585,2,0,B|187:395|205:326|123:327,1,150,0|10,3:0|0:0,0:0:0:0:
65,248,170154,1,0,0:0:0:0:
65,248,170344,6,0,P|96:228|133:222,1,75,2|2,3:2|0:0,0:0:0:0:
256,163,170724,2,0,P|189:134|121:128,1,112.5,14|0,0:0|0:0,0:0:0:0:
119,132,171104,2,0,L|112:87,7,37.5,8|8|4|4|8|8|4|4,3:2|0:0|0:3|0:3|3:3|0:3|0:3|0:3,0:0:0:0:
84,74,171863,6,0,L|77:29,3,37.5,6|2|2|0,3:2|0:0|0:0|0:0,0:0:0:0:
105,11,172243,2,0,P|146:14|195:31,1,75,14|2,0:0|0:0,0:0:0:0:
279,82,172623,2,0,P|330:97|371:98,1,75,2|2,3:2|3:2,0:0:0:0:
385,87,172907,1,2,0:0:0:0:
385,87,173002,2,0,L|396:9,1,75,10|2,0:0|0:0,0:0:0:0:
498,67,173382,6,0,L|513:148,1,75,2|2,3:2|0:0,0:0:0:0:
506,176,173667,1,2,0:0:0:0:
506,176,173762,2,0,P|456:186|419:200,1,75,10|2,0:0|0:0,0:0:0:0:
346,262,174142,1,2,3:2:0:0:
249,221,174331,1,2,3:2:0:0:
162,306,174521,2,0,P|108:295|78:281,2,75,14|0|2,0:0|0:0|3:2,0:0:0:0:
275,359,175091,6,0,P|349:345|425:307,1,150,14|4,0:0|0:3,0:0:0:0:
461,211,175661,1,10,0:0:0:0:
384,134,175850,1,10,0:3:0:0:
384,134,175945,1,10,0:3:0:0:
384,134,176040,2,0,P|359:119|345:116,3,37.5,4|6|10|0,0:3|0:3|0:3|0:0,0:0:0:0:
314,113,176420,5,6,3:2:0:0:
203,161,176610,1,10,0:0:0:0:
183,166,176705,1,8,0:0:0:0:
162,164,176800,2,0,L|116:155,3,37.5,8|8|4|4,0:0|0:0|0:3|0:3,0:0:0:0:
88,150,177180,5,2,3:2:0:0:
148,299,177464,1,2,3:2:0:0:
300,348,177749,2,0,L|390:333,1,75,14|8,0:0|3:2,0:0:0:0:
431,241,178129,5,10,0:0:0:0:
335,181,178319,2,0,L|328:278,2,75,10|10|10,3:2|0:0|3:2,0:0:0:0:
405,93,178888,1,10,0:0:0:0:
297,34,179078,1,10,3:2:0:0:
278,35,179173,1,8,0:3:0:0:
259,37,179268,1,10,0:3:0:0:
241,39,179363,1,8,0:3:0:0:
222,41,179458,6,0,L|142:24,1,75,2|2,3:2|0:0,0:0:0:0:
83,121,179838,2,0,P|80:160|97:203,1,75,14|8,0:0|0:0,0:0:0:0:
115,223,180123,1,8,0:0:0:0:
115,223,180218,2,0,L|166:213,3,37.5,10|8|10|4,3:2|0:0|0:0|0:3,0:0:0:0:
186,235,180597,2,0,L|282:217,1,75,0|6,3:0|0:3,0:0:0:0:
374,193,180977,5,6,3:2:0:0:
374,193,181167,1,2,0:0:0:0:
439,279,181357,2,0,P|403:301|348:298,1,75,10|0,0:0|0:0,0:0:0:0:
275,355,181736,2,0,P|240:291|258:220,1,150,2|8,3:2|0:0,0:0:0:0:
307,128,182306,5,2,0:0:0:0:
220,43,182496,2,0,L|114:63,1,75,2|2,3:2|0:0,0:0:0:0:
69,144,182876,2,0,L|175:164,1,75,10|2,0:0|0:0,0:0:0:0:
220,245,183255,2,0,L|114:265,1,75,2|2,3:2|0:0,0:0:0:0:
69,346,183635,2,0,L|175:366,1,75,10|2,0:0|0:0,0:0:0:0:
261,374,184015,1,2,3:2:0:0:
261,374,184395,6,0,B|280:321|232:306|264:239,1,112.5,10|0,0:0|0:0,0:0:0:0:
288,248,184774,2,0,P|294:203|281:160,1,75,2|2,3:2|0:0,0:0:0:0:
287,63,185154,1,10,0:0:0:0:
287,63,185249,1,8,0:0:0:0:
287,63,185344,1,10,0:0:0:0:
287,63,185439,1,8,0:0:0:0:
287,63,185534,6,0,L|372:76,1,75,6|2,3:2|0:0,0:0:0:0:
469,48,185914,1,10,0:0:0:0:
287,174,186293,1,2,3:2:0:0:
287,174,186483,2,0,L|129:148,1,150,2|2,0:0|0:0,0:0:0:0:
41,94,187053,6,0,P|26:140|31:179,1,75,2|2,3:2|0:0,0:0:0:0:
72,274,187433,2,0,P|127:321|213:299,2,150,10|2|8,0:0|3:2|0:0,0:0:0:0:
141,185,188382,5,2,0:0:0:0:
246,223,188572,2,0,P|257:278|260:309,1,75,6|2,3:2|0:0,0:0:0:0:
365,332,188952,2,0,P|392:307|422:284,1,75,10|2,0:0|0:0,0:0:0:0:
400,174,189331,2,0,P|365:163|330:149,2,75,2|2|10,3:2|0:0|0:0,0:0:0:0:
486,110,189901,1,2,0:0:0:0:
406,36,190091,5,2,3:2:0:0:
298,52,190281,1,12,0:0:0:0:
229,139,190471,2,0,L|223:197,3,37.5,10|8|8|8,3:2|0:0|0:0|0:0,0:0:0:0:
250,209,190850,2,0,L|256:267,3,37.5,10|8|8|8,3:2|0:0|0:3|0:3,0:0:0:0:
229,279,191230,2,0,L|223:337,3,37.5,6|4|6|4,3:3|0:3|0:3|0:3,0:0:0:0:
244,361,191610,6,0,P|295:356|351:387,1,112.5,6|0,3:2|3:0,0:0:0:0:
385,366,191990,2,0,P|388:344|400:272,1,75,14|2,0:0|3:2,0:0:0:0:
338,213,192369,2,0,L|384:201,3,37.5,14|0|2|0,0:0|0:0|3:2|3:0,0:0:0:0:
409,181,192749,2,0,L|455:193,3,37.5,14|0|2|0,0:0|0:0|3:2|0:0,0:0:0:0:
488,218,193118,6,0,P|502:189|487:128,1,75,14|0,0:0|3:0,0:0:0:0:
483,35,193433,2,0,P|451:17|392:33,1,75,14|0,0:0|3:0,0:0:0:0:
336,102,193749,2,0,P|299:92|249:79,1,75,14|0,0:0|3:0,0:0:0:0:
171,18,194065,1,14,0:0:0:0:
76,58,194254,6,0,P|60:54|16:46,3,37.5,8|8|10|8,0:0|0:0|0:0|0:0,0:0:0:0:
8,77,194634,6,0,P|16:129|22:167,1,75,4|10,3:2|0:0,0:0:0:0:
5,190,194918,1,2,0:0:0:0:
5,190,195013,2,0,P|27:215|88:214,1,75,2|8,3:2|0:0,0:0:0:0:
141,158,195393,1,2,3:2:0:0:
228,201,195583,1,8,0:0:0:0:
228,201,195678,1,0,3:0:0:0:
228,201,195773,1,0,0:0:0:0:
184,288,195963,6,0,P|178:347|174:391,1,75,10|0,0:0|3:0,0:0:0:0:
272,380,196342,1,10,0:0:0:0:
361,341,196532,2,0,P|380:343|400:348,2,37.5,2|0|8,3:2|3:0|0:0,0:0:0:0:
328,248,196912,2,0,P|331:222|342:152,1,75,2|8,3:2|0:0,0:0:0:0:
422,123,197292,2,0,P|438:126|458:132,3,37.5,2|0|10|0,0:0|3:0|0:0|0:0,0:0:0:0:
506,137,197671,6,0,P|517:178|497:211,1,75,6|8,3:2|0:0,0:0:0:0:
435,276,198051,2,0,P|432:262|421:228,2,37.5,0|0|10,3:0|3:0|0:0,0:0:0:0:
503,345,198431,1,2,3:2:0:0:
413,382,198621,1,8,0:0:0:0:
413,382,198716,1,0,3:0:0:0:
413,382,198811,2,0,P|379:367|324:353,1,75,0|10,0:0|0:0,0:0:0:0:
246,369,199190,6,0,P|236:339|256:285,1,75,2|8,3:2|0:0,0:0:0:0:
325,241,199570,2,0,P|341:234|377:222,2,37.5,0|0|10,3:0|3:0|0:0,0:0:0:0:
258,169,199950,2,0,P|217:155|167:141,1,75,2|8,3:2|0:0,0:0:0:0:
147,160,200235,1,0,3:0:0:0:
147,160,200330,2,0,P|120:190|133:240,1,75,0|10,0:0|0:0,0:0:0:0:
209,264,200709,6,0,P|218:309|225:364,1,75,6|10,3:2|0:0,0:0:0:0:
134,382,201089,2,0,P|99:370|58:356,1,75,2|8,3:2|0:0,0:0:0:0:
9,275,201469,2,0,P|12:237|24:167,1,75,2|8,3:2|0:0,0:0:0:0:
76,122,201849,2,0,P|73:99|66:64,2,37.5,0|0|10,0:0|3:0|0:0,0:0:0:0:
171,141,202228,5,6,3:2:0:0:
216,227,202418,1,10,0:0:0:0:
216,227,202513,1,8,0:0:0:0:
216,227,202608,2,0,P|211:257|208:277,3,37.5,10|4|4|4,0:0|0:3|0:3|0:3,0:0:0:0:
173,284,202988,2,0,P|180:335|185:374,1,75,10|8,3:2|3:2,0:0:0:0:
300,318,203368,1,10,3:2:0:0:
394,382,203558,1,10,3:2:0:0:
394,382,204506,6,0,P|396:366|402:336,3,37.5,2|0|0|0,0:0|0:0|0:0|0:0,0:0:0:0:
433,320,204886,2,0,P|431:305|421:253,3,37.5,2|0|0|0,0:0|0:0|0:0|0:0,0:0:0:0:
453,251,205265,6,0,P|459:186|428:137,1,112.5,6|2,3:2|0:0,0:0:0:0:
409,111,205645,2,0,L|308:124,1,75,10|0,0:0|0:0,0:0:0:0:
263,205,206025,2,0,L|173:193,1,75,2|0,3:2|0:0,0:0:0:0:
154,187,206310,1,2,0:0:0:0:
154,187,206405,2,0,P|146:147|165:114,1,75,8|2,0:0|0:0,0:0:0:0:
241,46,206784,5,0,3:0:0:0:
241,46,206974,1,2,0:0:0:0:
132,18,207164,2,0,P|84:39|26:83,1,112.5,10|0,0:0|3:0,0:0:0:0:
15,109,207544,2,0,L|26:197,1,75,2|0,3:2|0:0,0:0:0:0:
17,226,207829,1,2,0:0:0:0:
17,226,207924,2,0,L|24:268,2,37.5,8|2|2,0:0|0:0|0:0,0:0:0:0:
147,196,208303,6,0,P|214:206|280:226,1,112.5,6|2,3:2|0:0,0:0:0:0:
275,253,208683,2,0,P|349:248|375:240,1,75,10|0,0:0|0:0,0:0:0:0:
448,191,209063,2,0,P|479:133|484:105,1,75,2|0,3:2|0:0,0:0:0:0:
478,88,209348,1,2,0:0:0:0:
478,88,209443,2,0,B|445:66|445:66|399:73,1,75,8|2,0:0|0:0,0:0:0:0:
329,140,209822,6,0,B|291:148|291:148|229:131,1,75,0|2,3:0|0:0,0:0:0:0:
161,88,210202,1,10,0:0:0:0:
253,28,210392,1,0,0:0:0:0:
253,28,210487,1,0,0:0:0:0:
253,28,210582,2,0,P|266:102|264:111,1,75,2|2,3:2|0:0,0:0:0:0:
256,138,210867,1,2,0:0:0:0:
256,138,210962,2,0,P|250:168|254:197,1,37.5,8|10,0:0|0:0,0:0:0:0:
274,253,211152,2,0,P|281:296|279:305,1,37.5,8|10,0:0|0:0,0:0:0:0:
216,348,211341,6,0,L|157:338,7,37.5,6|2|2|2|10|2|2|2,3:2|0:0|0:0|0:0|0:0|0:0|0:0|0:0,0:0:0:0:
160,310,212101,2,0,L|101:300,3,37.5,2|2|2|2,3:2|0:0|0:0|0:0,0:0:0:0:
104,272,212481,2,0,L|45:262,3,37.5,10|2|2|2,0:0|0:0|0:0|0:0,0:0:0:0:
36,215,212860,6,0,L|30:174,3,37.5,2|2|2|2,3:2|0:0|0:0|0:0,0:0:0:0:
74,140,213240,2,0,L|68:99,3,37.5,10|2|2|2,0:0|0:0|0:0|0:0,0:0:0:0:
108,60,213620,1,2,3:2:0:0:
201,124,213810,1,2,0:0:0:0:
293,57,214000,1,10,0:0:0:0:
383,123,214190,1,2,0:0:0:0:
474,58,214379,6,0,L|486:110,3,37.5,6|2|2|2,3:2|0:0|0:0|0:0,0:0:0:0:
500,132,214759,2,0,L|488:184,3,37.5,10|2|2|2,0:0|0:0|0:0|0:0,0:0:0:0:
477,206,215139,2,0,L|443:233,1,37.5,6|2,3:2|0:0,0:0:0:0:
413,257,215329,2,0,L|369:247,1,37.5,2|2,0:0|3:2,0:0:0:0:
335,225,215519,2,0,L|284:231,3,37.5,10|2|6|2,0:0|0:0|3:2|0:0,0:0:0:0:
253,252,215898,5,2,0:0:0:0:
154,313,216088,1,2,3:2:0:0:
66,243,216278,1,14,0:0:0:0:
117,140,216468,1,10,0:0:0:0:
117,140,216563,1,10,0:0:0:0:
117,140,216658,6,0,L|161:132,3,37.5,14|10|10|10,3:2|0:0|0:0|0:0,0:0:0:0:
189,145,217038,1,2,0:0:0:0:
216,139,217133,1,10,0:0:0:0:
244,134,217228,1,10,0:0:0:0:
271,129,217322,1,10,0:0:0:0:
299,124,217417,6,0,L|434:96,1,120,2|2,3:2|0:0,0:0:0:0:
440,254,218177,2,0,P|479:299|517:298,2,90,2|2|2,0:0|0:0|0:0,0:0:0:0:
440,254,219126,1,2,0:0:0:0:
361,212,219316,2,0,P|314:221|277:237,1,60,2|0,0:0|0:0,0:0:0:0:
228,289,219696,2,0,L|168:274,1,60,2|0,0:0|0:0,0:0:0:0:
141,266,219981,2,0,L|120:201,1,60,2|2,0:0|0:0,0:0:0:0:
134,167,220265,5,6,3:2:0:0:
