osu file format v14

[General]
AudioFilename: audio.mp3
AudioLeadIn: 0
PreviewTime: 62397
Countdown: 0
SampleSet: Soft
StackLeniency: 0.5
Mode: 0
LetterboxInBreaks: 0
WidescreenStoryboard: 1

[Editor]
Bookmarks: 6289,12365,24517,86796,95910,101986,114138,165783,177935,180973,191606,205275,206035,217427,220655
DistanceSpacing: 0.9
BeatDivisor: 4
GridSize: 16
TimelineZoom: 1.599999

[Metadata]
Title:Hitogata Rock
TitleUnicode:ヒトガタRock
Artist:HIMEHINA
ArtistUnicode:HIMEHINA
Creator:dkblaze
Version:Asa's Insane
Source:バーチャルさんはみている
Tags:Yuuma Shizuku- Kazato Asa Shikibe Mayu Amateurre Heilia virtual san wa miteiru YouTuber vtuber 藍の華 田中ヒメ 鈴木ヒナ Tanaka Hime Suzuki Hina jpop j-pop pop jrock j-rock rock female vocal Divine Flowers Japanese
BeatmapID:2817423
BeatmapSetID:1361614

[Difficulty]
HPDrainRate:5
CircleSize:3.8
OverallDifficulty:8
ApproachRate:9
SliderMultiplier:1.6
SliderTickRate:0.5

[Events]
//Background and Video events
0,0,"BG1.jpg",0,0
//Break Periods
2,86999,89238
//Storyboard Layer 0 (Background)
//Storyboard Layer 1 (Fail)
//Storyboard Layer 2 (Pass)
//Storyboard Layer 3 (Foreground)
//Storyboard Layer 4 (Overlay)
//Storyboard Sound Samples

[TimingPoints]
218,379.746835443038,4,2,6,40,1,0
218,-45.4545454545455,4,2,6,40,0,0
597,-125,4,2,6,40,0,0
5534,-66.6666666666667,4,2,6,70,0,0
6673,-100,4,2,6,70,0,0
12369,-55.5555555555556,4,2,6,80,0,0
12749,-76.9230769230769,4,2,6,80,0,0
24521,-90.9090909090909,4,2,6,70,0,0
36673,-83.3333333333333,4,2,6,70,0,0
42749,-62.5,4,2,6,70,0,0
43129,-83.3333333333333,4,2,6,70,0,0
48825,-62.5,4,2,6,70,0,0
49585,-166.666666666667,4,2,6,70,0,0
50344,-62.5,4,2,6,70,0,0
51104,-166.666666666667,4,2,6,70,0,0
51673,-100,4,2,6,70,0,0
51863,-142.857142857143,4,2,6,70,0,0
52243,-66.6666666666667,4,2,6,70,0,0
52623,-83.3333333333333,4,2,6,70,0,0
53002,-66.6666666666667,4,2,6,70,0,0
53382,-50,4,2,6,70,0,0
53762,-66.6666666666667,4,2,6,70,0,0
54901,-100,4,2,6,70,0,0
59838,-76.9230769230769,4,2,6,70,0,0
62496,-66.6666666666667,4,2,6,85,0,1
67433,-50,4,2,6,85,0,1
67812,-66.6666666666667,4,2,6,85,0,1
73319,-55.5555555555556,4,2,6,85,0,1
73699,-76.9230769230769,4,2,6,85,0,1
74648,-111.111111111111,4,2,6,85,0,1
75407,-62.5,4,2,6,85,0,1
75977,-125,4,2,6,85,0,1
77306,-50,4,2,6,85,0,1
77686,-66.6666666666667,4,2,6,85,0,1
82243,-58.8235294117647,4,2,6,85,0,1
82623,-66.6666666666667,4,2,6,85,0,1
86800,-100,4,2,6,70,0,0
89838,-100,4,2,6,70,0,0
90597,-66.6666666666667,4,2,6,70,0,0
95914,-45.4545454545455,4,2,6,70,0,0
96293,-100,4,2,6,70,0,0
96673,-66.6666666666667,4,2,6,70,0,0
104648,-58.8235294117647,4,2,6,70,0,0
106547,-66.6666666666667,4,2,6,70,0,0
114142,-62.5,4,2,6,70,0,0
114901,-166.666666666667,4,2,6,70,0,0
115661,-62.5,4,2,6,70,0,0
116420,-166.666666666667,4,2,6,70,0,0
116990,-100,4,2,6,70,0,0
117559,-55.5555555555556,4,2,6,70,0,0
117939,-83.3333333333333,4,2,6,70,0,0
118319,-66.6666666666667,4,2,6,70,0,0
118699,-50,4,2,6,70,0,0
119078,-66.6666666666667,4,2,6,70,0,0
120218,-100,4,2,6,70,0,0
125155,-76.9230769230769,4,2,6,70,0,0
127433,-50,4,2,6,70,0,0
127812,-66.6666666666667,4,2,6,85,0,1
132749,-50,4,2,6,85,0,1
133509,-66.6666666666667,4,2,6,85,0,1
138635,-55.5555555555556,4,2,6,85,0,1
139964,-111.111111111111,4,2,6,85,0,1
140723,-62.5,4,2,6,85,0,1
141293,-125,4,2,6,85,0,1
142622,-50,4,2,6,85,0,1
143002,-66.6666666666667,4,2,6,85,0,1
147559,-58.8235294117647,4,2,6,85,0,1
147939,-66.6666666666667,4,2,6,85,0,1
152116,-100,4,2,6,70,0,0
153635,-142.857142857143,4,2,6,60,0,0
162749,-76.9230769230769,4,2,6,60,0,0
165787,-66.6666666666667,4,2,6,75,0,0
172243,-58.8235294117647,4,2,6,75,0,0
172623,-66.6666666666667,4,2,6,75,0,0
175091,-58.8235294117647,4,2,6,75,0,0
178129,-76.9230769230769,4,2,6,75,0,0
180977,-55.5555555555556,4,2,6,85,0,1
181357,-66.6666666666667,4,2,6,85,0,1
184015,-55.5555555555556,4,2,6,85,0,1
184395,-50,4,2,6,85,0,1
184774,-66.6666666666667,4,2,6,85,0,1
190281,-55.5555555555556,4,2,6,85,0,1
191610,-55.5555555555556,4,2,6,85,0,1
192749,-50,4,2,6,85,0,1
193118,315.789473684211,4,2,6,85,1,1
193118,-55.5555555555556,4,2,6,85,0,1
194065,379.746835443038,4,2,6,85,1,1
194065,-50,4,2,6,85,0,1
194254,-100,4,2,6,85,0,1
194634,189.873417721519,4,2,6,85,1,1
194634,-133.333333333333,4,2,6,85,0,1
203747,379.746835443038,4,2,6,75,1,0
203747,-100,4,2,6,75,0,0
205265,-50,4,2,6,80,0,0
206025,-55.5555555555556,4,2,6,80,0,0
208303,-50,4,2,6,80,0,0
209063,-55.5555555555556,4,2,6,80,0,0
211341,-55.5555555555556,4,2,6,80,0,0
211436,-55.5555555555556,4,2,6,60,0,0
212101,-55.5555555555556,4,2,6,65,0,0
212860,-55.5555555555556,4,2,6,70,0,0
213620,-55.5555555555556,4,2,6,75,0,0
214379,-55.5555555555556,4,2,6,80,0,0
215139,-55.5555555555556,4,2,6,85,0,0
215898,-55.5555555555556,4,2,6,90,0,0
216278,-41.6666666666667,4,2,6,90,0,0
216658,-38.4615384615385,4,2,6,95,0,0
217322,-38.4615384615385,4,2,6,95,0,0
217417,-50,4,2,6,50,0,0
217797,-125,4,2,6,50,0,0
220265,-62.5,4,2,6,50,0,0

[Colours]
Combo1 : 126,139,252
Combo2 : 254,227,165
Combo3 : 183,165,254
Combo4 : 249,183,221

[HitObjects]
454,164,218,6,0,B|446:138|446:138|403:114|401:47|401:47|373:108|324:110|324:110|308:130,1,264.000008056641,6|0,3:2|0:0,0:0:0:0:
292,133,597,6,0,L|198:112,1,96,2|0,0:0|0:0,0:0:0:0:
115,132,977,5,2,0:0:0:0:
108,122,1072,2,0,L|113:90,1,32,2|0,0:0|0:0,0:0:0:0:
172,195,1262,2,0,L|160:257,1,64,2|2,0:0|0:0,0:0:0:0:
215,339,1547,6,0,P|168:345|128:370,1,96,2|2,0:0|0:0,0:0:0:0:
128,370,1926,2,0,L|96:364,1,32,2|0,0:0|0:0,0:0:0:0:
19,273,2116,2,0,L|82:283,1,64,2|0,0:0|0:0,0:0:0:0:
82,283,2401,1,0,0:0:0:0:
160,257,2496,5,2,0:0:0:0:
156,248,2591,2,0,L|161:216,1,32,2|0,0:0|0:0,0:0:0:0:
87,119,2781,2,0,L|75:181,1,64,2|2,0:0|0:0,0:0:0:0:
75,181,3066,1,2,0:0:0:0:
255,243,3255,6,0,P|298:223|346:226,1,96,2|0,0:0|0:0,0:0:0:0:
336,112,3635,2,0,P|292:131|244:128,1,96,2|0,0:0|0:0,0:0:0:0:
168,80,4015,1,2,0:0:0:0:
168,80,4110,2,0,L|175:48,1,32,2|2,0:0|0:0,0:0:0:0:
87,119,4300,2,0,L|72:56,1,64,2|2,0:0|0:0,0:0:0:0:
160,167,4585,6,0,P|153:215|146:263,1,96,2|2,0:0|0:0,0:0:0:0:
144,278,4964,2,0,L|112:283,1,32,2|0,0:0|0:0,0:0:0:0:
95,369,5154,2,0,L|31:379,1,64,2|0,0:0|0:0,0:0:0:0:
144,278,5534,6,0,B|176:285|176:285|194:304,1,60.0000022888184,10|10,3:2|0:0,0:0:0:0:
264,360,5724,1,10,0:0:0:0:
272,368,5819,2,0,B|332:357|332:357|343:324|367:311,2,120.000004577637,2|2|10,3:2|3:2|0:0,0:0:0:0:
416,384,6293,6,0,P|369:309|382:222,1,180.000006866455,6|2,3:2|0:0,0:0:0:0:
351,138,6673,2,0,P|390:132|427:117,1,80,2|0,3:2|0:0,0:0:0:0:
503,262,7053,5,2,0:0:0:0:
502,262,7148,2,0,P|483:262|463:257,1,40,2|0,0:0|0:0,0:0:0:0:
342,225,7338,5,2,0:0:0:0:
343,226,7433,2,0,P|362:226|382:221,1,40,0|2,3:0|0:0,0:0:0:0:
284,78,7623,6,0,P|225:73|172:46,1,120,2|2,0:0|0:0,0:0:0:0:
173,47,8002,2,0,P|179:65|183:85,1,40,2|0,0:0|0:0,0:0:0:0:
84,137,8192,2,0,P|65:103|61:64,1,80,2|0,3:2|0:0,0:0:0:0:
30,239,8572,1,2,0:0:0:0:
30,239,8667,2,0,L|22:278,1,40,2|0,0:0|0:0,0:0:0:0:
79,341,8857,2,0,L|157:325,1,80,2|2,0:0|0:0,0:0:0:0:
177,322,9142,1,2,0:0:0:0:
192,135,9331,6,0,P|242:104|301:103,1,120,2|2,0:0|0:0,0:0:0:0:
360,32,9711,2,0,P|412:59|442:110,1,120,2|0,3:2|0:0,0:0:0:0:
504,176,10091,1,2,0:0:0:0:
504,176,10186,2,0,L|496:216,1,40,2|0,0:0|0:0,0:0:0:0:
416,288,10376,2,0,L|336:299,1,80,2|2,0:0|0:0,0:0:0:0:
316,302,10661,1,2,0:0:0:0:
232,264,10755,5,8,0:0:0:0:
211,346,10850,1,8,0:0:0:0:
211,346,11040,6,0,L|171:351,1,40,6|0,3:3|0:0,0:0:0:0:
32,304,11230,2,0,P|78:267|137:263,1,120,10|0,0:0|0:0,0:0:0:0:
186,130,11610,5,10,0:0:0:0:
200,58,11705,1,10,0:0:0:0:
144,9,11800,1,10,0:0:0:0:
130,81,11895,1,10,0:0:0:0:
130,81,12369,6,0,B|243:55|205:147|334:116,1,215.999993408203,4|0,3:2|0:0,0:0:0:0:
413,162,12749,2,0,P|436:116|426:66,1,103.999995239258,10|2,0:0|0:0,0:0:0:0:
413,56,13034,1,2,0:0:0:0:
316,13,13129,2,0,L|333:115,1,103.999995239258,2|2,3:2|0:0,0:0:0:0:
333,114,13509,2,0,P|322:138|319:164,1,51.999997619629,10|0,0:0|0:0,0:0:0:0:
415,295,13699,2,0,P|425:271|428:245,1,51.999997619629,2|0,0:0|0:0,0:0:0:0:
236,141,13888,6,0,P|237:192|264:235,1,103.999995239258,2|2,3:2|0:0,0:0:0:0:
282,246,14173,1,0,0:0:0:0:
245,325,14268,2,0,P|254:350|255:376,2,51.999997619629,10|2|2,0:0|0:0|0:0,0:0:0:0:
133,220,14648,6,0,P|89:245|38:241,1,103.999995239258,2|2,3:2|0:0,0:0:0:0:
23,230,14933,1,0,0:0:0:0:
69,164,15028,2,0,B|100:290|14:246|53:362,1,207.999990478516,10|0,0:0|3:0,0:0:0:0:
53,362,15597,6,0,P|77:350|102:343,1,51.999997619629,2|0,0:0|0:0,0:0:0:0:
175,232,15787,2,0,P|222:252|257:290,1,103.999995239258,10|2,0:0|0:0,0:0:0:0:
265,303,16072,1,2,0:0:0:0:
304,376,16167,6,0,B|280:288|344:320|320:226,1,155.999992858887,2|0,3:2|0:0,0:0:0:0:
311,216,16547,2,0,P|314:190|319:164,1,51.999997619629,10|0,0:0|0:0,0:0:0:0:
240,120,16736,2,0,P|237:145|232:171,1,51.999997619629,2|0,0:0|0:0,0:0:0:0:
408,168,16926,6,0,P|426:120|421:68,1,103.999995239258,2|2,3:2|0:0,0:0:0:0:
336,32,17211,1,0,0:0:0:0:
328,40,17306,2,0,L|224:25,1,103.999995239258,10|2,0:0|0:0,0:0:0:0:
0,96,17686,6,0,P|8:120|14:145,1,51.999997619629,2|0,3:2|0:0,0:0:0:0:
104,88,17876,2,0,P|95:63|89:38,1,51.999997619629,2|0,0:0|0:0,0:0:0:0:
8,256,18066,5,10,0:0:0:0:
35,299,18161,1,8,0:0:0:0:
81,322,18255,1,8,0:0:0:0:
132,318,18350,1,8,0:0:0:0:
174,289,18445,1,4,3:2:0:0:
174,289,18635,6,0,L|167:237,1,51.999997619629,2|0,0:0|0:0,0:0:0:0:
231,115,18825,2,0,B|276:158|276:158|257:250,1,155.999992858887,10|2,0:0|0:0,0:0:0:0:
266,263,19205,2,0,P|291:261|315:251,1,51.999997619629,2|0,3:2|0:0,0:0:0:0:
377,185,19395,1,0,0:0:0:0:
495,352,19585,6,0,P|444:350|399:324,1,103.999995239258,10|2,0:0|0:0,0:0:0:0:
391,313,19869,1,0,0:0:0:0:
440,248,19964,6,0,B|477:202|454:150,1,103.999995239258,2|2,3:2|0:0,0:0:0:0:
288,8,20344,2,0,B|250:53|273:105,1,103.999995239258,10|2,0:0|0:0,0:0:0:0:
286,113,20629,1,0,0:0:0:0:
349,67,20724,2,0,P|375:69|401:74,1,51.999997619629,2|0,3:2|0:0,0:0:0:0:
225,25,20914,1,2,0:0:0:0:
185,33,21009,1,0,0:0:0:0:
145,9,21104,2,0,B|166:140|83:74|109:204,1,207.999990478516,10|4,0:0|3:2,0:0:0:0:
109,204,21673,6,0,P|86:194|60:189,1,51.999997619629,2|0,0:0|0:0,0:0:0:0:
186,276,21863,2,0,P|206:260|224:241,1,51.999997619629,10|2,0:0|0:0,0:0:0:0:
85,306,22053,2,0,P|88:331|95:356,1,51.999997619629,2|0,0:0|0:0,0:0:0:0:
224,241,22243,6,0,P|202:166|199:88,1,155.999992858887,6|2,3:2|3:2,0:0:0:0:
145,9,22623,2,0,P|122:21|96:27,1,51.999997619629,10|0,0:0|0:0,0:0:0:0:
286,112,22812,6,0,P|358:84|435:73,1,155.999992858887,6|0,3:2|0:0,0:0:0:0:
435,73,23192,2,0,P|424:49|420:23,1,51.999997619629,2|0,3:2|0:0,0:0:0:0:
392,168,23382,2,0,P|402:191|406:217,1,51.999997619629,14|0,0:0|0:0,0:0:0:0:
474,275,23572,1,10,0:0:0:0:
472,288,23667,1,8,0:0:0:0:
470,303,23762,5,10,3:2:0:0:
431,336,23857,1,8,0:0:0:0:
380,346,23952,1,10,0:0:0:0:
332,328,24047,1,8,0:0:0:0:
266,282,24142,5,10,0:0:0:0:
256,298,24236,1,8,0:0:0:0:
251,317,24331,1,8,0:0:0:0:
251,335,24426,1,8,0:0:0:0:
332,328,24521,6,0,P|256:284|169:286,1,176.000005371094,6|10,3:2|0:0,0:0:0:0:
51,366,25091,1,2,0:0:0:0:
51,366,25186,1,8,0:0:0:0:
51,365,25281,2,0,P|42:322|31:280,2,88.000002685547,2|2|8,3:2|3:2|0:0,0:0:0:0:
101,235,25850,5,0,0:0:0:0:
94,212,25945,1,0,0:0:0:0:
74,191,26040,2,0,P|136:172|192:137,1,132.00000402832,2|0,3:2|3:0,0:0:0:0:
210,118,26420,1,10,0:0:0:0:
112,0,26610,2,0,P|148:24|190:36,1,88.000002685547,2|0,3:2|0:0,0:0:0:0:
296,144,26990,5,2,3:2:0:0:
360,24,27180,2,0,P|317:35|281:60,1,88.000002685547,10|2,0:0|0:0,0:0:0:0:
281,60,27464,1,8,0:0:0:0:
281,60,27559,6,0,P|324:66|361:88,1,88.000002685547,2|2,3:2|0:0,0:0:0:0:
311,228,27939,2,0,P|267:221|230:199,1,88.000002685547,10|2,0:0|0:0,0:0:0:0:
230,199,28224,1,8,0:0:0:0:
230,199,28319,1,2,3:2:0:0:
399,170,28509,2,0,P|441:158|483:147,1,88.000002685547,2|10,3:2|0:0,0:0:0:0:
312,324,28888,6,0,P|395:333|478:383,1,176.000005371094,2|2,3:2|3:2,0:0:0:0:
312,324,29458,1,10,0:0:0:0:
414,253,29648,2,0,P|414:209|398:169,1,88.000002685547,2|0,3:2|0:0,0:0:0:0:
476,96,30028,5,2,3:2:0:0:
360,40,30218,1,10,0:0:0:0:
360,40,30312,1,8,0:0:0:0:
360,39,30407,2,0,P|352:59|353:81,1,44.0000013427735,6|4,0:3|0:3,0:0:0:0:
324,224,30597,5,6,3:2:0:0:
272,156,30787,1,2,0:0:0:0:
184,131,30977,2,0,P|125:162|61:175,1,132.00000402832,10|8,0:0|0:0,0:0:0:0:
61,174,31357,2,0,P|57:131|42:90,1,88.000002685547,2|2,3:2|3:2,0:0:0:0:
164,236,31736,2,0,P|167:279|182:320,1,88.000002685547,10|2,0:0|0:0,0:0:0:0:
264,356,32021,1,8,0:0:0:0:
259,351,32116,6,0,P|193:351|134:380,1,132.00000402832,2|0,3:2|3:0,0:0:0:0:
134,380,32496,2,0,L|90:372,1,44.0000013427735,8|0,0:0|0:0,0:0:0:0:
348,383,32686,2,0,P|382:303|377:216,1,176.000005371094,2|2,3:2|3:2,0:0:0:0:
376,216,33255,2,0,P|375:259|395:298,1,88.000002685547,10|2,0:0|0:0,0:0:0:0:
445,303,33540,1,8,0:0:0:0:
480,272,33635,6,0,P|481:228|461:189,1,88.000002685547,2|0,3:2|0:0,0:0:0:0:
288,232,34015,2,0,L|201:218,1,88.000002685547,10|0,0:0|0:0,0:0:0:0:
201,218,34300,1,8,0:0:0:0:
201,218,34395,1,2,3:2:0:0:
188,128,34585,1,2,3:2:0:0:
97,141,34774,1,10,0:0:0:0:
109,231,34964,6,0,P|66:224|22:223,1,88.000002685547,2|2,3:2|0:0,0:0:0:0:
188,128,35344,2,0,P|231:135|275:136,1,88.000002685547,2|10,3:2|0:0,0:0:0:0:
65,15,35724,6,0,P|91:74|96:140,1,132.00000402832,2|0,3:2|0:0,0:0:0:0:
96,140,36104,1,0,3:0:0:0:
200,218,36293,2,0,P|195:239|194:261,3,44.0000013427735,8|8|4|4,0:0|0:0|0:3|0:3,0:0:0:0:
210,205,36673,6,0,L|309:191,1,95.9999970703126,6|2,3:2|0:0,0:0:0:0:
371,129,36958,1,0,0:0:0:0:
374,122,37053,2,0,P|379:98|376:75,1,47.9999985351563,10|0,0:0|0:0,0:0:0:0:
465,172,37243,1,2,0:0:0:0:
463,180,37338,1,8,0:0:0:0:
460,187,37433,2,0,P|474:232|479:280,2,95.9999970703126,2|2|8,3:2|3:2|0:0,0:0:0:0:
257,325,38002,6,0,P|352:332|432:384,1,191.999994140625,2|2,0:0|0:0,0:0:0:0:
370,240,38572,1,10,0:0:0:0:
257,325,38762,2,0,P|213:344|165:344,1,95.9999970703126,2|0,3:2|0:0,0:0:0:0:
3,251,39142,5,2,3:2:0:0:
3,251,39236,1,0,0:0:0:0:
3,251,39331,2,0,P|50:251|94:270,1,95.9999970703126,10|2,0:0|0:0,0:0:0:0:
94,270,39616,1,0,0:0:0:0:
94,270,39711,6,0,P|75:226|74:178,1,95.9999970703126,2|2,3:2|0:0,0:0:0:0:
186,155,40091,2,0,P|204:198|205:246,1,95.9999970703126,10|2,0:0|0:0,0:0:0:0:
205,246,40376,1,0,0:0:0:0:
205,246,40471,2,0,P|228:248|251:255,1,47.9999985351563,2|0,3:2|0:0,0:0:0:0:
289,110,40661,2,0,P|335:101|375:74,1,95.9999970703126,2|8,3:2|0:0,0:0:0:0:
492,252,41040,6,0,P|421:240|364:198,1,143.999995605469,2|0,3:2|0:0,0:0:0:0:
364,198,41420,2,0,P|379:243|373:290,1,95.9999970703126,2|10,3:2|0:0,0:0:0:0:
186,155,41800,2,0,L|203:12,1,143.999995605469,2|0,3:2|0:0,0:0:0:0:
203,12,42180,1,2,3:2:0:0:
288,96,42369,2,0,B|305:80|305:80|329:84,2,47.9999985351563,10|8|6,0:0|0:0|0:3,0:0:0:0:
192,272,42749,6,0,B|141:282|100:248|105:194|105:194|115:221|140:232,1,192,6|0,3:2|0:0,0:0:0:0:
140,232,43129,2,0,P|92:239|49:260,1,95.9999970703126,10|2,0:0|0:0,0:0:0:0:
8,178,43414,1,8,0:0:0:0:
12,172,43509,2,0,L|4:124,2,47.9999985351563,2|0|2,3:2|0:0|3:2,0:0:0:0:
186,154,43888,2,0,P|256:143|319:108,1,143.999995605469,10|0,0:0|0:0,0:0:0:0:
319,108,44268,6,0,P|300:151|305:198,1,95.9999970703126,2|0,3:2|0:0,0:0:0:0:
305,294,44553,1,0,3:0:0:0:
314,297,44648,2,0,L|360:284,1,47.9999985351563,8|0,0:0|0:0,0:0:0:0:
436,160,44838,2,0,L|389:172,1,47.9999985351563,2|0,3:2|0:0,0:0:0:0:
428,348,45028,6,0,P|446:304|444:256,1,95.9999970703126,2|2,0:0|3:2,0:0:0:0:
296,384,45407,2,0,P|275:340|238:310,1,95.9999970703126,10|2,0:0|0:0,0:0:0:0:
158,294,45692,1,0,0:0:0:0:
144,300,45787,2,0,L|96:293,1,47.9999985351563,2|0,3:2|0:0,0:0:0:0:
0,360,45977,2,0,L|47:366,1,47.9999985351563,2|0,0:0|0:0,0:0:0:0:
88,208,46167,6,0,P|63:142|62:70,1,143.999995605469,10|0,0:0|0:0,0:0:0:0:
62,70,46547,2,0,P|50:91|45:117,1,47.9999985351563,2|0,3:2|0:0,0:0:0:0:
176,152,46736,2,0,P|190:106|186:59,1,95.9999970703126,2|8,3:2|0:0,0:0:0:0:
355,215,47116,6,0,P|411:172|482:169,1,143.999995605469,2|0,3:2|0:0,0:0:0:0:
482,169,47496,2,0,P|458:168|435:159,1,47.9999985351563,2|0,3:2|0:0,0:0:0:0:
391,91,47686,1,10,0:0:0:0:
296,304,47876,6,0,P|343:304|388:321,1,95.9999970703126,6|10,3:2|3:2,0:0:0:0:
388,321,48161,1,10,0:0:0:0:
388,321,48255,2,0,L|435:312,1,47.9999985351563,10|10,0:0|0:0,0:0:0:0:
263,370,48445,5,10,0:0:0:0:
220,345,48540,1,8,0:3:0:0:
204,296,48635,1,4,0:3:0:0:
217,258,48730,1,4,0:3:0:0:
255,184,48825,6,0,P|293:233|289:295,1,128,14|0,0:0|0:0,0:0:0:0:
185,136,49110,2,0,P|235:100|297:109,1,128,4|0,3:3|0:0,0:0:0:0:
393,69,49395,2,0,B|384:38|384:38|401:11,1,64,4|0,3:3|0:0,0:0:0:0:
482,169,49585,6,0,L|469:264,1,95.9999970703126,10|0,0:0|0:0,0:0:0:0:
468,263,50344,6,0,P|405:264|354:300,1,128,14|0,0:0|0:0,0:0:0:0:
283,251,50629,2,0,P|234:291|218:352,1,128,4|0,3:3|0:0,0:0:0:0:
136,376,50914,2,0,B|107:382|107:382|74:364,1,64,4|0,3:3|0:0,0:0:0:0:
8,240,51104,6,0,L|102:223,1,95.9999970703126,10|10,0:0|0:3,0:0:0:0:
106,227,51578,1,8,0:3:0:0:
110,231,51673,2,0,L|116:191,1,40,4|4,0:3|0:3,0:0:0:0:
160,64,51863,2,0,P|118:65|82:45,1,83.9999974365235,2|0,3:2|0:0,0:0:0:0:
8,119,52243,6,0,P|72:59|160:64,1,180.000006866455,14|8,0:0|0:0,0:0:0:0:
231,105,52623,1,2,3:2:0:0:
249,74,52718,1,0,0:0:0:0:
241,40,52812,1,0,3:0:0:0:
241,40,53002,6,0,B|219:147|302:95|276:206,1,180.000006866455,10|0,0:0|0:0,0:0:0:0:
244,287,53382,6,0,P|321:283|367:221,1,160,14|0,0:0|3:0,0:0:0:0:
376,187,53667,1,0,3:0:0:0:
450,238,53762,6,0,P|365:208|275:205,1,180.000006866455,10|4,0:0|0:3,0:0:0:0:
244,287,54142,2,0,P|214:290|186:302,3,60.0000022888184,10|8|4|4,0:0|0:3|0:3|0:3,0:0:0:0:
118,358,54521,2,0,P|101:302|121:246,1,120.000004577637,10|2,0:0|0:0,0:0:0:0:
26,229,54806,5,0,0:0:0:0:
32,220,54901,2,0,L|24:180,3,40,6|8|10|8,3:2|0:0|0:0|0:0,0:0:0:0:
90,57,55281,2,0,L|97:96,1,40,10|8,3:2|0:0,0:0:0:0:
180,159,55471,2,0,L|219:166,1,40,10|8,0:0|0:0,0:0:0:0:
306,70,55661,2,0,L|266:62,3,40,10|8|8|8,3:2|0:0|0:0|0:0,0:0:0:0:
308,221,56040,2,0,L|315:181,3,40,10|8|10|8,3:2|0:0|0:0|0:0,0:0:0:0:
460,52,56420,6,0,L|467:91,1,40,10|8,3:2|0:0,0:0:0:0:
415,192,56610,1,10,0:0:0:0:
415,192,56705,1,8,0:0:0:0:
415,192,56800,2,0,L|454:184,3,40,10|8|8|8,3:2|0:0|0:0|0:0,0:0:0:0:
345,77,57180,6,0,L|305:69,1,40,10|8,3:2|0:0,0:0:0:0:
195,5,57369,2,0,L|234:12,1,40,10|8,0:0|0:0,0:0:0:0:
140,120,57559,2,0,L|147:159,1,40,10|8,3:2|0:0,0:0:0:0:
22,72,57749,2,0,L|29:32,1,40,10|8,0:0|0:0,0:0:0:0:
59,195,57939,6,0,L|19:202,3,40,10|8|8|8,3:2|0:0|0:0|0:0,0:0:0:0:
179,127,58319,2,0,L|139:119,3,40,10|8|8|8,3:2|0:0|0:0|0:0,0:0:0:0:
264,208,58699,2,0,L|271:247,3,40,10|8|8|8,3:2|0:0|0:0|0:0,0:0:0:0:
376,136,59078,2,0,L|383:96,3,40,10|8|8|8,3:2|0:0|0:0|0:0,0:0:0:0:
480,272,59458,5,6,3:2:0:0:
465,308,59553,1,2,0:0:0:0:
435,334,59648,1,2,0:0:0:0:
396,342,59743,1,2,0:0:0:0:
358,331,59838,2,0,L|348:277,1,51.999997619629,2|0,0:0|0:0,0:0:0:0:
242,328,60028,6,0,L|252:382,1,51.999997619629,6|2,3:2|0:0,0:0:0:0:
128,286,60218,1,2,0:0:0:0:
111,251,60312,1,2,0:0:0:0:
114,212,60407,1,2,0:0:0:0:
136,180,60502,1,0,0:0:0:0:
173,169,60597,2,0,L|224:178,1,51.999997619629,8|8,0:0|0:3,0:0:0:0:
376,136,60787,2,0,L|324:126,1,51.999997619629,4|4,0:3|0:3,0:0:0:0:
256,0,60977,5,12,0:0:0:0:
256,0,61736,6,0,L|263:51,3,51.999997619629,0|0|0|0,0:0|0:0|0:0|0:0,0:0:0:0:
324,143,62116,6,0,L|375:136,1,51.999997619629,4|0,0:3|0:0,0:0:0:0:
267,225,62306,2,0,L|216:218,1,51.999997619629,0|0,0:0|0:0,0:0:0:0:
431,68,62496,6,0,P|463:116|457:175,1,120.000004577637,6|2,3:2|0:0,0:0:0:0:
451,196,62781,1,0,0:0:0:0:
502,264,62876,2,0,B|461:233|414:246|414:246|396:286|341:286,1,180.000006866455,10|0,0:0|0:0,0:0:0:0:
267,225,63255,2,0,P|261:195|249:168,1,60.0000022888184,2|0,3:2|0:0,0:0:0:0:
123,320,63445,2,0,P|181:330|232:363,2,120.000004577637,2|8|2,0:0|0:0|0:0,0:0:0:0:
29,257,63920,5,0,0:0:0:0:
28,246,64015,2,0,P|22:216|11:188,1,60.0000022888184,2|0,3:2|0:0,0:0:0:0:
136,216,64205,2,0,P|146:187|150:158,1,60.0000022888184,2|0,0:0|0:0,0:0:0:0:
200,312,64395,2,0,P|288:303|354:244,1,180.000006866455,10|0,0:0|0:0,0:0:0:0:
358,235,64774,1,2,3:2:0:0:
496,320,64964,1,0,0:0:0:0:
493,325,65059,1,0,0:0:0:0:
491,330,65154,2,0,P|461:327|433:317,1,60.0000022888184,8|0,0:0|0:0,0:0:0:0:
358,235,65344,1,2,0:0:0:0:
440,136,65534,5,2,3:2:0:0:
465,48,65724,1,2,0:0:0:0:
296,176,65914,5,10,0:0:0:0:
271,264,66104,1,2,0:0:0:0:
348,84,66293,5,2,3:2:0:0:
260,59,66483,1,2,0:0:0:0:
388,228,66673,5,10,0:0:0:0:
476,253,66863,1,2,0:0:0:0:
295,175,67053,6,0,P|236:178|184:206,1,120.000004577637,2|0,3:2|0:0,0:0:0:0:
176,224,67338,1,0,0:0:0:0:
144,312,67433,6,0,B|177:178|55:217|95:91,1,240,10|0,0:0|0:0,0:0:0:0:
95,91,67812,2,0,P|107:118|107:147,2,60.0000022888184,2|2|2,3:2|0:0|0:0,0:0:0:0:
131,331,68192,1,10,3:2:0:0:
111,327,68287,1,8,0:0:0:0:
91,323,68382,1,10,0:0:0:0:
75,319,68477,1,8,0:0:0:0:
57,316,68572,6,0,P|49:287|34:261,1,60.0000022888184,6|0,3:2|0:0,0:0:0:0:
176,224,68762,2,0,P|183:195|183:165,1,60.0000022888184,2|0,0:0|0:0,0:0:0:0:
322,326,68952,2,0,P|409:312|475:252,1,180.000006866455,10|0,0:0|0:0,0:0:0:0:
475,252,69331,2,0,P|464:279|462:309,1,60.0000022888184,2|0,3:2|0:0,0:0:0:0:
390,162,69521,2,0,P|405:104|401:44,2,120.000004577637,2|8|2,0:0|0:0|0:0,0:0:0:0:
235,250,69996,5,0,0:0:0:0:
228,250,70091,2,0,P|199:242|175:223,1,60.0000022888184,2|0,3:2|0:0,0:0:0:0:
303,140,70281,2,0,P|310:168|306:198,1,60.0000022888184,2|0,0:0|0:0,0:0:0:0:
120,308,70471,6,0,P|74:231|75:142,1,180.000006866455,10|0,0:0|0:0,0:0:0:0:
74,142,70850,2,0,P|85:171|84:200,1,60.0000022888184,2|0,3:2|0:0,0:0:0:0:
208,344,71040,1,0,0:0:0:0:
218,347,71135,1,0,0:0:0:0:
229,349,71230,2,0,P|284:328|344:329,1,120.000004577637,8|2,0:0|0:0,0:0:0:0:
344,329,71515,1,0,0:0:0:0:
344,329,71610,5,6,3:2:0:0:
370,232,71800,1,2,0:0:0:0:
264,104,71990,5,10,0:0:0:0:
289,6,72180,1,2,0:0:0:0:
478,140,72369,5,2,3:2:0:0:
381,114,72559,1,2,0:0:0:0:
253,220,72749,5,10,0:0:0:0:
155,195,72939,1,2,0:0:0:0:
128,88,73129,6,0,L|187:77,1,60.0000022888184,2|0,3:2|0:0,0:0:0:0:
32,136,73319,2,0,B|4:97|4:97|4:48|36:8,1,143.999995605469,12|10,0:0|3:2,0:0:0:0:
36,8,73604,1,8,0:0:0:0:
35,7,73699,2,0,P|44:31|47:56,1,51.999997619629,8|8,0:0|0:0,0:0:0:0:
5,228,73888,5,10,3:2:0:0:
40,268,73983,1,8,0:0:0:0:
93,275,74078,1,8,0:3:0:0:
138,246,74173,1,8,0:3:0:0:
155,195,74268,1,6,3:3:0:0:
195,167,74363,1,4,0:3:0:0:
248,164,74458,1,6,0:3:0:0:
286,177,74553,1,4,0:3:0:0:
299,194,74648,6,0,B|352:181|352:181|370:151|370:151|423:138,1,143.999995605469,6|0,3:2|0:0,0:0:0:0:
512,184,75218,1,2,3:2:0:0:
512,184,75312,1,0,3:0:0:0:
512,184,75407,2,0,B|443:198|407:136|407:136|369:71|295:96,1,256,10|0,0:0|0:0,0:0:0:0:
294,96,75977,6,0,P|290:64|277:35,1,64,2|2,3:2|0:0,0:0:0:0:
174,178,76357,2,0,P|131:133|69:118,1,128,0|2,3:0|3:2,0:0:0:0:
73,122,76831,1,0,0:0:0:0:
77,126,76926,2,0,P|108:121|136:105,1,64,10|0,0:0|3:0,0:0:0:0:
144,96,77211,1,0,3:0:0:0:
176,8,77306,6,0,B|153:138|265:90|234:227,1,240,12|0,0:0|0:0,0:0:0:0:
144,304,77686,6,0,B|102:263|102:263|41:285,1,120.000004577637,4|2,3:2|0:0,0:0:0:0:
29,293,77971,1,0,0:0:0:0:
84,356,78066,6,0,B|181:331|150:388|259:357,1,180.000006866455,10|0,0:0|0:0,0:0:0:0:
259,356,78445,6,0,P|260:327|269:298,1,60.0000022888184,2|0,3:2|0:0,0:0:0:0:
384,192,78635,1,0,0:0:0:0:
427,204,78730,1,0,0:0:0:0:
394,235,78825,1,8,0:0:0:0:
296,42,79015,6,0,P|207:54|138:109,1,180.000006866455,2|0,0:0|0:0,0:0:0:0:
40,200,79395,1,2,0:0:0:0:
68,204,79490,1,2,0:0:0:0:
91,195,79585,2,0,B|115:97|35:135|62:26,1,180.000006866455,10|0,0:0|0:0,0:0:0:0:
62,26,79964,2,0,B|91:35|101:63|101:63|84:92|92:124,1,120.000004577637,2|0,3:2|0:0,0:0:0:0:
234,227,80344,5,10,0:0:0:0:
253,230,80439,1,8,0:0:0:0:
273,226,80534,1,6,0:3:0:0:
289,215,80629,1,4,0:3:0:0:
360,152,80724,6,0,B|327:179|302:197|302:197|323:247|340:296,1,180.000006866455,6|0,3:2|0:0,0:0:0:0:
416,320,81104,2,0,P|425:291|425:261,1,60.0000022888184,8|0,0:0|0:0,0:0:0:0:
312,384,81293,1,2,0:0:0:0:
312,384,81388,1,0,0:0:0:0:
312,384,81483,2,0,P|261:355|201:355,2,120.000004577637,2|0|8,3:2|0:0|0:0,0:0:0:0:
96,192,82053,2,0,P|77:177|84:200,1,60.0000022888184,2|0,0:0|0:0,0:0:0:0:
1,266,82243,6,0,B|44:224|105:234|105:234|137:282|183:270,1,204.000003890991,2|0,3:2|0:0,0:0:0:0:
181,270,82623,1,8,0:0:0:0:
320,152,82812,6,0,P|330:124|332:94,1,60.0000022888184,2|0,0:0|0:0,0:0:0:0:
272,32,83002,1,2,3:2:0:0:
272,32,83097,1,0,0:0:0:0:
272,32,83192,2,0,P|242:36|215:49,1,60.0000022888184,0|0,0:0|0:0,0:0:0:0:
193,134,83382,2,0,P|211:157|236:173,1,60.0000022888184,8|0,0:0|0:0,0:0:0:0:
400,200,83572,5,2,0:0:0:0:
400,200,83667,1,0,0:0:0:0:
400,200,83762,2,0,B|388:248|388:248|368:260|368:260|357:306,1,120.000004577637,4|2,3:2|0:0,0:0:0:0:
414,372,84047,1,0,0:0:0:0:
411,380,84142,2,0,P|341:325|253:326,1,180.000006866455,10|0,0:0|0:0,0:0:0:0:
186,380,84521,1,2,3:2:0:0:
48,272,84711,1,0,0:0:0:0:
42,315,84806,1,0,0:0:0:0:
84,297,84901,1,8,0:0:0:0:
0,124,85091,6,0,P|88:114|164:67,1,180.000006866455,2|0,0:0|0:0,0:0:0:0:
164,66,85471,2,0,P|156:94|157:124,1,60.0000022888184,14|0,0:0|0:0,0:0:0:0:
280,225,85661,5,2,3:2:0:0:
331,245,85755,1,8,0:0:0:0:
378,232,85850,1,8,0:0:0:0:
404,188,85945,1,8,0:0:0:0:
399,149,86040,1,10,3:2:0:0:
379,118,86135,1,8,0:3:0:0:
353,105,86230,1,4,0:3:0:0:
336,102,86325,1,0,0:0:0:0:
323,106,86420,6,0,P|329:135|331:165,1,60.0000022888184,10|8,0:3|0:3,0:0:0:0:
472,64,86610,2,0,P|473:34|480:4,2,60.0000022888184,6|4|0,0:3|0:3|3:0,0:0:0:0:
400,336,89838,5,6,0:0:0:0:
400,336,90597,6,0,P|353:299|294:294,1,120.000004577637,2|2,3:2|0:0,0:0:0:0:
240,232,90882,2,0,P|181:239|135:277,1,120.000004577637,2|0,3:2|0:0,0:0:0:0:
52,271,91167,2,0,P|16:317|11:376,1,120.000004577637,2|0,3:2|0:0,0:0:0:0:
11,376,92116,6,0,P|47:330|52:271,1,120.000004577637,6|10,3:2|0:0,0:0:0:0:
47,250,92401,1,10,0:0:0:0:
135,276,92496,2,0,P|163:268|189:252,2,60.0000022888184,10|0|8,0:0|0:0|0:3,0:0:0:0:
0,96,92876,5,6,0:0:0:0:
0,95,93635,6,0,P|57:108|98:151,1,120.000004577637,2|2,3:2|0:0,0:0:0:0:
200,16,93920,2,0,P|216:72|200:129,1,120.000004577637,2|0,3:2|0:0,0:0:0:0:
368,149,94205,2,0,P|327:192|269:206,1,120.000004577637,2|2,3:2|0:0,0:0:0:0:
269,206,95154,6,0,P|309:162|367:148,1,120.000004577637,6|10,3:2|0:0,0:0:0:0:
388,158,95439,1,8,0:0:0:0:
456,112,95534,2,0,P|461:82|455:53,2,60.0000022888184,10|0|8,0:0|0:0|0:3,0:0:0:0:
512,288,95914,6,0,B|495:324|495:324|451:336|417:374|417:374|400:331|353:314|353:314|343:275,1,264.000008056641,6|0,3:2|3:0,0:0:0:0:
269,206,96293,5,10,0:0:0:0:
187,190,96388,2,0,L|147:182,2,40,0|2|2,0:0|3:2|0:0,0:0:0:0:
268,206,96673,6,0,P|212:224|173:269,1,120.000004577637,2|2,3:2|0:0,0:0:0:0:
55,117,96958,2,0,P|23:167|21:226,1,120.000004577637,2|0,3:2|3:0,0:0:0:0:
82,346,97243,1,12,0:0:0:0:
82,346,97623,6,0,P|90:317|89:287,1,60.0000022888184,0|0,3:0|0:0,0:0:0:0:
151,229,97812,1,10,0:0:0:0:
170,235,97907,1,2,0:0:0:0:
187,246,98002,1,2,0:0:0:0:
200,261,98097,1,10,0:0:0:0:
245,330,98192,6,0,P|303:318|349:281,1,120.000004577637,2|2,3:2|0:0,0:0:0:0:
357,262,98477,1,0,3:0:0:0:
465,220,98572,6,0,P|376:218|303:167,1,180.000006866455,10|0,0:0|0:0,0:0:0:0:
303,166,98952,2,0,P|313:138|315:109,1,60.0000022888184,2|0,3:2|0:0,0:0:0:0:
226,31,99142,5,2,0:0:0:0:
202,36,99236,1,2,3:2:0:0:
231,55,99331,1,10,0:0:0:0:
207,60,99426,1,2,0:0:0:0:
171,136,99521,2,0,P|145:120|126:97,1,60.0000022888184,2|2,3:2|0:0,0:0:0:0:
72,272,99711,6,0,P|120:238|179:231,1,120.000004577637,2|2,3:2|0:0,0:0:0:0:
256,176,99996,2,0,P|309:201|344:249,1,120.000004577637,0|0,3:0|3:0,0:0:0:0:
431,287,100281,2,0,P|433:316|421:343,1,60.0000022888184,14|0,0:0|0:0,0:0:0:0:
421,343,100661,5,2,3:0:0:0:
396,147,100850,2,0,P|401:88|414:29,1,120.000004577637,10|2,0:0|0:0,0:0:0:0:
425,20,101135,1,8,0:0:0:0:
445,20,101230,5,10,3:2:0:0:
438,49,101325,1,10,0:0:0:0:
401,66,101420,1,10,0:0:0:0:
352,58,101515,1,10,0:0:0:0:
316,18,101610,1,10,3:2:0:0:
253,3,101705,1,10,0:0:0:0:
191,34,101800,1,6,0:3:0:0:
169,110,101895,1,2,0:0:0:0:
219,181,101990,6,0,P|230:239|217:297,1,120.000004577637,6|2,3:2|0:0,0:0:0:0:
150,335,102274,1,2,0:0:0:0:
95,277,102369,2,0,P|65:282|35:287,1,60.0000022888184,10|0,0:0|0:0,0:0:0:0:
299,358,102559,5,2,0:0:0:0:
307,349,102654,1,2,0:0:0:0:
315,338,102749,2,0,B|413:355|382:284|483:297,1,180.000006866455,2|0,3:2|0:0,0:0:0:0:
483,296,103129,2,0,P|453:298|425:287,1,60.0000022888184,10|0,0:0|0:0,0:0:0:0:
338,173,103319,2,0,P|355:116|351:57,2,120.000004577637,2|0|2,0:0|3:0|0:0,0:0:0:0:
338,173,103888,6,0,P|327:144|309:121,1,60.0000022888184,10|0,0:0|0:0,0:0:0:0:
225,169,104078,1,2,0:0:0:0:
225,169,104173,1,2,0:0:0:0:
225,169,104268,2,0,P|235:197|253:220,1,60.0000022888184,2|2,3:2|0:0,0:0:0:0:
389,77,104458,1,2,0:0:0:0:
389,77,104553,1,2,0:0:0:0:
388,77,104648,2,0,P|321:71|261:41,1,136.000002593994,10|2,0:0|0:0,0:0:0:0:
21,184,105028,6,0,P|31:217|35:251,1,68.0000012969971,2|0,3:2|0:0,0:0:0:0:
133,227,105218,2,0,P|123:194|119:160,1,68.0000012969971,2|0,0:0|0:0,0:0:0:0:
58,99,105407,1,10,0:0:0:0:
58,99,105502,1,2,0:0:0:0:
58,99,105597,2,0,P|67:66|71:32,1,68.0000012969971,2|0,0:0|0:0,0:0:0:0:
208,136,105787,5,2,3:2:0:0:
247,118,105882,1,2,0:0:0:0:
213,91,105977,1,2,0:0:0:0:
113,311,106167,6,0,B|188:297|233:355,1,136.000002593994,10|2,0:0|0:0,0:0:0:0:
245,369,106452,1,0,0:0:0:0:
344,336,106547,6,0,B|409:349|450:297,2,120.000004577637,2|2|10,3:2|0:0|0:0,0:0:0:0:
340,332,107021,1,2,0:0:0:0:
336,328,107116,2,0,L|327:268,1,60.0000022888184,2|0,0:0|0:0,0:0:0:0:
379,109,107306,6,0,P|408:109|438:102,1,60.0000022888184,2|0,3:2|0:0,0:0:0:0:
452,195,107496,2,0,P|422:194|392:201,1,60.0000022888184,2|0,0:0|0:0,0:0:0:0:
261,97,107686,5,10,0:0:0:0:
264,79,107781,1,8,0:0:0:0:
268,61,107876,2,0,L|276:1,1,60.0000022888184,6|4,0:3|0:3,0:0:0:0:
64,80,108066,6,0,B|50:146|50:146|78:190,1,120.000004577637,6|2,3:2|0:0,0:0:0:0:
84,207,108350,2,0,L|24:197,1,60.0000022888184,2|10,0:0|0:0,0:0:0:0:
147,127,108540,2,0,P|206:122|260:96,1,120.000004577637,2|2,0:0|0:0,0:0:0:0:
452,195,108825,6,0,P|392:199|338:225,1,120.000004577637,2|2,3:2|0:0,0:0:0:0:
338,225,109110,2,0,P|346:196|347:166,1,60.0000022888184,2|8,0:0|0:0,0:0:0:0:
277,27,109300,1,2,0:0:0:0:
270,38,109395,2,0,P|261:66|260:96,1,60.0000022888184,2|0,0:0|0:0,0:0:0:0:
338,225,109585,5,2,3:2:0:0:
262,244,109680,2,0,L|144:269,1,120.000004577637,2|2,0:0|0:0,0:0:0:0:
128,276,109964,2,0,P|138:249|139:219,1,60.0000022888184,10|0,0:0|0:0,0:0:0:0:
10,98,110154,5,2,0:0:0:0:
0,133,110249,1,0,0:0:0:0:
19,155,110344,2,0,P|78:145|131:118,1,120.000004577637,2|2,3:2|0:0,0:0:0:0:
144,103,110629,1,0,0:0:0:0:
150,82,110724,2,0,P|153:52|158:22,1,60.0000022888184,10|0,0:0|0:0,0:0:0:0:
139,219,110914,2,0,P|135:248|130:278,1,60.0000022888184,2|0,0:0|0:0,0:0:0:0:
272,168,111104,5,2,3:2:0:0:
272,168,111199,1,2,0:0:0:0:
272,167,111293,2,0,P|298:153|328:150,1,60.0000022888184,2|2,0:0|0:0,0:0:0:0:
408,100,111483,1,10,0:0:0:0:
425,107,111578,1,2,0:0:0:0:
442,120,111673,1,2,0:0:0:0:
450,135,111768,1,2,0:0:0:0:
448,212,111863,6,0,P|477:206|503:191,2,60.0000022888184,2|2|2,3:2|0:0|0:0,0:0:0:0:
448,212,112243,6,0,P|448:241|438:270,1,60.0000022888184,10|0,0:0|0:0,0:0:0:0:
272,236,112433,2,0,P|271:206|281:177,1,60.0000022888184,2|0,0:0|0:0,0:0:0:0:
382,341,112623,5,2,3:2:0:0:
368,339,112718,2,0,L|308:329,1,60.0000022888184,2|12,0:0|0:0,0:0:0:0:
180,236,112907,5,2,0:0:0:0:
166,238,113002,2,0,L|106:248,1,60.0000022888184,2|2,3:2|0:0,0:0:0:0:
16,276,113192,5,10,0:0:0:0:
38,314,113287,1,10,0:0:0:0:
75,338,113382,1,2,3:2:0:0:
120,342,113477,1,0,0:0:0:0:
161,325,113572,1,10,0:3:0:0:
181,320,113667,1,10,0:3:0:0:
205,325,113762,2,0,P|213:355|217:384,1,60.0000022888184,6|4,0:3|0:3,0:0:0:0:
348,253,113952,5,6,0:3:0:0:
352,232,114047,1,6,0:3:0:0:
342,208,114142,2,0,P|316:265|308:329,1,128,14|0,0:0|0:0,0:0:0:0:
240,147,114426,2,0,P|266:89|274:25,1,128,4|0,3:3|0:0,0:0:0:0:
342,207,114711,2,0,P|372:197|404:194,1,64,4|0,3:3|0:0,0:0:0:0:
240,147,114901,6,0,B|194:153|194:153|147:135,1,95.9999970703126,10|0,0:0|0:0,0:0:0:0:
147,135,115661,6,0,P|142:72|125:10,1,128,14|0,0:0|0:0,0:0:0:0:
240,147,115945,2,0,P|245:210|262:272,1,128,4|0,3:3|0:0,0:0:0:0:
97,246,116230,2,0,P|126:234|158:233,1,64,4|0,3:3|0:0,0:0:0:0:
240,147,116420,6,0,B|293:149|293:149|331:129,1,95.9999970703126,10|10,0:0|0:3,0:0:0:0:
335,133,116895,1,8,0:3:0:0:
339,137,116990,2,0,B|332:153|332:153|338:174,2,40,4|4|4,0:3|0:3|0:3,0:0:0:0:
488,292,117369,5,2,0:0:0:0:
497,265,117464,1,2,0:0:0:0:
506,315,117559,2,0,B|459:265|398:280|398:280|375:320|312:310,1,215.999993408203,12|8,0:0|0:0,0:0:0:0:
233,348,117939,2,0,L|224:300,1,47.9999985351563,2|0,3:2|0:0,0:0:0:0:
91,162,118129,5,0,3:0:0:0:
46,176,118224,1,0,0:0:0:0:
17,150,118319,2,0,P|102:174|165:237,1,180.000006866455,10|0,0:0|3:0,0:0:0:0:
165,237,118699,6,0,P|184:202|191:163,1,80,12|0,0:0|0:0,0:0:0:0:
161,23,118888,1,2,3:2:0:0:
312,112,119078,6,0,P|400:113|478:70,1,180.000006866455,10|4,3:2|0:3,0:0:0:0:
478,69,119458,6,0,P|482:40|487:10,1,60.0000022888184,10|8,3:2|0:3,0:0:0:0:
464,200,119648,2,0,P|459:229|454:259,1,60.0000022888184,4|4,0:3|0:3,0:0:0:0:
320,120,119838,6,0,P|262:130|212:163,1,120.000004577637,8|2,0:0|0:0,0:0:0:0:
211,163,120123,1,0,0:0:0:0:
211,163,120218,6,0,L|203:121,1,40,14|8,3:2|0:0,0:0:0:0:
104,96,120407,1,10,0:0:0:0:
104,96,120502,1,8,0:0:0:0:
104,96,120597,2,0,L|112:138,1,40,10|8,3:2|0:0,0:0:0:0:
40,232,120787,2,0,L|-2:224,1,40,10|8,0:0|0:0,0:0:0:0:
76,338,120977,2,0,L|118:346,3,40,10|8|8|8,3:2|0:0|0:0|0:0,0:0:0:0:
218,202,121357,6,0,L|210:160,1,40,10|8,3:2|0:0,0:0:0:0:
130,224,121547,2,0,L|138:266,1,40,10|8,0:0|0:0,0:0:0:0:
14,111,121736,5,10,3:2:0:0:
33,88,121831,1,8,0:0:0:0:
58,72,121926,1,10,0:0:0:0:
88,67,122021,1,8,0:0:0:0:
117,72,122116,2,0,L|124:111,3,40,10|8|8|8,3:2|0:0|0:0|0:0,0:0:0:0:
237,207,122496,6,0,L|244:168,1,40,10|8,3:2|0:0,0:0:0:0:
130,224,122686,2,0,L|123:263,1,40,10|8,0:0|0:0,0:0:0:0:
223,384,122876,6,0,L|262:377,1,40,10|8,3:2|0:0,0:0:0:0:
332,277,123066,2,0,L|293:284,1,40,10|8,0:0|0:0,0:0:0:0:
160,139,123255,5,10,3:2:0:0:
181,105,123350,1,8,0:0:0:0:
215,84,123445,1,8,0:0:0:0:
254,77,123540,1,8,0:0:0:0:
292,86,123635,2,0,L|286:46,3,40,10|8|8|8,3:2|0:0|0:0|0:0,0:0:0:0:
416,128,124015,5,10,3:2:0:0:
416,128,124110,1,8,0:0:0:0:
416,128,124205,2,0,L|421:88,1,40,8|8,0:0|0:0,0:0:0:0:
326,237,124395,5,10,3:2:0:0:
326,237,124490,1,8,0:0:0:0:
326,237,124585,2,0,L|331:276,1,40,8|8,0:0|0:0,0:0:0:0:
168,248,124774,5,6,3:2:0:0:
131,263,124869,1,2,0:0:0:0:
91,262,124964,1,2,0:0:0:0:
56,245,125059,1,2,0:0:0:0:
30,214,125154,1,2,0:0:0:0:
64,56,125344,5,6,3:2:0:0:
101,41,125439,1,2,0:0:0:0:
141,42,125534,1,2,0:0:0:0:
176,59,125629,1,2,0:0:0:0:
202,90,125724,1,2,0:0:0:0:
248,104,125819,1,0,0:0:0:0:
300,84,125914,2,0,L|309:32,1,51.999997619629,8|8,0:0|0:3,0:0:0:0:
192,180,126104,2,0,L|201:231,1,51.999997619629,4|4,0:3|0:3,0:0:0:0:
368,296,126293,5,12,0:0:0:0:
368,296,127433,6,0,B|317:272|269:304|269:304|257:332|257:332|209:368|158:344,1,240,4|0,3:3|0:0,0:0:0:0:
80,380,127812,6,0,P|113:331|109:272,1,120.000004577637,6|2,3:2|0:0,0:0:0:0:
103,256,128097,1,0,0:0:0:0:
0,235,128192,2,0,P|87:215|163:167,1,180.000006866455,10|0,0:0|0:0,0:0:0:0:
163,167,128572,6,0,P|164:137|169:107,1,60.0000022888184,2|0,3:2|0:0,0:0:0:0:
54,7,128762,2,0,P|72:63|77:123,2,120.000004577637,2|8|2,0:0|0:0|0:0,0:0:0:0:
188,11,129236,5,0,0:0:0:0:
199,19,129331,2,0,P|228:19|257:9,1,60.0000022888184,2|0,3:2|0:0,0:0:0:0:
168,107,129521,2,0,P|193:122|222:130,1,60.0000022888184,2|0,0:0|0:0,0:0:0:0:
52,172,129711,6,0,P|106:242|189:275,1,180.000006866455,10|0,0:0|0:0,0:0:0:0:
270,316,130091,2,0,P|211:323|165:361,1,120.000004577637,2|0,3:2|0:0,0:0:0:0:
166,361,130376,1,0,0:0:0:0:
165,361,130471,2,0,P|194:367|218:384,1,60.0000022888184,8|0,0:0|0:0,0:0:0:0:
239,222,130661,2,0,P|210:230|180:228,1,60.0000022888184,2|0,0:0|0:0,0:0:0:0:
52,172,130850,5,2,3:2:0:0:
68,88,131040,1,2,0:0:0:0:
232,8,131230,5,10,0:0:0:0:
256,134,131420,1,2,0:0:0:0:
141,235,131610,5,2,3:2:0:0:
165,361,131800,1,2,0:0:0:0:
329,281,131990,5,10,0:0:0:0:
345,197,132180,1,2,0:0:0:0:
362,365,132369,6,0,P|312:331|253:329,1,120.000004577637,2|0,3:2|0:0,0:0:0:0:
237,342,132654,1,0,0:0:0:0:
156,384,132749,6,0,B|124:244|240:300|211:165,1,240,10|0,0:0|0:0,0:0:0:0:
109,155,133129,2,0,B|128:291|218:199|236:341,1,240,2|2,3:2|0:0,0:0:0:0:
319,371,133509,5,10,3:2:0:0:
362,365,133604,1,8,0:0:0:0:
396,336,133699,1,10,0:0:0:0:
408,293,133793,1,8,0:0:0:0:
395,250,133888,6,0,P|399:221|413:194,1,60.0000022888184,6|0,3:2|0:0,0:0:0:0:
280,228,134078,2,0,P|269:200|267:170,1,60.0000022888184,2|0,0:0|0:0,0:0:0:0:
180,284,134268,2,0,P|120:217|99:130,1,180.000006866455,10|0,0:0|0:0,0:0:0:0:
99,131,134648,6,0,P|112:157|116:187,1,60.0000022888184,2|0,3:2|0:0,0:0:0:0:
116,368,134838,2,0,P|62:342|2:338,2,120.000004577637,2|8|2,0:0|0:0|0:0,0:0:0:0:
180,284,135312,5,0,0:0:0:0:
188,272,135407,2,0,P|196:243|196:213,1,60.0000022888184,2|0,3:2|0:0,0:0:0:0:
88,196,135597,2,0,P|79:224|79:254,1,60.0000022888184,2|0,0:0|0:0,0:0:0:0:
304,180,135787,6,0,P|241:118|153:115,1,180.000006866455,10|0,0:0|0:0,0:0:0:0:
153,114,136167,2,0,P|182:108|208:93,1,60.0000022888184,2|0,3:2|0:0,0:0:0:0:
304,15,136357,2,0,P|361:29|405:69,1,120.000004577637,0|8,0:0|0:0,0:0:0:0:
468,272,136736,5,2,0:0:0:0:
468,272,136831,1,0,0:0:0:0:
468,272,136926,1,6,3:2:0:0:
496,164,137116,1,2,0:0:0:0:
308,120,137306,5,10,0:0:0:0:
343,259,137496,1,2,0:0:0:0:
160,348,137686,5,2,3:2:0:0:
195,209,137876,1,2,0:0:0:0:
7,165,138066,5,10,0:0:0:0:
35,273,138255,1,2,0:0:0:0:
140,74,138445,6,0,L|81:86,1,60.0000022888184,2|0,3:2|0:0,0:0:0:0:
196,4,138635,2,0,P|237:60|224:129,1,143.999995605469,12|10,0:0|3:2,0:0:0:0:
224,129,138920,1,8,0:0:0:0:
223,128,139015,2,0,P|255:112|291:110,1,71.9999978027344,8|8,0:0|0:0,0:0:0:0:
437,66,139205,5,10,3:2:0:0:
490,87,139300,1,8,0:0:0:0:
512,133,139395,1,8,0:0:0:0:
502,183,139490,1,8,0:0:0:0:
462,211,139585,1,6,3:3:0:0:
434,255,139680,1,4,0:3:0:0:
442,291,139774,1,6,0:3:0:0:
458,311,139869,1,4,0:3:0:0:
476,318,139964,6,0,P|405:332|334:346,1,143.999995605469,6|0,3:2|0:0,0:0:0:0:
196,367,140534,1,2,3:2:0:0:
196,367,140629,1,0,3:0:0:0:
196,367,140724,2,0,B|277:367|293:303|293:303|313:227|385:227,1,256,10|0,0:0|0:0,0:0:0:0:
383,227,141293,6,0,B|348:229|348:229|322:214,1,64,2|2,3:2|0:0,0:0:0:0:
223,129,141673,2,0,P|167:159|103:165,1,128,0|2,3:0|3:2,0:0:0:0:
99,161,142148,1,0,0:0:0:0:
95,156,142243,2,0,P|93:124|83:93,1,64,10|0,0:0|3:0,0:0:0:0:
72,88,142528,1,0,3:0:0:0:
0,215,142623,6,0,P|118:223|215:291,1,240,12|0,0:0|0:0,0:0:0:0:
215,291,143002,6,0,B|274:308|274:308|319:270,1,120.000004577637,4|2,3:2|0:0,0:0:0:0:
337,255,143287,1,0,0:0:0:0:
384,180,143382,2,0,B|360:281|440:249|413:349,1,180.000006866455,10|0,0:0|0:0,0:0:0:0:
412,348,143762,2,0,P|403:319|407:289,1,60.0000022888184,2|0,3:2|0:0,0:0:0:0:
469,170,143952,5,0,0:0:0:0:
512,183,144047,1,0,0:0:0:0:
478,213,144142,1,8,0:0:0:0:
336,32,144331,2,0,B|249:52|249:52|247:58|247:58|164:75,1,180.000006866455,2|0,0:0|0:0,0:0:0:0:
11,119,144711,5,2,0:0:0:0:
23,115,144806,1,0,0:0:0:0:
33,111,144901,2,0,P|121:120|181:184,1,180.000006866455,10|2,0:0|0:0,0:0:0:0:
181,184,145281,2,0,B|153:159|153:125|153:125|169:104|163:74,1,120.000004577637,2|0,3:2|0:0,0:0:0:0:
5,278,145661,5,10,0:0:0:0:
23,292,145755,1,8,0:0:0:0:
43,300,145850,1,6,0:3:0:0:
66,298,145945,1,4,0:3:0:0:
128,352,146040,6,0,B|120:300|112:258|112:258|152:268|194:277,1,180.000006866455,6|0,3:2|0:0,0:0:0:0:
264,327,146420,2,0,P|274:299|275:270,1,60.0000022888184,8|0,0:0|0:0,0:0:0:0:
404,324,146610,5,2,0:0:0:0:
424,340,146705,1,0,0:0:0:0:
451,331,146800,2,0,P|393:341|346:377,2,120.000004577637,2|0|8,3:2|0:0|0:0,0:0:0:0:
416,121,147369,2,0,P|416:98|427:117,1,60.0000022888184,2|0,0:0|0:0,0:0:0:0:
491,196,147559,6,0,B|446:167|403:180|403:180|392:202|392:202|357:229|308:217,1,204.000003890991,2|0,3:2|0:0,0:0:0:0:
309,217,147939,2,0,P|306:187|293:160,1,60.0000022888184,8|0,0:0|0:0,0:0:0:0:
195,188,148129,2,0,P|197:217|210:244,1,60.0000022888184,2|0,0:0|0:0,0:0:0:0:
376,94,148319,2,0,P|328:61|269:57,2,120.000004577637,2|0|8,3:2|0:0|0:0,0:0:0:0:
376,94,148888,2,0,P|406:87|431:72,1,60.0000022888184,2|0,0:0|0:0,0:0:0:0:
309,217,149078,6,0,P|237:165|148:165,1,180.000006866455,4|0,3:2|0:0,0:0:0:0:
16,146,149458,2,0,B|49:150|65:179|65:179|60:147|80:124,1,120.000004577637,10|0,0:0|0:0,0:0:0:0:
152,304,149838,6,0,P|178:290|207:282,1,60.0000022888184,2|0,3:2|0:0,0:0:0:0:
309,217,150028,1,0,0:0:0:0:
353,230,150123,1,0,0:0:0:0:
319,261,150218,1,8,0:0:0:0:
472,153,150407,6,0,B|496:256|420:215|445:323,1,180.000006866455,2|0,0:0|0:0,0:0:0:0:
445,323,150787,2,0,P|453:294|452:264,1,60.0000022888184,14|0,0:0|0:0,0:0:0:0:
309,217,150977,5,2,3:2:0:0:
259,214,151072,1,8,0:0:0:0:
215,238,151167,1,8,0:0:0:0:
197,281,151262,1,8,0:0:0:0:
159,328,151357,1,6,0:3:0:0:
98,337,151452,1,8,0:3:0:0:
41,306,151547,1,4,0:3:0:0:
27,249,151642,1,0,0:0:0:0:
36,216,151736,6,0,P|66:210|94:199,1,60.0000022888184,10|8,0:3|0:3,0:0:0:0:
184,32,151926,2,0,P|154:26|126:15,2,60.0000022888184,6|4|0,0:3|0:3|3:0,0:0:0:0:
272,352,153255,5,2,0:0:0:0:
272,352,153445,2,0,L|311:342,1,40,2|0,0:0|0:0,0:0:0:0:
388,373,153635,6,0,P|415:326|406:272,2,111.999996582031,4|2|2,3:2|3:2|3:2,0:0:0:0:
477,138,154774,5,2,3:2:0:0:
409,185,154964,2,0,P|382:183|354:176,1,55.9999982910157,2|0,0:0|3:0,0:0:0:0:
269,69,155344,2,0,P|281:93|289:120,1,55.9999982910157,2|0,0:0|3:0,0:0:0:0:
239,249,155724,2,0,P|254:225|273:205,1,55.9999982910157,10|0,0:3|3:0,0:0:0:0:
128,128,156104,5,10,0:3:0:0:
41,147,156293,1,6,0:3:0:0:
68,62,156483,5,10,0:0:0:0:
101,213,156673,1,0,3:0:0:0:
101,213,157053,6,0,P|94:240|89:267,1,55.9999982910157,2|8,3:2|0:3,0:0:0:0:
48,344,157433,2,0,P|75:350|102:355,1,55.9999982910157,2|0,3:2|0:0,0:0:0:0:
102,355,157718,1,0,0:0:0:0:
102,355,157812,1,2,3:2:0:0:
232,280,158002,5,10,0:0:0:0:
244,325,158097,1,8,0:0:0:0:
199,312,158192,1,0,3:0:0:0:
336,344,158382,6,0,P|363:341|390:333,1,55.9999982910157,2|0,0:0|3:0,0:0:0:0:
416,224,158762,2,0,P|388:221|361:213,1,55.9999982910157,10|8,0:3|3:3,0:0:0:0:
356,210,159047,1,8,0:3:0:0:
351,206,159142,2,0,L|355:178,1,27.9999991455078,10|8,0:3|0:3,0:0:0:0:
289,120,159331,5,6,3:3:0:0:
257,132,159426,1,6,0:3:0:0:
225,128,159521,1,10,0:0:0:0:
201,108,159616,1,8,0:0:0:0:
193,76,159711,1,4,3:2:0:0:
193,76,160091,6,0,P|185:49|187:21,1,55.9999982910157,2|8,3:2|0:3,0:0:0:0:
1,107,160471,2,0,P|57:106|104:136,1,111.999996582031,2|2,3:2|3:2,0:0:0:0:
169,249,161040,1,10,0:0:0:0:
154,288,161135,1,8,0:0:0:0:
126,256,161230,1,0,3:0:0:0:
232,332,161420,6,0,P|258:323|286:318,1,55.9999982910157,2|0,0:0|3:0,0:0:0:0:
100,364,161800,2,0,P|73:372|45:377,1,55.9999982910157,10|8,0:3|3:3,0:0:0:0:
154,288,162180,5,10,0:3:0:0:
155,269,162274,1,0,0:0:0:0:
169,249,162369,1,10,3:3:0:0:
60,91,162559,2,0,L|65:121,1,27.9999991455078,10|0,0:0|0:0,0:0:0:0:
8,184,162749,6,0,B|46:152|89:156|89:156|116:178|153:171,1,155.999992858887,4|0,3:2|0:0,0:0:0:0:
164,164,163129,2,0,B|160:136|160:136|168:113,1,51.999997619629,2|0,3:2|0:0,0:0:0:0:
196,32,163319,1,8,0:0:0:0:
324,128,163509,6,0,P|375:121|421:97,1,103.999995239258,6|4,3:3|0:3,0:0:0:0:
428,72,163793,1,4,0:3:0:0:
404,44,163888,2,0,P|399:69|395:95,1,51.999997619629,2|0,3:2|0:0,0:0:0:0:
472,188,164078,2,0,P|467:213|463:239,1,51.999997619629,10|0,0:0|0:0,0:0:0:0:
492,336,164268,1,4,3:2:0:0:
492,336,164458,5,10,0:0:0:0:
456,356,164553,1,8,0:0:0:0:
408,344,164648,1,10,3:2:0:0:
296,200,164838,1,6,0:3:0:0:
251,190,164933,1,6,0:3:0:0:
215,226,165028,1,10,0:0:0:0:
200,344,165218,1,2,3:2:0:0:
0,96,165597,5,2,0:0:0:0:
88,135,165787,2,0,P|117:130|144:117,1,60.0000022888184,6|0,3:2|0:0,0:0:0:0:
0,224,165977,2,0,P|56:252|116:260,1,120.000004577637,2|10,0:0|0:0,0:0:0:0:
232,84,166357,6,0,P|227:54|213:27,1,60.0000022888184,2|0,0:0|0:0,0:0:0:0:
126,61,166547,2,0,P|130:90|144:117,1,60.0000022888184,2|0,3:2|0:0,0:0:0:0:
320,144,166736,1,2,3:2:0:0:
282,253,166926,6,0,P|287:193|319:143,1,120.000004577637,10|2,0:0|0:0,0:0:0:0:
412,176,167211,1,0,0:0:0:0:
412,176,167306,2,0,P|406:235|374:285,1,120.000004577637,2|2,3:2|0:0,0:0:0:0:
200,192,167686,2,0,P|170:190|142:201,1,60.0000022888184,10|0,0:0|0:0,0:0:0:0:
44,348,167876,6,0,P|130:342|182:272,1,180.000006866455,2|0,0:0|0:0,0:0:0:0:
182,272,168255,2,0,P|172:300|172:330,1,60.0000022888184,2|0,3:2|0:0,0:0:0:0:
260,380,168445,1,10,0:0:0:0:
280,256,168635,1,2,0:0:0:0:
300,132,168825,6,0,P|295:102|284:74,1,60.0000022888184,2|0,3:2|0:0,0:0:0:0:
432,152,169015,2,0,P|460:99|465:40,1,120.000004577637,2|10,0:0|0:0,0:0:0:0:
280,256,169395,6,0,P|206:207|118:214,1,180.000006866455,2|0,0:0|0:0,0:0:0:0:
118,214,169774,1,0,3:0:0:0:
140,112,169964,1,10,0:0:0:0:
13,221,170154,6,0,P|26:247|32:276,1,60.0000022888184,0|0,0:0|0:0,0:0:0:0:
140,356,170344,2,0,P|126:329|120:300,1,60.0000022888184,2|0,3:2|0:0,0:0:0:0:
220,180,170534,1,2,0:0:0:0:
40,68,170724,6,0,P|128:67|204:21,1,180.000006866455,14|0,0:0|0:0,0:0:0:0:
308,16,171104,5,8,3:2:0:0:
352,30,171199,1,8,0:0:0:0:
371,73,171293,1,4,0:3:0:0:
352,115,171388,1,4,0:3:0:0:
336,124,171483,2,0,P|306:120|276:115,1,60.0000022888184,8|8,3:3|0:3,0:0:0:0:
260,264,171673,2,0,P|289:267|319:272,1,60.0000022888184,4|4,0:3|0:3,0:0:0:0:
120,184,171863,5,6,3:2:0:0:
92,180,171958,1,2,0:0:0:0:
68,164,172053,2,0,P|59:135|59:105,1,60.0000022888184,2|0,0:0|0:0,0:0:0:0:
214,177,172243,6,0,B|236:299|165:249|185:373,1,204.000003890991,14|0,0:0|0:0,0:0:0:0:
183,372,172623,2,0,P|193:343|189:314,1,60.0000022888184,2|0,3:2|0:0,0:0:0:0:
214,177,172812,5,2,3:2:0:0:
249,171,172907,1,2,0:0:0:0:
282,183,173002,1,10,0:0:0:0:
315,196,173097,1,2,0:0:0:0:
350,189,173192,1,2,0:0:0:0:
334,44,173382,6,0,P|323:71|320:101,1,60.0000022888184,2|2,3:2|0:0,0:0:0:0:
471,63,173572,1,2,0:0:0:0:
471,63,173667,1,2,0:0:0:0:
471,63,173762,2,0,P|452:39|428:21,2,60.0000022888184,10|2|2,0:0|0:0|0:0,0:0:0:0:
404,208,174142,6,0,P|374:204|349:188,1,60.0000022888184,2|0,3:2|0:0,0:0:0:0:
320,101,174331,1,2,3:2:0:0:
255,285,174521,6,0,P|229:231|234:172,1,120.000004577637,14|0,0:0|0:0,0:0:0:0:
304,110,174806,1,0,0:0:0:0:
320,101,174901,6,0,P|325:130|317:159,1,60.0000022888184,2|0,3:2|0:0,0:0:0:0:
143,61,175091,6,0,B|126:15|63:12|63:12|37:38,1,136.000002593994,14|10,0:0|0:3,0:0:0:0:
201,214,175376,2,0,B|240:241|293:206|293:206|299:169,1,136.000002593994,10|6,0:3|0:3,0:0:0:0:
63,124,175661,2,0,B|15:125|-6:184|-6:184|10:217,1,136.000002593994,10|10,0:0|0:3,0:0:0:0:
228,117,175945,2,0,B|266:87|249:26|249:26|216:9,1,136.000002593994,10|6,0:3|0:3,0:0:0:0:
216,9,176230,1,10,0:3:0:0:
99,218,176420,6,0,P|107:250|114:284,1,68.0000012969971,6|0,3:2|0:0,0:0:0:0:
216,360,176610,1,10,0:0:0:0:
256,352,176705,1,8,0:0:0:0:
280,312,176800,1,8,0:0:0:0:
272,272,176895,1,8,0:0:0:0:
200,200,176990,5,4,0:3:0:0:
192,224,177085,1,4,0:3:0:0:
198,242,177180,2,0,L|331:215,1,136.000002593994,2|0,3:2|0:0,0:0:0:0:
464,160,177464,2,0,B|434:166|416:202|416:202|410:165|378:145,1,136.000002593994,2|0,3:2|0:0,0:0:0:0:
230,94,177749,6,0,B|201:92|167:109|167:109|144:80|112:65,1,136.000002593994,14|8,0:0|3:2,0:0:0:0:
0,287,178129,6,0,P|5:313|10:338,1,51.999997619629,10|4,0:0|0:3,0:0:0:0:
80,256,178319,2,0,P|85:281|90:306,1,51.999997619629,10|8,3:2|0:0,0:0:0:0:
160,224,178509,2,0,P|165:249|170:274,1,51.999997619629,10|4,0:0|0:3,0:0:0:0:
272,168,178699,6,0,P|266:193|261:218,1,51.999997619629,10|8,3:2|0:0,0:0:0:0:
352,200,178888,2,0,P|346:225|341:250,1,51.999997619629,10|4,0:0|0:3,0:0:0:0:
431,231,179078,5,10,3:2:0:0:
427,248,179173,1,8,0:3:0:0:
424,265,179268,1,10,0:3:0:0:
421,282,179363,1,8,0:3:0:0:
451,356,179458,6,0,P|407:331|356:336,1,103.999995239258,2|2,3:2|0:0,0:0:0:0:
339,345,179743,1,0,0:0:0:0:
323,261,179838,1,14,0:0:0:0:
323,261,180028,6,0,L|271:252,1,51.999997619629,8|8,0:0|0:0,0:0:0:0:
232,152,180218,1,10,3:2:0:0:
178,140,180312,1,8,0:0:0:0:
132,168,180407,1,10,0:0:0:0:
114,214,180502,1,4,0:3:0:0:
81,240,180597,1,0,3:0:0:0:
43,250,180692,1,4,0:3:0:0:
20,242,180787,1,6,0:3:0:0:
4,228,180882,1,4,0:3:0:0:
0,214,180977,6,0,B|54:192|99:238|99:238|117:291|177:303,1,215.999993408203,6|0,3:2|0:0,0:0:0:0:
152,384,181357,6,0,P|221:329|310:325,1,180.000006866455,10|0,0:0|0:0,0:0:0:0:
310,324,181736,2,0,P|280:323|253:310,1,60.0000022888184,2|0,3:2|0:0,0:0:0:0:
424,264,181926,1,0,0:0:0:0:
430,255,182021,1,0,0:0:0:0:
435,247,182116,2,0,P|448:189|431:131,1,120.000004577637,8|2,0:0|0:0,0:0:0:0:
320,8,182496,5,2,3:2:0:0:
224,24,182686,1,2,0:0:0:0:
176,120,182876,5,10,0:0:0:0:
360,144,183066,1,2,0:0:0:0:
336,264,183255,5,2,3:2:0:0:
152,288,183445,1,2,0:0:0:0:
224,360,183635,5,10,0:0:0:0:
320,376,183825,1,2,0:0:0:0:
223,200,184015,6,0,P|152:200|89:167,1,143.999995605469,2|0,3:2|0:0,0:0:0:0:
81,157,184300,1,0,0:0:0:0:
0,112,184395,6,0,P|117:105|210:32,1,240,10|0,0:0|0:0,0:0:0:0:
210,32,184774,2,0,P|180:27|155:11,2,60.0000022888184,2|2|2,3:2|0:0|0:0,0:0:0:0:
331,221,185154,5,10,0:0:0:0:
352,214,185249,1,8,0:0:0:0:
374,208,185344,1,10,0:0:0:0:
397,202,185439,1,8,0:0:0:0:
418,194,185534,6,0,B|429:169|421:134,1,60.0000022888184,6|0,3:2|0:0,0:0:0:0:
288,152,185724,2,0,B|285:124|261:99,1,60.0000022888184,2|0,0:0|0:0,0:0:0:0:
224,279,185914,6,0,P|147:234|59:241,1,180.000006866455,10|0,0:0|0:0,0:0:0:0:
59,241,186293,2,0,P|89:235|115:222,1,60.0000022888184,2|0,3:2|0:0,0:0:0:0:
80,40,186483,2,0,P|66:98|66:158,2,120.000004577637,2|8|2,0:0|0:0|0:0,0:0:0:0:
184,24,186958,1,0,0:0:0:0:
195,30,187053,2,0,P|224:25|252:14,1,60.0000022888184,2|0,3:2|0:0,0:0:0:0:
344,96,187243,2,0,P|314:100|286:111,1,60.0000022888184,2|0,0:0|0:0,0:0:0:0:
392,216,187433,6,0,P|440:142|422:56,1,180.000006866455,10|0,0:0|0:0,0:0:0:0:
422,56,187812,2,0,P|422:84|457:155,1,60.0000022888184,2|0,3:2|0:0,0:0:0:0:
456,320,188002,1,0,0:0:0:0:
448,324,188097,1,0,0:0:0:0:
441,328,188192,2,0,L|322:311,1,120.000004577637,8|2,0:0|0:0,0:0:0:0:
104,384,188572,5,6,3:2:0:0:
86,287,188762,1,2,0:0:0:0:
200,84,188952,5,10,0:0:0:0:
218,181,189142,1,2,0:0:0:0:
302,282,189331,5,2,3:2:0:0:
205,300,189521,1,2,0:0:0:0:
2,185,189711,5,10,0:0:0:0:
99,168,189901,1,2,0:0:0:0:
184,24,190091,6,0,P|213:24|241:35,1,60.0000022888184,2|0,3:2|0:0,0:0:0:0:
320,112,190281,1,12,0:0:0:0:
320,112,190471,6,0,P|355:108|389:95,1,71.9999978027344,10|8,3:2|0:0,0:0:0:0:
488,216,190661,2,0,P|452:219|418:232,1,71.9999978027344,8|8,0:0|0:0,0:0:0:0:
296,352,190850,5,10,3:2:0:0:
250,351,190945,1,8,0:0:0:0:
208,323,191040,1,8,0:3:0:0:
195,272,191135,1,8,0:3:0:0:
216,231,191230,1,6,3:3:0:0:
209,192,191325,1,4,0:3:0:0:
185,166,191420,1,6,0:3:0:0:
170,159,191515,1,4,0:3:0:0:
80,148,191610,6,0,P|184:123|278:69,1,215.999993408203,6|0,3:2|3:0,0:0:0:0:
277,68,191990,2,0,P|242:61|211:44,2,71.9999978027344,14|0|2,0:0|0:0|3:2,0:0:0:0:
436,200,192369,6,0,B|452:241|430:272|419:266|391:291|410:332,1,143.999995605469,14|2,0:0|3:2,0:0:0:0:
410,332,192654,1,0,3:0:0:0:
504,346,192749,6,0,B|510:315|510:315|496:244|400:216|342:261,1,240,14|0,0:0|0:0,0:0:0:0:
152,152,193118,6,0,B|163:107|133:67|133:67|160:74|163:107,1,143.999995605469,14|0,0:0|3:0,0:0:0:0:
260,240,193433,2,0,B|249:285|279:325|279:325|252:318|249:285,1,143.999995605469,14|0,0:0|3:0,0:0:0:0:
250,141,193750,2,0,B|295:152|335:122|335:122|328:149|295:152,1,143.999995605469,14|0,0:0|3:0,0:0:0:0:
162,250,194065,2,0,B|133:250|111:268|111:268|114:257|125:248,1,80,14|2,0:0|0:0,0:0:0:0:
260,240,194254,5,8,0:0:0:0:
286,265,194349,1,8,0:0:0:0:
318,279,194444,1,10,0:0:0:0:
354,281,194539,1,8,0:0:0:0:
388,271,194634,5,4,3:2:0:0:
356,140,194823,1,10,0:0:0:0:
356,140,194918,1,2,0:0:0:0:
356,140,195013,2,0,P|342:166|335:195,2,60.0000022888184,2|0|8,3:2|3:0|0:0,0:0:0:0:
215,20,195393,6,0,P|161:44|102:48,1,120.000004577637,2|8,3:2|0:0,0:0:0:0:
40,110,195678,1,0,3:0:0:0:
32,104,195773,2,0,P|14:80|6:51,1,60.0000022888184,0|0,0:0|3:0,0:0:0:0:
173,232,195963,6,0,P|247:185|335:195,1,180.000006866455,10|0,0:0|0:0,0:0:0:0:
335,195,196342,2,0,P|307:182|286:161,1,60.0000022888184,10|0,0:0|0:0,0:0:0:0:
374,0,196532,6,0,P|357:57|357:116,1,120.000004577637,2|8,3:2|0:0,0:0:0:0:
434,161,196817,1,0,0:0:0:0:
439,152,196912,2,0,P|464:135|493:127,2,60.0000022888184,2|0|8,3:2|0:0|0:0,0:0:0:0:
352,352,197292,1,2,0:0:0:0:
352,352,197387,1,0,3:0:0:0:
352,352,197482,2,0,P|322:347|294:335,1,60.0000022888184,10|0,0:0|0:0,0:0:0:0:
256,196,197671,5,6,3:2:0:0:
55,324,197861,2,0,P|131:277|220:280,1,180.000006866455,8|0,0:0|3:0,0:0:0:0:
220,280,198241,2,0,P|191:270|168:251,1,60.0000022888184,10|0,0:0|0:0,0:0:0:0:
138,173,198431,2,0,B|149:117|149:117|147:111|147:111|156:55,2,120.000004577637,2|8|0,3:2|0:0|0:0,0:0:0:0:
56,196,198906,1,0,3:0:0:0:
47,192,199001,2,0,P|28:170|20:141,1,60.0000022888184,10|0,0:0|0:0,0:0:0:0:
129,4,199190,6,0,P|148:26|156:55,1,60.0000022888184,2|0,3:2|0:0,0:0:0:0:
0,295,199380,6,0,B|35:242|104:242|104:242|131:253|152:273,1,180.000006866455,8|0,0:0|3:0,0:0:0:0:
152,274,199760,2,0,P|135:249|128:220,1,60.0000022888184,10|0,0:0|0:0,0:0:0:0:
219,94,199950,2,0,P|233:151|217:208,2,120.000004577637,2|8|0,3:2|0:0|0:0,0:0:0:0:
301,35,200425,1,0,3:0:0:0:
311,39,200520,2,0,P|341:36|369:25,1,60.0000022888184,10|0,0:0|0:0,0:0:0:0:
464,192,200709,6,0,P|404:190|353:159,1,120.000004577637,6|10,3:2|0:0,0:0:0:0:
344,146,200994,1,0,0:0:0:0:
386,81,201089,2,0,P|381:51|369:24,2,60.0000022888184,2|0|8,3:2|3:0|0:0,0:0:0:0:
296,220,201469,2,0,P|294:249|283:277,1,60.0000022888184,2|0,3:2|0:0,0:0:0:0:
327,360,201659,2,0,B|300:267|239:328|215:229,1,180.000006866455,8|0,0:0|3:0,0:0:0:0:
117,151,202039,5,10,0:0:0:0:
117,151,202134,1,0,0:0:0:0:
117,151,202228,2,0,P|89:139|59:135,1,60.0000022888184,6|0,3:2|0:0,0:0:0:0:
30,264,202418,2,0,P|58:275|88:280,1,60.0000022888184,10|8,0:0|0:0,0:0:0:0:
224,240,202608,1,10,0:0:0:0:
250,215,202703,1,4,0:3:0:0:
282,200,202798,1,4,0:3:0:0:
318,196,202893,1,4,0:3:0:0:
353,201,202988,6,0,P|358:172|360:142,1,60.0000022888184,10|0,3:2|0:0,0:0:0:0:
482,23,203178,2,0,P|476:52|474:82,1,60.0000022888184,8|0,3:2|0:0,0:0:0:0:
507,177,203368,6,0,P|477:171|447:169,1,60.0000022888184,10|0,3:2|0:0,0:0:0:0:
328,48,203558,2,0,P|357:53|387:55,1,60.0000022888184,10|0,3:2|0:0,0:0:0:0:
417,333,204506,5,2,0:0:0:0:
401,335,204601,1,0,0:0:0:0:
385,337,204696,1,0,0:0:0:0:
369,339,204791,1,0,0:0:0:0:
295,376,204886,5,2,0:0:0:0:
265,349,204981,1,0,0:0:0:0:
253,311,205076,1,0,0:0:0:0:
259,272,205171,1,0,0:0:0:0:
325,236,205265,6,0,B|281:252|242:231|266:213|221:188|178:209,1,160,6|0,3:2|0:0,0:0:0:0:
170,221,205550,1,2,0:0:0:0:
87,314,205645,6,0,P|93:309|109:99,1,240,10|0,0:0|0:0,0:0:0:0:
110,100,206025,2,0,P|103:135|109:170,2,71.9999978027344,2|2|0,3:2|0:0|0:0,0:0:0:0:
184,48,206310,2,0,P|156:24|123:12,2,71.9999978027344,2|8|0,0:0|0:0|0:0,0:0:0:0:
192,138,206595,2,0,P|225:126|253:102,2,71.9999978027344,2|0|0,0:0|0:0|3:0,0:0:0:0:
22,279,206974,6,0,P|57:284|87:303,1,71.9999978027344,2|0,0:0|0:0,0:0:0:0:
192,137,207164,2,0,P|266:215|294:318,1,215.999993408203,10|0,0:0|3:0,0:0:0:0:
293,317,207544,6,0,P|277:286|270:251,1,71.9999978027344,2|2,3:2|0:0,0:0:0:0:
362,224,207734,2,0,P|378:255|385:290,1,71.9999978027344,0|2,0:0|0:0,0:0:0:0:
177,334,207924,6,0,P|177:297|189:263,1,71.9999978027344,8|2,0:0|0:0,0:0:0:0:
385,291,208114,2,0,P|384:327|372:361,1,71.9999978027344,2|0,0:0|0:0,0:0:0:0:
269,249,208303,6,0,P|262:169|287:94,1,160,6|0,3:2|0:0,0:0:0:0:
296,80,208588,1,2,0:0:0:0:
384,152,208683,6,0,B|320:178|271:129|273:121|275:113|222:71|165:105,1,240,10|0,0:0|0:0,0:0:0:0:
165,103,209063,6,0,P|161:68|146:35,2,71.9999978027344,2|2|0,3:2|0:0|0:0,0:0:0:0:
296,80,209348,2,0,P|310:46|313:11,2,71.9999978027344,2|8|0,0:0|0:0|0:0,0:0:0:0:
384,151,209633,2,0,P|412:129|433:100,2,71.9999978027344,2|0|0,0:0|0:0|3:0,0:0:0:0:
384,151,210012,6,0,P|389:186|403:219,1,71.9999978027344,2|0,0:0|0:0,0:0:0:0:
476,357,210202,2,0,P|394:293|292:316,1,215.999993408203,10|0,0:0|0:0,0:0:0:0:
292,316,210582,6,0,P|302:281|299:246,1,71.9999978027344,2|2,3:2|0:0,0:0:0:0:
197,233,210772,2,0,P|186:267|189:303,1,71.9999978027344,2|2,0:0|0:0,0:0:0:0:
386,220,210962,5,8,0:0:0:0:
371,195,211057,1,10,0:0:0:0:
349,176,211152,1,8,0:0:0:0:
322,167,211247,1,10,0:0:0:0:
292,166,211341,6,0,P|290:131|299:96,2,71.9999978027344,6|2|2,3:2|0:0|0:0,0:0:0:0:
221,200,211626,5,2,0:0:0:0:
209,195,211721,2,0,P|194:162|191:126,2,71.9999978027344,10|2|2,0:0|0:0|0:0,0:0:0:0:
152,250,212006,5,2,0:0:0:0:
139,250,212101,2,0,P|114:224|98:191,2,71.9999978027344,2|2|2,3:2|0:0|0:0,0:0:0:0:
105,321,212386,5,2,0:0:0:0:
92,325,212481,2,0,P|59:309|34:283,3,71.9999978027344,10|2|2|2,0:0|0:0|0:0|0:0,0:0:0:0:
139,250,212860,6,0,P|114:224|98:191,1,71.9999978027344,2|2,3:2|0:0,0:0:0:0:
191,126,213050,1,2,0:0:0:0:
191,126,213145,1,2,0:0:0:0:
191,126,213240,2,0,P|194:162|209:195,1,71.9999978027344,10|2,0:0|0:0,0:0:0:0:
292,166,213430,2,0,P|290:131|299:96,1,71.9999978027344,2|2,0:0|0:0,0:0:0:0:
410,104,213620,6,0,P|390:133|380:168,1,71.9999978027344,2|2,3:2|0:0,0:0:0:0:
464,208,213810,2,0,P|484:178|494:144,1,71.9999978027344,2|2,0:0|0:0,0:0:0:0:
280,288,214000,6,0,P|283:323|297:356,1,71.9999978027344,10|2,0:0|0:0,0:0:0:0:
400,328,214190,2,0,P|396:292|382:259,1,71.9999978027344,2|2,0:0|0:0,0:0:0:0:
176,176,214379,5,6,3:2:0:0:
144,168,214474,1,2,0:0:0:0:
112,184,214569,2,0,P|140:206|174:216,1,71.9999978027344,2|2,0:0|0:0,0:0:0:0:
328,120,214759,5,10,0:0:0:0:
344,80,214854,1,2,0:0:0:0:
337,36,214949,1,2,0:0:0:0:
307,4,215044,1,2,0:0:0:0:
263,3,215139,2,0,P|256:38|267:71,1,71.9999978027344,6|2,3:2|0:0,0:0:0:0:
400,224,215329,5,2,0:0:0:0:
451,216,215424,1,2,3:2:0:0:
492,182,215519,1,10,0:0:0:0:
507,132,215614,1,2,0:0:0:0:
481,86,215709,2,0,P|447:96|420:119,1,71.9999978027344,6|2,3:2|0:0,0:0:0:0:
264,240,215898,5,2,0:0:0:0:
269,259,215993,1,2,0:0:0:0:
275,278,216088,1,2,3:2:0:0:
281,298,216183,1,2,0:0:0:0:
384,328,216278,6,0,B|271:313|327:400|206:378|206:378,1,191.999994140625,14|10,0:0|0:0,0:0:0:0:
206,378,216563,1,10,0:0:0:0:
128,344,216658,5,14,3:2:0:0:
101,352,216753,2,0,B|78:306|78:306|89:254,1,103.999995239258,10|10,0:0|0:0,0:0:0:0:
171,199,216943,2,0,B|119:204|89:254|89:254|80:198|26:176,1,207.999990478516,10|10,0:0|0:0,0:0:0:0:
76,9,217228,5,10,0:0:0:0:
145,51,217322,1,10,0:0:0:0:
113,128,217417,2,0,B|168:75|228:81|228:81|262:130|326:120,1,240,2|0,3:2|0:0,0:0:0:0:
440,152,217797,6,0,L|453:56,1,96,2|0,0:0|0:0,0:0:0:0:
369,4,218177,5,2,0:0:0:0:
378,14,218272,2,0,L|373:45,1,32,2|0,0:0|0:0,0:0:0:0:
440,152,218462,6,0,L|430:215,1,64,2|2,0:0|0:0,0:0:0:0:
496,296,218747,2,0,P|449:304|412:334,1,96,2|0,0:0|0:0,0:0:0:0:
412,333,219126,2,0,P|397:330|383:322,1,32,2|0,0:0|0:0,0:0:0:0:
314,268,219316,2,0,L|251:279,1,64,2|0,0:0|0:0,0:0:0:0:
251,279,219601,1,0,0:0:0:0:
236,196,219696,5,2,0:0:0:0:
239,188,219791,2,0,L|246:156,1,32,2|0,0:0|0:0,0:0:0:0:
189,59,219981,2,0,L|181:90,1,32,2|0,0:0|0:0,0:0:0:0:
44,216,220171,5,2,0:0:0:0:
46,205,220265,2,0,B|103:180|155:218|155:218|169:261|169:261|209:297|258:284,1,256,6|0,3:2|0:0,0:0:0:0:
