osu file format v14

[General]
AudioFilename: audio.mp3
AudioLeadIn: 0
PreviewTime: 62397
Countdown: 0
SampleSet: Soft
StackLeniency: 0.4
Mode: 0
LetterboxInBreaks: 0
WidescreenStoryboard: 1

[Editor]
Bookmarks: 214,48821,101986,153631,164264,205275
DistanceSpacing: 0.9
BeatDivisor: 4
GridSize: 32
TimelineZoom: 5.199996

[Metadata]
Title:Hitogata Rock
TitleUnicode:ヒトガタRock
Artist:HIMEHINA
ArtistUnicode:HIMEHINA
Creator:dkblaze
Version:Amalia's Expert
Source:バーチャルさんはみている
Tags:Yuuma Shizuku- Kazato Asa Shikibe Mayu Amateurre Heilia virtual san wa miteiru YouTuber vtuber 藍の華 田中ヒメ 鈴木ヒナ Tanaka Hime Suzuki Hina jpop j-pop pop jrock j-rock rock female vocal Divine Flowers Japanese
BeatmapID:2957541
BeatmapSetID:1361614

[Difficulty]
HPDrainRate:5
CircleSize:4
OverallDifficulty:8.5
ApproachRate:9.2
SliderMultiplier:1.8
SliderTickRate:1

[Events]
//Background and Video events
0,0,"BG2.jpg",0,0
//Break Periods
2,153835,163698
//Storyboard Layer 0 (Background)
//Storyboard Layer 1 (Fail)
//Storyboard Layer 2 (Pass)
//Storyboard Layer 3 (Foreground)
//Storyboard Layer 4 (Overlay)
//Storyboard Sound Samples

[TimingPoints]
218,379.746835443038,4,2,6,40,1,0
218,-40,4,2,6,40,0,0
597,-100,4,2,6,40,0,0
5534,-100,4,2,6,70,0,0
5819,-66.6666666666667,4,2,6,70,0,0
6293,-100,4,2,6,70,0,0
10850,-66.6666666666667,4,2,6,70,0,0
11895,-133.333333333333,4,2,6,70,0,0
12369,-55.5555555555556,4,2,6,80,0,0
24521,-100,4,2,6,70,0,0
26040,-66.6666666666667,4,2,6,70,0,0
27180,-100,4,2,6,70,0,0
28888,-66.6666666666667,4,2,6,70,0,0
30597,-100,4,2,6,70,0,0
32116,-66.6666666666667,4,2,6,70,0,0
33255,-100,4,2,6,70,0,0
34964,-66.6666666666667,4,2,6,70,0,0
36673,-83.3333333333333,4,2,6,70,0,0
52243,-55.5555555555556,4,2,6,70,0,0
52623,-83.3333333333333,4,2,6,70,0,0
53002,-55.5555555555556,4,2,6,70,0,0
54521,-100,4,2,6,70,0,0
61736,-66.6666666666667,4,2,6,70,0,0
62496,-66.6666666666667,4,2,6,85,0,1
62876,-50,4,2,6,85,0,1
63635,-66.6666666666667,4,2,6,85,0,1
64015,-66.6666666666667,4,2,6,85,0,1
64395,-50,4,2,6,85,0,1
64774,-66.6666666666667,4,2,6,85,0,1
68952,-50,4,2,6,85,0,1
70091,-100,4,2,6,85,0,1
70471,-50,4,2,6,85,0,1
72749,-66.6666666666667,4,2,6,85,0,1
80724,-76.9230769230769,4,2,6,85,0,1
86800,-100,4,2,6,70,0,0
89838,-100,4,2,6,70,0,0
90597,-66.6666666666667,4,2,6,70,0,0
91262,-66.6666666666667,4,2,6,5,0,0
91357,-66.6666666666667,4,2,6,70,0,0
94300,-66.6666666666667,4,2,6,5,0,0
94395,-66.6666666666667,4,2,6,70,0,0
95914,-83.3333333333333,4,2,6,70,0,0
117180,-66.6666666666667,4,2,6,70,0,0
127812,-66.6666666666667,4,2,6,85,0,1
128192,-55.5555555555556,4,2,6,85,0,1
131610,-66.6666666666667,4,2,6,85,0,1
141293,-83.3333333333333,4,2,6,85,0,1
142243,-66.6666666666667,4,2,6,85,0,1
146420,-100,4,2,6,85,0,1
146610,-66.6666666666667,4,2,6,85,0,1
150787,-76.9230769230769,4,2,6,85,0,1
152116,-100,4,2,6,70,0,0
153635,-100,4,2,6,60,0,0
164268,-76.9230769230769,4,2,6,60,0,0
165218,-111.111111111111,4,2,6,60,0,0
165787,-66.6666666666667,4,2,6,75,0,0
166547,-83.3333333333333,4,2,6,75,0,0
166926,-111.111111111111,4,2,6,75,0,0
167306,-166.666666666667,4,2,6,75,0,0
168825,-66.6666666666667,4,2,6,75,0,0
171483,-100,4,2,6,75,0,0
174521,-66.6666666666667,4,2,6,75,0,0
177749,-500,4,2,6,75,0,0
179458,-66.6666666666667,4,2,6,75,0,0
180977,-55.5555555555556,4,2,6,85,0,1
181736,-66.6666666666667,4,2,6,85,0,1
185914,-50,4,2,6,85,0,1
187053,-66.6666666666667,4,2,6,85,0,1
187812,-50,4,2,6,85,0,1
189711,-66.6666666666667,4,2,6,85,0,1
193118,315.789473684211,4,2,6,85,1,1
193118,-133.333333333333,4,2,6,85,0,1
193433,-90.9090909090909,4,2,6,85,0,1
193749,-66.6666666666667,4,2,6,85,0,1
194065,379.746835443038,4,2,6,85,1,1
194065,-25,4,2,6,85,0,1
194254,-66.6666666666667,4,2,6,85,0,1
194634,189.873417721519,4,2,6,85,1,1
194634,-133.333333333333,4,2,6,85,0,1
203747,379.746835443038,4,2,6,75,1,0
203747,-66.6666666666667,4,2,6,75,0,0
205265,-55.5555555555556,4,2,6,80,0,0
211341,-100,4,2,6,80,0,0
211436,-100,4,2,6,60,0,0
212101,-100,4,2,6,65,0,0
212860,-100,4,2,6,70,0,0
213620,-100,4,2,6,75,0,0
214379,-100,4,2,6,80,0,0
215139,-76.9230769230769,4,2,6,85,0,0
215898,-76.9230769230769,4,2,6,90,0,0
216658,-76.9230769230769,4,2,6,95,0,0
217417,-125,4,2,6,50,0,0
220265,-66.6666666666667,4,2,6,85,0,0
220645,-66.6666666666667,4,2,6,5,0,0

[Colours]
Combo1 : 126,139,252
Combo2 : 254,227,165
Combo3 : 183,165,254
Combo4 : 249,183,221

[HitObjects]
373,366,218,6,0,P|365:268|460:299,1,225,6|0,3:2|0:0,0:0:0:0:
456,290,502,1,0,0:0:0:0:
456,290,597,6,0,B|418:299|391:273|399:266|374:238|319:257,1,135,2|0,0:0|0:0,0:0:0:0:
284,323,977,2,0,P|239:327|195:338,1,90,2|0,0:0|0:0,0:0:0:0:
140,384,1262,1,2,0:0:0:0:
0,197,1452,5,2,0:0:0:0:
0,197,1547,2,0,P|66:175|82:215,1,90,2|2,0:0|0:0,0:0:0:0:
149,193,1831,1,2,0:0:0:0:
149,193,1926,2,0,L|162:121,1,45,2|0,0:0|0:0,0:0:0:0:
227,86,2116,2,0,L|247:240,1,135,2|0,0:0|0:0,0:0:0:0:
234,235,2496,5,2,0:0:0:0:
238,239,2591,1,2,0:0:0:0:
355,197,2781,1,2,0:0:0:0:
446,270,2971,1,2,0:0:0:0:
446,270,3066,1,2,0:0:0:0:
496,54,3255,6,0,P|440:47|415:82,1,90,2|0,0:0|0:0,0:0:0:0:
354,111,3540,1,0,0:0:0:0:
354,111,3635,2,0,B|283:111|311:59|228:70,1,135,2|0,0:0|0:0,0:0:0:0:
172,116,4015,2,0,P|129:122|62:146,1,90,2|2,0:0|0:0,0:0:0:0:
12,105,4300,1,2,0:0:0:0:
6,278,4490,5,2,0:0:0:0:
6,278,4585,2,0,P|43:263|121:251,1,90,2|2,0:0|0:0,0:0:0:0:
171,238,4869,1,2,0:0:0:0:
171,238,4964,2,0,L|166:282,1,45,2|0,0:0|0:0,0:0:0:0:
263,318,5154,2,0,L|244:180,1,135,2|0,0:0|0:0,0:0:0:0:
399,83,5534,5,10,3:2:0:0:
447,87,5629,1,10,0:0:0:0:
481,120,5724,1,10,0:0:0:0:
490,164,5819,2,0,P|459:172|410:197,1,67.5000025749208,2|0,3:2|0:0,0:0:0:0:
316,86,6009,2,0,P|285:77|240:55,1,67.5000025749208,2|0,3:2|0:0,0:0:0:0:
171,238,6199,5,10,0:0:0:0:
103,194,6293,2,0,P|51:188|39:270,1,135,6|0,3:2|0:0,0:0:0:0:
174,317,6673,2,0,P|240:326|306:340,1,135,2|0,3:2|0:0,0:0:0:0:
381,384,7053,1,0,0:0:0:0:
393,362,7148,2,0,L|378:263,1,90,0|0,0:0|0:0,0:0:0:0:
303,256,7433,2,0,L|293:193,1,45,0|0,3:0|0:0,0:0:0:0:
347,150,7623,5,0,0:0:0:0:
217,235,7812,1,0,0:0:0:0:
201,237,7907,1,0,0:0:0:0:
185,242,8002,2,0,L|109:258,1,45,0|0,0:0|0:0,0:0:0:0:
133,153,8192,2,0,L|-10:127,1,135,2|0,3:2|0:0,0:0:0:0:
0,208,8572,1,0,0:0:0:0:
5,224,8667,2,0,L|11:281,1,45,0|0,0:0|0:0,0:0:0:0:
81,329,8857,1,0,0:0:0:0:
79,343,8952,1,0,3:0:0:0:
77,358,9047,1,0,0:0:0:0:
76,373,9142,1,0,0:0:0:0:
218,233,9331,6,0,P|206:149|198:100,1,135,2|0,0:0|0:0,0:0:0:0:
61,16,9711,2,0,P|131:41|86:91,1,135,2|0,3:2|0:0,0:0:0:0:
54,141,10091,1,0,0:0:0:0:
42,163,10186,2,0,L|57:262,1,90,0|0,0:0|0:0,0:0:0:0:
0,356,10471,2,0,L|10:293,2,45,0|0|0,3:0|0:0|0:0,0:0:0:0:
140,277,10755,5,8,0:0:0:0:
219,310,10850,2,0,P|261:317|295:330,1,67.5000025749208,8|0,0:0|0:0,0:0:0:0:
512,286,11040,5,6,3:3:0:0:
324,136,11230,1,10,0:0:0:0:
324,136,11325,1,4,0:3:0:0:
324,136,11420,2,0,P|335:169|337:226,1,67.5000025749208,4|0,0:3|0:0,0:0:0:0:
417,322,11610,5,10,0:0:0:0:
421,256,11705,1,10,0:0:0:0:
446,200,11800,1,10,0:0:0:0:
494,159,11895,2,0,P|486:108|409:129,1,135.000005149842,10|0,0:0|0:0,0:0:0:0:
416,113,12369,6,0,B|377:127|333:102|350:81|310:53|259:80,1,161.999995056153,4|2,3:2|0:0,0:0:0:0:
182,35,12654,1,0,0:0:0:0:
199,17,12749,2,0,P|218:101|227:189,1,161.999995056153,10|2,0:0|0:0,0:0:0:0:
266,311,13034,5,2,0:0:0:0:
286,293,13129,2,0,P|297:254|306:190,1,80.9999975280763,2|0,3:2|0:0,0:0:0:0:
108,109,13319,2,0,P|119:148|126:188,1,80.9999975280763,2|0,0:0|0:0,0:0:0:0:
26,344,13509,5,10,0:0:0:0:
57,306,13604,1,0,0:0:0:0:
107,319,13699,2,0,P|147:311|204:306,1,80.9999975280763,2|0,0:0|0:0,0:0:0:0:
266,311,13888,1,2,3:2:0:0:
467,230,14078,6,0,P|427:228|387:222,1,80.9999975280763,2|0,0:0|0:0,0:0:0:0:
512,384,14268,2,0,P|415:368|331:365,1,161.999995056153,10|2,0:0|0:0,0:0:0:0:
205,329,14553,5,0,0:0:0:0:
186,306,14648,2,0,P|180:258|171:207,1,80.9999975280763,2|0,3:2|0:0,0:0:0:0:
387,222,14838,2,0,P|393:174|402:123,1,80.9999975280763,2|0,0:0|0:0,0:0:0:0:
262,31,15028,2,0,B|244:120|313:99|277:211,1,161.999995056153,10|0,0:0|0:0,0:0:0:0:
275,204,15312,1,0,0:0:0:0:
398,141,15407,6,0,P|484:176|467:238,1,161.999995056153,0|2,3:0|0:0,0:0:0:0:
492,346,15692,1,0,0:0:0:0:
474,357,15787,2,0,P|384:334|285:329,1,161.999995056153,10|2,0:0|0:0,0:0:0:0:
207,250,16072,5,2,0:0:0:0:
197,271,16167,2,0,P|208:310|217:374,1,80.9999975280763,2|0,3:2|0:0,0:0:0:0:
382,381,16357,2,0,P|388:341|399:302,1,80.9999975280763,0|0,0:0|0:0,0:0:0:0:
509,142,16547,5,10,0:0:0:0:
471,177,16642,1,0,0:0:0:0:
418,167,16736,2,0,P|378:175|321:180,1,80.9999975280763,2|0,0:0|0:0,0:0:0:0:
273,221,16926,1,2,3:2:0:0:
93,220,17116,6,0,P|102:180|108:140,1,80.9999975280763,2|0,0:0|0:0,0:0:0:0:
216,293,17306,2,0,P|229:213|251:135,1,161.999995056153,10|2,0:0|0:0,0:0:0:0:
186,0,17591,5,0,0:0:0:0:
168,13,17686,2,0,P|177:52|183:92,1,80.9999975280763,2|0,3:2|0:0,0:0:0:0:
347,155,17876,2,0,P|356:194|362:234,1,80.9999975280763,2|0,0:0|0:0,0:0:0:0:
252,384,18066,5,10,0:0:0:0:
278,341,18161,1,8,0:0:0:0:
326,324,18255,1,8,0:0:0:0:
380,332,18350,1,8,0:0:0:0:
440,380,18445,6,0,P|503:346|465:255,1,161.999995056153,4|2,3:2|0:0,0:0:0:0:
489,139,18730,1,0,0:0:0:0:
512,157,18825,2,0,B|473:143|429:168|446:189|406:217|355:190,1,161.999995056153,10|2,0:0|0:0,0:0:0:0:
286,281,19110,5,2,0:0:0:0:
306,299,19205,2,0,P|345:288|409:279,1,80.9999975280763,2|0,3:2|0:0,0:0:0:0:
512,157,19395,2,0,P|472:151|433:140,1,80.9999975280763,0|0,0:0|0:0,0:0:0:0:
199,297,19585,5,10,0:0:0:0:
155,314,19680,1,0,0:0:0:0:
110,291,19774,2,0,P|105:250|97:211,1,80.9999975280763,2|0,0:0|0:0,0:0:0:0:
134,144,19964,1,2,3:2:0:0:
30,305,20154,6,0,P|70:296|110:290,1,80.9999975280763,2|0,0:0|0:0,0:0:0:0:
201,197,20344,2,0,P|121:184|43:162,1,161.999995056153,10|2,0:0|0:0,0:0:0:0:
109,290,20629,5,0,0:0:0:0:
126,304,20724,2,0,P|161:313|231:321,1,80.9999975280763,2|0,3:2|0:0,0:0:0:0:
255,134,20914,2,0,P|295:128|334:118,1,80.9999975280763,2|0,0:0|0:0,0:0:0:0:
422,290,21104,2,0,P|362:228|275:265,1,161.999995056153,10|0,0:0|0:0,0:0:0:0:
279,262,21388,1,0,0:0:0:0:
397,210,21483,6,0,P|415:103|439:6,1,161.999995056153,4|2,3:2|0:0,0:0:0:0:
358,8,21768,1,0,0:0:0:0:
347,31,21863,2,0,P|347:74|386:121,1,80.9999975280763,10|2,0:0|0:0,0:0:0:0:
509,75,22053,2,0,P|509:32|470:-15,1,80.9999975280763,2|0,0:0|0:0,0:0:0:0:
257,85,22243,6,0,B|218:71|174:96|191:117|151:145|100:118,1,161.999995056153,6|2,3:2|0:0,0:0:0:0:
0,51,22528,1,2,3:2:0:0:
21,59,22623,2,0,P|53:56|124:32,1,80.9999975280763,10|0,0:0|0:0,0:0:0:0:
363,212,22812,6,0,P|326:108|243:188,1,242.999992584229,6|0,3:2|0:0,0:0:0:0:
172,199,23192,2,0,P|131:201|91:209,1,80.9999975280763,2|0,3:2|0:0,0:0:0:0:
432,342,23382,6,0,P|472:344|512:352,1,80.9999975280763,14|0,0:0|0:0,0:0:0:0:
444,196,23572,5,10,0:0:0:0:
414,182,23667,1,8,0:0:0:0:
383,189,23762,1,10,3:2:0:0:
363,212,23857,1,8,0:0:0:0:
283,241,23952,5,10,0:0:0:0:
229,233,24047,1,8,0:0:0:0:
176,226,24142,1,10,0:0:0:0:
122,219,24236,1,8,0:0:0:0:
43,240,24331,6,0,P|37:199|28:150,1,80.9999975280763,8|8,0:0|0:0,0:0:0:0:
151,39,24521,6,0,B|225:31|205:84|290:78,1,135,6|0,3:2|0:0,0:0:0:0:
276,78,24901,1,10,0:0:0:0:
481,28,25186,1,8,0:0:0:0:
481,28,25281,1,2,3:2:0:0:
414,78,25471,1,2,3:2:0:0:
450,153,25661,2,0,P|437:192|426:245,1,90,8|0,0:0|0:0,0:0:0:0:
452,373,25945,5,0,0:0:0:0:
477,364,26040,2,0,B|348:358|440:273|257:280,1,202.500007724762,2|0,3:2|3:0,0:0:0:0:
302,280,26420,1,10,0:0:0:0:
194,181,26610,2,0,B|75:188|141:263|23:270,1,202.500007724762,2|0,3:2|0:0,0:0:0:0:
23,270,26990,1,2,3:2:0:0:
182,384,27180,2,0,P|174:321|167:266,1,90,10|2,0:0|0:0,0:0:0:0:
43,154,27559,6,0,P|58:116|160:116,1,135,2|0,3:2|0:0,0:0:0:0:
142,101,27939,1,10,0:0:0:0:
240,22,28224,1,8,0:0:0:0:
240,22,28319,1,2,3:2:0:0:
307,71,28509,1,2,3:2:0:0:
265,153,28699,1,10,0:0:0:0:
371,192,28888,6,0,P|433:188|444:107,1,135.000005149842,2|0,3:2|0:0,0:0:0:0:
265,153,29268,2,0,P|237:208|302:258,1,135.000005149842,2|10,3:2|0:0,0:0:0:0:
453,126,29648,2,0,P|446:192|441:260,1,135.000005149842,2|0,3:2|0:0,0:0:0:0:
215,329,30028,1,2,3:2:0:0:
341,384,30218,1,10,0:0:0:0:
339,350,30312,1,8,0:0:0:0:
336,316,30407,1,6,0:3:0:0:
333,283,30502,1,4,0:3:0:0:
361,204,30597,6,0,P|342:240|240:229,1,135,6|0,3:2|0:0,0:0:0:0:
256,246,30977,1,10,0:0:0:0:
181,342,31262,1,8,0:0:0:0:
181,342,31357,1,2,3:2:0:0:
119,281,31547,1,2,3:2:0:0:
50,317,31736,1,10,0:0:0:0:
16,179,31926,5,2,0:0:0:0:
16,179,32021,1,8,0:0:0:0:
16,179,32116,2,0,P|67:126|145:139,1,135.000005149842,2|0,3:2|0:0,0:0:0:0:
190,173,32401,1,0,3:0:0:0:
190,173,32496,1,8,0:0:0:0:
252,41,32686,2,0,P|321:90|449:45,1,202.500007724762,2|0,3:2|0:0,0:0:0:0:
429,65,33066,1,2,3:2:0:0:
512,226,33255,2,0,P|497:160|447:161,1,90,10|2,0:0|0:0,0:0:0:0:
398,176,33540,5,8,0:0:0:0:
398,176,33635,2,0,B|324:168|344:221|259:215,1,135,2|0,3:2|0:0,0:0:0:0:
273,215,34015,1,10,0:0:0:0:
185,95,34300,1,8,0:0:0:0:
185,95,34395,1,2,3:2:0:0:
123,156,34585,1,2,3:2:0:0:
54,120,34774,1,10,0:0:0:0:
3,288,34964,6,0,P|51:248|126:266,1,135.000005149842,2|2,3:2|0:0,0:0:0:0:
308,365,35344,2,0,P|243:377|192:336,1,135.000005149842,2|10,3:2|0:0,0:0:0:0:
123,156,35724,2,0,P|215:166|207:273,1,202.500007724762,2|0,3:2|0:0,0:0:0:0:
220,259,36104,1,0,3:0:0:0:
308,365,36293,5,8,0:0:0:0:
341,360,36388,1,8,0:0:0:0:
374,355,36483,1,4,0:3:0:0:
408,351,36578,1,4,0:3:0:0:
484,384,36673,6,0,L|497:300,1,53.9999983520508,6|0,3:2|0:0,0:0:0:0:
330,273,36863,1,2,0:0:0:0:
475,87,37053,2,0,P|517:160|494:202,1,107.999996704102,10|2,0:0|0:0,0:0:0:0:
485,274,37338,1,8,0:0:0:0:
512,259,37433,2,0,L|370:232,1,107.999996704102,2|2,3:2|3:2,0:0:0:0:
132,357,37812,1,8,0:0:0:0:
226,112,38002,5,2,0:0:0:0:
226,112,38097,1,0,0:0:0:0:
226,112,38192,2,0,L|242:270,1,107.999996704102,0|2,3:0|0:0,0:0:0:0:
289,282,38477,1,0,0:0:0:0:
303,294,38572,2,0,L|364:286,1,53.9999983520508,10|0,0:0|0:0,0:0:0:0:
147,240,38762,6,0,P|74:227|48:298,1,161.999995056153,2|0,3:2|0:0,0:0:0:0:
47,297,39142,1,2,3:2:0:0:
81,53,39331,2,0,L|88:-8,2,53.9999983520508,10|0|2,0:0|0:0|0:0,0:0:0:0:
9,109,39616,5,0,0:0:0:0:
18,95,39711,2,0,P|91:93|126:147,1,107.999996704102,2|2,3:2|0:0,0:0:0:0:
279,205,40091,2,0,L|261:92,1,107.999996704102,10|2,0:0|0:0,0:0:0:0:
245,22,40376,1,0,0:0:0:0:
245,22,40471,1,2,3:2:0:0:
186,172,40661,1,2,3:2:0:0:
459,10,40850,5,8,0:0:0:0:
504,184,41040,2,0,L|429:172,1,53.9999983520508,2|0,3:2|0:0,0:0:0:0:
371,165,41230,1,2,0:0:0:0:
463,259,41420,2,0,L|388:247,1,53.9999983520508,2|0,3:2|0:0,0:0:0:0:
330,240,41610,1,10,0:0:0:0:
427,339,41800,2,0,L|266:320,1,161.999995056153,2|0,3:2|0:0,0:0:0:0:
194,367,42180,1,2,3:2:0:0:
23,278,42369,1,10,0:0:0:0:
20,291,42464,1,8,0:0:0:0:
17,304,42559,1,6,0:3:0:0:
224,214,42749,6,0,P|150:210|124:295,1,161.999995056153,6|0,3:2|0:0,0:0:0:0:
32,196,43129,2,0,L|51:74,1,107.999996704102,10|2,0:0|0:0,0:0:0:0:
11,21,43414,1,8,0:0:0:0:
11,21,43509,1,2,3:2:0:0:
117,136,43699,1,2,3:2:0:0:
339,95,43888,2,0,P|317:38|264:34,1,107.999996704102,10|0,0:0|0:0,0:0:0:0:
218,84,44173,5,0,0:0:0:0:
211,106,44268,2,0,L|223:213,1,107.999996704102,2|0,3:2|0:0,0:0:0:0:
190,288,44553,1,0,3:0:0:0:
190,288,44648,1,8,0:0:0:0:
427,354,44838,2,0,P|400:281|316:296,1,161.999995056153,2|0,3:2|0:0,0:0:0:0:
266,336,45218,1,2,3:2:0:0:
476,201,45407,1,10,0:0:0:0:
476,201,45502,1,0,0:0:0:0:
476,201,45597,2,0,L|483:259,1,53.9999983520508,2|0,0:0|0:0,0:0:0:0:
325,283,45787,6,0,L|319:230,1,53.9999983520508,2|0,3:2|0:0,0:0:0:0:
257,48,45977,1,2,0:0:0:0:
478,102,46167,2,0,P|397:120|386:161,1,107.999996704102,10|0,0:0|0:0,0:0:0:0:
315,142,46452,1,0,0:0:0:0:
296,146,46547,2,0,L|234:140,1,53.9999983520508,2|0,3:2|0:0,0:0:0:0:
106,85,46736,1,2,3:2:0:0:
180,336,46926,1,8,0:0:0:0:
7,185,47116,6,0,L|82:173,1,53.9999983520508,2|0,3:2|0:0,0:0:0:0:
140,166,47306,1,2,0:0:0:0:
48,260,47496,2,0,L|123:248,1,53.9999983520508,2|0,3:2|0:0,0:0:0:0:
181,241,47686,1,10,0:0:0:0:
0,354,47876,6,0,L|75:342,1,53.9999983520508,6|0,3:2|0:0,0:0:0:0:
259,286,48066,1,10,3:2:0:0:
298,293,48161,1,10,0:0:0:0:
338,300,48255,1,10,0:0:0:0:
378,307,48350,1,10,0:0:0:0:
418,314,48445,2,0,L|408:252,1,53.9999983520508,10|0,0:0|0:0,0:0:0:0:
188,384,48635,2,0,L|178:322,1,53.9999983520508,0|0,0:0|0:0,0:0:0:0:
29,123,48825,6,0,P|13:171|48:208,1,107.999996704102,14|0,0:0|0:0,0:0:0:0:
116,301,49110,2,0,P|166:290|180:240,1,107.999996704102,4|0,3:3|0:0,0:0:0:0:
231,132,49395,2,0,P|206:121|173:127,1,53.9999983520508,4|0,3:3|0:0,0:0:0:0:
122,181,49585,5,10,0:0:0:0:
473,351,50344,6,0,P|488:302|453:265,1,107.999996704102,14|0,0:0|0:0,0:0:0:0:
386,173,50629,2,0,P|335:183|321:233,1,107.999996704102,4|0,3:3|0:0,0:0:0:0:
271,342,50914,2,0,P|295:352|328:346,1,53.9999983520508,4|0,3:3|0:0,0:0:0:0:
380,293,51104,5,10,0:0:0:0:
380,293,51483,5,10,0:3:0:0:
373,255,51578,1,8,0:3:0:0:
368,217,51673,1,4,0:3:0:0:
362,179,51768,1,4,0:3:0:0:
422,132,51863,6,0,L|431:75,1,53.9999983520508,2|0,3:2|0:0,0:0:0:0:
421,58,52053,2,0,L|412:111,1,53.9999983520508,0|0,0:0|0:0,0:0:0:0:
499,147,52243,6,0,B|437:133|365:184|432:194|371:255|295:251,1,242.999992584229,14|8,0:0|0:0,0:0:0:0:
225,279,52623,6,0,L|216:336,1,53.9999983520508,2|0,3:2|0:0,0:0:0:0:
227,359,52812,2,0,L|236:306,1,53.9999983520508,0|0,3:0|0:0,0:0:0:0:
214,251,53002,6,0,B|141:255|80:194|147:184|75:133|13:147,1,242.999992584229,10|0,0:0|0:0,0:0:0:0:
93,121,53382,5,14,0:0:0:0:
146,115,53477,1,0,0:0:0:0:
168,92,53572,1,0,3:0:0:0:
170,80,53667,1,0,3:0:0:0:
187,32,53762,5,10,0:0:0:0:
240,38,53857,1,8,0:3:0:0:
262,61,53952,1,4,0:3:0:0:
264,73,54047,1,4,0:3:0:0:
281,121,54142,5,10,0:0:0:0:
334,115,54236,1,8,0:3:0:0:
356,92,54331,1,4,0:3:0:0:
358,80,54426,1,4,0:3:0:0:
350,48,54521,6,0,L|422:38,3,45,10|0|2|0,0:0|0:0|0:0|0:0,0:0:0:0:
431,107,54901,5,6,3:2:0:0:
432,111,54996,1,8,0:0:0:0:
431,115,55091,1,10,0:0:0:0:
431,119,55186,1,8,0:0:0:0:
431,123,55281,1,10,3:2:0:0:
431,127,55376,1,8,0:0:0:0:
431,131,55471,1,10,0:0:0:0:
431,135,55566,1,8,0:0:0:0:
431,139,55661,1,10,3:2:0:0:
431,143,55755,1,8,0:0:0:0:
431,147,55850,1,8,0:0:0:0:
431,151,55945,1,8,0:0:0:0:
431,155,56040,1,10,3:2:0:0:
431,159,56135,1,8,0:0:0:0:
431,163,56230,1,10,0:0:0:0:
431,167,56325,1,8,0:0:0:0:
487,240,56420,5,10,3:2:0:0:
436,254,56515,1,8,0:0:0:0:
385,240,56610,1,10,0:0:0:0:
350,200,56705,1,8,0:0:0:0:
336,148,56800,1,10,3:2:0:0:
300,108,56895,1,8,0:0:0:0:
252,85,56990,1,8,0:0:0:0:
199,89,57085,1,8,0:0:0:0:
154,115,57180,1,10,3:2:0:0:
156,128,57274,1,8,0:0:0:0:
158,141,57369,1,10,0:0:0:0:
160,154,57464,1,8,0:0:0:0:
162,167,57559,5,10,3:2:0:0:
233,157,57654,1,8,0:0:0:0:
304,148,57749,1,10,0:0:0:0:
375,139,57844,1,8,0:0:0:0:
446,130,57939,1,10,3:2:0:0:
446,130,58319,5,10,3:2:0:0:
451,151,58414,1,8,0:0:0:0:
445,172,58509,1,8,0:0:0:0:
428,187,58604,1,8,0:0:0:0:
359,213,58699,5,10,3:2:0:0:
354,234,58793,1,8,0:0:0:0:
360,255,58888,1,8,0:0:0:0:
377,270,58983,1,8,0:0:0:0:
448,296,59078,5,10,3:2:0:0:
453,317,59173,1,8,0:0:0:0:
447,338,59268,1,8,0:0:0:0:
430,353,59363,1,8,0:0:0:0:
357,377,59458,5,6,3:2:0:0:
316,371,59553,1,2,0:0:0:0:
276,366,59648,1,2,0:0:0:0:
236,361,59743,1,2,0:0:0:0:
195,356,59838,1,2,0:0:0:0:
392,369,60028,5,6,3:2:0:0:
335,361,60123,1,2,0:0:0:0:
279,353,60218,1,2,0:0:0:0:
222,346,60312,1,2,0:0:0:0:
166,339,60407,1,2,0:0:0:0:
428,359,60597,5,8,0:0:0:0:
355,348,60692,1,8,0:3:0:0:
283,339,60787,1,4,0:3:0:0:
210,330,60882,1,4,0:3:0:0:
138,321,60977,1,12,0:0:0:0:
153,199,61736,6,0,L|166:157,1,33.7500012874604,0|0,0:0|0:0,0:0:0:0:
153,199,61831,2,0,L|117:173,1,33.7500012874604,0|0,0:0|0:0,0:0:0:0:
153,199,61926,2,0,L|117:225,1,33.7500012874604,0|0,0:0|0:0,0:0:0:0:
153,199,62021,2,0,L|167:240,1,33.7500012874604,0|0,0:0|0:0,0:0:0:0:
159,200,62116,5,4,0:3:0:0:
190,164,62211,1,8,0:3:0:0:
194,116,62306,1,4,0:3:0:0:
168,75,62401,1,4,0:3:0:0:
93,81,62496,6,0,P|228:106|299:130,1,202.500007724762,6|0,3:2|0:0,0:0:0:0:
362,49,62876,6,0,B|448:116|400:303|259:256|253:180|291:124,1,360,10|2,0:0|3:2,0:0:0:0:
398,236,63445,5,2,0:0:0:0:
405,280,63540,1,0,0:0:0:0:
412,324,63635,2,0,P|344:304|316:298,1,67.5000025749208,8|0,0:0|0:0,0:0:0:0:
432,135,63825,2,0,P|399:143|367:154,1,67.5000025749208,2|0,0:0|0:0,0:0:0:0:
303,205,64015,6,0,B|267:228|276:271|276:271|292:236|341:223,1,135,2|2,3:2|0:0,0:0:0:0:
362,293,64300,1,0,0:0:0:0:
347,304,64395,6,0,P|308:149|261:6,1,270,10|0,0:0|0:0,0:0:0:0:
395,93,64774,6,0,P|381:39|453:3,1,135.000005149842,2|0,3:2|0:0,0:0:0:0:
507,38,65059,1,0,0:0:0:0:
496,50,65154,2,0,P|481:117|467:194,1,135.000005149842,8|2,0:0|0:0,0:0:0:0:
139,280,65534,5,2,3:2:0:0:
262,347,65724,1,2,0:0:0:0:
260,360,65819,1,0,0:0:0:0:
258,373,65914,5,10,0:0:0:0:
512,323,66104,1,2,0:0:0:0:
253,127,66293,5,2,3:2:0:0:
322,193,66483,1,2,0:0:0:0:
320,206,66578,1,0,0:0:0:0:
318,219,66673,2,0,P|250:204|172:191,1,135.000005149842,10|2,0:0|0:0,0:0:0:0:
0,17,67053,5,2,3:2:0:0:
72,18,67243,2,0,L|5:31,1,67.5000025749208,0|0,0:0|0:0,0:0:0:0:
18,175,67433,5,10,0:0:0:0:
90,176,67623,2,0,L|23:189,1,67.5000025749208,0|0,0:0|0:0,0:0:0:0:
39,332,67812,5,2,3:2:0:0:
111,333,68002,2,0,L|44:346,1,67.5000025749208,2|2,0:0|0:0,0:0:0:0:
220,253,68192,5,10,3:2:0:0:
293,262,68287,1,8,0:0:0:0:
366,271,68382,1,10,0:0:0:0:
439,280,68477,1,8,0:0:0:0:
512,290,68572,1,6,3:2:0:0:
512,290,68952,6,0,B|339:325|339:325|291:275|309:191|372:169,1,360,10|2,0:0|3:2,0:0:0:0:
481,91,69521,5,2,0:0:0:0:
512,61,69616,1,0,0:0:0:0:
503,19,69711,1,8,0:0:0:0:
463,5,69806,1,0,0:0:0:0:
430,33,69901,1,2,0:0:0:0:
506,289,70091,6,0,L|494:366,1,45,2|0,3:2|0:0,0:0:0:0:
314,297,70281,1,2,0:0:0:0:
304,281,70376,1,0,0:0:0:0:
294,265,70471,2,0,B|384:237|473:215|473:215|430:241|426:286,1,270,10|0,0:0|0:0,0:0:0:0:
352,362,70850,6,0,B|304:376|255:319|311:315|267:264|216:267,1,180,2|0,3:2|0:0,0:0:0:0:
125,255,71135,1,0,0:0:0:0:
133,267,71230,6,0,B|235:239|235:239|187:71,1,270,8|0,0:0|0:0,0:0:0:0:
193,4,71610,5,6,3:2:0:0:
24,101,71800,1,2,0:0:0:0:
67,91,71895,1,0,0:0:0:0:
111,81,71990,1,10,0:0:0:0:
34,221,72180,5,2,0:0:0:0:
77,211,72274,1,0,0:0:0:0:
121,201,72369,1,2,3:2:0:0:
44,341,72559,5,2,0:0:0:0:
87,331,72654,1,0,0:0:0:0:
131,321,72749,2,0,L|223:334,1,67.5000025749208,10|0,0:0|0:0,0:0:0:0:
273,341,72939,2,0,L|365:354,1,67.5000025749208,2|0,0:0|0:0,0:0:0:0:
415,361,73129,5,2,3:2:0:0:
475,185,73319,1,12,0:0:0:0:
353,104,73509,5,10,3:2:0:0:
372,112,73604,1,8,0:0:0:0:
392,112,73699,1,8,0:0:0:0:
409,104,73793,1,8,0:0:0:0:
458,48,73888,5,10,3:2:0:0:
432,118,73983,1,8,0:0:0:0:
394,182,74078,1,8,0:3:0:0:
345,239,74173,1,8,0:3:0:0:
287,285,74268,1,6,3:3:0:0:
220,320,74363,1,4,0:3:0:0:
149,343,74458,1,6,0:3:0:0:
75,352,74553,1,4,0:3:0:0:
0,347,74648,1,6,3:2:0:0:
0,347,75218,5,2,3:2:0:0:
2,333,75312,1,0,3:0:0:0:
5,319,75407,2,0,B|104:334|104:334|85:324|74:299,1,135.000005149842,10|0,0:0|0:0,0:0:0:0:
139,265,75692,1,0,0:0:0:0:
132,253,75787,2,0,L|154:177,1,67.5000025749208,0|0,0:0|0:0,0:0:0:0:
301,205,75977,6,0,L|12:245,2,270.000010299683,2|0|2,3:2|3:0|3:2,0:0:0:0:
471,334,76926,5,10,0:0:0:0:
453,347,77021,1,0,0:0:0:0:
432,354,77116,1,0,3:0:0:0:
409,354,77211,1,0,3:0:0:0:
418,280,77306,6,0,L|434:197,1,67.5000025749208,12|0,0:0|0:0,0:0:0:0:
286,114,77496,1,2,0:0:0:0:
281,101,77591,1,0,0:0:0:0:
277,88,77686,5,4,3:2:0:0:
190,272,77876,1,2,0:0:0:0:
0,173,78066,2,0,B|-6:139|21:112|21:112|66:118|74:152,1,135.000005149842,10|0,0:0|0:0,0:0:0:0:
59,223,78350,1,0,0:0:0:0:
68,232,78445,2,0,L|51:311,1,67.5000025749208,2|0,3:2|0:0,0:0:0:0:
13,366,78635,2,0,B|59:351|59:351|74:323|74:323|167:299,1,135.000005149842,0|8,0:0|0:0,0:0:0:0:
346,336,79015,5,2,0:0:0:0:
342,322,79110,1,0,0:0:0:0:
339,308,79205,1,0,3:0:0:0:
208,109,79395,1,2,0:0:0:0:
400,200,79585,2,0,P|446:136|541:164,1,135.000005149842,10|0,0:0|0:0,0:0:0:0:
508,208,79869,1,0,0:0:0:0:
494,214,79964,5,2,3:2:0:0:
490,240,80059,1,0,0:0:0:0:
486,266,80154,1,0,0:0:0:0:
482,292,80249,1,0,0:0:0:0:
425,341,80344,5,10,0:0:0:0:
374,334,80439,1,8,0:0:0:0:
324,327,80534,1,6,0:3:0:0:
274,321,80629,1,4,0:3:0:0:
224,314,80724,6,0,P|172:270|200:167,1,175.499991966248,6|0,3:2|0:0,0:0:0:0:
240,118,81104,2,0,P|182:128|125:139,1,116.999994644165,8|2,0:0|0:0,0:0:0:0:
306,199,81483,6,0,P|358:155|330:52,1,175.499991966248,2|0,3:2|0:0,0:0:0:0:
290,3,81863,2,0,P|347:13|404:24,1,116.999994644165,8|2,0:0|0:0,0:0:0:0:
402,224,82243,5,2,3:2:0:0:
510,284,82433,1,0,0:0:0:0:
506,300,82528,1,0,0:0:0:0:
502,316,82623,1,8,0:0:0:0:
301,365,82812,1,2,0:0:0:0:
133,229,83002,5,2,3:2:0:0:
150,225,83097,1,0,0:0:0:0:
167,222,83192,1,0,0:0:0:0:
152,320,83382,1,8,0:0:0:0:
174,136,83572,1,2,0:0:0:0:
0,323,83762,6,0,B|48:363|48:363|180:309,1,175.499991966248,4|0,3:2|0:0,0:0:0:0:
225,349,84142,2,0,B|273:309|273:309|405:363,1,175.499991966248,10|0,0:0|0:0,0:0:0:0:
449,314,84521,1,2,3:2:0:0:
467,157,84711,1,0,0:0:0:0:
463,174,84806,1,0,0:0:0:0:
459,191,84901,1,8,0:0:0:0:
485,0,85091,1,2,0:0:0:0:
304,120,85281,5,2,3:2:0:0:
324,257,85471,2,0,L|311:174,1,58.4999973220826,14|0,0:0|0:0,0:0:0:0:
291,33,85661,5,2,3:2:0:0:
304,38,85755,2,0,L|368:19,2,58.4999973220826,8|8|8,0:0|0:0|0:0,0:0:0:0:
227,81,86040,5,10,3:2:0:0:
174,75,86135,1,8,0:3:0:0:
121,69,86230,1,4,0:3:0:0:
68,63,86325,1,0,0:0:0:0:
15,57,86420,5,10,0:3:0:0:
58,115,86515,1,8,0:3:0:0:
102,174,86610,1,6,0:3:0:0:
146,232,86705,1,4,0:3:0:0:
189,291,86800,1,0,3:0:0:0:
256,192,86895,12,6,89838,0:0:0:0:
279,179,90597,6,0,B|375:157|375:157|354:155|332:137,1,135.000005149842,2|2,3:2|0:0,0:0:0:0:
273,102,90882,2,0,B|232:103|201:133|228:133|208:166|153:173,1,135.000005149842,2|0,3:2|0:0,0:0:0:0:
79,209,91167,2,0,B|73:191|67:188|67:188|91:189|98:212,1,67.5000025749208,2|0,3:2|0:0,0:0:0:0:
69,346,92116,6,0,B|153:317|230:309,1,135.000005149842,6|10,3:2|0:0,0:0:0:0:
275,338,92401,1,10,0:0:0:0:
266,352,92496,1,10,0:0:0:0:
181,114,92686,1,8,0:3:0:0:
369,301,92876,5,6,0:0:0:0:
369,301,93635,6,0,B|321:290|321:290|351:181,1,135.000005149842,2|2,3:2|0:0,0:0:0:0:
353,133,93920,2,0,B|393:134|424:164|397:164|417:197|472:204,1,135.000005149842,2|2,3:2|0:0,0:0:0:0:
490,131,94205,2,0,B|502:103|502:103|458:149,1,67.5000025749208,2|0,3:2|0:0,0:0:0:0:
256,88,95154,5,6,3:2:0:0:
88,18,95344,1,10,0:0:0:0:
91,31,95439,1,8,0:0:0:0:
94,44,95534,1,10,0:0:0:0:
0,183,95724,1,8,0:3:0:0:
154,225,95914,6,0,P|208:172|260:192,1,107.999996704102,6|0,3:2|0:0,0:0:0:0:
234,174,96199,1,0,3:0:0:0:
234,174,96293,1,10,0:0:0:0:
357,325,96483,1,2,3:2:0:0:
354,335,96578,1,2,0:0:0:0:
352,345,96673,2,0,B|303:350|270:307|304:299|269:249|207:262,2,161.999995056153,2|2|12,3:2|3:2|0:0,0:0:0:0:
475,256,97433,5,0,0:0:0:0:
450,349,97623,1,0,3:0:0:0:
295,216,97812,5,10,0:0:0:0:
304,226,97907,2,0,L|427:201,1,107.999996704102,2|10,0:0|0:0,0:0:0:0:
461,146,98192,6,0,P|430:107|464:53,1,107.999996704102,2|2,3:2|0:0,0:0:0:0:
451,58,98477,1,0,3:0:0:0:
451,58,98572,1,10,0:0:0:0:
311,12,98762,1,0,3:0:0:0:
217,156,98952,2,0,P|290:132|369:115,1,107.999996704102,2|2,3:2|0:0,0:0:0:0:
127,44,99331,5,10,0:0:0:0:
53,252,99521,1,2,3:2:0:0:
62,246,99616,1,2,0:0:0:0:
71,241,99711,2,0,B|57:165|57:165|61:163|61:163|46:77,2,161.999995056153,2|0|14,3:2|3:0|0:0,0:0:0:0:
0,378,100471,5,2,0:0:0:0:
93,353,100661,1,2,3:0:0:0:
181,234,100850,6,0,L|166:123,1,107.999996704102,10|2,0:0|0:0,0:0:0:0:
200,55,101135,1,8,0:0:0:0:
216,66,101230,5,10,3:2:0:0:
237,63,101325,1,10,0:0:0:0:
258,60,101420,1,10,0:0:0:0:
279,57,101515,1,10,0:0:0:0:
299,55,101610,5,10,3:2:0:0:
289,112,101705,1,10,0:0:0:0:
280,170,101800,1,6,0:3:0:0:
270,227,101895,1,2,0:0:0:0:
261,285,101990,6,0,P|319:268|365:296,1,107.999996704102,6|2,3:2|0:0,0:0:0:0:
482,220,102274,1,2,0:0:0:0:
482,220,102369,2,0,P|500:239|505:273,1,53.9999983520508,10|0,0:0|0:0,0:0:0:0:
349,325,102559,5,2,0:0:0:0:
358,288,102654,1,2,0:0:0:0:
367,257,102749,2,0,L|342:151,1,107.999996704102,2|2,3:2|0:0,0:0:0:0:
443,108,103034,5,0,0:0:0:0:
454,76,103129,2,0,L|469:-6,1,53.9999983520508,10|0,0:0|0:0,0:0:0:0:
342,151,103319,2,0,L|188:184,1,107.999996704102,2|0,0:0|3:0,0:0:0:0:
12,158,103699,6,0,L|-6:81,1,53.9999983520508,2|0,0:0|0:0,0:0:0:0:
223,188,103888,1,10,0:0:0:0:
133,47,104078,5,2,0:0:0:0:
127,82,104173,1,2,0:0:0:0:
121,118,104268,1,2,3:2:0:0:
115,153,104363,1,2,0:0:0:0:
110,189,104458,1,2,0:0:0:0:
104,224,104553,1,2,0:0:0:0:
98,260,104648,1,10,0:0:0:0:
192,355,104838,2,0,L|174:278,1,53.9999983520508,2|0,0:0|0:0,0:0:0:0:
82,271,105028,5,2,3:2:0:0:
289,323,105218,1,2,0:0:0:0:
350,254,105407,1,10,0:0:0:0:
350,254,105502,1,2,0:0:0:0:
350,254,105597,2,0,L|334:180,1,53.9999983520508,2|0,0:0|0:0,0:0:0:0:
459,71,105787,5,2,3:2:0:0:
459,71,105882,1,2,0:0:0:0:
459,71,105977,2,0,L|391:93,1,53.9999983520508,2|0,0:0|0:0,0:0:0:0:
243,20,106167,2,0,L|294:36,1,53.9999983520508,10|0,0:0|0:0,0:0:0:0:
463,88,106357,2,0,L|395:110,1,53.9999983520508,2|0,0:0|0:0,0:0:0:0:
247,37,106547,2,0,L|298:53,1,53.9999983520508,2|0,3:2|0:0,0:0:0:0:
333,212,106736,5,2,0:0:0:0:
458,275,106926,1,10,0:0:0:0:
461,248,107021,1,2,0:0:0:0:
465,221,107116,1,2,0:0:0:0:
254,298,107306,1,2,3:2:0:0:
382,320,107496,1,2,0:0:0:0:
211,180,107686,5,10,0:0:0:0:
170,184,107781,1,8,0:0:0:0:
130,188,107876,1,6,0:3:0:0:
90,193,107971,1,4,0:3:0:0:
21,157,108066,2,0,P|5:125|20:79,1,53.9999983520508,6|0,3:2|0:0,0:0:0:0:
130,270,108255,1,2,0:0:0:0:
122,304,108350,1,2,0:0:0:0:
97,329,108445,1,10,0:0:0:0:
62,336,108540,2,0,P|29:321|12:276,1,53.9999983520508,2|0,0:0|0:0,0:0:0:0:
211,180,108730,5,2,0:0:0:0:
242,160,108825,2,0,P|294:162|334:197,1,107.999996704102,2|2,3:2|0:0,0:0:0:0:
390,259,109110,2,0,P|411:274|438:277,1,53.9999983520508,2|8,0:0|0:0,0:0:0:0:
512,186,109300,1,2,0:0:0:0:
512,186,109395,2,0,P|490:170|463:167,1,53.9999983520508,2|0,0:0|0:0,0:0:0:0:
318,54,109585,5,2,3:2:0:0:
321,90,109680,2,0,L|337:222,1,107.999996704102,2|2,0:0|0:0,0:0:0:0:
283,274,109964,5,10,0:0:0:0:
436,171,110154,1,2,0:0:0:0:
236,58,110344,2,0,L|228:146,1,53.9999983520508,2|0,3:2|0:0,0:0:0:0:
151,226,110534,2,0,L|146:172,1,53.9999983520508,2|0,0:0|0:0,0:0:0:0:
76,67,110724,2,0,L|154:83,1,53.9999983520508,10|0,0:0|0:0,0:0:0:0:
295,188,110914,2,0,L|242:198,1,53.9999983520508,2|0,0:0|0:0,0:0:0:0:
48,149,111104,5,2,3:2:0:0:
23,174,111199,1,2,0:0:0:0:
16,209,111293,2,0,L|34:287,1,53.9999983520508,2|2,0:0|0:0,0:0:0:0:
151,226,111483,5,10,0:0:0:0:
176,251,111578,1,2,0:0:0:0:
183,286,111673,2,0,L|165:364,1,53.9999983520508,2|2,0:0|0:0,0:0:0:0:
51,275,111863,5,2,3:2:0:0:
272,233,112053,1,2,0:0:0:0:
183,286,112243,1,10,0:0:0:0:
404,328,112433,1,2,0:0:0:0:
503,150,112623,5,2,3:2:0:0:
455,138,112718,1,2,0:0:0:0:
402,124,112812,2,0,L|415:218,1,53.9999983520508,12|2,0:0|0:0,0:0:0:0:
260,384,113002,1,2,3:2:0:0:
265,343,113097,1,2,0:0:0:0:
270,303,113192,1,10,0:0:0:0:
275,263,113287,1,10,0:0:0:0:
331,211,113382,5,2,3:2:0:0:
183,288,113572,1,10,0:3:0:0:
165,289,113667,1,10,0:3:0:0:
147,291,113762,1,6,0:3:0:0:
129,292,113857,1,4,0:3:0:0:
111,294,113952,1,6,0:3:0:0:
93,296,114047,1,6,0:3:0:0:
23,341,114142,6,0,P|47:285|2:221,1,107.999996704102,14|0,0:0|0:0,0:0:0:0:
194,210,114426,2,0,P|157:161|79:168,1,107.999996704102,4|0,3:3|0:0,0:0:0:0:
98,32,114711,2,0,P|72:41|53:60,1,53.9999983520508,4|0,3:3|0:0,0:0:0:0:
16,146,114901,5,10,0:0:0:0:
489,341,115661,6,0,P|465:285|510:221,1,107.999996704102,14|0,0:0|0:0,0:0:0:0:
318,210,115945,2,0,P|354:161|432:168,1,107.999996704102,4|0,3:3|0:0,0:0:0:0:
414,32,116230,2,0,P|439:41|458:60,1,53.9999983520508,4|0,3:3|0:0,0:0:0:0:
496,146,116420,5,10,0:0:0:0:
318,210,116800,5,10,0:3:0:0:
280,217,116895,1,8,0:3:0:0:
242,222,116990,1,4,0:3:0:0:
204,228,117085,1,4,0:3:0:0:
190,243,117180,5,4,0:3:0:0:
13,86,117369,5,2,0:0:0:0:
28,81,117464,1,2,0:0:0:0:
87,21,117559,2,0,L|73:174,1,135.000005149842,12|2,0:0|0:0,0:0:0:0:
26,264,117844,1,8,0:0:0:0:
20,249,117939,1,2,3:2:0:0:
200,334,118129,1,0,3:0:0:0:
125,383,118319,5,10,0:0:0:0:
305,298,118509,1,2,3:2:0:0:
321,294,118604,1,0,3:0:0:0:
336,290,118699,2,0,L|345:204,1,67.5000025749208,12|0,0:0|0:0,0:0:0:0:
187,7,118888,5,2,3:2:0:0:
179,11,118983,1,0,3:0:0:0:
171,16,119078,1,10,3:2:0:0:
145,77,119173,1,8,0:3:0:0:
166,117,119268,1,4,0:3:0:0:
191,123,119363,1,4,0:3:0:0:
250,77,119458,5,10,3:2:0:0:
311,51,119553,1,8,0:3:0:0:
351,72,119648,1,4,0:3:0:0:
357,97,119743,1,4,0:3:0:0:
391,169,119838,5,8,0:0:0:0:
452,195,119933,1,8,0:3:0:0:
492,174,120028,1,10,0:3:0:0:
498,149,120123,1,8,0:3:0:0:
431,107,120218,5,14,3:2:0:0:
432,111,120312,1,8,0:0:0:0:
431,115,120407,1,10,0:0:0:0:
431,119,120502,1,8,0:0:0:0:
431,123,120597,1,10,3:2:0:0:
431,127,120692,1,8,0:0:0:0:
431,131,120787,1,10,0:0:0:0:
431,135,120882,1,8,0:0:0:0:
431,139,120977,1,10,3:2:0:0:
431,143,121072,1,8,0:0:0:0:
431,147,121167,1,8,0:0:0:0:
431,151,121262,1,8,0:0:0:0:
431,155,121357,1,10,3:2:0:0:
431,159,121452,1,8,0:0:0:0:
431,163,121547,1,10,0:0:0:0:
431,167,121642,1,8,0:0:0:0:
487,240,121736,5,10,3:2:0:0:
436,254,121831,1,8,0:0:0:0:
385,240,121926,1,10,0:0:0:0:
350,200,122021,1,8,0:0:0:0:
301,283,122116,5,10,3:2:0:0:
263,245,122211,1,8,0:0:0:0:
250,194,122306,1,8,0:0:0:0:
267,144,122401,1,8,0:0:0:0:
342,148,122496,5,10,3:2:0:0:
344,161,122591,1,8,0:0:0:0:
346,174,122686,1,10,0:0:0:0:
348,187,122781,1,8,0:0:0:0:
350,200,122876,5,10,3:2:0:0:
273,196,122971,1,8,0:0:0:0:
202,187,123066,1,10,0:0:0:0:
131,178,123161,1,8,0:0:0:0:
60,169,123255,1,10,3:2:0:0:
60,169,123635,5,10,3:2:0:0:
55,190,123730,1,8,0:0:0:0:
61,211,123825,1,8,0:0:0:0:
78,226,123920,1,8,0:0:0:0:
145,278,124015,5,10,3:2:0:0:
166,271,124110,1,8,0:0:0:0:
181,256,124205,1,8,0:0:0:0:
186,234,124300,1,8,0:0:0:0:
252,198,124395,5,10,3:2:0:0:
256,176,124490,1,8,0:0:0:0:
250,155,124585,1,8,0:0:0:0:
234,140,124680,1,8,0:0:0:0:
256,64,124774,5,6,3:2:0:0:
294,58,124869,1,2,0:0:0:0:
331,53,124964,1,2,0:0:0:0:
368,49,125059,1,2,0:0:0:0:
406,44,125154,1,2,0:0:0:0:
224,56,125344,5,6,3:2:0:0:
277,49,125439,1,2,0:0:0:0:
328,41,125534,1,2,0:0:0:0:
381,35,125629,1,2,0:0:0:0:
433,28,125724,1,2,0:0:0:0:
191,47,125914,5,8,0:0:0:0:
258,37,126009,1,8,0:3:0:0:
325,28,126104,1,4,0:3:0:0:
392,20,126199,1,4,0:3:0:0:
459,12,126293,1,12,0:0:0:0:
461,332,127053,6,0,L|419:319,1,33.7500012874604,2|0,0:0|0:0,0:0:0:0:
461,332,127148,2,0,L|435:368,1,33.7500012874604,2|0,0:0|0:0,0:0:0:0:
461,332,127243,2,0,L|487:368,1,33.7500012874604,2|0,0:0|0:0,0:0:0:0:
461,332,127338,2,0,L|502:318,1,33.7500012874604,2|0,0:0|0:0,0:0:0:0:
462,326,127433,5,4,3:3:0:0:
426,295,127528,1,8,0:3:0:0:
378,291,127623,1,4,0:3:0:0:
337,317,127718,1,4,0:3:0:0:
284,378,127812,6,0,P|251:370|217:366,1,67.5000025749208,6|0,3:2|0:0,0:0:0:0:
175,212,128002,2,0,P|142:219|108:223,1,67.5000025749208,2|0,0:0|0:0,0:0:0:0:
26,341,128192,6,0,B|123:383|186:297|114:268|187:178|298:229,1,323.999990112305,10|2,0:0|3:2,0:0:0:0:
475,271,128762,5,2,0:0:0:0:
512,309,128857,1,0,0:0:0:0:
488,357,128952,1,8,0:0:0:0:
435,349,129047,1,0,0:0:0:0:
426,295,129142,1,2,0:0:0:0:
498,178,129331,6,0,L|514:91,1,80.9999975280763,2|0,3:2|0:0,0:0:0:0:
418,21,129521,2,0,L|403:100,1,80.9999975280763,2|0,0:0|0:0,0:0:0:0:
498,178,129711,6,0,B|432:199|377:144|431:122|376:54|292:93,1,242.999992584229,10|0,0:0|0:0,0:0:0:0:
128,214,130091,2,0,P|144:153|233:194,1,161.999995056153,2|0,3:2|0:0,0:0:0:0:
306,241,130376,1,0,0:0:0:0:
318,250,130471,2,0,L|298:63,1,161.999995056153,8|2,0:0|0:0,0:0:0:0:
128,214,130850,5,2,3:2:0:0:
4,8,131040,1,2,0:0:0:0:
2,21,131135,1,0,0:0:0:0:
0,34,131230,5,10,0:0:0:0:
123,94,131420,1,2,0:0:0:0:
0,304,131610,5,2,3:2:0:0:
128,214,131800,1,2,0:0:0:0:
130,227,131895,1,0,0:0:0:0:
132,240,131990,2,0,P|200:225|281:217,1,135.000005149842,10|2,0:0|0:0,0:0:0:0:
436,344,132369,5,2,3:2:0:0:
508,345,132559,2,0,L|441:358,1,67.5000025749208,0|0,0:0|0:0,0:0:0:0:
415,187,132749,5,10,0:0:0:0:
487,188,132939,2,0,L|420:201,1,67.5000025749208,0|0,0:0|0:0,0:0:0:0:
397,29,133129,5,2,3:2:0:0:
469,30,133319,2,0,L|402:43,1,67.5000025749208,2|2,0:0|0:0,0:0:0:0:
235,70,133509,5,10,3:2:0:0:
244,143,133604,1,8,0:0:0:0:
253,216,133699,1,10,0:0:0:0:
262,289,133793,1,8,0:0:0:0:
272,368,133888,6,0,P|303:355|336:348,1,67.5000025749208,6|0,3:2|0:0,0:0:0:0:
420,200,134078,2,0,P|451:212|484:219,1,67.5000025749208,2|0,0:0|0:0,0:0:0:0:
422,382,134268,6,0,L|372:104,1,270.000010299683,10|2,0:0|3:2,0:0:0:0:
211,10,134838,5,2,0:0:0:0:
174,48,134933,1,0,0:0:0:0:
198,96,135028,1,8,0:0:0:0:
251,88,135123,1,0,0:0:0:0:
260,34,135218,1,2,0:0:0:0:
98,151,135407,6,0,P|64:143|31:138,1,67.5000025749208,2|0,3:2|0:0,0:0:0:0:
227,249,135597,2,0,P|260:243|293:236,1,67.5000025749208,2|0,0:0|0:0,0:0:0:0:
0,361,135787,6,0,P|61:268|143:328,1,202.500007724762,10|0,0:0|0:0,0:0:0:0:
234,384,136167,2,0,L|225:206,1,135.000005149842,2|0,3:2|0:0,0:0:0:0:
283,188,136452,1,0,0:0:0:0:
295,197,136547,2,0,P|302:132|214:127,1,135.000005149842,8|2,0:0|0:0,0:0:0:0:
193,4,136926,5,6,3:2:0:0:
380,59,137116,1,2,0:0:0:0:
423,49,137211,1,0,0:0:0:0:
467,39,137306,1,10,0:0:0:0:
390,179,137496,5,2,0:0:0:0:
433,169,137591,1,0,0:0:0:0:
477,159,137686,1,2,3:2:0:0:
400,299,137876,5,2,0:0:0:0:
443,289,137971,1,0,0:0:0:0:
487,279,138066,2,0,L|508:162,1,67.5000025749208,10|0,0:0|0:0,0:0:0:0:
380,59,138255,2,0,L|367:151,1,67.5000025749208,2|0,0:0|0:0,0:0:0:0:
288,220,138445,5,2,3:2:0:0:
174,8,138635,1,12,0:0:0:0:
49,200,138825,5,10,3:2:0:0:
68,208,138920,1,8,0:0:0:0:
88,208,139015,1,8,0:0:0:0:
105,200,139110,1,8,0:0:0:0:
142,135,139205,5,10,3:2:0:0:
205,98,139300,1,8,0:0:0:0:
279,97,139395,1,8,0:0:0:0:
340,138,139490,1,8,0:0:0:0:
363,208,139585,1,6,3:3:0:0:
345,280,139680,1,4,0:3:0:0:
281,318,139774,1,6,0:3:0:0:
207,328,139869,1,4,0:3:0:0:
138,298,139964,1,6,3:2:0:0:
138,298,140534,5,2,3:2:0:0:
134,284,140629,1,0,3:0:0:0:
130,270,140724,2,0,P|77:252|45:324,1,135.000005149842,10|0,0:0|0:0,0:0:0:0:
0,377,141009,1,0,0:0:0:0:
0,377,141104,1,0,0:0:0:0:
191,170,141293,6,0,P|177:237|153:420,2,215.999993408203,2|0|2,3:2|3:0|3:2,0:0:0:0:
64,52,142243,5,10,0:0:0:0:
51,70,142338,1,0,0:0:0:0:
44,91,142433,1,0,3:0:0:0:
44,114,142528,1,0,3:0:0:0:
109,164,142623,6,0,L|192:180,1,67.5000025749208,12|0,0:0|0:0,0:0:0:0:
364,280,142812,1,2,0:0:0:0:
359,267,142907,1,0,0:0:0:0:
355,254,143002,5,4,3:2:0:0:
190,272,143192,1,2,0:0:0:0:
370,79,143382,2,0,P|407:60|401:138,1,135.000005149842,10|0,0:0|0:0,0:0:0:0:
351,163,143667,1,0,0:0:0:0:
342,172,143762,2,0,L|263:155,1,67.5000025749208,2|0,3:2|0:0,0:0:0:0:
190,185,143952,5,0,0:0:0:0:
429,128,144142,2,0,L|443:210,1,67.5000025749208,8|0,0:0|0:0,0:0:0:0:
311,350,144331,5,2,0:0:0:0:
308,364,144426,1,0,0:0:0:0:
304,378,144521,1,2,3:2:0:0:
274,236,144711,1,2,0:0:0:0:
47,377,144901,2,0,B|13:251|13:251|49:232|59:192,1,202.500007724762,10|2,0:0|0:0,0:0:0:0:
2,115,145281,5,2,3:2:0:0:
28,111,145376,1,0,0:0:0:0:
54,107,145471,1,0,0:0:0:0:
80,103,145566,1,0,0:0:0:0:
142,39,145661,5,10,0:0:0:0:
193,46,145755,1,8,0:0:0:0:
243,53,145850,1,6,0:3:0:0:
293,59,145945,1,4,0:3:0:0:
343,66,146040,6,0,L|325:294,1,202.500007724762,6|0,3:2|0:0,0:0:0:0:
397,316,146420,2,0,P|454:304|498:302,1,90,8|2,0:0|0:0,0:0:0:0:
198,181,146800,5,2,3:2:0:0:
168,199,146895,1,0,0:0:0:0:
162,233,146990,1,0,0:0:0:0:
249,341,147180,6,0,L|239:250,1,67.5000025749208,8|0,0:0|0:0,0:0:0:0:
90,184,147369,2,0,L|100:93,1,67.5000025749208,2|0,0:0|0:0,0:0:0:0:
61,327,147559,6,0,B|123:354|159:299|143:297|172:242|277:285,1,202.500007724762,2|0,3:2|0:0,0:0:0:0:
331,226,147939,2,0,P|376:276|363:302,1,67.5000025749208,8|0,0:0|0:0,0:0:0:0:
241,273,148129,1,2,0:0:0:0:
468,235,148319,5,2,3:2:0:0:
471,252,148414,1,0,0:0:0:0:
475,269,148509,1,0,0:0:0:0:
285,29,148699,1,8,0:0:0:0:
331,226,148888,1,2,0:0:0:0:
415,153,149078,6,0,P|382:145|349:136,1,67.5000025749208,4|0,3:2|0:0,0:0:0:0:
127,235,149268,1,2,0:0:0:0:
132,221,149363,1,0,0:0:0:0:
137,203,149458,2,0,B|197:171|232:209|220:233|263:269|321:238,1,202.500007724762,10|0,0:0|0:0,0:0:0:0:
334,150,149838,5,2,3:2:0:0:
158,277,150028,2,0,L|75:293,1,67.5000025749208,0|0,0:0|0:0,0:0:0:0:
71,277,150218,1,8,0:0:0:0:
261,347,150407,1,2,0:0:0:0:
60,38,150597,5,2,3:2:0:0:
36,191,150787,2,0,L|49:108,1,58.4999973220826,14|0,0:0|0:0,0:0:0:0:
207,42,150977,5,2,3:2:0:0:
220,47,151072,2,0,L|284:28,2,58.4999973220826,8|8|8,0:0|0:0|0:0,0:0:0:0:
159,114,151357,5,6,0:3:0:0:
136,155,151452,1,8,0:3:0:0:
142,201,151547,1,4,0:3:0:0:
170,238,151642,1,0,0:0:0:0:
232,279,151736,5,10,0:3:0:0:
298,246,151831,1,8,0:3:0:0:
372,246,151926,1,6,0:3:0:0:
436,283,152021,1,4,0:3:0:0:
477,344,152116,1,0,3:0:0:0:
256,192,152211,12,4,153635,3:2:0:0:
463,336,164268,6,0,L|388:325,1,58.4999973220826,4|0,3:2|0:0,0:0:0:0:
308,297,164458,5,10,0:0:0:0:
308,306,164553,1,8,0:0:0:0:
309,316,164648,1,10,3:2:0:0:
310,326,164743,1,6,0:3:0:0:
311,335,164838,1,6,0:3:0:0:
312,345,164933,1,6,0:3:0:0:
313,355,165028,2,0,L|226:340,1,58.4999973220826,10|0,0:0|0:0,0:0:0:0:
62,384,165218,2,0,P|107:340|158:358,1,121.499996292114,2|0,3:2|0:0,0:0:0:0:
180,382,165597,1,2,0:0:0:0:
81,291,165787,5,6,3:2:0:0:
18,85,165977,5,2,0:0:0:0:
55,17,166072,1,0,0:0:0:0:
132,22,166167,2,0,P|113:89|110:123,1,67.5000025749208,10|0,0:0|0:0,0:0:0:0:
131,230,166357,5,2,0:0:0:0:
160,283,166452,1,0,0:0:0:0:
220,279,166547,2,0,P|205:226|203:210,1,53.9999983520508,2|0,3:2|0:0,0:0:0:0:
314,123,166736,5,2,3:2:0:0:
336,84,166831,1,0,0:0:0:0:
380,87,166926,2,0,P|369:125|366:142,1,40.4999987640381,10|0,0:0|0:0,0:0:0:0:
428,221,167116,5,2,0:0:0:0:
442,246,167211,1,0,0:0:0:0:
471,244,167306,2,0,P|463:218|460:207,1,26.9999991760254,2|0,3:2|0:0,0:0:0:0:
446,145,167496,5,2,0:0:0:0:
457,130,167686,1,10,0:0:0:0:
443,76,167876,1,2,0:0:0:0:
367,18,168066,1,0,3:0:0:0:
208,0,168255,5,2,3:2:0:0:
133,27,168350,1,0,0:0:0:0:
116,83,168445,1,10,0:0:0:0:
130,119,168540,1,0,0:0:0:0:
151,129,168635,1,2,0:0:0:0:
164,125,168730,1,0,0:0:0:0:
168,118,168825,6,0,B|182:130|182:130|175:210,1,67.5000025749208,2|0,3:2|0:0,0:0:0:0:
342,272,169015,2,0,B|324:278|324:278|258:232,1,67.5000025749208,2|0,0:0|0:0,0:0:0:0:
124,352,169205,2,0,B|127:333|127:333|200:299,1,67.5000025749208,10|0,0:0|0:0,0:0:0:0:
210,249,169395,6,0,B|276:244|349:313|266:323|343:404|418:384,1,270.000010299683,2|0,0:0|3:0,0:0:0:0:
485,99,169964,5,10,0:0:0:0:
453,113,170059,1,0,0:0:0:0:
432,140,170154,1,0,0:0:0:0:
426,174,170249,1,0,0:0:0:0:
437,207,170344,2,0,P|393:216|364:228,1,67.5000025749208,2|0,3:2|0:0,0:0:0:0:
317,308,170534,5,2,0:0:0:0:
512,172,170724,5,14,0:0:0:0:
198,70,170914,5,2,0:0:0:0:
232,283,171104,5,8,3:2:0:0:
233,297,171199,1,8,0:0:0:0:
235,312,171293,1,4,0:3:0:0:
237,327,171388,1,4,0:3:0:0:
239,342,171483,2,0,L|177:350,1,45,8|8,3:3|0:3,0:0:0:0:
221,203,171673,2,0,L|159:211,1,45,4|4,0:3|0:3,0:0:0:0:
0,169,171863,5,6,3:2:0:0:
45,103,171958,1,2,0:0:0:0:
105,51,172053,1,2,0:0:0:0:
176,16,172148,1,0,0:0:0:0:
254,0,172243,1,14,0:0:0:0:
334,3,172338,1,2,0:0:0:0:
410,26,172433,1,2,0:0:0:0:
23,171,172623,5,2,3:2:0:0:
64,111,172718,1,0,0:0:0:0:
118,63,172812,1,2,3:2:0:0:
183,32,172907,1,2,0:0:0:0:
254,17,173002,1,10,0:0:0:0:
326,20,173097,1,2,0:0:0:0:
395,41,173192,1,2,0:0:0:0:
45,172,173382,5,2,3:2:0:0:
81,118,173477,1,2,0:0:0:0:
130,75,173572,1,2,0:0:0:0:
188,46,173667,1,2,0:0:0:0:
252,33,173762,1,10,0:0:0:0:
318,36,173857,1,2,0:0:0:0:
381,56,173952,1,2,0:0:0:0:
295,310,174142,6,0,L|306:254,1,45,2|0,3:2|0:0,0:0:0:0:
216,213,174331,2,0,L|224:257,1,45,2|0,3:2|0:0,0:0:0:0:
248,371,174521,6,0,L|284:126,1,202.500007724762,14|0,0:0|0:0,0:0:0:0:
239,102,174901,5,2,3:2:0:0:
377,0,175091,2,0,L|285:15,1,67.5000025749208,14|0,0:0|0:0,0:0:0:0:
138,53,175281,5,10,0:3:0:0:
132,38,175376,2,0,L|54:25,2,67.5000025749208,10|4|6,0:3|0:3|0:3,0:0:0:0:
81,111,175661,6,0,P|72:147|127:187,1,67.5000025749208,10|0,0:0|0:0,0:0:0:0:
178,206,175850,1,10,0:3:0:0:
200,244,175945,1,10,0:3:0:0:
199,289,176040,1,4,0:3:0:0:
174,327,176135,1,6,0:3:0:0:
133,345,176230,1,10,0:3:0:0:
89,339,176325,1,0,0:0:0:0:
54,310,176420,6,0,P|65:353|73:393,1,67.5000025749208,6|0,3:2|0:0,0:0:0:0:
251,345,176610,5,10,0:0:0:0:
293,284,176705,1,8,0:0:0:0:
262,216,176800,1,8,0:0:0:0:
303,154,176895,1,8,0:0:0:0:
377,156,176990,1,4,0:3:0:0:
411,221,177085,1,4,0:3:0:0:
484,226,177180,5,2,3:2:0:0:
468,121,177464,5,2,3:2:0:0:
452,16,177749,6,0,L|448:36,1,18,14|8,0:0|3:2,0:0:0:0:
318,0,178129,5,10,0:0:0:0:
316,11,178224,1,4,0:3:0:0:
329,38,178319,5,10,3:2:0:0:
308,78,178414,1,8,0:0:0:0:
266,95,178509,1,10,0:0:0:0:
223,80,178604,1,4,0:3:0:0:
184,114,178699,5,10,3:2:0:0:
157,62,178793,1,8,0:0:0:0:
103,40,178888,1,10,0:0:0:0:
48,60,178983,1,4,0:3:0:0:
101,120,179078,5,10,3:2:0:0:
138,181,179173,1,8,0:3:0:0:
153,252,179268,1,10,0:3:0:0:
143,324,179363,1,8,0:3:0:0:
65,331,179458,6,0,L|78:289,1,33.7500012874604,2|0,3:2|0:0,0:0:0:0:
65,331,179553,2,0,L|29:305,1,33.7500012874604,0|0,0:0|0:0,0:0:0:0:
65,331,179648,2,0,L|29:357,1,33.7500012874604,2|0,0:0|0:0,0:0:0:0:
65,331,179743,2,0,L|79:372,1,33.7500012874604,0|0,0:0|0:0,0:0:0:0:
65,331,179838,6,0,P|152:307|246:293,1,135.000005149842,14|8,0:0|0:0,0:0:0:0:
230,231,180123,1,8,0:0:0:0:
224,220,180218,5,10,3:2:0:0:
279,166,180312,1,8,0:0:0:0:
270,109,180407,1,10,0:0:0:0:
243,79,180502,1,4,0:3:0:0:
218,77,180597,1,0,3:0:0:0:
203,88,180692,1,4,0:3:0:0:
201,98,180787,2,0,P|156:87|128:84,1,67.5000025749208,6|4,0:3|0:3,0:0:0:0:
90,0,180977,6,0,P|105:95|106:195,1,161.999995056153,6|2,3:2|0:0,0:0:0:0:
184,182,181262,1,0,0:0:0:0:
181,194,181357,2,0,P|157:277|116:376,1,161.999995056153,10|0,0:0|0:0,0:0:0:0:
198,384,181642,1,0,0:0:0:0:
199,374,181736,2,0,P|239:356|273:361,1,67.5000025749208,2|0,3:2|0:0,0:0:0:0:
364,384,181926,5,0,0:0:0:0:
356,372,182021,1,0,0:0:0:0:
348,360,182116,2,0,L|362:284,1,67.5000025749208,8|0,0:0|0:0,0:0:0:0:
378,219,182306,2,0,L|392:143,1,67.5000025749208,2|0,0:0|0:0,0:0:0:0:
403,77,182496,5,2,3:2:0:0:
210,22,182686,1,2,0:0:0:0:
212,35,182781,1,0,0:0:0:0:
214,48,182876,5,10,0:0:0:0:
512,0,183066,1,2,0:0:0:0:
293,168,183255,5,2,3:2:0:0:
442,255,183445,1,2,0:0:0:0:
438,267,183540,1,0,0:0:0:0:
434,280,183635,2,0,P|366:265|281:249,1,135.000005149842,10|2,0:0|0:0,0:0:0:0:
356,0,184015,5,2,3:2:0:0:
357,72,184205,2,0,L|370:5,1,67.5000025749208,0|0,0:0|0:0,0:0:0:0:
160,157,184395,5,10,0:0:0:0:
159,229,184585,2,0,L|146:162,1,67.5000025749208,0|0,0:0|0:0,0:0:0:0:
347,312,184774,5,2,3:2:0:0:
348,384,184964,2,0,L|361:317,1,67.5000025749208,2|2,0:0|0:0,0:0:0:0:
238,46,185154,5,10,0:0:0:0:
247,119,185249,1,8,0:0:0:0:
256,192,185344,1,10,0:0:0:0:
265,265,185439,1,8,0:0:0:0:
275,338,185534,1,6,3:2:0:0:
234,369,185914,6,0,L|277:-2,1,360,10|2,0:0|3:2,0:0:0:0:
318,134,186483,5,2,0:0:0:0:
166,0,186673,1,8,0:0:0:0:
191,24,186768,1,0,0:0:0:0:
205,57,186863,1,2,0:0:0:0:
207,92,186958,1,0,0:0:0:0:
195,126,187053,6,0,P|120:121|68:233,1,202.500007724762,2|0,3:2|0:0,0:0:0:0:
139,254,187433,6,0,P|186:265|225:280,1,67.5000025749208,10|0,0:0|0:0,0:0:0:0:
274,140,187623,2,0,P|321:129|360:114,1,67.5000025749208,0|0,0:0|0:0,0:0:0:0:
302,323,187812,6,0,B|333:289|339:232|241:179|181:311|234:376,1,270,2|0,3:2|0:0,0:0:0:0:
134,320,188192,6,0,P|247:321|390:386,1,270,8|0,0:0|0:0,0:0:0:0:
438,327,188572,5,6,3:2:0:0:
294,240,188762,1,2,0:0:0:0:
337,250,188857,1,0,0:0:0:0:
381,260,188952,1,10,0:0:0:0:
304,120,189142,5,2,0:0:0:0:
347,130,189236,1,0,0:0:0:0:
391,140,189331,1,2,3:2:0:0:
314,0,189521,5,2,0:0:0:0:
357,10,189616,1,0,0:0:0:0:
401,20,189711,2,0,P|362:25|319:36,1,67.5000025749208,10|0,0:0|0:0,0:0:0:0:
260,54,189901,2,0,P|225:72|188:97,1,67.5000025749208,2|0,0:0|0:0,0:0:0:0:
139,137,190091,5,2,3:2:0:0:
178,369,190281,1,12,0:0:0:0:
397,303,190471,5,10,3:2:0:0:
393,292,190566,2,0,L|315:277,2,67.5000025749208,8|8|8,0:0|0:0|0:0,0:0:0:0:
378,210,190850,5,10,3:2:0:0:
356,139,190945,1,8,0:0:0:0:
376,68,191040,1,8,0:3:0:0:
430,18,191135,1,8,0:3:0:0:
501,5,191230,1,6,3:3:0:0:
451,58,191325,1,4,0:3:0:0:
379,76,191420,1,6,0:3:0:0:
309,55,191515,1,4,0:3:0:0:
262,0,191610,5,6,3:2:0:0:
128,155,191800,1,0,0:0:0:0:
136,163,191895,1,0,3:0:0:0:
145,172,191990,6,0,P|158:122|186:95,1,67.5000025749208,14|0,0:0|0:0,0:0:0:0:
154,97,192180,2,0,P|204:84|241:95,1,67.5000025749208,2|0,3:2|0:0,0:0:0:0:
294,298,192369,6,0,P|244:311|207:300,1,67.5000025749208,14|0,0:0|0:0,0:0:0:0:
224,327,192559,2,0,P|188:291|179:253,1,67.5000025749208,2|0,3:2|3:0,0:0:0:0:
328,105,192749,6,0,P|365:142|374:180,1,67.5000025749208,14|0,0:0|0:0,0:0:0:0:
389,151,192939,2,0,P|375:200|347:227,1,67.5000025749208,2|0,3:2|0:0,0:0:0:0:
256,192,193118,6,0,B|232:189|208:155|236:161|219:132|188:126,1,101.250003862381,14|0,0:0|0:0,0:0:0:0:
256,192,193433,6,0,B|230:168|233:106|261:138|267:89|236:53,1,148.50000453186,14|0,0:0|0:0,0:0:0:0:
256,192,193749,6,0,B|243:146|292:78|299:133|342:82|332:18,1,202.500007724762,14|0,0:0|0:0,0:0:0:0:
256,192,194065,6,0,B|261:128|355:63|339:139|418:92|439:11,1,270,14|0,0:0|0:0,0:0:0:0:
442,24,194254,2,0,L|522:36,3,67.5000025749208,8|8|10|8,0:0|0:0|0:0|0:0,0:0:0:0:
492,115,194634,6,0,B|509:160|509:160|424:235,1,135.000005149842,4|10,3:2|0:0,0:0:0:0:
347,67,194918,1,2,0:0:0:0:
327,62,195013,2,0,B|289:92|289:92|325:199,1,135.000005149842,2|8,3:2|0:0,0:0:0:0:
512,265,195298,1,0,0:0:0:0:
507,283,195393,2,0,B|478:304|478:304|410:290,1,67.5000025749208,2|0,3:2|0:0,0:0:0:0:
238,195,195583,2,0,B|246:229|246:229|307:262,1,67.5000025749208,8|0,0:0|3:0,0:0:0:0:
425,384,195773,2,0,B|392:369|392:369|370:303,1,67.5000025749208,0|0,0:0|3:0,0:0:0:0:
247,332,195963,2,0,B|282:335|282:335|334:289,1,67.5000025749208,10|0,0:0|0:0,0:0:0:0:
185,62,196152,6,0,B|222:92|222:92|194:174,1,135.000005149842,0|10,3:0|0:0,0:0:0:0:
33,105,196437,1,0,0:0:0:0:
20,115,196532,2,0,B|3:160|3:160|68:217,1,135.000005149842,2|8,3:2|0:0,0:0:0:0:
278,183,196817,1,0,0:0:0:0:
274,195,196912,2,0,B|265:229|265:229|237:244,1,67.5000025749208,2|0,3:2|0:0,0:0:0:0:
5,283,197102,2,0,B|34:304|34:304|65:297,1,67.5000025749208,8|0,0:0|3:0,0:0:0:0:
265,332,197292,2,0,B|229:335|229:335|205:314,1,67.5000025749208,2|0,0:0|3:0,0:0:0:0:
87,384,197482,2,0,B|119:369|119:369|129:339,1,67.5000025749208,10|0,0:0|0:0,0:0:0:0:
96,26,197671,6,0,P|83:94|150:140,1,135.000005149842,6|8,3:2|0:0,0:0:0:0:
278,183,197956,1,0,0:0:0:0:
289,159,198051,2,0,P|362:137|427:130,2,135.000005149842,0|10|2,3:0|0:0|3:2,0:0:0:0:
359,293,198621,5,8,0:0:0:0:
371,324,198716,1,0,3:0:0:0:
349,349,198811,2,0,P|292:329|268:325,1,67.5000025749208,0|0,0:0|3:0,0:0:0:0:
209,312,199001,2,0,P|175:311|141:316,1,67.5000025749208,10|0,0:0|0:0,0:0:0:0:
53,351,199190,6,0,P|110:286|82:232,2,135.000005149842,2|8|0,3:2|0:0|3:0,0:0:0:0:
276,384,199760,1,10,0:0:0:0:
264,353,199855,1,0,0:0:0:0:
286,328,199950,2,0,P|343:348|437:369,1,135.000005149842,2|8,3:2|0:0,0:0:0:0:
469,308,200235,1,0,3:0:0:0:
460,293,200330,2,0,P|473:255|516:217,1,67.5000025749208,0|0,0:0|3:0,0:0:0:0:
457,166,200520,2,0,P|487:139|543:128,1,67.5000025749208,10|0,0:0|0:0,0:0:0:0:
512,55,200709,5,6,3:2:0:0:
225,27,200899,1,10,0:0:0:0:
381,13,201089,1,2,3:2:0:0:
368,36,201184,1,0,3:0:0:0:
355,59,201279,1,8,0:0:0:0:
155,126,201469,6,0,P|213:150|207:234,2,135.000005149842,2|8|0,3:2|0:0|0:0,0:0:0:0:
247,315,202039,1,10,0:0:0:0:
259,346,202134,1,0,0:0:0:0:
237,371,202228,2,0,P|180:351|156:347,1,67.5000025749208,6|0,3:2|0:0,0:0:0:0:
17,218,202418,5,10,0:0:0:0:
6,213,202513,1,8,0:0:0:0:
2,201,202608,1,10,0:0:0:0:
4,176,202703,1,4,0:3:0:0:
23,139,202798,1,4,0:3:0:0:
76,112,202893,1,4,0:3:0:0:
155,126,202988,5,10,3:2:0:0:
184,231,203178,5,8,3:2:0:0:
306,314,203368,5,10,3:2:0:0:
512,294,203558,5,10,3:2:0:0:
45,66,204506,6,0,L|58:108,1,33.7500012874604,2|0,0:0|0:0,0:0:0:0:
45,66,204601,2,0,L|9:92,1,33.7500012874604,0|0,0:0|0:0,0:0:0:0:
45,66,204696,2,0,L|9:40,1,33.7500012874604,0|0,0:0|0:0,0:0:0:0:
45,66,204791,2,0,L|59:25,1,33.7500012874604,0|0,0:0|0:0,0:0:0:0:
51,65,204886,5,2,0:0:0:0:
82,101,204981,1,0,0:0:0:0:
86,149,205076,1,0,0:0:0:0:
60,190,205171,1,0,0:0:0:0:
0,246,205265,6,0,P|65:229|171:218,1,161.999995056153,6|0,3:2|0:0,0:0:0:0:
314,258,205550,1,2,0:0:0:0:
301,280,205645,2,0,P|208:284|217:160,1,242.999992584229,10|0,0:0|0:0,0:0:0:0:
307,46,206025,5,2,3:2:0:0:
296,62,206120,2,0,L|306:142,1,80.9999975280763,2|0,0:0|0:0,0:0:0:0:
487,209,206310,2,0,L|476:128,1,80.9999975280763,2|8,0:0|0:0,0:0:0:0:
427,0,206500,1,0,0:0:0:0:
412,13,206595,2,0,L|388:229,1,161.999995056153,2|0,0:0|3:0,0:0:0:0:
417,279,206879,1,0,0:0:0:0:
413,265,206974,2,0,L|328:245,1,80.9999975280763,2|0,0:0|0:0,0:0:0:0:
176,325,207164,6,0,P|81:300|118:220,1,161.999995056153,10|0,0:0|0:0,0:0:0:0:
35,162,207449,1,0,3:0:0:0:
15,180,207544,1,2,3:2:0:0:
4,204,207639,1,2,0:0:0:0:
4,231,207734,2,0,P|46:239|93:259,1,80.9999975280763,0|2,0:0|0:0,0:0:0:0:
198,161,207924,2,0,P|183:198|176:238,1,80.9999975280763,8|2,0:0|0:0,0:0:0:0:
176,325,208114,1,2,0:0:0:0:
127,98,208303,6,0,B|218:86|174:152|282:134,1,161.999995056153,6|0,3:2|0:0,0:0:0:0:
404,174,208588,1,2,0:0:0:0:
415,151,208683,2,0,P|335:119|346:254,1,242.999992584229,10|0,0:0|0:0,0:0:0:0:
395,289,209063,5,2,3:2:0:0:
411,300,209158,2,0,P|454:279|491:289,1,80.9999975280763,2|0,0:0|0:0,0:0:0:0:
299,374,209348,2,0,P|266:383|222:358,1,80.9999975280763,2|8,0:0|0:0,0:0:0:0:
152,229,209538,1,0,0:0:0:0:
163,213,209633,2,0,P|266:199|296:301,1,161.999995056153,2|0,0:0|3:0,0:0:0:0:
225,362,209917,1,0,0:0:0:0:
215,351,210012,2,0,L|223:268,1,80.9999975280763,2|0,0:0|0:0,0:0:0:0:
101,147,210202,6,0,P|10:153|47:233,1,161.999995056153,10|0,0:0|0:0,0:0:0:0:
84,258,210487,1,0,0:0:0:0:
96,241,210582,1,2,3:2:0:0:
113,230,210677,1,2,0:0:0:0:
132,226,210772,1,2,0:0:0:0:
152,229,210867,1,2,0:0:0:0:
222,270,210962,5,8,0:0:0:0:
275,278,211057,1,10,0:0:0:0:
328,287,211152,1,8,0:0:0:0:
381,295,211247,1,10,0:0:0:0:
458,259,211341,5,6,3:2:0:0:
459,247,211436,1,2,0:0:0:0:
461,236,211531,2,0,L|450:170,1,45,2|2,0:0|0:0,0:0:0:0:
356,165,211721,1,10,0:0:0:0:
355,153,211816,1,2,0:0:0:0:
353,142,211911,2,0,L|364:76,1,45,2|2,0:0|0:0,0:0:0:0:
257,215,212101,5,2,3:2:0:0:
212,224,212196,1,2,0:0:0:0:
168,233,212291,2,0,L|180:174,1,45,2|2,0:0|0:0,0:0:0:0:
120,129,212481,1,10,0:0:0:0:
76,120,212576,1,2,0:0:0:0:
32,111,212671,2,0,L|43:170,1,45,2|2,0:0|0:0,0:0:0:0:
21,239,212860,5,2,3:2:0:0:
10,296,212955,1,2,0:0:0:0:
0,353,213050,2,0,L|82:336,1,45,2|2,0:0|0:0,0:0:0:0:
168,233,213240,5,10,0:0:0:0:
157,176,213335,1,2,0:0:0:0:
147,119,213430,2,0,L|229:136,1,45,2|2,0:0|0:0,0:0:0:0:
354,207,213620,5,2,3:2:0:0:
396,217,213715,1,2,0:0:0:0:
435,197,213810,1,2,0:0:0:0:
449,155,213905,1,2,0:0:0:0:
510,99,214000,5,10,0:0:0:0:
508,89,214095,1,2,0:0:0:0:
507,79,214190,1,2,0:0:0:0:
505,69,214284,1,2,0:0:0:0:
443,23,214379,5,6,3:2:0:0:
396,9,214474,1,2,0:0:0:0:
353,36,214569,2,0,L|360:103,1,45,2|2,0:0|0:0,0:0:0:0:
233,203,214759,5,10,0:0:0:0:
188,195,214854,1,2,0:0:0:0:
144,188,214949,1,2,0:0:0:0:
99,181,215044,1,2,0:0:0:0:
55,174,215139,2,0,L|64:252,1,58.4999973220826,6|2,3:2|0:0,0:0:0:0:
144,89,215329,2,0,L|153:11,1,58.4999973220826,2|2,0:0|3:2,0:0:0:0:
233,203,215519,5,10,0:0:0:0:
234,217,215614,1,2,0:0:0:0:
236,232,215709,1,6,3:2:0:0:
238,246,215803,1,2,0:0:0:0:
297,298,215898,2,0,L|368:310,1,58.4999973220826,2|2,0:0|0:0,0:0:0:0:
493,154,216088,5,2,3:2:0:0:
429,111,216183,1,2,0:0:0:0:
359,151,216278,2,0,L|373:243,1,58.4999973220826,14|2,0:0|0:0,0:0:0:0:
274,328,216468,5,10,0:0:0:0:
210,371,216563,1,10,0:0:0:0:
140,331,216658,2,0,L|154:239,1,58.4999973220826,14|10,3:2|0:0,0:0:0:0:
168,115,216848,5,10,0:0:0:0:
109,74,216943,1,10,0:0:0:0:
40,90,217038,1,2,0:0:0:0:
5,152,217133,1,10,0:0:0:0:
27,219,217228,1,10,0:0:0:0:
256,76,217417,6,0,P|298:67|335:33,1,72,2|0,3:2|0:0,0:0:0:0:
400,24,217702,1,0,0:0:0:0:
405,27,217797,2,0,P|407:63|395:97,1,72,2|0,0:0|0:0,0:0:0:0:
458,156,218082,1,0,0:0:0:0:
458,156,218177,2,0,P|428:175|393:182,1,72,2|0,0:0|0:0,0:0:0:0:
321,151,218462,5,2,0:0:0:0:
335,262,218652,1,2,0:0:0:0:
335,262,218747,2,0,L|340:297,1,36,2|0,0:0|0:0,0:0:0:0:
258,311,218936,1,0,0:0:0:0:
255,293,219031,1,0,0:0:0:0:
252,275,219126,1,2,0:0:0:0:
173,303,219316,1,2,0:0:0:0:
94,264,219506,5,0,0:0:0:0:
70,260,219601,1,0,0:0:0:0:
46,257,219696,1,2,0:0:0:0:
22,254,219791,1,2,0:0:0:0:
51,336,219981,1,2,0:0:0:0:
65,164,220171,5,2,0:0:0:0:
83,151,220265,2,0,B|240:166|112:288|315:314,1,270.000010299683,6|0,3:2|0:0,0:0:0:0:
