osu file format v14

[General]
AudioFilename: audio.mp3
AudioLeadIn: 0
PreviewTime: 15
Countdown: 0
SampleSet: Soft
StackLeniency: 0.5
Mode: 0
LetterboxInBreaks: 0
WidescreenStoryboard: 1

[Editor]
DistanceSpacing: 1.4
BeatDivisor: 6
GridSize: 32
TimelineZoom: 4.399998

[Metadata]
Title:Hitogata (TV Size)
TitleUnicode:ヒトガタ (TV Size)
Artist:HIMEHINA
ArtistUnicode:HIMEHINA
Creator:Ryuusei Aika
Version:Yusomi's Extra
Source:バーチャルさんはみている
Tags:VIRTUALSAN-LOOKING Virtual_San_wa_Miteiru ヒメヒナ 田中ヒメ Tanaka Hime 鈴木ヒナ Suzuki Hina ゴゴ 南田健吾 -ClariS- kanor Yugu ak74 Ujimatcha Yusomi Jounzan Evilelvis Beomsan Nasmoeb CoLouRed GlazeE CoLouRed_GlazeE Bossandy Frey Necho Reincarnation z1 z1085684963 Niva tomadoi Shiinoha_Kotone Shiinoha Kotone Trynna Present AngelSnow -Nanako- Starfy Pino -[Pino]- melloe Kalibe appleeaterx irotuk buki Narcissu AIR Taeyang val0108 contagious Rolniczy -nanaka- Firika LMT fuyuyu- Mamayu Kanau Silky semaphore Level9 lv9 papple pappl e 104 pappl_e_104 xLolicore xLolicore- Elsa Valentine ScubDomino jungkyuyoung anime girl Lami moph Len jonathanlfj deetz Shizuku Shizuku- rui 404 Aim Not Found ANF 404_Aim_Not_Found Frontier -_Frontier_- Bariton Regou バーチャル ユーチューバー Youtuber Virtual_YouTuber Vtuber 中田ヤスタカ ミライアカリ 電脳少女シロ 猫宮ひなた 月ノ美兎 夢咲楓 風見涼 桜樹みりあ 道明寺晴翔 シスター・クレア ときのそら ばあちゃる バーチャルゴリラ ピーナッツくん 富士葵 ヤミクモケリン 大鳥こはく バーチャルグランドマザー小林幸子 家長むぎ える 剣持刀也 静凛 樋口楓 物述有栖 カルロ・ピノ 北上双葉 金剛いろは 届木ウカ もちひよこ 阿部大護 横澤大輔 鈴木慎之介 庵野秀明
BeatmapID:1985158
BeatmapSetID:942714

[Difficulty]
HPDrainRate:7
CircleSize:4
OverallDifficulty:8
ApproachRate:9
SliderMultiplier:1.88
SliderTickRate:1

[Events]
//Background and Video events
0,0,"hinahime.jpg",0,0
Video,-330,"video.avi"
//Break Periods
//Storyboard Layer 0 (Background)
//Storyboard Layer 1 (Fail)
//Storyboard Layer 2 (Pass)
//Storyboard Layer 3 (Foreground)
//Storyboard Sound Samples

[TimingPoints]
15,400,4,2,67,60,1,0
15,-83.3333333333333,4,2,68,60,0,0
315,-83.3333333333333,4,2,68,5,0,0
415,-83.3333333333333,4,2,68,60,0,0
715,-83.3333333333333,4,2,68,5,0,0
815,-83.3333333333333,4,2,68,60,0,0
915,-83.3333333333333,4,2,68,5,0,0
1115,-83.3333333333333,4,2,68,60,0,0
1215,-83.3333333333333,4,2,68,5,0,0
1415,-83.3333333333333,4,2,68,60,0,0
3515,-83.3333333333333,4,2,68,5,0,0
3615,-83.3333333333333,4,2,68,60,0,0
3915,-83.3333333333333,4,2,68,5,0,0
4015,-83.3333333333333,4,2,68,60,0,0
4115,-83.3333333333333,4,2,68,5,0,0
4315,-83.3333333333333,4,2,68,60,0,0
4415,-83.3333333333333,4,2,68,5,0,0
4615,-83.3333333333333,4,2,68,60,0,0
12815,-86.9565217391304,4,2,67,60,0,0
25615,-74.0740740740741,4,2,67,73,0,0
38415,-285.714285714283,4,2,68,60,0,0
44815,-66.6666666666667,4,2,67,60,0,0
46015,-666.666666666667,4,2,67,60,0,0
46415,-66.6666666666667,4,2,67,60,0,0
48015,-50,4,2,67,60,0,0
49615,-43.4782608695652,4,2,67,60,0,0
49965,-43.4782608695652,4,2,67,5,0,0
50015,-66.6666666666667,4,2,67,60,0,0
52815,-66.6666666666667,4,2,67,85,0,1
58015,-54.054054054054,4,2,67,85,0,1
59015,-66.6666666666667,4,2,67,85,0,1
64415,-54.054054054054,4,2,67,85,0,1
65415,-66.6666666666667,4,2,67,85,0,1
65915,-66.6666666666667,4,2,67,5,0,1
66015,-66.6666666666667,4,2,67,85,0,1
67515,-66.6666666666667,4,2,67,5,0,1
67615,-66.6666666666667,4,2,67,85,0,1
72315,-66.6666666666667,4,2,67,5,0,1
72415,-66.6666666666667,4,2,67,85,0,1
73915,-66.6666666666667,4,2,67,5,0,1
74015,-66.6666666666667,4,2,67,85,0,1
78415,-66.6666666666667,4,2,67,60,0,0
78565,-66.6666666666667,4,2,67,5,0,0
78615,-66.6666666666667,4,2,67,75,0,0
83515,-66.6666666666667,4,2,67,5,0,0
83615,-66.6666666666667,4,2,67,75,0,0
83915,-66.6666666666667,4,2,67,5,0,0
84015,-66.6666666666667,4,2,67,75,0,0
92815,-66.6666666666667,4,2,67,5,0,0

[Colours]
Combo1 : 245,200,41
Combo2 : 250,33,71
Combo3 : 0,147,234
Combo4 : 254,48,135
Combo5 : 84,44,190
Combo6 : 255,132,145
Combo7 : 95,130,190
Combo8 : 254,233,148
SliderBorder : 50,50,50

[HitObjects]
396,384,15,102,0,B|430:262|430:262|399:292,1,169.199994836426,4|0,0:0|0:0,0:0:0:0:
160,332,415,2,0,B|299:352|299:352|325:340,1,169.199994836426,2|0,0:0|0:0,0:0:0:0:
455,174,815,2,0,L|398:182,1,56.3999982788086,8|0,0:0|0:0,0:0:0:0:
218,255,1115,2,0,L|275:263,1,56.3999982788086
314,77,1415,2,0,B|295:169|295:169|309:156,1,112.799996557617,2|8,0:0|0:0,0:0:0:0:
309,156,1815,5,2,0:0:0:0:
314,159,2015,2,0,L|201:166,1,112.799996557617,2|0,0:0|0:0,0:0:0:0:
120,171,2415,1,10,0:0:0:0:
201,166,2615,1,0,0:0:0:0:
120,171,2815,1,2,0:0:0:0:
201,166,3015,1,0,0:0:0:0:
30,384,3215,102,0,B|5:257|5:257|26:224,1,169.199994836426,4|0,0:0|0:0,0:0:0:0:
198,287,3615,2,0,B|218:317|218:317|92:272,1,169.199994836426,2|0,0:0|0:0,0:0:0:0:
102,132,4015,2,0,L|106:210,1,56.3999982788086,8|0,0:0|0:0,0:0:0:0:
108,365,4315,2,0,L|163:384,1,56.3999982788086
354,223,4615,2,0,B|296:206|296:206|282:258,1,112.799996557617,2|8,0:0|0:0,0:0:0:0:
283,257,5015,5,2,0:0:0:0:
283,257,5215,2,0,L|394:275,1,112.799996557617,2|0,0:0|0:0,0:0:0:0:
475,293,5615,1,10,0:0:0:0:
394,275,5815,1,0,0:0:0:0:
475,293,6015,1,2,0:0:0:0:
394,275,6215,1,0,0:0:0:0:
444,66,6415,6,0,L|451:10,2,56.3999982788086,6|0|0,0:0|0:0|0:0,0:0:0:0:
421,147,6715,1,0,0:0:0:0:
395,227,6815,2,0,L|402:283,2,56.3999982788086,2|0|0,0:0|0:0|0:0,0:0:0:0:
337,164,7115,1,0,0:0:0:0:
255,185,7215,22,0,L|197:199,2,56.3999982788086,10|0|0,0:0|0:0|0:0,0:0:0:0:
276,103,7515,1,0,0:0:0:0:
191,96,7615,2,0,L|142:124,1,56.3999982788086,2|0,0:0|0:0,0:0:0:0:
46,272,7815,1,0,0:0:0:0:
31,184,7915,1,0,0:0:0:0:
120,210,8015,85,10,0:0:0:0:
120,210,8215,2,0,L|199:217,1,56.3999982788086
383,296,8415,2,0,L|376:375,2,56.3999982788086,2|0|0,0:0|0:0|0:0,0:0:0:0:
327,231,8715,1,0,0:0:0:0:
328,146,8815,22,0,L|407:139,1,56.3999982788086,10|0,0:0|0:0,0:0:0:0:
467,222,9015,2,0,L|388:215,1,56.3999982788086,2|0,0:0|0:0,0:0:0:0:
337,65,9215,1,2,0:0:0:0:
427,65,9315,1,0,0:0:0:0:
464,147,9415,1,2,0:0:0:0:
80,66,9615,85,6,0:0:0:0:
170,65,9715,1,0,0:0:0:0:
207,148,9815,2,0,L|199:206,1,56.3999982788086
115,153,10015,2,0,L|57:156,2,56.3999982788086,2|0|0,0:0|0:0|0:0,0:0:0:0:
292,100,10315,1,0,0:0:0:0:
295,184,10415,2,0,L|284:258,1,56.3999982788086,10|0,0:0|0:0,0:0:0:0:
336,308,10615,1,0,0:0:0:0:
420,316,10715,2,0,L|406:241,1,56.3999982788086,0|2,0:0|0:0,0:0:0:0:
377,182,10915,1,0,0:0:0:0:
458,85,11015,53,0,0:0:0:0:
224,160,11415,1,0,0:0:0:0:
288,192,11615,1,0,0:0:0:0:
224,160,12015,1,2,0:0:0:0:
288,192,12215,1,0,0:0:0:0:
108,219,12415,1,10,0:0:0:0:
426,165,12615,1,8,0:0:0:0:
38,363,12815,70,0,P|90:354|124:313,1,108.100002061844,0|0,3:0|0:0,0:0:0:0:
49,39,13215,2,0,P|30:88|48:138,1,108.100002061844,8|0,3:2|0:0,0:0:0:0:
51,285,13615,1,0,3:0:0:0:
149,177,13815,2,0,L|256:188,1,108.100002061844,0|8,0:0|3:2,0:0:0:0:
256,188,14415,22,0,B|281:109|281:109|272:74,1,108.100002061844,0|0,3:0|0:0,0:0:0:0:
248,14,14715,1,0,0:0:0:0:
241,0,14815,1,8,3:2:0:0:
199,266,15016,2,0,B|209:351|209:351|225:374,1,108.100002061844,0|0,0:0|3:0,0:0:0:0:
303,374,15415,2,0,L|356:367,1,54.050001030922,0|2,0:0|0:0,0:0:0:0:
256,188,15615,1,8,3:2:0:0:
50,217,15815,1,2,0:0:0:0:
0,151,16015,86,0,P|0:98|17:46,1,108.100002061844,0|0,3:0|0:0,0:0:0:0:
263,246,16415,2,0,P|263:299|246:351,1,108.100002061844,8|0,3:2|0:0,0:0:0:0:
11,300,16815,2,0,L|120:286,1,108.100002061844,0|0,3:0|0:0,0:0:0:0:
209,161,17215,2,0,L|318:175,1,108.100002061844,8|0,3:2|0:0,0:0:0:0:
184,238,17615,21,0,3:0:0:0:
407,198,17815,2,0,L|390:147,1,54.050001030922
310,90,18015,1,8,3:2:0:0:
470,35,18215,1,0,0:0:0:0:
470,35,18415,2,0,B|485:112|485:112|469:139,1,108.100002061844,0|0,3:0|0:0,0:0:0:0:
407,198,18715,1,2,0:0:0:0:
388,282,18815,2,0,B|369:391,1,108.100002061844,8|2,3:2|0:0,0:0:0:0:
142,388,19215,86,0,B|124:282,1,108.100002061844,0|0,3:0|0:0,0:0:0:0:
60,13,19615,2,0,B|44:91|44:91|55:117,1,108.100002061844,8|0,3:2|0:0,0:0:0:0:
288,107,20015,2,0,B|181:88,1,108.100002061844,0|0,3:0|0:0,0:0:0:0:
19,326,20415,2,0,B|37:219,1,108.100002061844,8|0,3:2|0:0,0:0:0:0:
85,384,20815,22,0,P|117:342|169:333,1,108.100002061844,0|0,3:0|0:0,0:0:0:0:
234,279,21115,1,0,0:0:0:0:
246,293,21215,2,0,B|266:313|266:313|359:334,1,108.100002061844,8|0,3:2|0:0,0:0:0:0:
474,146,21615,2,0,P|487:93|477:41,1,108.100002061844,0|0,3:0|0:0,0:0:0:0:
401,14,21915,1,2,0:0:0:0:
325,43,22015,2,0,P|315:95|327:147,1,108.100002061844,8|0,3:2|0:0,0:0:0:0:
460,361,22415,86,0,L|512:371,1,54.050001030922,0|0,3:0|0:0,0:0:0:0:
412,293,22615,1,2,0:0:0:0:
400,90,22815,1,8,3:2:0:0:
344,339,23015,1,2,0:0:0:0:
94,334,23215,2,0,B|144:355|144:355|195:342,1,108.100002061844,0|2,3:0|0:0,0:0:0:0:
31,282,23615,1,8,3:2:0:0:
268,315,23815,1,2,0:0:0:0:
130,266,24015,22,0,B|141:182|141:182|132:145,1,108.100002061844,0|2,3:0|0:0,0:0:0:0:
74,97,24315,1,2,0:0:0:0:
56,12,24415,1,8,0:0:0:0:
56,12,24615,2,0,B|163:0,2,108.100002061844,0|0|0,0:0|3:0|0:0,0:0:0:0:
1,72,25115,1,2,0:0:0:0:
74,97,25215,2,0,L|144:88,1,54.050001030922,0|0,3:0|0:0,0:0:0:0:
287,70,25415,2,0,L|357:61,1,54.050001030922,0|0,3:0|0:0,0:0:0:0:
499,36,25615,86,0,B|462:61|462:61|471:142,1,126.900000484085,4|0,3:2|0:0,0:0:0:0:
489,236,25915,1,2,0:0:0:0:
484,331,26015,2,0,B|422:352,1,63.4500002420425,8|0,3:2|0:0,0:0:0:0:
362,265,26215,2,0,B|300:286,1,63.4500002420425,0|2,0:0|0:0,0:0:0:0:
215,130,26415,2,0,B|216:225|216:225|237:261,1,126.900000484085,0|0,3:0|0:0,0:0:0:0:
302,286,26715,1,0,0:0:0:0:
291,304,26815,1,8,3:2:0:0:
189,57,27015,2,0,L|119:85,1,63.4500002420425,0|2,0:0|0:0,0:0:0:0:
133,109,27215,22,0,L|-1:91,1,126.900000484085,0|0,3:0|0:0,0:0:0:0:
7,367,27615,2,0,P|14:306|67:276,1,126.900000484085,8|0,3:2|0:0,0:0:0:0:
158,247,27915,1,2,0:0:0:0:
225,314,28015,2,0,L|360:328,1,126.900000484085,0|0,3:0|0:0,0:0:0:0:
438,289,28315,2,0,L|499:306,2,63.4500002420425,2|8|0,0:0|3:2|0:0,0:0:0:0:
369,248,28615,2,0,L|308:231,1,63.4500002420425,2|0,0:0|0:0,0:0:0:0:
158,368,28815,86,0,B|140:329|140:329|161:236,1,126.900000484085,4|0,3:2|0:0,0:0:0:0:
7,22,29215,2,0,L|44:147,1,126.900000484085,8|0,3:2|0:0,0:0:0:0:
63,237,29515,1,2,0:0:0:0:
158,247,29615,2,0,B|221:257|221:257|277:228,1,126.900000484085,0|0,3:0|0:0,0:0:0:0:
401,18,30015,2,0,L|378:155,1,126.900000484085,8|0,3:2|0:0,0:0:0:0:
421,231,30315,1,2,0:0:0:0:
501,286,30415,22,0,P|442:310|379:310,1,126.900000484085,0|0,3:0|0:0,0:0:0:0:
301,63,30715,1,2,0:0:0:0:
302,87,30815,2,0,L|302:157,1,63.4500002420425,8|0,3:2|0:0,0:0:0:0:
262,254,31015,2,0,P|296:249|326:231,1,63.4500002420425,0|2,0:0|0:0,0:0:0:0:
501,166,31215,2,0,P|442:142|379:142,1,126.900000484085,0|0,3:0|0:0,0:0:0:0:
302,150,31515,2,0,L|212:167,2,63.4500002420425,2|8|0,0:0|3:2|0:0,0:0:0:0:
379,142,31815,2,0,L|398:82,1,63.4500002420425,0|2,0:0|0:0,0:0:0:0:
192,0,32015,86,0,B|189:98|189:98|166:122,1,126.900000484085,4|0,3:2|0:0,0:0:0:0:
87,167,32315,1,2,0:0:0:0:
46,252,32415,2,0,L|57:321,1,63.4500002420425,0|0,3:0|0:0,0:0:0:0:
200,294,32615,2,0,L|211:225,1,63.4500002420425,0|2,0:0|0:0,0:0:0:0:
128,356,32815,2,0,B|183:386|183:386|248:375,1,126.900000484085,8|0,3:2|0:0,0:0:0:0:
329,356,33115,1,2,0:0:0:0:
352,365,33215,1,8,3:2:0:0:
512,317,33415,2,0,L|449:338,1,63.4500002420425,0|2,0:0|0:0,0:0:0:0:
429,326,33615,22,0,B|415:299|415:299|431:203,1,126.900000484085,0|0,3:0|0:0,0:0:0:0:
499,0,34015,2,0,P|473:54|412:65,1,126.900000484085,8|0,3:2|0:0,0:0:0:0:
323,31,34315,1,2,0:0:0:0:
230,10,34415,2,0,L|98:43,1,126.900000484085,0|0,3:0|0:0,0:0:0:0:
25,89,34715,2,0,L|8:20,2,63.4500002420425,2|8|0,0:0|3:2|0:0,0:0:0:0:
109,135,35015,2,0,L|92:204,1,63.4500002420425,2|0,0:0|0:0,0:0:0:0:
323,31,35215,86,0,B|313:49|313:49|321:167,1,126.900000484085,4|0,3:2|0:0,0:0:0:0:
447,297,35615,2,0,B|438:315|438:315|338:378,1,126.900000484085,0|0,3:0|0:0,0:0:0:0:
350,279,35915,1,2,0:0:0:0:
394,368,36015,2,0,L|242:341,1,126.900000484085,8|0,3:2|0:0,0:0:0:0:
0,384,36315,1,2,0:0:0:0:
37,311,36415,2,0,L|106:286,1,63.4500002420425,8|0,3:2|0:0,0:0:0:0:
170,369,36615,2,0,L|178:305,1,63.4500002420425,0|2,0:0|0:0,0:0:0:0:
106,56,36815,22,0,B|103:119|103:119|142:169,1,126.900000484085,0|0,3:0|0:0,0:0:0:0:
224,217,37115,1,2,0:0:0:0:
274,136,37215,2,0,L|280:60,1,63.4500002420425,8|0,3:2|0:0,0:0:0:0:
316,279,37415,2,0,L|310:203,1,63.4500002420425,0|2,0:0|0:0,0:0:0:0:
379,361,37615,1,0,3:0:0:0:
482,33,37915,1,2,0:0:0:0:
400,10,38015,2,0,B|372:15|372:15|344:58,1,63.4500002420425,8|0,3:2|0:0,0:0:0:0:
224,217,38215,2,0,L|140:198,1,63.4500002420425,0|2,3:0|0:0,0:0:0:0:
0,378,38415,6,0,P|24:356|55:346,1,65.7999979919434,12|0,0:0|0:0,0:0:0:0:
511,378,39215,2,0,P|487:356|456:346,1,65.7999979919434,8|0,0:0|0:0,0:0:0:0:
260,365,40015,2,0,L|250:288,1,65.7999979919434,8|2,0:0|0:3,0:0:0:0:
256,192,40615,1,2,0:3:0:0:
252,19,40815,2,0,L|262:96,1,65.7999979919434,8|0,0:0|0:0,0:0:0:0:
260,84,41415,1,0,0:0:0:0:
110,198,41615,6,0,L|45:185,1,65.7999979919434,8|0,0:0|0:0,0:0:0:0:
402,198,42415,2,0,L|466:185,1,65.7999979919434,8|0,0:0|0:0,0:0:0:0:
181,130,43215,2,0,P|186:145|198:156,1,32.8999989959717,8|2,0:0|0:3,0:0:0:0:
256,288,43615,2,0,L|256:256,1,32.8999989959717,2|2,0:3|0:3,0:0:0:0:
344,104,44015,2,0,P|337:135|309:157,1,65.7999979919434,8|0,0:0|0:0,0:0:0:0:
128,68,44815,6,0,L|409:57,2,282.000010757447,0|0|4,3:0|3:0|3:1,0:0:0:0:
478,25,46015,2,0,P|481:33|483:42,1,14.0999995697022,0|0,3:0|0:0,0:0:0:0:
468,120,46415,2,0,P|377:222|240:221,1,282.000010757447,4|0,3:1|3:0,0:0:0:0:
0,372,47215,2,0,P|110:291|244:319,1,282.000010757447,4|0,3:1|3:0,0:0:0:0:
411,303,47815,1,2,0:0:0:0:
375,384,48015,6,0,B|334:361|334:361|268:-3,2,376,4|0|4,3:1|3:0|3:1,0:0:0:0:
485,101,49215,1,0,3:0:0:0:
25,314,49615,102,2,B|376:274|376:274|421:293,1,378.350007216454,4|0,3:1|0:0,0:1:0:0:
400,284,50015,6,0,L|426:316,1,35.2500013446808,4|0,3:1|0:0,0:0:0:0:
167,333,50415,2,0,L|154:381,1,35.2500013446808,2|0,3:2|0:0,0:0:0:0:
239,189,50615,2,0,L|228:148,1,35.2500013446808,2|0,0:2|0:0,0:0:0:0:
44,193,50815,2,0,L|59:149,2,35.2500013446808,2|0|0,3:2|0:0|0:0,0:0:0:0:
430,117,51015,2,0,L|400:83,2,35.2500013446808,2|0|0,0:2|0:0|0:0,0:0:0:0:
159,56,51215,69,8,0:0:0:0:
320,256,51415,1,8,0:3:0:0:
353,56,51615,85,8,0:0:0:0:
192,256,51815,1,8,0:3:0:0:
256,128,52015,21,8,0:0:0:0:
256,320,52215,2,0,L|256:384,2,47.0000017929078,10|2|2,0:3|0:3|0:3,0:3:0:0:
256,32,52415,53,12,0:0:0:0:
45,300,52815,6,0,P|98:343|167:344,1,141.000005378723,0|0,3:0|0:0,0:0:0:0:
467,84,53215,2,0,P|413:40|344:39,1,141.000005378723,8|0,3:2|0:0,0:0:0:0:
256,32,53515,1,2,0:0:0:0:
293,111,53615,2,0,B|312:228|312:228|329:252,1,141.000005378723,0|0,3:0|0:0,0:0:0:0:
371,345,53915,2,0,L|299:317,2,70.5000026893617,2|8|0,0:0|3:2|0:0,0:0:0:0:
192,308,54215,2,0,L|247:264,1,70.5000026893617,2|0,0:0|0:0,0:0:0:0:
423,22,54415,102,0,B|410:40|410:40|391:157,1,141.000005378723,4|0,3:2|0:0,0:0:0:0:
121,213,54815,2,0,L|439:237,2,282.000010757447,8|0|8,3:2|3:0|3:2,0:0:0:0:
77,77,55815,2,0,L|110:67,1,35.2500013446808,2|2,0:3|0:3,0:0:0:0:
161,135,55915,1,2,0:3:0:0:
121,213,56015,6,0,B|109:253|109:253|135:375,1,141.000005378723,4|0,3:2|0:0,0:0:0:0:
382,350,56415,2,0,B|403:253|403:253|391:213,1,141.000005378723,8|0,3:2|0:0,0:0:0:0:
361,129,56715,1,2,0:0:0:0:
328,47,56815,2,0,L|174:59,1,141.000005378723,0|0,3:0|0:0,0:0:0:0:
40,53,57115,2,0,L|110:66,2,70.5000026893617,2|8|0,0:0|3:2|0:0,0:0:0:0:
157,130,57415,2,0,L|167:200,1,70.5000026893617,2|0,0:0|0:0,0:0:0:0:
99,345,57615,101,4,3:1:0:0:
421,357,58015,2,0,P|289:252|119:263,2,347.799998673248,8|2|8,3:2|3:2|3:2,0:0:0:0:
205,311,59015,2,0,L|199:276,1,35.2500013446808,2|2,0:3|0:3,0:3:0:0:
246,207,59115,1,2,0:3:0:0:
329,212,59215,6,0,B|347:231|347:231|327:99,1,141.000005378723,4|0,3:2|0:0,0:0:0:0:
13,207,59615,2,0,B|35:321|35:321|55:335,1,141.000005378723,8|0,3:2|0:0,0:0:0:0:
137,367,59915,1,2,0:0:0:0:
205,311,60015,2,0,B|276:300|276:300|339:327,1,141.000005378723,0|0,3:0|0:0,0:0:0:0:
466,355,60315,2,0,L|399:377,2,70.5000026893617,2|8|0,0:0|3:2|0:0,0:0:0:0:
431,221,60615,2,0,L|411:291,1,70.5000026893617,2|0,0:0|0:0,0:0:0:0:
510,90,60815,102,0,P|478:28|415:0,1,141.000005378723,4|0,3:2|0:0,0:0:0:0:
223,168,61215,2,0,B|259:153|259:153|505:172,2,282.000010757447,8|2|8,3:2|3:2|3:2,0:0:0:0:
121,246,62215,2,0,L|81:238,1,35.2500013446808,2|2,0:3|0:3,0:3:0:0:
136,159,62315,1,2,0:3:0:0:
223,168,62415,6,0,B|278:269|278:269|283:243,1,141.000005378723,4|0,3:2|0:0,0:0:0:0:
415,0,62815,2,0,L|271:17,1,141.000005378723,8|0,3:2|0:0,0:0:0:0:
213,81,63115,1,2,0:0:0:0:
125,68,63215,2,0,B|44:129|44:129|53:167,1,141.000005378723,0|0,3:0|0:0,0:0:0:0:
72,308,63515,2,0,L|86:238,2,70.5000026893617,2|8|0,0:0|3:2|0:0,0:0:0:0:
204,173,63815,2,0,L|135:158,1,70.5000026893617,2|0,0:0|0:0,0:0:0:0:
13,369,64015,101,4,3:1:0:0:
439,315,64415,2,0,P|283:245|212:91,2,347.799998673248,8|2|8,3:2|3:2|3:2,0:0:0:0:
256,1,65415,2,0,L|281:38,1,35.2500013446808,2|2,0:3|0:3,0:3:0:0:
212,91,65515,1,2,0:3:0:0:
284,153,65615,38,0,B|250:183|250:183|61:162,1,211.500008068085,4|0,3:2|0:0,0:0:0:0:
33,99,66015,2,0,B|61:68|61:68|85:165,1,141.000005378723,8|0,3:2|0:0,0:0:0:0:
70,329,66415,2,0,B|61:284|61:284|173:131,1,211.500008068085,0|2,3:0|0:0,0:0:0:0:
212,91,66815,2,0,L|352:110,1,141.000005378723,8|2,3:2|0:0,0:0:0:0:
458,357,67215,102,0,B|402:186|402:186|412:155,1,211.500008068085,0|0,3:0|0:0,0:0:0:0:
423,79,67615,2,0,B|492:62|492:62|484:131,1,141.000005378723,8|0,3:2|0:0,0:0:0:0:
291,145,68015,2,0,B|466:181|466:181|488:205,1,211.500008068085,0|2,3:0|0:0,0:0:0:0:
485,282,68415,2,0,L|415:293,1,70.5000026893617,8|0,3:2|0:0,0:0:0:0:
358,238,68615,2,0,L|327:261,1,35.2500013446808,2|2,0:3|0:3,0:3:0:0:
349,333,68715,1,2,0:3:0:0:
270,313,68815,6,0,B|201:314|201:314|137:279,1,141.000005378723,4|0,3:2|0:0,0:0:0:0:
76,26,69215,2,0,B|48:48|48:48|152:34,1,141.000005378723,8|0,3:2|0:0,0:0:0:0:
244,25,69515,1,2,0:0:0:0:
168,0,69615,2,0,L|151:155,1,141.000005378723,0|0,3:0|0:0,0:0:0:0:
111,207,69915,2,0,L|32:232,2,70.5000026893617,2|8|0,0:0|3:2|0:0,0:0:0:0:
285,107,70215,102,0,B|216:106|216:106|152:140,1,141.000005378723,2|0,0:0|3:0,0:0:0:0:
17,347,70615,1,2,0:0:0:0:
111,375,70715,1,2,0:0:0:0:
94,279,70815,2,0,L|77:124,1,141.000005378723,8|0,3:2|0:0,0:0:0:0:
116,58,71115,1,2,0:0:0:0:
28,65,71215,2,0,B|-3:50|-3:50|102:35,1,141.000005378723,0|0,3:0|0:0,0:0:0:0:
295,11,71515,1,2,0:0:0:0:
314,0,71615,2,0,L|305:69,1,70.5000026893617,8|0,3:2|0:0,0:0:0:0:
172,167,71815,2,0,L|161:133,1,35.2500013446808,2|2,0:3|0:3,0:3:0:0:
229,91,71915,1,2,0:3:0:0:
291,152,72015,6,0,B|464:170|464:170|511:137,1,211.500008068085,4|0,3:2|0:0,0:0:0:0:
505,60,72415,2,0,B|400:71|400:71|435:87,1,141.000005378723,8|0,3:2|0:0,0:0:0:0:
471,312,72815,2,0,B|400:153|400:153|348:128,1,211.500008068085,0|2,3:0|0:0,0:0:0:0:
291,152,73215,2,0,L|276:294,1,141.000005378723,8|2,3:2|0:0,0:0:0:0:
50,377,73615,102,0,B|42:353|42:353|147:188,1,211.500008068085,0|0,3:0|0:0,0:0:0:0:
208,233,74015,2,0,B|201:302|201:302|136:270,1,141.000005378723,8|0,3:2|0:0,0:0:0:0:
25,100,74415,2,0,B|49:105|49:105|140:278,1,211.500008068085,0|2,3:0|0:0,0:0:0:0:
17,240,74815,2,0,L|56:181,1,70.5000026893617,8|0,3:2|0:0,0:0:0:0:
28,8,75015,2,0,L|57:27,1,35.2500013446808,2|2,0:3|0:3,0:3:0:0:
131,79,75115,1,2,0:3:0:0:
196,20,75215,6,0,B|264:7|264:7|332:28,1,141.000005378723,4|0,3:2|0:0,0:0:0:0:
420,192,75615,2,0,B|444:177|444:177|333:196,1,141.000005378723,8|0,3:2|0:0,0:0:0:0:
247,218,75915,1,2,0:0:0:0:
283,298,76015,2,0,L|315:160,1,141.000005378723,0|0,3:0|0:0,0:0:0:0:
383,104,76315,2,0,L|432:49,2,70.5000026893617,2|8|0,0:0|3:2|0:0,0:0:0:0:
227,134,76615,2,0,L|146:128,1,70.5000026893617,2|0,0:0|0:0,0:0:0:0:
20,340,76815,102,0,B|88:353|88:353|156:331,1,141.000005378723,0|0,3:0|0:0,0:0:0:0:
61,103,77215,2,0,B|37:78|37:78|76:186,1,141.000005378723,8|0,3:2|0:0,0:0:0:0:
113,256,77515,1,2,0:0:0:0:
195,225,77615,2,0,L|54:216,1,141.000005378723,0|0,3:0|0:0,0:0:0:0:
209,384,77915,1,2,0:0:0:0:
233,376,78015,2,0,L|242:306,1,70.5000026893617,8|0,3:2|0:0,0:0:0:0:
260,56,78215,2,0,L|256:91,1,35.2500013446808,2|2,0:3|0:3,0:3:0:0:
190,149,78315,1,2,0:3:0:0:
274,174,78415,22,0,B|300:187|300:187|375:175,1,105.750004034043,8|0,0:0|0:0,0:0:0:0:
375,175,78615,1,8,0:3:0:0:
195,225,78815,85,8,0:0:0:0:
458,126,79015,1,8,0:3:0:0:
330,13,79215,85,8,0:0:0:0:
325,335,79415,2,2,L|324:379,2,35.2500013446808,10|2|2,0:3|0:3|0:3,0:3:0:0:
166,26,80015,6,0,P|109:67|78:129,1,141.000005378723,4|0,3:2|0:0,0:0:0:0:
346,358,80415,2,0,P|402:316|433:254,1,141.000005378723,8|0,3:2|0:0,0:0:0:0:
146,251,80815,2,0,P|237:289|350:254,1,211.500008068085,0|2,3:0|0:0,0:0:0:0:
470,176,81215,2,0,P|458:143|433:118,1,70.5000026893617,8|0,3:2|0:0,0:0:0:0:
356,75,81415,2,0,P|321:68|287:77,1,70.5000026893617,2|0,0:0|0:0,0:0:0:0:
43,303,81615,22,0,L|170:362,1,141.000005378723,0|0,3:0|0:0,0:0:0:0:
415,17,82015,2,0,L|287:76,1,141.000005378723,8|0,3:2|0:0,0:0:0:0:
302,356,82415,2,0,B|341:181|341:181|326:152,1,211.500008068085,0|2,3:0|0:0,0:0:0:0:
234,13,82815,2,0,L|148:35,1,70.5000026893617,8|0,3:2|0:0,0:0:0:0:
107,92,83015,2,0,L|83:177,1,70.5000026893617,2|0,0:0|0:0,0:0:0:0:
98,381,83215,38,0,B|41:228|41:228|96:266,1,211.500008068085,4|0,3:2|0:0,0:0:0:0:
356,279,83615,2,0,B|189:311|189:311|153:288,1,211.500008068085,8|0,3:2|0:0,0:0:0:0:
18,148,84015,2,0,L|127:166,1,70.5000026893617,0|0,3:0|0:0,0:0:0:0:
285,323,84315,1,2,0:0:0:0:
356,279,84415,1,8,3:2:0:0:
176,75,84615,2,0,B|144:60|144:60|185:176,1,141.000005378723,2|0,0:0|3:0,0:0:0:0:
179,159,85015,5,2,0:0:0:0:
386,83,85215,2,0,B|276:93|276:93|253:114,1,141.000005378723,8|0,3:2|0:0,0:0:0:0:
65,343,85615,1,0,3:0:0:0:
216,320,85815,1,2,0:0:0:0:
149,373,85915,1,2,0:0:0:0:
69,347,86015,1,8,3:2:0:0:
220,324,86215,1,2,0:0:0:0:
457,322,86415,6,2,L|498:381,1,70.5000026893617,6|0,3:2|0:0,0:1:0:0:
295,359,86615,1,0,0:0:0:0:
379,356,86715,1,0,0:0:0:0:
457,322,86815,22,2,L|416:263,1,70.5000026893617,8|0,3:2|0:0,0:1:0:0:
496,247,87015,1,0,0:0:0:0:
436,186,87115,1,0,0:0:0:0:
353,203,87215,22,2,L|336:272,1,70.5000026893617,2|0,3:1|0:0,0:1:0:0:
192,183,87415,1,0,0:0:0:0:
276,170,87515,1,2,0:1:0:0:
353,203,87615,54,0,L|369:133,1,70.5000026893617,8|0,3:2|0:0,0:0:0:0:
369,0,87815,1,2,0:1:0:0:
309,71,87915,1,0,0:0:0:0:
224,109,88015,22,0,L|205:32,1,70.5000026893617,0|0,3:0|0:0,0:0:0:0:
62,62,88215,1,2,0:1:0:0:
138,111,88315,1,0,0:0:0:0:
224,109,88415,22,2,L|241:184,1,70.5000026893617,8|0,3:2|0:0,0:1:0:0:
309,71,88615,1,0,0:0:0:0:
392,56,88715,1,0,0:0:0:0:
468,93,88815,53,2,3:1:0:0:
396,135,88915,1,0,0:0:0:0:
313,120,89015,2,2,L|302:191,1,70.5000026893617,2|0,0:1|0:0,0:1:0:0:
434,290,89215,21,10,3:2:0:0:
381,215,89315,1,0,0:0:0:0:
302,189,89415,2,0,L|292:258,1,70.5000026893617,2|0,0:1|0:0,0:1:0:0:
55,322,89615,22,2,L|14:381,1,70.5000026893617,0|0,3:0|0:0,0:1:0:0:
34,167,89815,1,0,0:0:0:0:
2,250,89915,1,0,0:0:0:0:
55,322,90015,54,2,L|96:263,1,70.5000026893617,8|0,3:2|0:0,0:1:0:0:
148,325,90215,1,0,0:0:0:0:
207,265,90315,1,0,0:0:0:0:
291,258,90415,22,2,L|302:337,1,70.5000026893617,2|0,3:1|0:0,0:1:0:0:
454,215,90615,1,0,0:0:0:0:
379,261,90715,1,2,0:1:0:0:
291,258,90815,22,0,L|281:188,1,70.5000026893617,8|0,3:2|0:0,0:0:0:0:
49,168,91015,1,2,0:1:0:0:
128,132,91115,1,0,0:0:0:0:
207,168,91215,54,0,L|229:101,1,70.5000026893617,0|0,3:0|0:0,0:0:0:0:
403,67,91415,1,2,0:1:0:0:
319,91,91515,1,0,0:0:0:0:
251,35,91615,22,2,L|228:101,1,70.5000026893617,8|0,3:2|0:0,0:1:0:0:
172,0,91815,1,0,0:0:0:0:
89,14,91915,1,0,0:0:0:0:
57,92,92015,21,2,3:1:0:0:
116,155,92115,1,0,0:0:0:0:
201,142,92215,2,2,L|206:239,1,70.5000026893617,0|0,0:0|0:0,0:1:0:0:
354,219,92415,53,10,3:2:0:0:
280,183,92515,1,0,0:0:0:0:
204,212,92615,2,0,L|208:352,1,141.000005378723,2|0,0:1|0:0,0:0:0:0:
