osu file format v14

[General]
AudioFilename: audio.mp3
AudioLeadIn: 0
PreviewTime: 15
Countdown: 0
SampleSet: Soft
StackLeniency: 0.7
Mode: 0
LetterboxInBreaks: 0
WidescreenStoryboard: 0

[Editor]
Bookmarks: 53351,78951,80551
DistanceSpacing: 1.1
BeatDivisor: 6
GridSize: 32
TimelineZoom: 1.4

[Metadata]
Title:Hitogata (TV Size)
TitleUnicode:ヒトガタ (TV Size)
Artist:HIMEHINA
ArtistUnicode:HIMEHINA
Creator:Ryuusei Aika
Version:Nasmoeb's Insane
Source:バーチャルさんはみている
Tags:VIRTUALSAN-LOOKING Virtual_San_wa_Miteiru ヒメヒナ 田中ヒメ Tanaka Hime 鈴木ヒナ Suzuki Hina ゴゴ 南田健吾 -ClariS- kanor Yugu ak74 Ujimatcha Yusomi Jounzan Evilelvis Beomsan Nasmoeb CoLouRed GlazeE CoLouRed_GlazeE Bossandy Frey Necho Reincarnation z1 z1085684963 Niva tomadoi Shiinoha_Kotone Shiinoha Kotone Trynna Present AngelSnow -Nanako- Starfy Pino -[Pino]- melloe Kalibe appleeaterx irotuk buki Narcissu AIR Taeyang val0108 contagious Rolniczy -nanaka- Firika LMT fuyuyu- Mamayu Kanau Silky semaphore Level9 lv9 papple pappl e 104 pappl_e_104 xLolicore xLolicore- Elsa Valentine ScubDomino jungkyuyoung anime girl Lami moph Len jonathanlfj deetz Shizuku Shizuku- rui 404 Aim Not Found ANF 404_Aim_Not_Found Frontier -_Frontier_- Bariton Regou バーチャル ユーチューバー Youtuber Virtual_YouTuber Vtuber 中田ヤスタカ ミライアカリ 電脳少女シロ 猫宮ひなた 月ノ美兎 夢咲楓 風見涼 桜樹みりあ 道明寺晴翔 シスター・クレア ときのそら ばあちゃる バーチャルゴリラ ピーナッツくん 富士葵 ヤミクモケリン 大鳥こはく バーチャルグランドマザー小林幸子 家長むぎ える 剣持刀也 静凛 樋口楓 物述有栖 カルロ・ピノ 北上双葉 金剛いろは 届木ウカ もちひよこ 阿部大護 横澤大輔 鈴木慎之介 庵野秀明
BeatmapID:1970539
BeatmapSetID:942714

[Difficulty]
HPDrainRate:8
CircleSize:4
OverallDifficulty:8
ApproachRate:9
SliderMultiplier:1.78
SliderTickRate:1

[Events]
//Background and Video events
Video,-330,"video.avi"
0,0,"hinahime.jpg",0,0
//Break Periods
//Storyboard Layer 0 (Background)
//Storyboard Layer 1 (Fail)
//Storyboard Layer 2 (Pass)
//Storyboard Layer 3 (Foreground)
//Storyboard Sound Samples

[TimingPoints]
15,400,4,2,1,60,1,0
12415,-71.4285714285714,4,2,1,60,0,0
12815,-100,4,2,1,50,0,0
25615,-100,4,2,1,55,0,0
38415,-125,4,2,1,40,0,0
44815,-100,4,2,1,40,0,0
48015,-100,4,2,1,50,0,0
49615,-100,4,2,1,60,0,0
51215,-100,4,2,1,50,0,0
52815,-100,4,2,1,70,0,0
64415,-71.4285714285714,4,2,1,70,0,0
64815,-83.3333333333333,4,2,1,70,0,0
65615,-100,4,2,1,70,0,0
80815,-100,4,2,1,75,0,0
81615,-100,4,2,1,80,0,0
82415,-100,4,2,1,75,0,0
83215,-100,4,2,1,60,0,0
87215,-100,4,2,1,65,0,0
88015,-100,4,2,1,70,0,0
88815,-100,4,2,1,75,0,0
89615,-100,4,2,1,80,0,0
90415,-100,4,2,1,85,0,0
91215,-100,4,2,1,90,0,0
92015,-100,4,2,1,95,0,0
93215,-100,4,2,1,20,0,0

[Colours]
Combo1 : 218,14,77
Combo2 : 11,72,174

[HitObjects]
412,345,15,6,0,P|431:277|347:293,1,178,2|8,2:1|2:1,0:0:0:0:
350,283,815,2,0,P|326:268|317:208,1,89,2|0,2:1|0:0,0:0:0:0:
346,143,1115,2,0,L|446:154,1,89,2|0,0:0|0:0,0:0:0:0:
448,142,1415,1,2,0:0:0:0:
249,28,1815,5,2,0:0:0:0:
231,224,2015,2,0,B|226:171|226:171|214:150|214:150|206:83,1,133.5,2|0,0:0|0:0,0:0:0:0:
249,28,2415,6,0,B|267:17|267:17|263:48,1,44.5,2|0,2:1|0:0,0:0:0:0:
134,73,2615,2,0,B|119:58|119:58|150:54,1,44.5,8|0,2:1|0:0,0:0:0:0:
207,94,2815,2,0,P|199:120|181:133,1,44.5,2|0,2:1|0:0,0:0:0:0:
116,153,3015,2,0,P|89:159|69:149,1,44.5,8|0,2:1|0:0,0:0:0:0:
100,345,3215,6,0,P|81:277|165:293,1,178,2|8,2:1|2:1,0:0:0:0:
162,283,4015,2,0,P|186:268|195:208,1,89,2|0,2:1|0:0,0:0:0:0:
166,143,4315,2,0,L|66:154,1,89,2|0,0:0|0:0,0:0:0:0:
64,142,4615,1,2,0:0:0:0:
208,71,4815,1,2,2:1:0:0:
128,24,5015,5,2,0:0:0:0:
127,17,5115,1,0,0:0:0:0:
126,10,5215,1,2,0:0:0:0:
245,141,5615,2,0,B|266:151|266:151|254:108,1,44.5,2|0,2:1|0:0,0:0:0:0:
150,132,5815,2,0,B|145:153|145:153|166:143,1,44.5,8|0,2:1|0:0,0:0:0:0:
323,91,6015,2,0,P|307:71|279:58,1,44.5,2|0,2:1|0:0,0:0:0:0:
128,59,6215,2,0,P|104:69|84:92,1,44.5,8|0,2:1|0:0,0:0:0:0:
208,71,6415,5,2,3:2:0:0:
208,64,6515,1,2,0:0:0:0:
208,57,6615,1,2,0:0:0:0:
207,50,6715,1,2,0:0:0:0:
207,43,6815,2,0,L|200:0,1,44.5,2|2,1:2|0:0,0:0:0:0:
290,61,7015,2,0,L|315:25,1,44.5,2|2,0:0|0:0,0:0:0:0:
335,132,7215,6,0,L|378:124,1,44.5,2|2,3:2|0:0,0:0:0:0:
455,111,7415,1,2,0:0:0:0:
462,109,7515,1,2,0:0:0:0:
469,107,7615,2,0,L|464:157,1,44.5,2|2,1:2|0:0,0:0:0:0:
446,349,7815,2,0,L|451:299,1,44.5,2|2,0:0|0:0,0:0:0:0:
460,227,8015,6,0,L|410:222,1,44.5,2|2,3:3|0:0,0:0:0:0:
338,214,8215,2,0,L|288:209,1,44.5,2|2,0:0|0:0,0:0:0:0:
216,264,8415,1,2,1:2:0:0:
216,257,8515,1,2,0:0:0:0:
216,250,8615,1,2,0:0:0:0:
216,243,8715,1,2,0:0:0:0:
216,236,8815,6,0,B|209:202|209:202|232:138,1,89,2|8,3:2|2:1,0:0:0:0:
376,60,9215,2,0,B|383:36|383:36|354:35,1,44.5,2|2,3:2|0:0,0:0:0:0:
260,78,9415,2,0,L|330:88,1,44.5,8|0,2:1|0:0,0:0:0:0:
407,132,9615,6,0,L|337:142,1,44.5,2|2,3:2|0:0,0:0:0:0:
305,192,9815,1,2,0:0:0:0:
312,195,9915,1,2,0:0:0:0:
319,198,10015,2,0,P|319:224|306:248,1,44.5,2|2,1:2|0:0,0:0:0:0:
208,223,10215,2,0,P|208:197|221:173,1,44.5,2|2,0:0|0:0,0:0:0:0:
341,315,10415,6,0,L|271:325,1,44.5,2|2,3:2|0:0,0:0:0:0:
218,333,10615,2,0,L|148:343,1,44.5,2|2,0:0|0:0,0:0:0:0:
95,351,10815,1,2,1:2:0:0:
94,344,10915,1,2,0:0:0:0:
93,337,11015,1,2,0:0:0:0:
92,330,11115,1,2,0:0:0:0:
157,170,11315,5,2,0:0:0:0:
158,163,11415,1,2,0:0:0:0:
159,156,11515,1,2,0:0:0:0:
160,149,11615,2,0,L|94:160,1,44.5,2|2,0:0|0:0,0:0:0:0:
61,244,11815,2,0,L|127:233,1,44.5,2|2,0:0|0:0,0:0:0:0:
84,84,12015,6,0,L|18:95,2,44.5,2|0|2,0:0|0:0|0:0,0:0:0:0:
84,84,12415,6,0,B|108:66|112:28|112:28|183:2|225:53,1,186.899994296265,8|0,0:3|0:0,0:0:0:0:
223,51,12815,6,0,P|218:88|202:62,1,89,0|0,3:1|0:0,0:0:0:0:
285,245,13215,2,0,P|311:222|306:256,1,89,0|0,1:0|0:0,0:0:0:0:
236,174,13515,1,0,0:0:0:0:
236,174,13615,2,0,P|272:148|320:146,1,89,0|0,3:1|0:0,0:0:0:0:
313,335,14015,2,0,P|269:331|233:305,1,89,0|0,1:0|0:0,0:0:0:0:
147,238,14315,1,0,0:0:0:0:
147,238,14415,6,0,L|291:242,1,133.5,0|0,3:1|0:0,0:0:0:0:
295,230,14815,2,0,P|310:194|294:137,1,89,0|0,1:0|0:0,0:0:0:0:
165,9,15215,2,0,B|137:-9|137:-9|158:101,1,133.5,10|10,3:2|0:2,0:0:0:0:
300,146,15615,2,0,L|315:49,1,89,0|10,1:0|0:2,0:0:0:0:
240,42,15915,1,0,0:0:0:0:
240,42,16015,6,0,L|225:139,1,89,0|0,3:1|0:0,0:0:0:0:
373,162,16415,2,0,L|388:65,1,89,0|0,1:0|0:0,0:0:0:0:
246,205,16815,2,0,P|244:247|271:298,1,89,0|0,3:1|0:0,0:0:0:0:
390,259,17215,2,0,P|392:217|365:166,1,89,0|0,1:0|0:0,0:0:0:0:
299,145,17615,5,0,3:1:0:0:
338,320,17815,1,0,0:0:0:0:
449,147,18015,1,0,1:0:0:0:
318,231,18215,1,0,0:0:0:0:
473,352,18415,2,0,B|492:304|492:304|466:211,1,133.5,10|10,3:2|0:2,0:0:0:0:
400,43,18815,2,0,P|374:47|387:97,1,89,0|10,1:0|0:2,0:0:0:0:
460,93,19115,1,0,0:0:0:0:
460,93,19215,6,0,P|478:41|457:-8,1,89,0|0,3:1|0:0,0:0:0:0:
332,192,19615,2,0,P|375:174|437:168,1,89,0|0,1:0|0:0,0:0:0:0:
469,225,19915,1,0,0:0:0:0:
469,225,20015,2,0,P|463:271|437:327,1,89,0|0,3:1|0:0,0:0:0:0:
315,353,20415,2,0,L|297:245,1,89,0|0,1:0|0:0,0:0:0:0:
324,41,20815,6,0,B|358:94|358:94|284:120,1,133.5,0|0,3:1|0:0,0:0:0:0:
219,92,21215,2,0,L|237:-16,1,89,0|0,1:0|0:0,0:0:0:0:
394,160,21615,2,0,L|299:194,1,89,10|0,3:2|0:0,0:0:0:0:
229,250,21915,1,10,0:2:0:0:
229,250,22015,2,0,P|199:260|155:212,1,89,0|10,1:0|0:2,0:0:0:0:
182,98,22415,5,0,3:1:0:0:
245,161,22615,1,0,0:0:0:0:
73,261,22815,1,0,1:0:0:0:
84,173,23015,1,0,0:0:0:0:
156,227,23215,5,0,3:1:0:0:
1,207,23415,1,0,0:0:0:0:
156,227,23615,1,0,1:0:0:0:
73,261,23815,1,0,0:0:0:0:
73,261,23915,1,0,0:0:0:0:
73,261,24015,6,0,L|86:161,1,89,0|0,3:1|0:0,0:0:0:0:
150,132,24315,1,0,0:0:0:0:
150,132,24415,2,0,B|164:89|164:89|141:34,1,89,0|0,1:0|0:0,0:0:0:0:
69,17,24715,1,0,0:0:0:0:
69,17,24815,6,0,L|73:72,1,44.5,10|0,3:2|0:0,0:0:0:0:
147,48,25015,2,0,L|143:-7,1,44.5,0|10,0:0|0:2,0:0:0:0:
12,113,25215,6,0,B|-2:157|-2:157|97:175,1,133.5,0|0,1:0|0:0,0:0:0:0:
239,180,25615,6,0,L|254:83,1,89,0|0,3:1|0:0,0:0:0:0:
174,231,26015,2,0,L|187:318,1,89,0|0,1:0|0:0,0:0:0:0:
248,368,26315,1,0,0:0:0:0:
248,368,26415,2,0,B|281:384|281:384|349:368,1,89,0|0,3:1|0:0,0:0:0:0:
336,361,26715,1,2,0:0:0:0:
340,350,26815,1,0,1:0:0:0:
461,373,27015,6,0,P|483:302|442:258,1,133.5,0|0,0:0|0:0,0:0:0:0:
448,261,27415,2,0,P|434:242|433:202,1,44.5,0|2,0:0|0:0,0:0:0:0:
430,207,27615,1,0,1:0:0:0:
489,100,27815,1,0,0:0:0:0:
488,108,27915,1,0,0:0:0:0:
488,116,28015,6,0,B|469:99|438:106|438:106|407:142|350:133,1,133.5,10|10,3:2|0:2,0:0:0:0:
305,83,28415,2,0,P|331:51|388:68,1,89,0|10,1:0|0:2,0:0:0:0:
366,134,28715,1,0,0:0:0:0:
366,134,28815,6,0,P|325:122|268:126,1,89,0|0,3:1|0:0,0:0:0:0:
221,175,29115,1,2,0:0:0:0:
221,175,29215,2,0,P|176:176|134:164,1,89,0|0,1:0|0:0,0:0:0:0:
32,59,29615,2,0,L|135:46,1,89,0|0,3:1|0:0,0:0:0:0:
132,51,29915,1,2,0:0:0:0:
143,54,30015,1,0,1:0:0:0:
88,248,30215,1,0,0:0:0:0:
46,155,30415,5,0,3:1:0:0:
216,77,30615,1,0,0:0:0:0:
294,247,30815,1,0,1:0:0:0:
201,289,31015,1,0,0:0:0:0:
159,196,31215,6,0,B|203:171|203:171|237:171|237:171|286:149,1,133.5,10|10,3:2|0:2,0:0:0:0:
413,65,31615,2,0,B|435:55|435:55|353:36,1,89,0|10,1:0|0:2,0:0:0:0:
349,113,31915,1,0,0:0:0:0:
349,113,32015,6,0,P|386:140|439:143,1,89,0|0,3:1|0:0,0:0:0:0:
468,294,32415,2,0,P|424:299|389:326,1,89,0|0,1:0|0:0,0:0:0:0:
330,240,32815,2,0,L|434:219,1,89,0|0,3:1|0:0,0:0:0:0:
456,375,33215,2,0,L|305:357,1,133.5,0|0,1:0|0:0,0:0:0:0:
313,366,33615,5,0,3:1:0:0:
231,256,33915,1,2,0:0:0:0:
231,256,34015,2,0,P|189:247|146:278,1,89,0|0,1:0|0:0,0:0:0:0:
101,330,34315,1,0,0:0:0:0:
101,330,34415,2,0,P|59:339|16:308,1,89,10|0,3:2|0:0,0:0:0:0:
1,240,34715,1,10,0:2:0:0:
1,240,34815,2,0,L|19:149,1,89,0|10,1:0|0:2,0:0:0:0:
199,51,35215,5,0,3:1:0:0:
118,186,35415,1,0,0:0:0:0:
93,93,35615,1,0,1:0:0:0:
118,186,36015,5,0,3:1:0:0:
68,0,36215,2,0,B|140:-4|138:35|208:27,1,133.5,0|0,0:0|0:0,0:0:0:0:
207,22,36615,1,0,0:0:0:0:
18,152,36815,5,0,3:1:0:0:
177,256,37015,1,0,0:0:0:0:
40,342,37215,1,0,1:0:0:0:
108,384,37415,1,0,0:0:0:0:
108,384,37515,1,0,0:0:0:0:
108,384,37615,6,0,B|123:347|123:347|104:280,1,89,10|0,3:2|0:0,0:0:0:0:
55,244,37915,2,0,L|69:147,1,89,10|0,0:2|0:0,0:0:0:0:
125,110,38215,2,0,P|144:119|122:142,1,44.5,10|0,0:2|0:0,0:0:0:0:
67,155,38415,6,0,P|59:77|19:15,3,142.4,2|2|2|2,0:1|0:0|0:1|0:0,0:0:0:0:
192,237,40015,2,0,P|219:163|274:114,3,142.4,2|4|2|2,0:1|0:1|0:1|0:0,0:0:0:0:
196,320,41615,5,2,0:1:0:0:
153,26,42015,1,2,0:0:0:0:
301,194,42415,5,2,0:1:0:0:
192,237,42815,1,2,0:0:0:0:
412,301,43215,5,2,0:1:0:0:
55,191,43615,1,4,0:1:0:0:
342,48,44015,6,0,P|376:74|294:109,1,178,2|0,0:1|0:0,0:0:0:0:
294,107,44615,1,0,0:0:0:0:
440,184,44815,5,10,0:1:0:0:
342,48,45015,1,0,0:0:0:0:
364,215,45215,1,0,3:0:0:0:
416,104,45415,1,0,0:0:0:0:
387,297,45615,6,0,B|322:289|328:338|251:336,1,133.5,0|0,3:0|0:0,0:0:0:0:
251,333,46015,2,0,P|223:309|245:251,1,89,8|0,0:1|0:0,0:0:0:0:
339,126,46415,6,0,L|327:228,1,89,10|0,0:1|0:0,0:0:0:0:
254,185,46715,1,0,0:0:0:0:
254,185,46815,2,0,L|266:83,1,89,0|0,3:0|0:0,0:0:0:0:
326,50,47215,5,0,3:0:0:0:
264,96,47415,1,0,0:0:0:0:
73,60,47615,1,8,0:1:0:0:
257,18,47815,1,0,0:0:0:0:
190,186,48015,6,0,P|168:126|186:44,1,133.5,0|0,3:0|0:0,0:0:0:0:
191,61,48415,2,0,L|285:72,1,89,8|0,0:1|0:0,0:0:0:0:
277,263,48815,1,0,3:0:0:0:
277,263,48915,2,0,L|183:274,1,89,0|0,0:0|0:0,0:0:0:0:
178,274,49215,1,8,0:1:0:0:
103,194,49415,1,0,0:0:0:0:
307,54,49615,6,0,B|326:105|326:105|294:189,1,133.5,0|0,3:0|0:0,0:0:0:0:
103,194,50015,2,0,B|97:149|97:149|103:119|103:119|96:58,1,133.5,8|0,0:1|0:0,0:0:0:0:
205,23,50415,6,0,L|202:77,1,44.5,8|0,0:1|0:0,0:0:0:0:
200,93,50615,2,0,L|197:147,1,44.5,0|0,0:0|0:0,0:0:0:0:
190,213,50815,5,8,0:1:0:0:
189,221,50915,1,0,0:0:0:0:
188,229,51015,2,0,L|222:233,4,22.25,0|0|0|0|0,0:0|0:0|0:0|0:0|3:0,0:0:0:0:
132,286,51415,5,8,0:1:0:0:
258,342,51615,2,0,B|224:333|224:333|152:360,1,89,0|8,1:0|0:1,0:0:0:0:
122,160,52015,5,0,1:0:0:0:
266,113,52215,2,0,L|234:108,2,29.6666666666667,8|0|0,0:1|0:0|0:0,0:0:0:0:
278,109,52415,2,0,P|315:73|265:9,1,133.5,0|0,1:0|0:0,0:0:0:0:
267,11,52815,6,0,L|273:67,1,44.5,2|0,3:2|0:0,0:0:0:0:
286,188,53015,1,2,0:0:0:0:
286,197,53115,1,0,0:0:0:0:
287,206,53215,2,0,B|335:208|335:208|368:226|368:226|423:230,1,133.5,2|0,1:2|0:0,0:0:0:0:
471,174,53615,5,2,3:2:0:0:
390,350,53815,2,0,P|325:354|254:389,1,133.5,2|0,0:0|0:0,0:0:0:0:
248,378,54215,2,0,L|255:314,1,44.5,2|0,0:0|0:0,0:0:0:0:
257,297,54415,5,2,3:2:0:0:
403,273,54615,2,0,L|398:223,1,44.5,2|0,0:0|0:0,0:0:0:0:
380,69,54815,2,0,B|332:91|332:91|247:71,1,133.5,2|0,1:2|0:0,0:0:0:0:
248,62,55215,6,0,P|204:54|160:90,1,89,2|0,3:2|0:0,0:0:0:0:
192,238,55515,2,0,P|236:246|280:210,1,89,8|0,0:3|0:0,0:0:0:0:
278,214,55815,2,0,L|285:157,1,44.5,2|0,0:0|0:0,0:0:0:0:
105,120,56015,6,0,L|122:229,1,89,2|2,3:2|0:0,0:0:0:0:
69,352,56315,1,0,0:0:0:0:
69,352,56415,2,0,B|58:317|58:317|74:245,1,89,2|2,1:2|0:0,0:0:0:0:
192,238,56715,1,0,0:0:0:0:
192,249,56815,5,2,3:2:0:0:
152,364,57015,2,0,L|145:320,1,44.5,2|0,0:0|0:0,0:0:0:0:
118,207,57215,2,0,P|163:205|208:179,1,89,2|2,1:2|0:0,0:0:0:0:
316,50,57615,6,0,L|180:27,1,133.5,2|0,3:2|0:0,0:0:0:0:
175,18,58015,2,0,L|192:117,1,89,2|0,1:2|0:0,0:0:0:0:
272,287,58415,5,2,3:2:0:0:
272,287,58515,2,0,B|290:245|290:245|280:182,1,89,0|8,0:0|0:3,0:0:0:0:
201,184,58815,2,0,L|208:230,1,44.5,2|0,1:2|0:0,0:0:0:0:
343,347,59015,2,0,L|349:303,1,44.5,2|0,0:0|0:0,0:0:0:0:
291,190,59215,5,2,3:2:0:0:
141,354,59415,1,2,0:0:0:0:
141,354,59515,1,0,0:0:0:0:
141,354,59615,2,0,P|198:322|283:312,1,133.5,2|0,1:2|0:0,0:0:0:0:
343,347,60015,5,2,3:2:0:0:
223,241,60215,2,0,B|204:192|204:192|234:104,1,133.5,2|0,0:0|0:0,0:0:0:0:
246,104,60615,6,0,L|193:111,2,44.5,2|0|2,0:0|0:0|3:2,0:0:0:0:
291,190,61015,1,2,0:0:0:0:
450,73,61215,2,0,P|377:79|319:128,1,133.5,2|0,1:2|0:0,0:0:0:0:
343,257,61615,6,0,P|385:268|437:293,1,89,2|0,3:2|0:0,0:0:0:0:
453,208,61915,2,0,P|411:197|359:172,1,89,8|0,0:3|0:0,0:0:0:0:
329,113,62215,2,0,P|321:91|318:54,1,44.5,2|0,0:0|0:0,0:0:0:0:
319,55,62415,5,2,3:2:0:0:
369,178,62615,1,2,0:0:0:0:
264,268,62815,1,2,1:2:0:0:
291,190,63015,1,2,0:0:0:0:
343,257,63215,5,2,3:2:0:0:
369,178,63415,1,2,0:0:0:0:
369,169,63515,1,0,0:0:0:0:
369,160,63615,1,2,1:2:0:0:
265,277,63815,1,2,0:0:0:0:
378,362,64015,6,0,P|402:328|349:349,1,133.5,2|0,3:2|0:0,0:0:0:0:
345,347,64415,6,0,B|468:354|468:354|490:286,1,186.899994296265,2|0,1:2|0:0,0:0:0:0:
417,149,64815,5,2,3:2:0:0:
408,143,64915,2,0,P|422:193|425:256,1,106.799996740723,0|8,0:0|0:3,0:0:0:0:
488,292,65215,6,0,P|508:286|483:264,1,53.3999983703614,2|0,1:2|0:0,0:0:0:0:
351,253,65415,2,0,P|337:272|359:282,1,53.3999983703614,2|0,0:0|0:0,0:0:0:0:
425,247,65615,6,0,P|356:219|186:240,1,222.5,2|0,3:2|0:0,0:0:0:0:
210,228,66215,2,0,P|190:246|148:244,1,44.5,2|0,0:0|0:0,0:0:0:0:
106,214,66415,5,2,3:2:0:0:
106,214,66515,1,0,0:0:0:0:
165,104,66715,1,8,0:3:0:0:
165,104,66815,1,0,1:2:0:0:
96,0,67015,1,2,0:2:0:0:
83,119,67215,6,0,P|152:147|322:126,1,222.5,2|0,3:2|0:0,0:0:0:0:
297,137,67815,2,0,L|372:144,1,44.5,2|0,0:2|0:0,0:0:0:0:
413,111,68015,5,2,3:2:0:0:
413,111,68115,1,0,0:0:0:0:
368,233,68315,1,8,0:3:0:0:
368,233,68415,1,0,1:2:0:0:
418,353,68615,6,0,P|452:305|462:224,1,133.5,2|0,0:2|0:0,0:0:0:0:
463,232,69015,2,0,P|451:209|455:176,1,44.5,2|0,0:2|0:0,0:0:0:0:
450,38,69215,2,0,P|489:28|467:99,1,133.5,2|0,1:2|0:0,0:0:0:0:
413,111,69615,6,0,P|377:100|315:91,1,89,2|0,3:2|0:0,0:0:0:0:
303,100,69915,1,8,0:3:0:0:
81,189,70215,6,0,P|47:237|37:318,1,133.5,2|0,0:2|0:0,0:0:0:0:
35,309,70615,2,0,P|47:332|43:365,1,44.5,2|2,0:2|0:2,0:0:0:0:
124,359,70815,6,0,B|128:319|111:286|111:286|117:250|147:229,1,133.5,2|0,1:2|0:0,0:0:0:0:
194,286,71215,1,2,3:2:0:0:
194,286,71315,1,0,0:0:0:0:
294,211,71515,1,8,0:3:0:0:
294,211,71615,1,2,1:2:0:0:
403,272,71815,1,2,0:2:0:0:
488,146,72015,6,0,P|419:118|249:139,1,222.5,2|0,3:2|0:0,0:0:0:0:
273,127,72615,2,0,P|252:144|210:142,1,44.5,2|0,0:2|0:0,0:0:0:0:
169,113,72815,5,2,3:2:0:0:
169,113,72915,1,0,0:0:0:0:
209,231,73115,1,8,0:3:0:0:
209,231,73215,1,0,1:2:0:0:
149,340,73415,1,2,0:2:0:0:
81,226,73615,6,0,P|150:198|320:219,1,222.5,2|0,3:2|0:0,0:0:0:0:
295,207,74215,2,0,L|288:269,1,44.5,2|0,0:2|0:0,0:0:0:0:
338,314,74415,5,2,3:2:0:0:
338,314,74515,1,0,0:0:0:0:
443,237,74715,1,8,0:3:0:0:
443,237,74815,1,0,1:2:0:0:
415,110,75015,6,0,L|264:130,1,133.5,2|0,0:2|0:0,0:0:0:0:
281,117,75415,1,2,0:2:0:0:
302,337,75615,2,0,B|327:290|327:290|307:205,1,133.5,2|0,1:2|0:0,0:0:0:0:
209,62,76015,6,0,L|196:157,1,89,2|0,3:2|0:0,0:0:0:0:
358,148,76315,2,0,L|371:53,1,89,8|0,0:3|0:0,0:0:0:0:
385,45,76615,6,0,L|234:65,1,133.5,2|0,0:2|0:0,0:0:0:0:
251,52,77015,1,2,0:2:0:0:
49,206,77215,2,0,B|30:171|30:171|138:189,1,133.5,2|0,1:2|0:0,0:0:0:0:
122,186,77615,6,0,L|124:238,2,44.5,2|0|0,3:2|0:0|0:0,0:0:0:0:
73,103,77915,1,8,0:3:0:0:
73,103,78015,2,0,L|129:113,1,44.5,2|0,1:2|0:0,0:0:0:0:
91,299,78215,2,0,L|35:289,1,44.5,2|0,0:2|0:0,0:0:0:0:
39,295,78415,5,2,0:1:0:0:
38,288,78615,1,0,0:0:0:0:
100,213,78815,1,8,0:3:0:0:
209,229,79015,1,0,0:0:0:0:
314,326,79215,1,8,0:3:0:0:
474,296,79415,1,8,0:1:0:0:
512,140,79615,1,0,0:0:0:0:
452,34,79815,1,0,0:0:0:0:
357,235,80015,6,0,P|334:194|334:138,1,89,2|0,3:2|0:0,0:0:0:0:
409,129,80315,1,0,0:0:0:0:
409,129,80415,2,0,P|432:170|432:226,1,89,2|0,1:2|0:0,0:0:0:0:
330,152,80815,2,0,L|336:87,2,44.5,2|0|0,3:2|0:0|0:0,0:0:0:0:
459,283,81215,2,0,P|419:263|353:259,1,89,2|0,1:2|0:0,0:0:0:0:
321,313,81515,1,0,0:0:0:0:
321,313,81615,6,0,P|288:352|234:344,1,89,2|0,3:2|0:0,0:0:0:0:
163,265,81915,1,0,0:0:0:0:
163,265,82015,2,0,L|266:281,1,89,2|0,1:2|0:0,0:0:0:0:
256,270,82315,1,0,0:0:0:0:
262,262,82415,2,0,L|257:213,2,44.5,2|0|8,3:2|0:0|0:1,0:0:0:0:
340,274,82815,2,0,L|329:169,1,89,2|8,1:2|0:1,0:0:0:0:
214,13,83215,6,0,B|197:53|197:53|209:115,1,89,2|0,3:2|0:0,0:0:0:0:
403,136,83615,2,0,B|420:96|420:96|408:34,1,89,2|0,1:2|0:0,0:0:0:0:
191,193,84015,2,0,P|231:171|289:166,1,89,2|0,3:2|0:0,0:0:0:0:
334,213,84315,2,0,P|373:235|417:242,1,89,2|0,0:0|0:0,0:0:0:0:
484,212,84615,2,0,L|477:157,1,44.5,2|0,0:0|0:0,0:0:0:0:
471,162,84815,1,0,3:2:0:0:
348,308,85015,5,2,0:0:0:0:
281,87,85215,1,2,1:2:0:0:
281,87,85615,2,0,L|388:98,1,89,2|2,3:2|0:0,0:0:0:0:
374,174,85915,1,0,0:0:0:0:
374,174,86015,2,0,L|267:163,1,89,2|2,1:2|0:0,0:0:0:0:
159,271,86415,5,2,3:2:0:0:
151,274,86515,1,2,0:0:0:0:
143,277,86615,1,2,0:0:0:0:
135,280,86715,1,2,0:0:0:0:
127,283,86815,2,0,L|78:247,1,44.5,2|2,1:2|0:0,0:0:0:0:
138,194,87015,2,0,L|128:133,1,44.5,2|2,0:0|0:0,0:0:0:0:
208,138,87215,6,0,L|244:89,1,44.5,2|2,3:2|0:0,0:0:0:0:
284,162,87415,1,2,0:0:0:0:
292,164,87515,1,2,0:0:0:0:
301,166,87615,2,0,L|358:174,1,44.5,2|2,1:2|0:0,0:0:0:0:
421,183,87815,2,0,L|478:191,1,44.5,2|2,0:0|0:0,0:0:0:0:
463,113,88015,5,2,3:2:0:0:
461,105,88115,1,2,0:0:0:0:
459,97,88215,1,2,0:0:0:0:
457,89,88315,1,2,0:0:0:0:
455,81,88415,2,0,L|410:92,1,44.5,2|2,1:2|0:0,0:0:0:0:
305,39,88615,2,0,L|337:72,1,44.5,2|2,0:0|0:0,0:0:0:0:
344,190,88815,6,0,L|356:145,2,44.5,2|0|8,3:2|0:0|2:1,0:0:0:0:
408,378,89215,1,2,1:2:0:0:
407,371,89315,1,2,0:0:0:0:
406,364,89415,1,8,2:1:0:0:
405,357,89515,1,0,0:0:0:0:
425,329,89615,5,2,3:2:0:0:
415,325,89715,1,2,0:0:0:0:
406,321,89815,1,2,0:0:0:0:
398,318,89915,1,2,0:0:0:0:
384,303,90015,2,0,L|331:311,1,44.5,2|2,1:2|0:0,0:0:0:0:
263,320,90215,2,0,L|210:328,1,44.5,2|2,0:0|0:0,0:0:0:0:
142,337,90415,5,2,3:2:0:0:
142,328,90515,1,2,0:0:0:0:
143,319,90615,1,2,0:0:0:0:
143,310,90715,2,0,B|153:278|153:278|132:213,1,89,2|2,0:0|0:0,0:0:0:0:
123,218,91015,2,0,L|126:169,1,44.5,2|2,0:0|0:0,0:0:0:0:
163,60,91215,6,0,L|165:104,1,44.5,2|2,3:2|0:0,0:0:0:0:
204,172,91415,1,2,0:0:0:0:
212,171,91515,1,2,0:0:0:0:
220,170,91615,2,0,L|283:162,1,44.5,2|2,1:2|0:0,0:0:0:0:
399,76,91815,2,0,L|354:70,1,44.5,2|2,0:0|0:0,0:0:0:0:
282,56,92015,6,0,B|271:76|271:76|290:99,1,44.5,2|0,3:2|0:0,0:0:0:0:
332,209,92215,2,0,P|363:187|330:148,1,89,8|2,0:1|1:2,0:0:0:0:
264,164,92515,1,0,0:0:0:0:
264,164,92615,2,0,P|254:188|253:224,1,44.5,8|0,0:1|0:0,0:0:0:0:
