osu file format v14

[General]
AudioFilename: audio.mp3
AudioLeadIn: 0
PreviewTime: 15
Countdown: 0
SampleSet: Soft
StackLeniency: 0.3
Mode: 0
LetterboxInBreaks: 0
WidescreenStoryboard: 0

[Editor]
DistanceSpacing: 1.3
BeatDivisor: 4
GridSize: 4
TimelineZoom: 1.4

[Metadata]
Title:Hitogata (TV Size)
TitleUnicode:ヒトガタ (TV Size)
Artist:HIMEHINA
ArtistUnicode:HIMEHINA
Creator:Ryuusei Aika
Version:Frey's Insane
Source:バーチャルさんはみている
Tags:VIRTUALSAN-LOOKING Virtual_San_wa_Miteiru ヒメヒナ 田中ヒメ Tanaka Hime 鈴木ヒナ Suzuki Hina ゴゴ 南田健吾 -ClariS- kanor Yugu ak74 Ujimatcha Yusomi Jounzan Evilelvis Beomsan Nasmoeb CoLouRed GlazeE CoLouRed_GlazeE Bossandy Frey Necho Reincarnation z1 z1085684963 Niva tomadoi Shiinoha_Kotone Shiinoha Kotone Trynna Present AngelSnow -Nanako- Starfy Pino -[Pino]- melloe Kalibe appleeaterx irotuk buki Narcissu AIR Taeyang val0108 contagious Rolniczy -nanaka- Firika LMT fuyuyu- Mamayu Kanau Silky semaphore Level9 lv9 papple pappl e 104 pappl_e_104 xLolicore xLolicore- Elsa Valentine ScubDomino jungkyuyoung anime girl Lami moph Len jonathanlfj deetz Shizuku Shizuku- rui 404 Aim Not Found ANF 404_Aim_Not_Found Frontier -_Frontier_- Bariton Regou バーチャル ユーチューバー Youtuber Virtual_YouTuber Vtuber 中田ヤスタカ ミライアカリ 電脳少女シロ 猫宮ひなた 月ノ美兎 夢咲楓 風見涼 桜樹みりあ 道明寺晴翔 シスター・クレア ときのそら ばあちゃる バーチャルゴリラ ピーナッツくん 富士葵 ヤミクモケリン 大鳥こはく バーチャルグランドマザー小林幸子 家長むぎ える 剣持刀也 静凛 樋口楓 物述有栖 カルロ・ピノ 北上双葉 金剛いろは 届木ウカ もちひよこ 阿部大護 横澤大輔 鈴木慎之介 庵野秀明
BeatmapID:1977348
BeatmapSetID:942714

[Difficulty]
HPDrainRate:6
CircleSize:4
OverallDifficulty:8
ApproachRate:9
SliderMultiplier:2
SliderTickRate:1

[Events]
//Background and Video events
0,0,"hinahime.jpg",0,0
Video,-330,"video.avi"
//Break Periods
//Storyboard Layer 0 (Background)
//Storyboard Layer 1 (Fail)
//Storyboard Layer 2 (Pass)
//Storyboard Layer 3 (Foreground)
//Storyboard Sound Samples

[TimingPoints]
15,400,4,2,1,60,1,0
12815,-100,4,2,1,50,0,0
25615,-100,4,2,1,55,0,0
38415,-125,4,2,1,40,0,0
44815,-100,4,2,1,40,0,0
48015,-100,4,2,1,50,0,0
49615,-100,4,2,1,60,0,0
51215,-100,4,2,1,50,0,0
51815,-100,4,2,1,50,0,0
52415,-200,4,2,1,50,0,0
52815,-100,4,2,1,70,0,0
58015,-83.3333333333333,4,2,1,70,0,0
58315,-83.3333333333333,4,2,1,5,0,0
58415,-71.4285714285714,4,2,1,70,0,0
58715,-71.4285714285714,4,2,1,5,0,0
58815,-83.3333333333333,4,2,1,70,0,0
59215,-100,4,2,1,70,0,0
64415,-83.3333333333333,4,2,1,70,0,0
64715,-83.3333333333333,4,2,1,5,0,0
64815,-71.4285714285714,4,2,1,70,0,0
65115,-71.4285714285714,4,2,1,5,0,0
65215,-83.3333333333333,4,2,1,70,0,0
65615,-100,4,2,1,70,0,0
80815,-100,4,2,1,75,0,0
81615,-100,4,2,1,80,0,0
82415,-100,4,2,1,75,0,0
83215,-100,4,2,1,60,0,0
87215,-100,4,2,1,65,0,0
88015,-100,4,2,1,70,0,0
88815,-100,4,2,1,75,0,0
89615,-100,4,2,1,80,0,0
90415,-100,4,2,1,85,0,0
91215,-100,4,2,1,90,0,0
92015,-100,4,2,1,95,0,0
93215,-100,4,2,1,20,0,0

[Colours]
Combo1 : 218,14,77
Combo2 : 11,72,174

[HitObjects]
432,96,15,6,0,P|458:192|432:288,1,200,2|8,2:1|2:1,0:0:0:0:
167,239,815,2,0,P|155:191|166:143,1,100,2|0,2:1|0:0,0:0:0:0:
345,143,1115,2,0,P|356:191|344:240,1,100,2|0,0:0|0:0,0:0:0:0:
256,292,1415,1,2,0:0:0:0:
256,192,1615,6,0,L|256:68,1,100,2|2,2:1|0:0,0:0:0:0:
168,44,2015,2,0,P|112:46|64:44,1,100,2|0,0:0|0:0,0:0:0:0:
344,44,2415,1,2,2:1:0:0:
396,172,2615,1,8,2:1:0:0:
116,172,2815,1,2,2:1:0:0:
168,44,3015,1,8,2:1:0:0:
256,152,3215,6,0,B|284:252|228:252|256:352,1,200,2|8,2:1|2:1,0:0:0:0:
122,155,4015,2,0,L|161:63,1,100,2|0,2:1|0:0,0:0:0:0:
350,63,4315,2,0,L|389:155,1,100,2|0,0:0|0:0,0:0:0:0:
432,248,4615,1,2,0:0:0:0:
367,323,4815,6,0,P|337:284|331:235,1,100,2|2,2:1|0:0,0:0:0:0:
389,155,5215,2,0,L|504:140,1,100,2|0,0:0|0:0,0:0:0:0:
256,52,5615,1,2,2:1:0:0:
132,120,5815,1,8,2:1:0:0:
132,264,6015,1,2,2:1:0:0:
256,332,6215,1,8,2:1:0:0:
379,192,6415,6,0,P|408:96|380:0,1,200,2|2,3:2|1:2,0:0:0:0:
112,48,7215,2,0,P|102:96|112:148,1,100,2|0,3:2|0:0,0:0:0:0:
225,340,7515,2,0,L|246:242,1,100,2|0,0:0|0:0,0:0:0:0:
266,142,7815,1,2,0:0:0:0:
344,208,8015,6,0,P|416:188|448:160,1,100,2|2,3:3|0:0,0:0:0:0:
168,176,8415,2,0,P|96:196|64:224,1,100,2|0,1:2|0:0,0:0:0:0:
324,308,8815,1,2,3:2:0:0:
188,76,9015,1,8,2:1:0:0:
372,124,9215,1,2,3:2:0:0:
140,260,9415,1,8,2:1:0:0:
16,176,9615,6,0,L|43:374,1,200,2|2,3:2|1:2,0:0:0:0:
348,228,10415,2,0,L|334:128,1,100,2|0,3:2|0:0,0:0:0:0:
164,156,10715,2,0,L|177:255,1,100,2|0,0:0|0:0,0:0:0:0:
192,356,11015,6,0,P|281:352|264:264,1,200,2|2,0:0|0:0,0:0:0:0:
100,316,11615,1,2,0:0:0:0:
100,316,12015,5,2,0:0:0:0:
412,316,12215,1,2,0:0:0:0:
84,216,12415,1,8,0:3:0:0:
428,216,12615,1,4,0:3:0:0:
296,344,12815,6,0,P|264:308|256:252,1,100,0|0,3:1|0:0,0:0:0:0:
216,40,13215,2,0,P|248:76|256:132,1,100,0|0,1:0|0:0,0:0:0:0:
40,312,13615,1,0,3:1:0:0:
12,164,13815,1,0,0:0:0:0:
92,224,14015,2,0,L|220:200,1,100,0|0,1:0|0:0,0:0:0:0:
420,160,14415,6,0,L|292:184,1,100,0|0,3:1|0:0,0:0:0:0:
256,104,14815,1,0,1:0:0:0:
356,84,15015,1,0,0:0:0:0:
468,248,15215,2,0,P|516:193|510:120,1,150,10|10,3:2|0:2,0:0:0:0:
448,44,15615,1,0,1:0:0:0:
321,179,15815,1,10,0:2:0:0:
468,248,16015,6,0,P|449:194|432:128,1,100,0|0,3:1|0:0,0:0:0:0:
256,32,16415,1,0,1:0:0:0:
184,104,16615,1,0,0:0:0:0:
256,176,16815,1,0,3:1:0:0:
328,104,17015,1,0,0:0:0:0:
99,56,17215,2,0,P|84:102|98:149,1,100,0|0,1:0|0:0,0:0:0:0:
413,149,17615,6,0,P|427:102|412:56,1,100,0|0,3:1|0:0,0:0:0:0:
256,104,18015,1,0,1:0:0:0:
256,280,18215,1,0,0:0:0:0:
64,364,18415,2,0,L|44:216,1,150,10|10,3:2|0:2,0:0:0:0:
144,200,18815,2,0,L|160:316,1,100,0|10,1:0|0:2,0:0:0:0:
355,299,19215,5,0,3:1:0:0:
369,198,19415,1,0,0:0:0:0:
120,68,19615,1,0,1:0:0:0:
200,128,19815,1,0,0:0:0:0:
392,68,20015,1,0,3:1:0:0:
312,128,20215,1,0,0:0:0:0:
207,20,20415,2,0,P|256:8|304:20,1,100,0|0,1:0|0:0,0:0:0:0:
255,192,20815,6,0,P|164:224|68:192,1,200,0|0,3:1|1:0,0:0:0:0:
0,120,21415,1,0,0:0:0:0:
28,324,21615,2,0,L|180:304,1,150,10|10,3:2|0:2,0:0:0:0:
276,292,22015,1,0,1:0:0:0:
376,280,22215,1,10,0:2:0:0:
484,148,22415,6,0,L|368:132,1,100,0|0,3:1|0:0,0:0:0:0:
284,120,22815,1,0,1:0:0:0:
184,108,23015,1,0,0:0:0:0:
244,28,23215,1,0,3:1:0:0:
384,134,23415,1,0,0:0:0:0:
256,289,23615,2,0,P|228:248|223:199,1,100,0|0,1:0|0:0,0:0:0:0:
493,231,24015,6,0,P|469:300|403:332,1,150,0|0,3:1|0:0,0:0:0:0:
393,233,24415,2,0,L|381:105,1,100,0|0,1:0|0:0,0:0:0:0:
134,83,24815,2,0,L|118:243,1,150,10|10,3:2|0:2,0:0:0:0:
59,315,25215,2,0,P|26:279|16:231,1,100,0|10,1:0|0:2,0:0:0:0:
192,0,25615,6,0,P|225:36|234:85,1,100,0|0,3:1|0:0,0:0:0:0:
116,232,26015,1,0,1:0:0:0:
60,148,26215,1,0,0:0:0:0:
204,180,26415,2,0,L|328:208,1,100,0|0,3:1|0:0,0:0:0:0:
452,236,26815,1,0,1:0:0:0:
400,324,27015,1,0,0:0:0:0:
372,132,27215,6,0,L|356:24,1,100,0|0,3:1|0:0,0:0:0:0:
155,33,27615,1,0,1:0:0:0:
104,204,27815,1,0,0:0:0:0:
256,304,28015,2,0,P|340:284|372:220,1,150,10|10,3:2|0:2,0:0:0:0:
284,180,28415,1,0,1:0:0:0:
136,312,28615,1,10,0:2:0:0:
28,144,28815,6,0,P|24:92|44:44,1,100,0|0,3:1|0:0,0:0:0:0:
272,144,29215,1,0,1:0:0:0:
240,240,29415,1,0,0:0:0:0:
155,65,29615,2,0,L|172:164,1,100,0|0,3:1|0:0,0:0:0:0:
356,318,30015,2,0,L|340:220,1,100,0|0,1:0|0:0,0:0:0:0:
310,37,30415,5,0,3:1:0:0:
468,48,30615,1,0,0:0:0:0:
507,201,30815,2,0,P|478:240|432:256,1,100,0|0,1:0|0:0,0:0:0:0:
192,324,31215,2,0,L|212:156,1,150,10|10,3:2|0:2,0:0:0:0:
303,209,31615,1,0,1:0:0:0:
285,357,31815,1,10,0:2:0:0:
96,240,32015,5,0,3:1:0:0:
80,140,32215,1,0,0:0:0:0:
256,0,32415,1,0,1:0:0:0:
256,100,32615,1,0,0:0:0:0:
416,240,32815,1,0,3:1:0:0:
432,140,33015,1,0,0:0:0:0:
184,176,33215,2,0,P|157:134|153:85,1,100,0|0,1:0|0:0,0:0:0:0:
359,85,33615,6,0,P|340:172|256:240,1,200,0|0,3:1|1:0,0:0:0:0:
64,132,34215,1,0,0:0:0:0:
115,42,34415,2,0,P|183:12|256:24,1,150,10|10,3:2|0:2,0:0:0:0:
255,123,34815,2,0,P|304:114|339:79,1,100,0|10,1:0|0:2,0:0:0:0:
480,100,35215,6,0,L|512:208,1,100,0|0,3:1|0:0,0:0:0:0:
436,360,35615,2,0,B|344:380|336:312|240:336,1,200,0|0,1:0|3:1,0:0:0:0:
148,380,36215,1,0,0:0:0:0:
47,159,36415,2,0,L|32:268,1,100,0|0,1:0|0:0,0:0:0:0:
136,280,36815,5,0,3:1:0:0:
256,192,37015,1,0,0:0:0:0:
168,72,37215,1,0,1:0:0:0:
48,160,37415,1,0,0:0:0:0:
136,280,37615,2,0,P|224:312|284:288,1,150,10|10,3:2|0:2,0:0:0:0:
356,236,38015,2,0,L|348:100,1,100,0|10,1:0|0:2,0:0:0:0:
164,56,38415,6,0,L|0:44,1,160,2|2,0:1|0:0,0:0:0:0:
80,176,39015,1,0,0:0:0:0:
176,184,39215,2,0,L|335:195,1,160,2|2,0:1|0:0,0:0:0:0:
468,84,39815,1,0,0:0:0:0:
504,172,40015,6,0,P|496:260|448:328,1,160,2|4,0:1|0:1,0:0:0:0:
256,368,40615,1,0,0:0:0:0:
244,272,40815,2,0,L|220:76,1,160,2|2,0:1|0:0,0:0:0:0:
92,180,41415,1,0,0:0:0:0:
4,140,41615,6,0,P|3:217|59:271,1,160,2|2,0:1|0:0,0:0:0:0:
124,88,42215,1,0,0:0:0:0:
204,36,42415,2,0,P|298:26|360:56,1,160,2|2,0:1|0:0,0:0:0:0:
424,124,43015,1,0,0:0:0:0:
436,220,43215,6,0,L|445:299,1,80,2|4,0:1|0:1,0:0:0:0:
256,244,43615,2,0,L|265:323,1,80,4|0,0:1|0:0,0:0:0:0:
76,268,44015,2,0,L|85:347,1,80,2|0,0:1|0:0,0:0:0:0:
180,376,44415,1,2,0:0:0:0:
180,376,44615,1,0,0:0:0:0:
156,180,44815,6,0,L|56:160,1,100,10|0,0:1|0:0,0:0:0:0:
244,16,45215,1,0,3:0:0:0:
344,0,45415,1,0,0:0:0:0:
307,96,45615,2,0,P|262:116|213:112,1,100,0|0,3:0|0:0,0:0:0:0:
444,40,46015,6,0,L|460:164,1,100,8|0,0:1|0:0,0:0:0:0:
292,288,46415,1,10,0:1:0:0:
304,188,46615,1,0,0:0:0:0:
384,247,46815,2,0,P|396:296|383:344,1,100,0|0,3:0|0:0,0:0:0:0:
128,344,47215,2,0,P|115:296|127:247,1,100,0|0,3:0|0:0,0:0:0:0:
256,88,47615,1,8,0:1:0:0:
320,168,47815,1,0,0:0:0:0:
356,72,48015,6,0,L|484:52,1,100,0|0,3:0|0:0,0:0:0:0:
156,72,48415,2,0,L|28:52,1,100,8|0,0:1|0:0,0:0:0:0:
73,196,48815,2,0,L|88:308,1,100,0|0,3:0|0:0,0:0:0:0:
425,295,49215,2,0,L|438:196,1,100,8|0,0:1|0:0,0:0:0:0:
256,144,49615,5,0,3:0:0:0:
256,240,49815,1,0,0:0:0:0:
340,192,50015,1,8,0:1:0:0:
132,64,50215,1,0,0:0:0:0:
380,64,50415,1,8,0:1:0:0:
172,192,50615,1,0,0:0:0:0:
256,0,50815,1,8,0:1:0:0:
256,24,50915,1,0,0:0:0:0:
256,48,51015,1,0,0:0:0:0:
256,72,51115,1,0,0:0:0:0:
256,96,51215,5,0,3:0:0:0:
256,288,51415,1,8,0:1:0:0:
136,240,51615,1,0,1:0:0:0:
88,120,51815,1,8,0:1:0:0:
424,120,52015,1,0,1:0:0:0:
376,240,52215,1,8,0:1:0:0:
220,124,52415,6,0,P|256:132|292:124,1,75,0|0,1:0|0:0,0:0:0:0:
256,32,52815,5,2,3:2:0:0:
104,56,53015,1,2,0:0:0:0:
56,200,53215,2,0,L|72:332,1,100,2|0,1:2|0:0,0:0:0:0:
328,244,53615,2,0,P|256:264|184:244,1,150,2|8,3:2|0:3,0:0:0:0:
143,152,54015,1,0,1:2:0:0:
256,48,54215,1,2,0:0:0:0:
369,152,54415,5,2,3:2:0:0:
256,192,54615,1,2,0:0:0:0:
348,268,54815,2,0,P|408:264|460:224,1,100,2|0,1:2|0:0,0:0:0:0:
164,116,55215,2,0,P|91:122|44:180,1,150,2|8,3:2|0:3,0:0:0:0:
137,211,55615,1,0,1:2:0:0:
256,80,55815,1,2,0:0:0:0:
376,212,56015,6,0,L|364:311,1,100,2|2,3:2|0:0,0:0:0:0:
328,33,56415,1,2,1:2:0:0:
468,52,56615,1,2,0:0:0:0:
136,172,56815,2,0,L|151:44,1,100,2|2,3:2|0:0,0:0:0:0:
184,351,57215,1,2,1:2:0:0:
44,332,57415,1,2,0:0:0:0:
376,172,57615,5,2,3:2:0:0:
376,172,58015,2,0,P|428:104|396:12,1,179.999994506836,2|0,1:2|0:0,0:0:0:0:
228,44,58415,6,0,L|260:268,1,209.999993591309,2|8,3:2|0:3,0:0:0:0:
40,220,58815,6,0,L|158:203,1,119.999996337891,2|2,1:2|0:0,0:0:0:0:
484,152,59215,5,2,3:2:0:0:
448,368,59415,1,2,0:0:0:0:
335,287,59615,2,0,P|332:237|351:191,1,100,2|0,1:2|0:0,0:0:0:0:
176,96,60015,2,0,P|172:170|116:220,1,150,2|8,3:2|0:3,0:0:0:0:
80,128,60415,1,0,1:2:0:0:
200,288,60615,1,2,0:0:0:0:
312,96,60815,5,2,3:2:0:0:
160,136,61015,1,2,0:0:0:0:
352,248,61215,2,0,P|464:264|488:272,1,100,2|0,1:2|0:0,0:0:0:0:
160,136,61615,2,0,P|48:120|-8:104,1,150,2|8,3:2|0:3,0:0:0:0:
72,28,62015,1,0,1:2:0:0:
256,56,62215,1,2,0:0:0:0:
256,280,62415,5,2,3:2:0:0:
168,236,62615,1,2,0:0:0:0:
344,236,62815,1,2,1:2:0:0:
136,332,63015,1,2,0:0:0:0:
375,332,63215,2,0,P|418:306|439:262,1,100,2|2,3:2|0:0,0:0:0:0:
72,262,63615,2,0,P|93:306|135:331,1,100,2|2,1:2|0:0,0:0:0:0:
256,124,64015,1,2,3:2:0:0:
256,124,64415,6,0,L|256:304,1,179.999994506836,2|0,1:2|0:0,0:0:0:0:
362,157,64815,6,0,P|346:57|256:11,1,209.999993591309,2|8,3:2|0:3,0:0:0:0:
100,160,65215,6,0,P|124:232|172:268,1,119.999996337891,2|2,1:2|0:0,0:0:0:0:
357,260,65615,6,0,L|457:244,1,100,2|0,3:2|0:0,0:0:0:0:
504,60,66015,1,0,1:2:0:0:
372,80,66215,1,2,0:0:0:0:
216,264,66415,2,0,P|232:164|244:108,1,150,2|8,3:2|0:3,0:0:0:0:
169,48,66815,1,0,1:2:0:0:
68,192,67015,1,2,0:2:0:0:
169,336,67215,5,2,3:2:0:0:
152,148,67415,1,0,0:0:0:0:
0,256,67615,2,0,P|48:284|96:284,1,100,0|2,1:2|0:2,0:0:0:0:
259,175,68015,2,0,P|336:168|384:112,1,150,2|8,3:2|0:3,0:0:0:0:
288,80,68415,1,0,1:2:0:0:
368,320,68615,1,2,0:2:0:0:
496,196,68815,5,0,3:2:0:0:
380,208,69015,1,2,0:2:0:0:
348,212,69115,1,0,0:0:0:0:
316,216,69215,2,0,L|216:225,1,100,2|0,1:2|0:0,0:0:0:0:
108,60,69615,2,0,P|75:126|86:198,1,150,2|8,3:2|0:3,0:0:0:0:
135,287,70015,1,0,1:2:0:0:
256,384,70215,1,2,0:2:0:0:
376,288,70415,5,0,3:2:0:0:
392,188,70615,1,2,0:2:0:0:
396,156,70715,1,2,0:2:0:0:
400,124,70815,2,0,L|288:108,1,100,2|0,1:2|0:0,0:0:0:0:
318,362,71215,2,0,P|389:381|451:342,1,150,2|8,3:2|0:3,0:0:0:0:
472,244,71615,1,2,1:2:0:0:
272,273,71815,1,2,0:2:0:0:
240,111,72015,6,0,L|220:7,1,100,2|0,3:2|0:0,0:0:0:0:
8,192,72415,1,0,1:2:0:0:
88,88,72615,1,2,0:2:0:0:
136,212,72815,2,0,P|208:244|276:236,1,150,2|8,3:2|0:3,0:0:0:0:
376,212,73215,2,0,P|432:224|476:272,1,100,0|2,1:2|0:2,0:0:0:0:
360,372,73615,5,2,3:2:0:0:
152,372,73815,1,0,0:0:0:0:
308,160,74015,1,0,1:2:0:0:
256,332,74215,1,2,0:2:0:0:
204,160,74415,2,0,P|104:172|60:236,1,150,2|8,3:2|0:3,0:0:0:0:
44,300,74815,1,0,1:2:0:0:
12,112,75015,1,2,0:2:0:0:
200,80,75215,5,0,3:2:0:0:
232,268,75415,1,2,0:2:0:0:
202,272,75515,1,0,0:0:0:0:
172,277,75615,2,0,P|136:212|132:168,1,100,2|0,1:2|0:0,0:0:0:0:
404,44,76015,2,0,P|408:118|379:187,1,150,2|8,3:2|0:3,0:0:0:0:
304,124,76415,2,0,P|256:112|208:124,1,100,0|2,1:2|0:2,0:0:0:0:
40,228,76815,5,0,3:2:0:0:
52,59,77015,1,2,0:2:0:0:
80,75,77115,1,0,0:0:0:0:
108,91,77215,2,0,P|124:131|132:207,1,100,2|0,1:2|0:0,0:0:0:0:
256,368,77615,2,0,P|328:340|368:272,1,150,2|8,3:2|0:3,0:0:0:0:
372,180,78015,1,2,1:2:0:0:
147,280,78215,1,2,0:2:0:0:
64,48,78415,5,2,0:1:0:0:
312,128,78615,1,0,0:0:0:0:
80,188,78815,1,8,0:3:0:0:
216,232,79015,1,0,0:0:0:0:
296,24,79215,5,8,0:3:0:0:
432,68,79415,1,8,0:1:0:0:
200,128,79615,1,2,0:0:0:0:
448,208,79815,1,2,0:0:0:0:
256,372,80015,6,0,P|168:308|168:224,1,200,2|2,3:2|1:2,0:0:0:0:
432,93,80815,2,0,P|382:89|336:72,1,100,2|0,3:2|0:0,0:0:0:0:
336,312,81115,2,0,P|382:294|432:290,1,100
456,192,81415,1,0,0:0:0:0:
356,192,81615,6,0,L|256:192,1,100,2|0,3:2|0:0,0:0:0:0:
168,240,82015,2,0,P|156:192|168:144,1,100,2|0,1:2|0:0,0:0:0:0:
108,324,82415,1,2,3:2:0:0:
256,292,82615,1,8,0:1:0:0:
256,92,82815,1,2,1:2:0:0:
108,60,83015,1,8,0:1:0:0:
256,192,83215,6,0,B|336:180|336:180|372:192|372:192|456:180,1,200,2|2,3:2|1:2,0:0:0:0:
256,352,84015,2,0,L|156:338,1,100,2|0,3:2|0:0,0:0:0:0:
116,192,84315,2,0,P|143:150|143:101,1,100,2|0,0:0|0:0,0:0:0:0:
44,119,84615,1,2,0:0:0:0:
16,216,84815,6,0,L|40:344,1,100,2|2,3:2|0:0,0:0:0:0:
256,264,85215,2,0,L|237:165,1,100,2|0,1:2|0:0,0:0:0:0:
116,56,85615,1,2,3:2:0:0:
148,220,85815,1,2,0:0:0:0:
364,220,86015,1,2,1:2:0:0:
396,56,86215,1,2,0:0:0:0:
256,128,86415,6,0,B|156:92|172:176|60:136,1,200,2|2,3:2|1:2,0:0:0:0:
328,56,87215,2,0,P|352:96|355:148,1,100,2|2,3:2|0:0,0:0:0:0:
183,327,87515,2,0,P|159:285|156:235,1,100,2|2,0:0|0:0,0:0:0:0:
256,256,87815,1,2,0:0:0:0:
328,328,88015,6,0,P|400:312|432:272,1,100,2|2,3:2|0:0,0:0:0:0:
167,135,88415,2,0,P|118:140|78:168,1,100,2|2,1:2|0:0,0:0:0:0:
256,384,88815,1,2,3:2:0:0:
356,235,89015,1,8,2:1:0:0:
256,84,89215,1,2,1:2:0:0:
156,235,89415,1,8,2:1:0:0:
408,324,89615,6,0,P|452:238|411:150,1,200,2|2,3:2|1:2,0:0:0:0:
112,152,90415,2,0,P|92:100|100:48,1,100,2|2,3:2|0:0,0:0:0:0:
316,0,90715,2,0,L|284:104,1,100,2|2,0:0|0:0,0:0:0:0:
256,192,91015,1,2,0:0:0:0:
352,222,91215,6,0,L|448:252,1,100,2|2,3:2|0:0,0:0:0:0:
159,161,91615,2,0,L|64:132,1,100,2|2,1:2|0:0,0:0:0:0:
100,288,92015,1,2,3:2:0:0:
412,288,92215,1,8,0:1:0:0:
256,384,92415,1,2,1:2:0:0:
256,192,92615,2,0,B|261:146|252:140|256:92,1,100,8|0,0:1|0:0,0:0:0:0:
