osu file format v14

[General]
AudioFilename: audio.mp3
AudioLeadIn: 0
PreviewTime: 68426
Countdown: 0
SampleSet: Soft
StackLeniency: 0.3
Mode: 0
LetterboxInBreaks: 0
WidescreenStoryboard: 1

[Editor]
Bookmarks: 7250,13952,27569,41293,54910,68527,82037,88952,95654,111080,124697,131505,134910,141718,146824,160335,167250,173952,187676,201293,214803
DistanceSpacing: 0.1
BeatDivisor: 8
GridSize: 16
TimelineZoom: 2.1

[Metadata]
Title:Heart Pie Dancehall
TitleUnicode:愛包ダンスホール
Artist:HIMEHINA
ArtistUnicode:HIMEHINA
Creator:Petal
Version:pnky's Extra
Source:
Tags:ヒメヒナ 鈴木ヒナ すずき 田中ヒメ たなか 田宮空 アイパイ てつぴっぴ 大山徹也 KEYTONE すずきゆうか マジカルすず 涼木シンジ japanese j-pop pop jpop original full hmhn gohgo vocal ai bai dance hall tanaka hime suzuki hina v-tuber vtuber virtual channel midorijeon koldnoodl cjstmdals dkblaze iredi pnky clammbon primonix matha アイ パイ アイパイ ai pai aipai aibai dance hall
BeatmapID:4475172
BeatmapSetID:2114695

[Difficulty]
HPDrainRate:6
CircleSize:4
OverallDifficulty:8.5
ApproachRate:9.2
SliderMultiplier:2
SliderTickRate:1

[Events]
//Background and Video events
0,0,"BG.jpg",0,0
Video,0,"vid.mp4"
//Break Periods
2,124903,129203
//Storyboard Layer 0 (Background)
//Storyboard Layer 1 (Fail)
//Storyboard Layer 2 (Pass)
//Storyboard Layer 3 (Foreground)
//Storyboard Layer 4 (Overlay)
//Storyboard Sound Samples

[TimingPoints]
448,425.531914893617,4,2,1,50,1,0
448,-166.666666666667,4,2,1,50,0,0
7256,-166.666666666667,4,2,1,60,0,0
7362,-111.111111111111,4,2,1,60,0,0
12256,-90.9090909090909,4,2,1,60,0,0
12575,-76.9230769230769,4,2,1,60,0,0
12894,-66.6666666666667,4,2,1,60,0,0
13213,-55.5555555555556,4,2,1,60,0,0
13533,-66.6666666666667,4,2,1,60,0,0
13745,-83.3333333333333,4,2,1,60,0,0
13958,-62.5,4,2,1,75,0,0
14277,-62.5,4,2,2,75,0,0
14490,-62.5,4,2,1,75,0,0
14703,-62.5,4,2,2,75,0,0
14916,-62.5,4,2,1,75,0,0
15128,-62.5,4,2,2,75,0,0
15235,-62.5,4,2,1,75,0,0
15554,-62.5,4,2,2,75,0,0
15767,-62.5,4,2,1,75,0,0
15979,-62.5,4,2,2,75,0,0
16192,-62.5,4,2,1,75,0,0
16405,-62.5,4,2,3,75,0,0
16618,-62.5,4,2,1,75,0,0
16830,-62.5,4,2,2,75,0,0
17043,-62.5,4,2,1,75,0,0
17681,-62.5,4,2,2,75,0,0
17894,-62.5,4,2,1,75,0,0
18107,-62.5,4,2,2,75,0,0
18320,-62.5,4,2,1,75,0,0
18533,-62.5,4,2,2,75,0,0
18639,-62.5,4,2,1,75,0,0
18958,-62.5,4,2,2,75,0,0
19171,-100,4,2,1,75,0,0
19384,-62.5,4,2,2,75,0,0
19596,-62.5,4,2,1,75,0,0
19809,-62.5,4,2,3,75,0,0
20022,-62.5,4,2,1,75,0,0
20235,-62.5,4,2,2,75,0,0
20341,-62.5,4,2,1,75,0,0
20554,-62.5,4,2,4,75,0,0
20767,-62.5,4,2,1,75,0,0
21085,-62.5,4,2,2,75,0,0
21299,-62.5,4,2,1,75,0,0
21511,-62.5,4,2,2,75,0,0
21724,-62.5,4,2,1,75,0,0
21936,-62.5,4,2,2,75,0,0
22043,-62.5,4,2,1,75,0,0
22362,-62.5,4,2,2,75,0,0
22575,-62.5,4,2,1,75,0,0
22788,-62.5,4,2,2,75,0,0
23001,-62.5,4,2,1,75,0,0
23214,-62.5,4,2,3,75,0,0
23426,-62.5,4,2,1,75,0,0
23639,-62.5,4,2,2,75,0,0
23852,-62.5,4,2,1,75,0,0
24490,-62.5,4,2,2,75,0,0
24702,-62.5,4,2,1,75,0,0
24916,-62.5,4,2,2,75,0,0
25128,-62.5,4,2,1,75,0,0
25340,-62.5,4,2,2,75,0,0
25447,-62.5,4,2,1,75,0,0
25767,-62.5,4,2,2,75,0,0
25979,-100,4,2,1,75,0,0
26192,-62.5,4,2,2,75,0,0
26405,-62.5,4,2,1,75,0,0
26618,-62.5,4,2,3,75,0,0
26830,-62.5,4,2,1,75,0,0
27043,-62.5,4,2,2,75,0,0
27150,-62.5,4,2,1,75,0,0
27575,-62.5,4,2,1,60,0,0
27894,-111.111111111111,4,2,1,60,0,0
34383,-111.111111111111,4,2,2,60,0,0
34490,-111.111111111111,4,2,1,60,0,0
34703,-111.111111111111,4,2,3,60,0,0
34809,-111.111111111111,4,2,1,60,0,0
35128,-111.111111111111,4,2,3,60,0,0
35235,-111.111111111111,4,2,1,60,0,0
35554,-111.111111111111,4,2,5,60,0,0
35660,-111.111111111111,4,2,1,60,0,0
35980,-111.111111111111,4,2,3,60,0,0
36192,-111.111111111111,4,2,1,60,0,0
36830,-111.111111111111,4,2,5,60,0,0
36936,-111.111111111111,4,2,1,60,0,0
37256,-111.111111111111,4,2,3,60,0,0
37362,-111.111111111111,4,2,1,60,0,0
37682,-111.111111111111,4,2,3,60,0,0
37788,-111.111111111111,4,2,1,60,0,0
38107,-111.111111111111,4,2,3,60,0,0
38320,-111.111111111111,4,2,1,60,0,0
38533,-111.111111111111,4,2,3,60,0,0
38745,-111.111111111111,4,2,1,60,0,0
38958,-111.111111111111,4,2,3,60,0,0
39596,-83.3333333333333,4,2,4,60,0,0
39809,-83.3333333333333,4,2,3,60,0,0
39915,-83.3333333333333,4,2,4,60,0,0
40022,-83.3333333333333,4,2,1,60,0,0
40235,-83.3333333333333,4,2,5,60,0,0
40376,-83.3333333333333,4,2,4,60,0,0
40448,-66.6666666666667,4,2,4,60,0,0
40660,-66.6666666666667,4,2,6,60,0,0
40767,-66.6666666666667,4,2,1,60,0,0
41085,-66.6666666666667,4,2,5,60,0,0
41192,-66.6666666666667,4,2,1,60,0,0
41299,-66.6666666666667,4,2,1,70,0,0
41618,-66.6666666666667,4,2,5,70,0,0
41724,-66.6666666666667,4,2,1,70,0,0
41937,-66.6666666666667,4,2,3,70,0,0
42043,-66.6666666666667,4,2,1,70,0,0
42150,-71.4285714285714,4,2,1,70,0,0
42362,-71.4285714285714,4,2,3,70,0,0
42469,-71.4285714285714,4,2,1,70,0,0
42788,-71.4285714285714,4,2,3,70,0,0
42894,-71.4285714285714,4,2,1,70,0,0
43001,-83.3333333333333,4,2,1,70,0,0
43213,-83.3333333333333,4,2,3,70,0,0
43426,-83.3333333333333,4,2,1,70,0,0
43639,-83.3333333333333,4,2,3,70,0,0
43957,-83.3333333333333,4,2,1,70,0,0
44065,-83.3333333333333,4,2,6,70,0,0
44277,-71.4285714285714,4,2,1,70,0,0
44490,-71.4285714285714,4,2,6,70,0,0
44703,-83.3333333333333,4,2,1,70,0,0
44915,-83.3333333333333,4,2,5,70,0,0
45128,-83.3333333333333,4,2,1,70,0,0
45341,-83.3333333333333,4,2,3,70,0,0
45447,-83.3333333333333,4,2,1,70,0,0
45554,-71.4285714285714,4,2,1,70,0,0
45767,-71.4285714285714,4,2,3,70,0,0
45873,-71.4285714285714,4,2,1,70,0,0
46192,-71.4285714285714,4,2,3,70,0,0
46298,-71.4285714285714,4,2,1,70,0,0
46618,-71.4285714285714,4,2,3,70,0,0
46830,-71.4285714285714,4,2,1,70,0,0
47043,-83.3333333333333,4,2,3,70,0,0
47149,-83.3333333333333,4,2,1,70,0,0
47469,-83.3333333333333,4,2,3,70,0,0
47682,-83.3333333333333,4,2,1,70,0,0
47894,-83.3333333333333,4,2,6,70,0,0
48107,-222.222222222222,4,2,1,70,0,0
48533,-55.5555555555556,4,2,1,70,0,0
48852,-55.5555555555556,4,2,5,70,0,0
48958,-55.5555555555556,4,2,1,70,0,0
49171,-55.5555555555556,4,2,5,70,0,0
49384,-50,4,2,1,70,0,0
49703,-50,4,2,5,70,0,0
49809,-83.3333333333333,4,2,1,70,0,0
50022,-83.3333333333333,4,2,3,70,0,0
50235,-58.8235294117647,4,2,1,70,0,0
50447,-58.8235294117647,4,2,3,70,0,0
50554,-58.8235294117647,4,2,1,70,0,0
50873,-83.3333333333333,4,2,3,70,0,0
51086,-83.3333333333333,4,2,1,70,0,0
51299,-111.111111111111,4,2,3,70,0,0
51511,-111.111111111111,4,2,1,70,0,0
51724,-83.3333333333333,4,2,3,70,0,0
51937,-83.3333333333333,4,2,1,70,0,0
52150,-83.3333333333333,4,2,3,70,0,0
52256,-83.3333333333333,4,2,1,70,0,0
52575,-83.3333333333333,4,2,5,70,0,0
52682,-83.3333333333333,4,2,1,70,0,0
53001,-83.3333333333333,4,2,3,70,0,0
53213,-83.3333333333333,4,2,1,70,0,0
53426,-83.3333333333333,4,2,5,70,0,0
53639,-83.3333333333333,4,2,1,70,0,0
53851,-83.3333333333333,4,2,5,70,0,0
53958,-83.3333333333333,4,2,1,70,0,0
54277,-83.3333333333333,4,2,3,70,0,0
54383,-83.3333333333333,4,2,1,70,0,0
54490,-55.5555555555556,4,2,1,70,0,0
54703,-166.666666666667,4,2,3,70,0,0
54916,-166.666666666667,4,2,1,65,0,0
55128,-166.666666666667,4,2,5,65,0,0
55235,-166.666666666667,4,2,1,65,0,0
55341,-66.6666666666667,4,2,1,65,0,0
55554,-66.6666666666667,4,2,3,65,0,0
55660,-66.6666666666667,4,2,1,65,0,0
55873,-66.6666666666667,4,2,2,65,0,0
55979,-66.6666666666667,4,2,5,65,0,0
56085,-66.6666666666667,4,2,1,65,0,0
56405,-66.6666666666667,4,2,3,65,0,0
56830,-66.6666666666667,4,2,5,65,0,0
56937,-66.6666666666667,4,2,1,65,0,0
57256,-66.6666666666667,4,2,3,65,0,0
57362,-66.6666666666667,4,2,1,65,0,0
57575,-66.6666666666667,4,2,2,65,0,0
57682,-66.6666666666667,4,2,3,65,0,0
57788,-66.6666666666667,4,2,1,65,0,0
58001,-66.6666666666667,4,2,2,65,0,0
58107,-133.333333333333,4,2,3,65,0,0
58319,-133.333333333333,4,2,1,65,0,0
58533,-133.333333333333,4,2,5,65,0,0
58639,-133.333333333333,4,2,1,65,0,0
58745,-66.6666666666667,4,2,1,65,0,0
58958,-66.6666666666667,4,2,3,65,0,0
59065,-66.6666666666667,4,2,1,65,0,0
59277,-66.6666666666667,4,2,2,65,0,0
59384,-66.6666666666667,4,2,3,65,0,0
59490,-66.6666666666667,4,2,1,65,0,0
59809,-66.6666666666667,4,2,3,65,0,0
59915,-66.6666666666667,4,2,1,65,0,0
60022,-66.6666666666667,4,2,2,65,0,0
60235,-66.6666666666667,4,2,3,65,0,0
60447,-66.6666666666667,4,2,1,65,0,0
60660,-66.6666666666667,4,2,5,65,0,0
60767,-66.6666666666667,4,2,1,65,0,0
61086,-66.6666666666667,4,2,3,65,0,0
61192,-66.6666666666667,4,2,1,65,0,0
61511,-66.6666666666667,4,2,3,65,0,0
61618,-66.6666666666667,4,2,6,65,0,0
61724,-66.6666666666667,4,2,1,65,0,0
61937,-66.6666666666667,4,2,3,65,0,0
62043,-66.6666666666667,4,2,1,65,0,0
62362,-66.6666666666667,4,2,3,65,0,0
62469,-66.6666666666667,4,2,1,65,0,0
62788,-66.6666666666667,4,2,5,65,0,0
62894,-66.6666666666667,4,2,1,65,0,0
63213,-66.6666666666667,4,2,3,65,0,0
63319,-66.6666666666667,4,2,1,65,0,0
63426,-66.6666666666667,4,2,2,65,0,0
63639,-66.6666666666667,4,2,3,65,0,0
63852,-66.6666666666667,4,2,1,65,0,0
64065,-66.6666666666667,4,2,3,65,0,0
64171,-66.6666666666667,4,2,2,65,0,0
64384,-66.6666666666667,4,2,1,65,0,0
64490,-66.6666666666667,4,2,5,65,0,0
64703,-66.6666666666667,4,2,7,65,0,0
64915,-66.6666666666667,4,2,3,65,0,0
65128,-833.333333333333,4,2,1,65,0,0
66830,-833.333333333333,4,2,1,75,0,0
66937,-133.333333333333,4,2,1,75,0,0
68107,-33.3333333333333,4,2,2,75,0,0
68533,-55.5555555555556,4,2,1,80,0,1
68745,-55.5555555555556,4,2,2,80,0,1
68958,-55.5555555555556,4,2,1,80,0,1
69171,-55.5555555555556,4,2,2,80,0,1
69384,-55.5555555555556,4,2,1,80,0,1
69596,-55.5555555555556,4,2,2,80,0,1
69703,-55.5555555555556,4,2,1,80,0,1
70022,-55.5555555555556,4,2,2,80,0,1
70235,-55.5555555555556,4,2,1,80,0,1
70448,-55.5555555555556,4,2,2,80,0,1
70660,-55.5555555555556,4,2,1,80,0,1
70873,-55.5555555555556,4,2,3,80,0,1
71086,-55.5555555555556,4,2,1,80,0,1
71299,-55.5555555555556,4,2,3,80,0,1
71405,-55.5555555555556,4,2,1,80,0,1
71724,-55.5555555555556,4,2,3,80,0,1
71830,-55.5555555555556,4,2,1,80,0,1
72150,-55.5555555555556,4,2,2,80,0,1
72362,-55.5555555555556,4,2,1,80,0,1
72469,-111.111111111111,4,2,1,80,0,1
72575,-111.111111111111,4,2,2,80,0,1
72682,-111.111111111111,4,2,1,80,0,1
72788,-55.5555555555556,4,2,1,80,0,1
73001,-55.5555555555556,4,2,3,80,0,1
73213,-55.5555555555556,4,2,1,80,0,1
73320,-111.111111111111,4,2,1,80,0,1
73426,-111.111111111111,4,2,2,80,0,1
73532,-111.111111111111,4,2,1,80,0,1
73852,-111.111111111111,4,2,2,80,0,1
74065,-111.111111111111,4,2,1,80,0,1
74277,-111.111111111111,4,2,3,80,0,1
74490,-111.111111111111,4,2,1,80,0,0
74703,-111.111111111111,4,2,2,80,0,0
74916,-111.111111111111,4,2,1,80,0,0
75128,-111.111111111111,4,2,2,80,0,0
75341,-55.5555555555556,4,2,1,80,0,1
75553,-55.5555555555556,4,2,2,80,0,1
75767,-55.5555555555556,4,2,1,80,0,1
75979,-55.5555555555556,4,2,2,80,0,1
76192,-55.5555555555556,4,2,1,80,0,1
76404,-55.5555555555556,4,2,2,80,0,1
76511,-55.5555555555556,4,2,1,80,0,1
76830,-55.5555555555556,4,2,2,80,0,1
77043,-55.5555555555556,4,2,1,80,0,1
77256,-55.5555555555556,4,2,2,80,0,1
77469,-55.5555555555556,4,2,1,80,0,1
77682,-55.5555555555556,4,2,3,80,0,1
77894,-55.5555555555556,4,2,1,80,0,1
78107,-55.5555555555556,4,2,3,80,0,1
78213,-55.5555555555556,4,2,1,80,0,1
78533,-55.5555555555556,4,2,2,80,0,1
78639,-55.5555555555556,4,2,1,80,0,1
78958,-55.5555555555556,4,2,2,80,0,1
79171,-55.5555555555556,4,2,1,80,0,1
79383,-55.5555555555556,4,2,2,80,0,1
79490,-55.5555555555556,4,2,1,80,0,1
79809,-55.5555555555556,4,2,3,80,0,1
80022,-55.5555555555556,4,2,1,80,0,1
80234,-55.5555555555556,4,2,2,80,0,1
80341,-47.6190476190476,4,2,1,80,0,1
80660,-55.5555555555556,4,2,1,80,0,1
80873,-47.6190476190476,4,2,2,80,0,0
81299,-50,4,2,3,80,0,0
81511,-50,4,2,1,80,0,0
81618,-62.5,4,2,1,80,0,0
81830,-83.3333333333333,4,2,1,80,0,0
81936,-83.3333333333333,4,2,2,80,0,0
82043,-55.5555555555556,4,2,1,80,0,1
82362,-55.5555555555556,4,2,2,80,0,1
82575,-62.5,4,2,1,80,0,1
82788,-62.5,4,2,3,80,0,1
82894,-62.5,4,2,1,80,0,1
83213,-62.5,4,2,3,80,0,1
83320,-62.5,4,2,1,80,0,1
83638,-62.5,4,2,2,80,0,1
83745,-62.5,4,2,1,80,0,1
84064,-62.5,4,2,2,80,0,1
84171,-62.5,4,2,1,80,0,1
84490,-62.5,4,2,3,80,0,1
84596,-62.5,4,2,1,80,0,1
84916,-62.5,4,2,3,80,0,1
85022,-62.5,4,2,1,80,0,1
85341,-62.5,4,2,2,80,0,1
85447,-62.5,4,2,1,80,0,1
85767,-62.5,4,2,2,80,0,1
85979,-62.5,4,2,1,80,0,1
86191,-62.5,4,2,3,80,0,1
86299,-62.5,4,2,1,80,0,1
86618,-62.5,4,2,2,80,0,1
86724,-62.5,4,2,1,80,0,1
87043,-62.5,4,2,2,80,0,1
87256,-62.5,4,2,1,80,0,1
87469,-55.5555555555556,4,2,2,80,0,1
87681,-55.5555555555556,4,2,1,80,0,1
87894,-55.5555555555556,4,2,2,80,0,1
88001,-55.5555555555556,4,2,1,80,0,1
88107,-55.5555555555556,4,2,1,80,0,0
88320,-55.5555555555556,4,2,7,80,0,0
88533,-55.5555555555556,4,2,1,80,0,0
88745,-55.5555555555556,4,2,2,80,0,0
88852,-55.5555555555556,4,2,1,80,0,0
88958,-55.5555555555556,4,2,1,80,0,1
89170,-55.5555555555556,4,2,2,80,0,1
89384,-55.5555555555556,4,2,1,80,0,1
89596,-55.5555555555556,4,2,2,80,0,1
89809,-55.5555555555556,4,2,1,80,0,1
90021,-55.5555555555556,4,2,2,80,0,1
90128,-55.5555555555556,4,2,1,80,0,1
90448,-55.5555555555556,4,2,2,80,0,1
90660,-55.5555555555556,4,2,1,80,0,1
90873,-55.5555555555556,4,2,2,80,0,1
91086,-55.5555555555556,4,2,1,80,0,1
91299,-55.5555555555556,4,2,3,80,0,1
91511,-55.5555555555556,4,2,1,80,0,1
91724,-55.5555555555556,4,2,3,80,0,1
91830,-55.5555555555556,4,2,1,80,0,1
92150,-55.5555555555556,4,2,2,80,0,1
92256,-55.5555555555556,4,2,1,80,0,1
92575,-55.5555555555556,4,2,2,80,0,1
92788,-55.5555555555556,4,2,1,80,0,1
93000,-55.5555555555556,4,2,2,80,0,1
93107,-55.5555555555556,4,2,1,80,0,1
93426,-55.5555555555556,4,2,3,80,0,1
93639,-55.5555555555556,4,2,1,80,0,1
93852,-55.5555555555556,4,2,2,80,0,1
93958,-55.5555555555556,4,2,1,80,0,0
94596,-71.4285714285714,4,2,1,80,0,0
95660,-62.5,4,2,1,80,0,0
95979,-62.5,4,2,2,80,0,0
96192,-62.5,4,2,1,80,0,0
96405,-62.5,4,2,3,80,0,0
96618,-62.5,4,2,1,80,0,0
96830,-62.5,4,2,3,80,0,0
97043,-62.5,4,2,1,80,0,0
97256,-62.5,4,2,2,80,0,0
97469,-62.5,4,2,1,80,0,0
97682,-62.5,4,2,2,80,0,0
97788,-62.5,4,2,1,80,0,0
98107,-62.5,4,2,3,80,0,0
98213,-62.5,4,2,1,80,0,0
98533,-62.5,4,2,3,80,0,0
98639,-62.5,4,2,1,80,0,0
98958,-62.5,4,2,2,80,0,0
99065,-62.5,4,2,1,80,0,0
99384,-62.5,4,2,2,80,0,0
99490,-62.5,4,2,1,80,0,0
99809,-62.5,4,2,3,80,0,0
99916,-62.5,4,2,1,80,0,0
100235,-62.5,4,2,3,80,0,0
100341,-62.5,4,2,1,80,0,0
100660,-62.5,4,2,2,80,0,0
100766,-62.5,4,2,1,80,0,0
101086,-62.5,4,2,2,80,0,0
101192,-62.5,4,2,1,80,0,0
101512,-62.5,4,2,3,80,0,0
101618,-62.5,4,2,1,80,0,0
101937,-62.5,4,2,3,80,0,0
102043,-62.5,4,2,1,80,0,0
102362,-62.5,4,2,3,80,0,0
102469,-62.5,4,2,1,80,0,0
102575,-50,4,2,1,80,0,0
102788,-50,4,2,2,80,0,0
102894,-50,4,2,1,80,0,0
103213,-50,4,2,2,80,0,0
103320,-50,4,2,1,80,0,0
103639,-50,4,2,2,80,0,0
103745,-50,4,2,1,80,0,0
104065,-62.5,4,2,2,80,0,0
104171,-62.5,4,2,1,80,0,0
104489,-62.5,4,2,2,80,0,0
104596,-62.5,4,2,1,80,0,0
104915,-62.5,4,2,3,80,0,0
105022,-62.5,4,2,1,80,0,0
105341,-62.5,4,2,2,80,0,0
105448,-62.5,4,2,1,80,0,0
105767,-62.5,4,2,2,80,0,0
105873,-62.5,4,2,1,80,0,0
107043,-100,4,2,1,80,0,0
107256,-66.6666666666667,4,2,1,80,0,0
107469,-33.3333333333333,4,2,1,80,0,0
108533,-57.1428571428571,4,2,1,80,0,0
108745,-33.3333333333333,4,2,1,80,0,0
109170,-33.3333333333333,4,2,4,80,0,0
109384,-133.333333333333,4,2,4,80,0,0
110022,-83.3333333333333,4,2,1,80,0,0
110660,-62.5,4,2,7,80,0,0
110979,-62.5,4,2,1,75,0,0
111298,-62.5,4,2,2,75,0,0
111511,-62.5,4,2,1,75,0,0
111724,-62.5,4,2,2,75,0,0
111937,-62.5,4,2,1,75,0,0
112149,-62.5,4,2,2,75,0,0
112256,-62.5,4,2,1,75,0,0
112575,-62.5,4,2,2,75,0,0
112788,-62.5,4,2,1,75,0,0
113001,-62.5,4,2,2,75,0,0
113213,-62.5,4,2,1,75,0,0
113426,-62.5,4,2,3,75,0,0
113639,-62.5,4,2,1,75,0,0
113852,-62.5,4,2,2,75,0,0
114065,-62.5,4,2,1,75,0,0
114703,-62.5,4,2,2,75,0,0
114916,-62.5,4,2,1,75,0,0
115128,-62.5,4,2,2,75,0,0
115341,-62.5,4,2,1,75,0,0
115553,-62.5,4,2,2,75,0,0
115660,-62.5,4,2,1,75,0,0
115979,-62.5,4,2,2,75,0,0
116192,-100,4,2,1,75,0,0
116405,-62.5,4,2,2,75,0,0
116618,-62.5,4,2,1,75,0,0
116830,-62.5,4,2,3,75,0,0
117043,-62.5,4,2,1,75,0,0
117256,-62.5,4,2,2,75,0,0
117363,-62.5,4,2,1,75,0,0
117575,-62.5,4,2,4,75,0,0
117788,-62.5,4,2,1,75,0,0
118107,-62.5,4,2,2,75,0,0
118320,-62.5,4,2,1,75,0,0
118532,-62.5,4,2,2,75,0,0
118745,-62.5,4,2,1,75,0,0
118958,-62.5,4,2,2,75,0,0
119065,-62.5,4,2,1,75,0,0
119384,-62.5,4,2,2,75,0,0
119596,-62.5,4,2,1,75,0,0
119809,-62.5,4,2,2,75,0,0
120022,-62.5,4,2,1,75,0,0
120235,-62.5,4,2,3,75,0,0
120447,-62.5,4,2,1,75,0,0
120660,-62.5,4,2,2,75,0,0
120873,-62.5,4,2,1,75,0,0
121511,-62.5,4,2,2,75,0,0
121724,-62.5,4,2,1,75,0,0
121937,-62.5,4,2,2,75,0,0
122150,-62.5,4,2,1,75,0,0
122362,-62.5,4,2,2,75,0,0
122469,-62.5,4,2,1,75,0,0
122788,-62.5,4,2,2,75,0,0
123001,-62.5,4,2,1,75,0,0
124703,-62.5,4,2,1,60,0,0
129809,-62.5,4,2,1,65,0,0
129916,-62.5,4,2,4,65,0,0
130447,-62.5,4,2,5,65,0,0
130553,-62.5,4,2,4,65,0,0
130660,-100,4,2,4,65,0,0
130873,-100,4,2,6,65,0,0
130979,-62.5,4,2,2,65,0,0
131085,-62.5,4,2,1,65,0,0
131192,-62.5,4,2,4,65,0,0
131298,-62.5,4,2,5,65,0,0
131404,-62.5,4,2,4,65,0,0
131511,-71.4285714285714,4,2,1,70,0,0
135128,-71.4285714285714,4,2,5,70,0,0
135341,-71.4285714285714,4,2,1,70,0,0
135554,-71.4285714285714,4,2,5,70,0,0
135660,-71.4285714285714,4,2,1,70,0,0
135979,-71.4285714285714,4,2,3,70,0,0
136192,-71.4285714285714,4,2,1,70,0,0
136405,-71.4285714285714,4,2,3,70,0,0
136618,-71.4285714285714,4,2,1,70,0,0
136830,-71.4285714285714,4,2,5,70,0,0
137043,-71.4285714285714,4,2,1,70,0,0
137256,-71.4285714285714,4,2,5,70,0,0
137362,-71.4285714285714,4,2,2,70,0,0
137682,-71.4285714285714,4,2,5,70,0,0
137788,-71.4285714285714,4,2,1,70,0,0
138107,-71.4285714285714,4,2,5,70,0,0
138320,-71.4285714285714,4,2,1,70,0,0
138745,-55.5555555555556,4,2,1,70,0,0
139596,-50,4,2,1,70,0,0
140235,-50,4,2,3,70,0,0
140448,-41.6666666666667,4,2,1,70,0,0
140660,-41.6666666666667,4,2,3,70,0,0
140767,-50,4,2,1,70,0,0
141086,-50,4,2,3,70,0,0
141299,-50,4,2,1,70,0,0
141511,-50,4,2,3,70,0,0
141724,-50,4,2,1,70,0,0
142575,-62.5,4,2,1,70,0,0
143426,-166.666666666666,4,2,1,70,0,0
143852,-133.333333333333,4,2,1,70,0,0
144277,-111.111111111111,4,2,1,70,0,0
144703,-50,4,2,1,70,0,0
145128,-50,4,2,1,75,0,0
145235,-133.333333333333,4,2,1,75,0,0
146405,-33.3333333333333,4,2,2,75,0,0
146830,-55.5555555555556,4,2,1,80,0,1
147042,-55.5555555555556,4,2,2,80,0,1
147256,-55.5555555555556,4,2,1,80,0,1
147469,-55.5555555555556,4,2,2,80,0,1
147682,-55.5555555555556,4,2,1,80,0,1
147894,-55.5555555555556,4,2,2,80,0,1
148001,-55.5555555555556,4,2,1,80,0,1
148320,-55.5555555555556,4,2,2,80,0,1
148533,-55.5555555555556,4,2,1,80,0,1
148745,-55.5555555555556,4,2,2,80,0,1
148958,-55.5555555555556,4,2,1,80,0,1
149171,-55.5555555555556,4,2,3,80,0,1
149384,-55.5555555555556,4,2,1,80,0,1
149596,-55.5555555555556,4,2,3,80,0,1
149703,-55.5555555555556,4,2,1,80,0,1
150021,-55.5555555555556,4,2,3,80,0,1
150128,-55.5555555555556,4,2,1,80,0,1
150448,-55.5555555555556,4,2,2,80,0,1
150660,-55.5555555555556,4,2,1,80,0,1
150767,-111.111111111111,4,2,1,80,0,1
150873,-111.111111111111,4,2,2,80,0,1
150979,-111.111111111111,4,2,1,80,0,1
151086,-55.5555555555556,4,2,1,80,0,1
151299,-55.5555555555556,4,2,3,80,0,1
151511,-55.5555555555556,4,2,1,80,0,1
151618,-111.111111111111,4,2,1,80,0,1
151724,-111.111111111111,4,2,2,80,0,1
151830,-111.111111111111,4,2,1,80,0,1
152150,-111.111111111111,4,2,2,80,0,1
152362,-111.111111111111,4,2,1,80,0,1
152576,-111.111111111111,4,2,3,80,0,1
152788,-111.111111111111,4,2,1,80,0,0
153001,-111.111111111111,4,2,7,80,0,0
153213,-71.4285714285714,4,2,1,80,0,0
153426,-71.4285714285714,4,2,7,80,0,0
153639,-55.5555555555556,4,2,1,80,0,1
153851,-55.5555555555556,4,2,2,80,0,1
154065,-55.5555555555556,4,2,1,80,0,1
154277,-55.5555555555556,4,2,2,80,0,1
154490,-55.5555555555556,4,2,1,80,0,1
154702,-55.5555555555556,4,2,2,80,0,1
154809,-55.5555555555556,4,2,1,80,0,1
155128,-55.5555555555556,4,2,2,80,0,1
155341,-55.5555555555556,4,2,1,80,0,1
155554,-55.5555555555556,4,2,2,80,0,1
155767,-55.5555555555556,4,2,1,80,0,1
155979,-55.5555555555556,4,2,3,80,0,1
156192,-55.5555555555556,4,2,1,80,0,1
156405,-55.5555555555556,4,2,3,80,0,1
156511,-55.5555555555556,4,2,1,80,0,1
156830,-55.5555555555556,4,2,2,80,0,1
156937,-55.5555555555556,4,2,1,80,0,1
157256,-55.5555555555556,4,2,2,80,0,1
157469,-55.5555555555556,4,2,1,80,0,1
157681,-55.5555555555556,4,2,2,80,0,1
157788,-55.5555555555556,4,2,1,80,0,1
158107,-55.5555555555556,4,2,3,80,0,1
158320,-55.5555555555556,4,2,1,80,0,1
158532,-55.5555555555556,4,2,2,80,0,1
158639,-45.4545454545455,4,2,1,80,0,1
158958,-55.5555555555556,4,2,1,80,0,1
159171,-45.4545454545455,4,2,2,80,0,0
159596,-50,4,2,3,80,0,0
159809,-50,4,2,1,80,0,0
159916,-62.5,4,2,1,80,0,0
160128,-83.3333333333333,4,2,1,80,0,0
160234,-83.3333333333333,4,2,2,80,0,0
160341,-55.5555555555556,4,2,1,80,0,1
160660,-55.5555555555556,4,2,2,80,0,1
160873,-62.5,4,2,1,80,0,1
161086,-62.5,4,2,3,80,0,1
161299,-62.5,4,2,1,80,0,1
161511,-62.5,4,2,3,80,0,1
161724,-62.5,4,2,1,80,0,1
161937,-62.5,4,2,2,80,0,1
162150,-55.5555555555556,4,2,1,80,0,1
162362,-55.5555555555556,4,2,2,80,0,1
162575,-55.5555555555556,4,2,1,80,0,1
162788,-55.5555555555556,4,2,3,80,0,1
162894,-55.5555555555556,4,2,1,80,0,1
163213,-62.5,4,2,3,80,0,1
163319,-62.5,4,2,1,80,0,1
163639,-62.5,4,2,2,80,0,1
163745,-62.5,4,2,1,80,0,1
164064,-62.5,4,2,2,80,0,1
164277,-62.5,4,2,1,80,0,1
164489,-62.5,4,2,3,80,0,1
164596,-62.5,4,2,1,80,0,1
164916,-62.5,4,2,2,80,0,1
165022,-62.5,4,2,1,80,0,1
165341,-62.5,4,2,2,80,0,1
165554,-62.5,4,2,1,80,0,1
165767,-62.5,4,2,2,80,0,1
165873,-62.5,4,2,1,80,0,1
166192,-62.5,4,2,3,80,0,1
166299,-62.5,4,2,1,80,0,1
166405,-83.3333333333333,4,2,1,80,0,0
166618,-83.3333333333333,4,2,2,80,0,0
166724,-83.3333333333333,4,2,1,80,0,0
166937,-55.5555555555556,4,2,1,80,0,0
167043,-55.5555555555556,4,2,2,80,0,0
167150,-55.5555555555556,4,2,1,80,0,0
167256,-55.5555555555556,4,2,1,80,0,1
167468,-55.5555555555556,4,2,2,80,0,1
167682,-55.5555555555556,4,2,1,80,0,1
167894,-55.5555555555556,4,2,2,80,0,1
168107,-55.5555555555556,4,2,1,80,0,1
168319,-55.5555555555556,4,2,2,80,0,1
168426,-55.5555555555556,4,2,1,80,0,1
168745,-55.5555555555556,4,2,2,80,0,1
168958,-55.5555555555556,4,2,1,80,0,1
169171,-55.5555555555556,4,2,2,80,0,1
169384,-55.5555555555556,4,2,1,80,0,1
169596,-55.5555555555556,4,2,3,80,0,1
169809,-55.5555555555556,4,2,1,80,0,1
170022,-55.5555555555556,4,2,3,80,0,1
170128,-55.5555555555556,4,2,1,80,0,1
170448,-55.5555555555556,4,2,2,80,0,1
170554,-55.5555555555556,4,2,1,80,0,1
170873,-55.5555555555556,4,2,2,80,0,1
171086,-55.5555555555556,4,2,1,80,0,1
171298,-55.5555555555556,4,2,2,80,0,1
171405,-55.5555555555556,4,2,1,80,0,1
171724,-55.5555555555556,4,2,3,80,0,1
171937,-55.5555555555556,4,2,1,80,0,1
172149,-55.5555555555556,4,2,2,80,0,1
172256,-55.5555555555556,4,2,1,80,0,0
173533,-50,4,2,1,80,0,0
173745,-50,4,2,4,80,0,0
173958,-55.5555555555556,4,2,1,80,0,1
174277,-55.5555555555556,4,2,2,80,0,1
174490,-62.5,4,2,1,80,0,1
174703,-62.5,4,2,3,80,0,1
174809,-62.5,4,2,1,80,0,1
175128,-62.5,4,2,3,80,0,1
175235,-62.5,4,2,1,80,0,1
175554,-62.5,4,2,2,80,0,1
175767,-62.5,4,2,1,80,0,1
175979,-62.5,4,2,2,80,0,1
176086,-62.5,4,2,1,80,0,1
176405,-62.5,4,2,3,80,0,1
176618,-62.5,4,2,1,80,0,1
176830,-62.5,4,2,3,80,0,1
176937,-62.5,4,2,1,80,0,1
177256,-62.5,4,2,2,80,0,1
177362,-62.5,4,2,1,80,0,1
177682,-52.6315789473684,4,2,2,80,0,1
177894,-52.6315789473684,4,2,1,80,0,1
178107,-52.6315789473684,4,2,3,80,0,1
178320,-62.5,4,2,1,80,0,1
178533,-76.9230769230769,4,2,3,80,0,1
178745,-62.5,4,2,1,80,0,1
178958,-76.9230769230769,4,2,2,80,0,1
179171,-52.6315789473684,4,2,1,80,0,1
179384,-52.6315789473684,4,2,2,80,0,1
179490,-52.6315789473684,4,2,1,80,0,1
179809,-52.6315789473684,4,2,3,80,0,1
179916,-52.6315789473684,4,2,1,80,0,1
180022,-52.6315789473684,4,2,1,80,0,0
180235,-52.6315789473684,4,2,3,80,0,0
180448,-52.6315789473684,4,2,1,80,0,0
180660,-66.6666666666667,4,2,7,80,0,0
180873,-71.4285714285714,4,2,1,80,0,1
181192,-71.4285714285714,4,2,2,80,0,1
181299,-50,4,2,1,80,0,1
181618,-50,4,2,2,80,0,1
181724,-55.5555555555556,4,2,1,80,0,1
181937,-55.5555555555556,4,2,2,80,0,1
182043,-55.5555555555556,4,2,1,80,0,1
182362,-55.5555555555556,4,2,2,80,0,1
182575,-55.5555555555556,4,2,1,80,0,1
182788,-55.5555555555556,4,2,2,80,0,1
183001,-55.5555555555556,4,2,1,80,0,1
183214,-55.5555555555556,4,2,3,80,0,1
183426,-55.5555555555556,4,2,1,80,0,1
183639,-55.5555555555556,4,2,2,80,0,1
183852,-55.5555555555556,4,2,1,80,0,1
184065,-55.5555555555556,4,2,2,80,0,1
184277,-50,4,2,1,80,0,1
184489,-50,4,2,2,80,0,1
184703,-50,4,2,1,80,0,1
184916,-50,4,2,3,80,0,1
185128,-50,4,2,1,80,0,1
185341,-50,4,2,3,80,0,1
185554,-50,4,2,1,80,0,1
185766,-50,4,2,2,80,0,1
185873,-50,4,2,1,80,0,1
186405,-66.6666666666667,4,2,2,80,0,0
186830,-66.6666666666667,4,2,1,80,0,0
187575,-52.6315789473684,4,2,1,80,0,1
187894,-52.6315789473684,4,2,2,80,0,1
188107,-52.6315789473684,4,2,1,80,0,1
188320,-52.6315789473684,4,2,2,80,0,1
188533,-52.6315789473684,4,2,1,80,0,1
188745,-52.6315789473684,4,2,2,80,0,1
188852,-52.6315789473684,4,2,1,80,0,1
189171,-52.6315789473684,4,2,2,80,0,1
189384,-52.6315789473684,4,2,1,80,0,1
189596,-52.6315789473684,4,2,2,80,0,1
189809,-52.6315789473684,4,2,1,80,0,1
190022,-52.6315789473684,4,2,3,80,0,1
190235,-52.6315789473684,4,2,1,80,0,1
190448,-52.6315789473684,4,2,3,80,0,1
190554,-52.6315789473684,4,2,1,80,0,1
190873,-52.6315789473684,4,2,3,80,0,1
190979,-52.6315789473684,4,2,1,80,0,1
191299,-52.6315789473684,4,2,2,80,0,1
191511,-52.6315789473684,4,2,1,80,0,1
191618,-111.111111111111,4,2,1,80,0,1
191724,-111.111111111111,4,2,2,80,0,1
191830,-111.111111111111,4,2,1,80,0,1
191937,-52.6315789473684,4,2,1,80,0,1
192150,-52.6315789473684,4,2,3,80,0,1
192362,-52.6315789473684,4,2,1,80,0,1
192469,-111.111111111111,4,2,1,80,0,1
192575,-111.111111111111,4,2,2,80,0,1
192681,-111.111111111111,4,2,1,80,0,1
193000,-111.111111111111,4,2,2,80,0,1
193213,-111.111111111111,4,2,1,80,0,1
193426,-111.111111111111,4,2,3,80,0,1
193639,-111.111111111111,4,2,1,80,0,0
193852,-111.111111111111,4,2,7,80,0,0
194065,-111.111111111111,4,2,1,80,0,0
194171,-71.4285714285714,4,2,1,80,0,0
194277,-71.4285714285714,4,2,2,80,0,0
194384,-71.4285714285714,4,2,1,80,0,0
194490,-52.6315789473684,4,2,1,80,0,1
195128,-52.6315789473684,4,2,3,80,0,1
195341,-52.6315789473684,4,2,1,80,0,1
195554,-52.6315789473684,4,2,2,80,0,1
195767,-71.4285714285714,4,2,1,80,0,1
196086,-71.4285714285714,4,2,2,80,0,1
196192,-52.6315789473684,4,2,1,80,0,1
196405,-52.6315789473684,4,2,2,80,0,1
196618,-52.6315789473684,4,2,1,80,0,1
196830,-52.6315789473684,4,2,3,80,0,1
196937,-52.6315789473684,4,2,1,80,0,1
197257,-52.6315789473684,4,2,3,80,0,1
197470,-52.6315789473684,4,2,1,80,0,1
197681,-52.6315789473684,4,2,2,80,0,1
197788,-52.6315789473684,4,2,1,80,0,1
198106,-52.6315789473684,4,2,2,80,0,1
198319,-52.6315789473684,4,2,1,80,0,1
198532,-52.6315789473684,4,2,2,80,0,1
198639,-52.6315789473684,4,2,1,80,0,1
198958,-52.6315789473684,4,2,3,80,0,1
199171,-52.6315789473684,4,2,1,80,0,1
199384,-52.6315789473684,4,2,2,80,0,1
199490,-52.6315789473684,4,2,1,80,0,0
200128,-71.4285714285714,4,2,1,80,0,0
201192,-62.5,4,2,1,75,0,0
201511,-62.5,4,2,2,75,0,0
201724,-62.5,4,2,1,75,0,0
201937,-62.5,4,2,2,75,0,0
202150,-62.5,4,2,1,75,0,0
202362,-62.5,4,2,2,75,0,0
202469,-62.5,4,2,1,75,0,0
202788,-62.5,4,2,2,75,0,0
203001,-62.5,4,2,1,75,0,0
203213,-62.5,4,2,2,75,0,0
203426,-62.5,4,2,1,75,0,0
203639,-62.5,4,2,3,75,0,0
203852,-62.5,4,2,1,75,0,0
204065,-62.5,4,2,2,75,0,0
204277,-62.5,4,2,1,75,0,0
204915,-62.5,4,2,2,75,0,0
205128,-62.5,4,2,1,75,0,0
205341,-62.5,4,2,2,75,0,0
205554,-62.5,4,2,1,75,0,0
205767,-62.5,4,2,2,75,0,0
205873,-62.5,4,2,1,75,0,0
206192,-62.5,4,2,2,75,0,0
206405,-62.5,4,2,1,75,0,0
206618,-62.5,4,2,2,75,0,0
206830,-62.5,4,2,1,75,0,0
207043,-62.5,4,2,3,75,0,0
207256,-62.5,4,2,1,75,0,0
207469,-62.5,4,2,2,75,0,0
207575,-62.5,4,2,4,75,0,0
207788,-62.5,4,2,1,75,0,0
208319,-62.5,4,2,2,75,0,0
208533,-62.5,4,2,1,75,0,0
208745,-62.5,4,2,2,75,0,0
208958,-62.5,4,2,1,75,0,0
209170,-62.5,4,2,2,75,0,0
209277,-62.5,4,2,1,75,0,0
209596,-62.5,4,2,2,75,0,0
209809,-62.5,4,2,1,75,0,0
210022,-62.5,4,2,2,75,0,0
210235,-62.5,4,2,1,75,0,0
210448,-62.5,4,2,3,75,0,0
210660,-62.5,4,2,1,75,0,0
210873,-62.5,4,2,2,75,0,0
211086,-62.5,4,2,1,75,0,0
211724,-62.5,4,2,2,75,0,0
211937,-62.5,4,2,1,75,0,0
212150,-62.5,4,2,2,75,0,0
212362,-62.5,4,2,1,75,0,0
212574,-62.5,4,2,2,75,0,0
212682,-62.5,4,2,1,75,0,0
213001,-62.5,4,2,2,75,0,0
213213,-100,4,2,1,75,0,0
213426,-62.5,4,2,2,75,0,0
213639,-62.5,4,2,1,75,0,0
213852,-62.5,4,2,3,75,0,0
214065,-62.5,4,2,1,75,0,0
214277,-62.5,4,2,3,75,0,0
214384,-62.5,4,2,1,75,0,0
214809,-333.333333333333,4,2,1,75,0,0

[Colours]
Combo1 : 175,171,211
Combo2 : 253,169,205
Combo3 : 255,211,207
Combo4 : 248,135,180

[HitObjects]
0,115,448,6,0,L|90:97,1,89.9999972534181,6|0,1:2|2:0,2:0:0:0:
141,35,873,1,2,2:0:0:0:
226,144,1086,5,0,2:0:0:0:
226,144,1192,1,0,2:0:0:0:
226,144,1299,2,0,L|284:132,1,59.9999981689454,2|0,2:0|2:0,2:0:0:0:
340,197,1618,2,0,L|398:185,1,59.9999981689454,2|0,2:0|2:0,2:0:0:0:
398,184,1937,6,0,L|406:148,1,29.9999990844727,2|0,2:0|2:0,2:0:0:0:
464,95,2150,6,0,P|481:119|488:148,1,59.9999981689454,2|2,2:0|2:0,2:0:0:0:
278,255,2575,2,0,P|260:230|253:201,1,59.9999981689454,2|2,2:0|2:0,2:0:0:0:
361,277,3001,1,2,2:0:0:0:
277,347,3213,1,2,2:0:0:0:
277,347,3320,1,2,2:0:0:0:
277,347,3426,2,0,L|199:335,1,59.9999981689454,2|2,2:0|2:0,2:0:0:0:
155,285,3745,5,2,2:0:0:0:
0,328,4065,1,2,2:0:0:0:
47,262,4277,5,2,2:0:0:0:
47,262,4384,1,2,2:0:0:0:
0,158,4596,5,2,2:0:0:0:
193,211,4916,1,2,2:0:0:0:
131,146,5128,5,2,2:0:0:0:
131,146,5235,1,2,2:0:0:0:
282,18,5448,5,2,2:0:0:0:
40,84,5768,1,2,2:0:0:0:
282,18,5979,5,2,2:0:0:0:
40,84,6192,2,0,L|88:71,1,29.9999990844727,2|0,2:0|2:0,2:0:0:0:
201,40,6405,5,2,2:0:0:0:
201,40,6618,1,2,2:0:0:0:
201,40,6830,1,2,2:0:0:0:
498,241,7256,5,2,1:2:0:0:
480,222,7362,2,0,L|382:243,1,89.9999972534181,0|0,1:0|2:0,2:0:0:0:
322,281,7682,2,0,P|313:260|310:237,1,44.999998626709,10|0,2:0|2:0,2:0:0:0:
438,338,7894,1,0,1:0:0:0:
438,338,8001,2,0,L|385:326,1,44.999998626709,0|2,1:0|2:0,2:0:0:0:
325,374,8213,1,0,1:0:0:0:
325,374,8320,2,0,L|272:362,1,44.999998626709,0|2,1:0|2:0,2:0:0:0:
162,239,8533,5,8,2:0:0:0:
166,256,8639,1,8,2:0:0:0:
171,273,8745,1,2,1:2:0:0:
176,290,8852,1,0,1:0:0:0:
128,351,8958,5,2,2:0:0:0:
128,351,9171,2,0,L|83:344,1,44.999998626709,2|0,1:2|2:0,2:0:0:0:
40,244,9384,2,0,L|84:237,1,44.999998626709,10|0,2:0|2:0,2:0:0:0:
128,137,9596,2,0,L|84:130,1,44.999998626709,2|0,1:2|1:0,2:0:0:0:
18,82,9809,5,2,2:0:0:0:
12,68,9915,1,0,1:0:0:0:
56,9,10021,1,2,1:2:0:0:
56,9,10235,6,0,L|100:0,1,44.999998626709,10|10,2:0|2:0,2:0:0:0:
192,84,10448,1,0,1:0:0:0:
207,61,10554,2,0,P|250:61|278:94,1,89.9999972534181,2|0,1:2|1:0,2:0:0:0:
246,166,10873,2,0,L|201:174,1,44.999998626709,2|0,1:2|2:0,2:0:0:0:
137,320,11086,6,0,P|137:276|170:248,1,89.9999972534181,10|0,2:0|1:0,2:0:0:0:
247,290,11405,2,0,P|246:333|213:361,1,89.9999972534181,2|0,1:2|1:0,2:0:0:0:
92,328,11724,2,0,L|137:320,1,44.999998626709,2|0,1:2|2:0,2:0:0:0:
320,211,11937,5,10,2:0:0:0:
317,228,12043,1,10,2:0:0:0:
314,245,12150,1,0,1:0:0:0:
247,290,12256,6,0,L|359:266,1,110.000003356934,2|2,1:2|2:0,2:0:0:0:
368,282,12575,6,0,L|240:309,1,129.999994049073,2|2,1:2|2:0,2:0:0:0:
234,328,12894,6,0,L|380:297,1,150.000005722046,0|2,1:0|2:0,2:0:0:0:
508,259,13213,6,0,L|488:348,1,89.9999972534181,10|0,1:2|2:0,2:0:0:0:
418,125,13426,5,2,2:0:0:0:
418,125,13533,2,0,L|401:198,1,75.0000028610231,2|10,1:2|2:3,2:0:0:0:
326,17,13745,6,0,L|312:75,1,59.9999981689454,4|0,1:3|2:0,2:0:0:0:
236,170,13958,6,0,P|128:175|119:67,1,240,6|2,1:0|2:3,2:0:0:0:
183,9,14384,1,0,2:0:0:0:
183,9,14490,2,0,P|204:36|205:82,1,80,10|0,1:2|2:0,2:0:0:0:
64,230,14703,1,10,2:3:0:0:
64,230,14809,1,8,2:3:0:0:
144,235,14916,6,0,B|114:269|70:260|70:260|26:252|-1:283,1,160,2|6,1:2|2:3,2:0:0:0:
184,315,15235,1,2,2:0:0:0:
184,315,15341,2,0,B|186:337|168:350|168:350|150:364|153:384,1,80,8|0,1:2|2:0,2:0:0:0:
246,248,15554,2,0,B|263:261|261:283|261:283|259:306|276:317,1,80,2|0,2:0|2:0,2:0:0:0:
334,384,15767,6,0,P|365:359|404:357,1,80,2|0,1:2|2:0,2:0:0:0:
498,249,15979,2,0,P|466:224|427:222,1,80,2|0,2:0|2:0,2:0:0:0:
334,384,16192,6,0,P|365:359|404:357,1,80,10|0,1:2|2:0,2:0:0:0:
498,249,16405,2,0,P|466:224|427:222,1,80,10|8,2:3|2:3,2:0:0:0:
357,264,16618,1,2,1:2:0:0:
357,264,16724,1,4,2:3:0:0:
279,227,16830,2,0,P|265:183|265:135,1,80,2|4,2:0|2:3,2:0:0:0:
376,3,17043,1,10,1:2:0:0:
331,93,17150,1,4,2:3:0:0:
331,93,17362,6,0,P|223:71|178:173,1,240,6|2,1:2|2:3,2:0:0:0:
178,173,17788,1,0,2:0:0:0:
136,102,17894,2,0,L|50:88,1,80,10|0,1:2|2:0,2:0:0:0:
2,252,18107,1,10,2:3:0:0:
2,252,18213,1,8,2:3:0:0:
61,198,18320,2,0,L|147:184,1,80,2|0,1:2|2:0,2:0:0:0:
306,260,18533,5,6,2:3:0:0:
251,320,18639,2,0,P|231:285|227:246,1,80,2|8,2:0|1:2,2:0:0:0:
410,353,18852,1,0,2:0:0:0:
410,353,18958,2,0,L|324:339,1,80,2|0,2:0|2:0,2:0:0:0:
172,191,19171,6,0,L|139:185,2,33.3333333333333,2|0|0,1:2|2:0|2:0,2:0:0:0:
227,247,19384,2,0,L|313:233,1,80,2|0,2:0|2:0,2:0:0:0:
364,168,19596,6,0,P|373:129|363:90,1,80,10|0,1:2|2:0,2:0:0:0:
65,145,19809,2,0,P|55:183|64:222,1,80,10|8,2:3|2:3,2:0:0:0:
200,351,20022,5,10,1:3:0:0:
206,328,20128,1,6,2:3:0:0:
142,265,20235,5,2,2:0:0:0:
136,288,20341,1,6,2:3:0:0:
63,338,20447,5,10,2:3:0:0:
135,320,20554,1,6,1:3:0:0:
207,302,20660,1,2,2:0:0:0:
280,284,20767,1,6,1:2:0:0:
339,337,20873,6,0,P|414:331|444:260,1,160,2|2,2:0|2:3,2:0:0:0:
324,185,21192,1,0,2:0:0:0:
367,250,21299,2,0,L|349:167,1,80,10|0,1:2|2:0,2:0:0:0:
422,91,21511,1,10,2:3:0:0:
422,91,21618,1,8,2:3:0:0:
465,156,21724,2,0,L|431:0,1,160,2|6,1:2|2:3,2:0:0:0:
430,0,22043,5,2,2:0:0:0:
422,91,22150,2,0,P|382:89|342:65,1,80,8|0,1:2|2:0,2:0:0:0:
214,0,22362,2,0,P|232:35|231:82,1,80,2|0,2:0|2:0,2:0:0:0:
240,226,22575,6,0,P|261:192|302:169,1,80,2|0,1:2|2:0,2:0:0:0:
158,110,22788,2,0,L|60:93,1,80,2|0,2:0|2:0,2:0:0:0:
240,226,23001,6,0,P|261:192|302:169,1,80,10|0,1:2|2:0,2:0:0:0:
158,110,23214,2,0,L|60:93,1,80,10|8,2:3|2:3,2:0:0:0:
21,40,23426,1,10,1:3:0:0:
21,40,23533,1,4,2:3:0:0:
0,136,23639,2,0,L|98:119,1,80,2|4,2:0|2:3,2:0:0:0:
240,226,23852,1,10,1:2:0:0:
131,186,23958,1,4,2:3:0:0:
131,186,24171,6,0,L|107:344,1,160,6|0,1:2|2:0,2:0:0:0:
111,351,24490,1,2,2:3:0:0:
115,357,24596,1,0,2:0:0:0:
119,363,24702,2,0,L|217:346,1,80,10|0,1:2|2:0,2:0:0:0:
43,209,24916,2,0,L|30:288,1,80,10|8,2:3|2:3,2:0:0:0:
273,383,25128,6,0,P|268:307|202:267,1,160,2|6,1:2|2:3,2:0:0:0:
147,208,25447,1,2,2:0:0:0:
147,208,25554,2,0,P|164:155|193:146,1,80,8|0,1:2|2:0,2:0:0:0:
291,96,25767,2,0,P|251:90|217:70,1,80,2|0,2:0|2:0,2:0:0:0:
58,37,25979,6,0,L|15:48,2,33.3333333333333,2|0|0,1:2|2:0|2:0,2:0:0:0:
133,79,26192,2,0,L|146:-8,1,80,2|0,2:0|2:0,2:0:0:0:
277,216,26405,1,10,1:2:0:0:
277,216,26618,2,0,L|264:129,1,80,10|8,2:3|2:3,2:0:0:0:
392,297,26830,5,10,1:3:0:0:
409,301,26936,1,4,2:3:0:0:
426,305,27043,1,2,2:0:0:0:
487,247,27150,6,0,L|400:263,1,80,10|8,2:0|2:3,2:0:0:0:
259,378,27362,2,0,L|180:363,1,80,6|0,1:3|2:0,2:0:0:0:
56,334,27575,1,6,1:2:0:0:
56,334,27894,6,0,L|49:289,1,44.999998626709,2|0,2:0|2:0,2:0:0:0:
96,227,28107,2,0,L|83:137,1,89.9999972534181,2|2,1:2|2:0,2:0:0:0:
83,137,28426,1,2,2:0:0:0:
12,113,28533,2,0,L|5:68,1,44.999998626709,2|0,1:2|2:0,2:0:0:0:
91,54,28745,2,0,L|84:9,1,44.999998626709,2|2,2:0|2:0,2:0:0:0:
177,191,28958,2,0,L|164:101,1,89.9999972534181,2|2,1:2|2:0,2:0:0:0:
169,109,29277,1,0,2:0:0:0:
174,116,29384,2,0,L|167:71,1,44.999998626709,2|0,1:2|2:0,2:0:0:0:
96,227,29596,2,0,L|89:182,1,44.999998626709,2|2,2:0|2:0,2:0:0:0:
266,316,29809,2,0,L|253:226,1,89.9999972534181,2|2,1:2|2:0,2:0:0:0:
253,226,30128,1,0,2:0:0:0:
373,252,30235,2,0,L|360:162,1,89.9999972534181,2|2,1:2|2:0,2:0:0:0:
274,147,30554,2,0,L|267:102,1,44.999998626709,2|0,2:0|1:0,2:0:0:0:
411,58,30767,2,0,L|404:13,1,44.999998626709,2|0,2:0|2:0,2:0:0:0:
360,163,30979,2,0,L|353:118,1,44.999998626709,2|0,2:0|1:0,2:0:0:0:
353,118,31299,5,2,2:0:0:0:
267,102,31511,1,2,1:2:0:0:
181,86,31724,1,2,2:0:0:0:
197,0,31937,5,2,1:2:0:0:
181,86,32150,1,2,2:0:0:0:
165,172,32362,1,2,1:2:0:0:
149,258,32575,1,2,2:0:0:0:
63,242,32788,5,2,1:2:0:0:
149,258,33001,1,2,2:0:0:0:
235,274,33213,1,2,1:2:0:0:
321,290,33426,2,0,L|333:246,1,44.999998626709,10|8,2:3|2:3,2:0:0:0:
410,222,33639,2,0,P|446:246|454:289,2,89.9999972534181,10|6|2,1:3|2:3|1:2,2:0:0:0:
277,191,34171,1,8,2:3:0:0:
271,169,34277,1,6,2:3:0:0:
265,147,34383,1,8,2:0:0:0:
315,76,34490,5,4,1:2:0:0:
315,76,34703,2,0,L|255:63,1,44.999998626709,2|2,2:0|2:0,2:0:0:0:
184,169,34916,2,0,L|95:149,1,89.9999972534181,2|2,1:2|2:0,2:0:0:0:
265,268,35235,2,0,L|205:255,1,44.999998626709,2|0,2:0|1:0,2:0:0:0:
152,296,35448,2,0,L|92:283,1,44.999998626709,2|2,2:0|2:3,2:0:0:0:
108,286,35660,1,2,2:0:0:0:
216,351,35767,2,0,L|156:338,1,44.999998626709,2|0,1:2|2:0,2:0:0:0:
103,379,35980,2,0,L|43:366,1,44.999998626709,2|0,2:0|2:0,2:0:0:0:
59,369,36192,1,2,1:2:0:0:
152,296,36299,2,0,L|63:276,1,89.9999972534181,2|2,2:0|2:0,2:0:0:0:
64,276,36618,1,0,1:0:0:0:
43,202,36724,2,0,L|-17:189,2,44.999998626709,2|2|2,2:0|2:3|2:0,2:0:0:0:
187,140,37043,2,0,L|127:127,1,44.999998626709,2|2,1:2|2:0,2:0:0:0:
277,233,37256,2,0,L|217:220,1,44.999998626709,2|2,2:0|2:0,2:0:0:0:
367,326,37469,2,0,L|307:313,1,44.999998626709,2|2,1:2|2:0,2:0:0:0:
323,316,37682,1,2,2:0:0:0:
323,316,37788,1,2,2:0:0:0:
266,375,37894,2,0,L|206:362,1,44.999998626709,2|2,1:2|2:0,2:0:0:0:
364,236,38107,5,2,2:0:0:0:
381,310,38320,1,2,1:2:0:0:
398,384,38533,1,2,2:0:0:0:
423,182,38745,5,2,1:2:0:0:
440,256,38958,1,2,2:0:0:0:
457,330,39171,1,0,1:0:0:0:
482,128,39383,5,2,2:0:0:0:
499,202,39596,6,0,L|509:142,1,59.9999981689454,10|10,1:2|2:0,2:0:0:0:
354,118,39809,2,0,L|343:177,1,59.9999981689454,2|10,2:0|2:0,2:0:0:0:
187,152,40022,2,0,L|198:93,1,59.9999981689454,10|2,1:2|2:0,2:0:0:0:
131,42,40235,6,0,L|138:2,2,39.9999987792969,2|0|0,2:3|2:0|2:0,2:0:0:0:
25,137,40448,6,0,P|62:132|95:116,1,75.0000028610231,2|10,1:2|2:0,2:0:0:0:
292,245,40660,1,10,2:3:0:0:
292,245,40767,1,10,2:3:0:0:
224,196,40873,6,0,P|190:179|153:175,2,75.0000028610231,6|10|2,2:3|1:2|2:3,2:0:0:0:
443,329,41192,1,10,2:0:0:0:
354,384,41299,6,0,L|386:143,1,225.000008583069,6|0,1:2|2:0,2:0:0:0:
119,13,41724,1,10,1:2:0:0:
121,24,41830,1,2,2:0:0:0:
123,35,41937,1,2,2:0:0:0:
126,46,42043,1,2,2:0:0:0:
201,69,42150,6,0,P|229:49|263:44,1,69.9999978637696,2|0,1:2|2:0,2:0:0:0:
187,232,42362,1,2,2:0:0:0:
265,257,42469,2,0,P|286:191|262:126,1,139.999995727539,2|0,2:0|2:0,2:0:0:0:
187,232,42788,2,0,P|181:266|192:298,1,69.9999978637696,2|2,2:0|2:0,2:0:0:0:
385,358,43001,6,0,L|325:348,1,59.9999981689454,2|0,1:2|2:0,2:0:0:0:
266,339,43213,2,0,L|326:349,1,59.9999981689454,2|0,2:0|2:0,2:0:0:0:
444,367,43426,2,0,L|367:355,1,59.9999981689454,10|0,1:2|2:0,2:0:0:0:
196,384,43639,5,2,2:0:0:0:
123,345,43745,2,0,P|74:310|15:311,1,119.999996337891,0|0,2:0|2:0,2:0:0:0:
187,232,44065,1,10,2:3:0:0:
187,232,44171,1,8,2:3:0:0:
265,257,44277,2,0,P|271:223|260:191,1,69.9999978637696,10|0,1:2|2:0,2:0:0:0:
92,44,44490,1,6,2:3:0:0:
92,44,44596,1,0,2:0:0:0:
45,108,44703,6,0,L|162:84,1,119.999996337891,2|2,1:2|2:3,2:0:0:0:
498,174,45128,1,10,1:2:0:0:
495,187,45235,1,2,2:0:0:0:
492,200,45341,1,2,2:0:0:0:
490,213,45447,1,2,2:0:0:0:
436,271,45554,6,0,L|367:256,1,69.9999978637696,2|0,1:2|2:0,2:0:0:0:
136,300,45767,1,2,2:0:0:0:
193,361,45873,2,0,P|275:354|309:286,1,139.999995727539,2|0,2:0|2:0,2:0:0:0:
84,236,46192,2,0,P|63:263|55:297,1,69.9999978637696,2|2,2:0|2:0,2:0:0:0:
236,169,46405,5,2,1:2:0:0:
223,92,46618,5,2,2:0:0:0:
210,15,46830,5,10,1:2:0:0:
210,15,47043,6,0,L|201:85,1,59.9999981689454,2|2,2:0|2:0,2:0:0:0:
4,176,47256,5,0,1:0:0:0:
77,156,47362,1,8,2:3:0:0:
88,161,47469,5,2,2:0:0:0:
161,141,47575,1,8,2:3:0:0:
241,205,47682,5,10,1:2:0:0:
238,221,47788,1,8,2:3:0:0:
235,238,47894,1,6,2:3:0:0:
232,256,48001,1,4,2:3:0:0:
276,322,48107,6,0,L|340:307,1,67.4999979400635,2|0,1:2|2:0,2:0:0:0:
252,344,48533,6,0,B|361:320|361:320|424:307|418:357|481:344|481:344|574:324,1,269.999991760254,14|0,1:2|2:0,2:0:0:0:
466,263,48958,5,2,1:2:0:0:
466,263,49171,1,2,2:3:0:0:
362,384,49384,6,0,B|354:349|354:349|340:279|395:286|381:216|381:216|354:95,1,300,14|0,1:2|2:0,2:0:0:0:
361,13,49809,6,0,P|331:15|303:30,1,59.9999981689454,2|0,1:2|2:0,2:0:0:0:
245,92,50022,2,0,P|228:67|201:50,1,59.9999981689454,2|0,2:0|2:0,2:0:0:0:
111,4,50235,6,0,L|134:178,1,170.000003242493,14|2,1:2|2:0,2:0:0:0:
48,188,50554,2,0,L|25:19,1,170.000003242493,6|0,1:2|2:0,2:0:0:0:
25,19,50873,2,0,P|13:46|11:76,1,59.9999981689454,2|0,2:0|2:0,2:0:0:0:
112,259,51086,5,10,1:2:0:0:
112,259,51192,1,0,2:0:0:0:
112,259,51299,2,0,L|162:269,1,44.999998626709,2|0,2:0|2:0,2:0:0:0:
264,384,51511,5,6,1:2:0:0:
261,372,51618,1,2,2:0:0:0:
258,360,51724,2,0,L|326:340,1,59.9999981689454,2|0,2:0|2:0,2:0:0:0:
359,278,51937,2,0,L|427:298,1,59.9999981689454,10|0,1:2|2:0,2:0:0:0:
491,359,52150,1,2,2:0:0:0:
483,349,52256,2,0,L|503:281,1,59.9999981689454,2|0,2:0|1:0,2:0:0:0:
455,224,52469,2,0,L|435:156,1,59.9999981689454,2|2,2:0|2:3,2:0:0:0:
396,36,52682,1,2,2:0:0:0:
343,94,52788,1,10,1:2:0:0:
331,96,52894,1,0,2:0:0:0:
319,98,53001,1,2,2:0:0:0:
307,100,53107,1,0,2:0:0:0:
270,169,53213,6,0,L|211:155,1,59.9999981689454,6|8,1:2|2:0,2:0:0:0:
167,90,53426,2,0,L|108:76,1,59.9999981689454,2|0,2:3|2:0,2:0:0:0:
80,270,53639,2,0,P|136:261|152:207,1,119.999996337891,10|2,1:2|2:3,2:0:0:0:
39,112,53958,6,0,L|9:105,1,29.9999990844727,10|0,2:0|2:0,2:0:0:0:
53,134,54065,2,0,P|67:159|74:189,1,59.9999981689454,0|10,1:0|2:0,2:0:0:0:
235,186,54277,2,0,P|238:215|232:245,1,59.9999981689454,2|2,2:0|2:0,2:0:0:0:
145,370,54490,6,0,P|202:332|268:333,1,134.999995880127,10|0,1:2|2:0,2:0:0:0:
282,341,54703,2,0,L|321:327,1,29.9999990844727,2|0,1:2|2:0,2:0:0:0:
512,169,54916,5,10,2:0:0:0:
512,169,55128,5,2,1:2:0:0:
509,178,55235,1,2,1:2:0:0:
506,187,55341,2,0,L|429:203,1,75.0000028610231,10|0,2:0|1:0,2:0:0:0:
304,81,55554,1,2,1:2:0:0:
274,152,55660,1,2,1:2:0:0:
274,152,55873,5,2,1:2:0:0:
257,138,55979,2,0,L|183:122,1,75.0000028610231,2|2,1:3|2:0,2:0:0:0:
69,251,56192,1,10,2:0:0:0:
141,224,56299,1,0,1:0:0:0:
114,152,56405,1,2,1:2:0:0:
42,179,56511,1,0,2:0:0:0:
42,179,56830,5,2,1:2:0:0:
56,183,56937,1,2,1:2:0:0:
70,187,57043,2,0,L|85:269,1,75.0000028610231,10|0,2:0|1:0,2:0:0:0:
114,384,57256,1,2,1:2:0:0:
142,312,57362,1,2,1:2:0:0:
142,312,57575,5,2,1:2:0:0:
158,325,57682,2,0,L|232:338,1,75.0000028610231,2|2,1:2|2:0,2:0:0:0:
343,226,57894,1,10,2:0:0:0:
366,299,58001,1,2,1:2:0:0:
389,372,58107,2,0,L|463:385,1,75.0000028610231,2|0,1:2|2:0,2:0:0:0:
194,66,58533,5,2,1:2:0:0:
189,80,58639,1,2,1:2:0:0:
184,94,58745,2,0,L|102:112,1,75.0000028610231,10|0,2:0|1:0,2:0:0:0:
9,238,58958,1,2,1:2:0:0:
72,190,59065,1,2,1:2:0:0:
72,190,59277,5,2,1:2:0:0:
96,202,59384,2,0,L|169:185,1,75.0000028610231,2|2,1:2|2:0,2:0:0:0:
223,123,59596,2,0,L|240:50,1,75.0000028610231,10|2,2:0|1:2,2:0:0:0:
265,265,59809,2,0,L|248:338,1,75.0000028610231,2|2,1:2|2:0,2:0:0:0:
305,177,60022,5,2,1:2:0:0:
312,190,60128,1,0,2:0:0:0:
319,203,60235,2,0,L|392:186,1,75.0000028610231,2|0,2:0|1:0,2:0:0:0:
512,69,60447,1,10,2:0:0:0:
440,37,60554,1,2,1:2:0:0:
408,109,60660,1,2,1:3:0:0:
480,141,60767,1,2,1:2:0:0:
480,141,60979,5,2,1:2:0:0:
473,167,61086,2,0,L|490:240,1,75.0000028610231,2|2,1:2|2:0,2:0:0:0:
347,373,61299,1,10,2:0:0:0:
350,358,61405,1,2,1:2:0:0:
353,343,61511,1,10,2:0:0:0:
356,328,61618,1,10,2:0:0:0:
424,286,61724,1,4,1:2:0:0:
69,247,61937,5,2,1:2:0:0:
82,241,62043,1,2,1:2:0:0:
96,235,62150,2,0,L|113:319,1,75.0000028610231,10|2,2:0|1:2,2:0:0:0:
160,183,62362,1,2,1:2:0:0:
81,145,62469,1,2,2:0:0:0:
81,145,62682,5,2,2:0:0:0:
105,124,62788,2,0,L|122:40,1,75.0000028610231,2|2,1:3|2:0,2:0:0:0:
4,119,63001,2,0,P|0:155|14:191,1,75.0000028610231,10|0,2:0|1:0,2:0:0:0:
255,240,63213,2,0,P|259:276|245:312,1,75.0000028610231,2|2,2:0|2:0,2:0:0:0:
113,384,63426,5,2,1:2:0:0:
113,384,63639,2,0,L|190:366,1,75.0000028610231,2|0,1:2|1:0,2:0:0:0:
329,202,63852,2,0,P|306:173|272:159,1,75.0000028610231,10|0,2:0|1:0,2:0:0:0:
326,336,64065,1,2,1:2:0:0:
384,280,64171,1,2,1:2:0:0:
384,280,64384,5,2,1:2:0:0:
408,293,64490,2,0,L|485:275,1,75.0000028610231,2|0,1:3|2:0,2:0:0:0:
249,83,64703,5,10,2:0:0:0:
191,156,64809,2,0,L|114:138,1,75.0000028610231,0|2,1:0|2:0,2:0:0:0:
128,328,65022,5,0,1:0:0:0:
87,257,65128,2,0,L|16:240,1,72.0000017578126,2|0,2:0|2:0,2:0:0:0:
473,126,66830,5,10,1:2:0:0:
342,170,66937,2,0,L|350:131,1,37.5000014305115,10|0,1:2|2:0,2:0:0:0:
273,116,67150,2,0,L|265:152,1,37.5000014305115,10|0,1:2|2:0,2:0:0:0:
342,170,67362,5,10,1:2:0:0:
196,98,67469,2,0,L|188:134,1,37.5000014305115,8|2,1:2|2:0,2:0:0:0:
80,262,67682,6,0,P|113:285|90:252,1,112.500004291535,10|0,1:2|2:0,2:0:0:0:
160,318,68107,6,0,P|32:231|175:284,1,450.000017166138,2|0,2:1|2:0,2:0:0:0:
219,384,68533,6,0,P|289:337|383:343,1,179.999994506836,6|2,1:0|2:3,2:0:0:0:
396,352,68852,1,0,2:0:0:0:
473,331,68958,2,0,P|503:299|501:255,1,89.9999972534181,10|0,1:2|2:0,2:0:0:0:
320,84,69171,1,10,2:3:0:0:
316,101,69277,1,8,2:3:0:0:
312,182,69384,6,0,P|274:103|281:14,1,179.999994506836,2|6,1:2|2:3,2:0:0:0:
363,0,69703,2,0,P|403:79|395:168,1,179.999994506836,2|0,2:0|2:0,2:0:0:0:
236,87,70022,6,0,L|137:69,1,89.9999972534181,2|0,2:0|2:0,2:0:0:0:
17,146,70235,1,2,1:2:0:0:
23,162,70341,1,0,2:0:0:0:
29,178,70448,2,0,P|73:174|105:144,1,89.9999972534181,2|0,2:0|2:0,2:0:0:0:
113,0,70660,2,0,P|77:26|66:69,1,89.9999972534181,10|0,1:2|2:0,2:0:0:0:
181,179,70873,2,0,P|202:217|195:261,1,89.9999972534181,10|8,2:3|2:3,2:0:0:0:
30,339,71086,5,2,1:2:0:0:
47,334,71193,1,8,2:3:0:0:
64,329,71299,1,6,2:3:0:0:
81,324,71405,1,2,2:0:0:0:
148,371,71511,1,10,1:2:0:0:
165,366,71618,1,4,2:3:0:0:
182,361,71724,1,6,2:3:0:0:
199,356,71830,1,2,2:0:0:0:
277,384,71937,6,0,L|291:293,1,89.9999972534181,4|0,1:2|2:0,2:0:0:0:
188,370,72150,2,0,L|202:279,1,89.9999972534181,2|0,2:0|2:0,2:0:0:0:
263,168,72362,5,10,1:2:0:0:
263,168,72469,2,0,L|257:213,1,44.999998626709,2|10,2:0|2:3,2:0:0:0:
290,295,72682,1,10,2:3:0:0:
363,268,72788,6,0,L|377:180,1,89.9999972534181,0|0,1:0|2:0,2:0:0:0:
140,231,73001,2,0,L|154:143,1,89.9999972534181,6|0,2:3|2:0,2:0:0:0:
281,41,73213,5,10,1:2:0:0:
281,41,73320,2,0,L|275:86,2,44.999998626709,2|2|2,2:0|2:3|2:0,2:0:0:0:
353,105,73639,5,4,1:2:0:0:
415,61,73745,1,0,2:0:0:0:
480,101,73852,1,2,2:0:0:0:
467,176,73958,1,0,2:0:0:0:
394,195,74065,5,10,1:2:0:0:
382,269,74170,1,0,2:0:0:0:
446,309,74277,1,10,2:3:0:0:
509,267,74383,1,8,2:3:0:0:
496,192,74490,5,2,1:2:0:0:
61,267,74703,1,2,1:2:0:0:
496,192,74916,5,10,1:0:0:0:
61,267,75128,1,2,1:2:0:0:
409,206,75341,6,0,P|320:199|251:143,1,179.999994506836,6|2,1:2|2:3,2:0:0:0:
249,125,75660,1,0,2:0:0:0:
223,47,75767,2,0,P|183:71|167:111,1,89.9999972534181,10|0,1:2|2:0,2:0:0:0:
84,281,75979,1,10,2:3:0:0:
101,277,76086,1,8,2:3:0:0:
182,287,76192,6,0,P|104:242|15:242,1,179.999994506836,2|6,1:2|2:3,2:0:0:0:
0,325,76511,2,0,P|77:370|166:370,1,179.999994506836,2|0,2:0|2:0,2:0:0:0:
265,271,76830,6,0,P|300:244|345:240,1,89.9999972534181,2|0,2:0|2:0,2:0:0:0:
416,352,77043,1,2,1:2:0:0:
407,368,77150,1,0,2:0:0:0:
398,384,77256,2,0,L|415:280,1,89.9999972534181,2|0,2:0|2:0,2:0:0:0:
355,129,77469,2,0,P|383:162|426:175,1,89.9999972534181,10|0,1:2|2:0,2:0:0:0:
508,50,77682,2,0,P|464:57|431:88,1,89.9999972534181,10|8,2:3|2:3,2:0:0:0:
344,239,77894,1,2,1:2:0:0:
58,53,78107,5,6,2:3:0:0:
98,137,78213,1,2,2:0:0:0:
187,111,78320,5,10,1:2:0:0:
182,128,78426,1,0,2:0:0:0:
178,145,78533,1,2,2:0:0:0:
174,162,78639,1,2,2:0:0:0:
110,219,78745,6,0,L|15:240,1,89.9999972534181,4|0,1:2|2:0,2:0:0:0:
174,320,78958,2,0,L|79:341,1,89.9999972534181,2|0,2:0|2:0,2:0:0:0:
296,195,79171,5,10,1:2:0:0:
279,222,79277,2,0,L|184:243,1,89.9999972534181,2|10,2:0|2:3,2:0:0:0:
435,372,79490,5,10,2:3:0:0:
365,316,79596,2,0,L|270:337,1,89.9999972534181,4|0,1:2|2:0,2:0:0:0:
442,118,79809,2,0,L|347:139,1,89.9999972534181,6|0,2:3|2:0,2:0:0:0:
192,339,80022,5,10,1:2:0:0:
174,320,80128,2,0,L|79:341,1,89.9999972534181,2|2,2:0|2:3,2:0:0:0:
15,293,80341,6,0,P|11:198|106:192,1,209.999993591309,6|10,1:2|2:0,2:0:0:0:
190,195,80660,6,0,L|198:239,1,44.999998626709,10|0,2:0|2:0,2:0:0:0:
206,202,80767,6,0,L|214:246,1,44.999998626709,8|0,2:0|2:0,2:0:0:0:
280,163,80873,6,0,P|315:137|308:69,1,104.999996795654,2|0,1:2|2:0,2:0:0:0:
155,111,81086,2,0,P|152:60|191:27,1,104.999996795654,2|0,1:2|2:0,2:0:0:0:
396,233,81299,6,0,P|349:250|300:245,1,100,10|8,1:3|2:3,2:0:0:0:
463,102,81511,5,2,2:0:0:0:
463,102,81618,2,0,P|440:134|406:154,1,80,6|8,1:3|2:3,2:0:0:0:
404,0,81830,6,0,P|405:30|393:57,1,59.9999981689454,6|2,1:3|2:3,2:0:0:0:
246,315,82043,6,0,P|145:229|13:234,1,269.999991760254,6|2,1:0|2:3,2:0:0:0:
316,384,82575,6,0,L|322:344,1,40,8|0,1:2|2:0,2:0:0:0:
334,379,82788,5,10,2:3:0:0:
340,339,82894,1,10,2:3:0:0:
414,371,83001,6,0,P|481:326|473:232,1,160,2|6,1:2|2:3,2:0:0:0:
358,158,83320,1,2,2:0:0:0:
409,224,83426,2,0,B|363:225|340:186|340:186|316:149|275:150,1,160,10|2,1:2|2:0,2:0:0:0:
187,223,83745,1,2,2:0:0:0:
270,229,83852,6,0,B|239:263|195:254|195:254|152:247|125:279,1,160,2|2,1:2|2:0,2:0:0:0:
184,335,84171,1,2,2:0:0:0:
104,355,84277,2,0,P|70:336|49:302,1,80,10|0,1:2|2:0,2:0:0:0:
84,147,84490,1,10,2:3:0:0:
84,147,84596,2,0,P|84:186|65:221,1,80,10|0,2:3|1:0,2:0:0:0:
0,301,84809,1,2,2:0:0:0:
6,315,84916,1,6,2:3:0:0:
12,329,85022,1,2,2:0:0:0:
79,375,85128,6,0,L|196:347,1,80,10|2,1:2|2:0,2:0:0:0:
272,219,85341,2,0,L|389:191,1,80,2|2,2:0|2:0,2:0:0:0:
484,269,85554,5,6,1:2:0:0:
481,284,85660,1,2,2:0:0:0:
478,299,85767,1,2,2:0:0:0:
475,314,85873,1,0,2:0:0:0:
512,383,85979,2,0,P|460:325|382:318,1,160,10|10,1:2|2:3,2:0:0:0:
197,188,86299,1,10,2:3:0:0:
140,248,86405,6,0,P|100:247|63:231,1,80,4|2,1:2|2:0,2:0:0:0:
164,50,86618,2,0,P|196:73|218:107,1,80,6|2,2:3|2:0,2:0:0:0:
124,266,86830,6,0,P|84:260|49:241,1,80,10|0,1:2|2:0,2:0:0:0:
165,31,87043,2,0,P|200:51|225:83,1,80,2|0,2:0|2:0,2:0:0:0:
306,239,87256,5,6,1:2:0:0:
306,239,87362,1,0,2:0:0:0:
306,239,87469,2,0,L|289:144,1,89.9999972534181,2|0,2:0|2:0,2:0:0:0:
465,308,87681,5,10,1:2:0:0:
487,232,87787,1,2,2:0:0:0:
411,210,87894,1,10,2:3:0:0:
389,286,88001,1,10,2:3:0:0:
438,259,88107,5,10,1:2:0:0:
142,327,88320,1,10,1:2:0:0:
142,327,88533,5,10,1:3:0:0:
210,383,88639,2,0,P|228:342|223:298,1,89.9999972534181,6|2,1:3|2:3,2:0:0:0:
60,158,88852,5,6,1:3:0:0:
27,248,88958,2,0,P|114:251|179:192,1,179.999994506836,6|2,1:2|2:3,2:0:0:0:
183,173,89277,1,0,2:0:0:0:
135,108,89384,2,0,P|220:99|264:172,1,179.999994506836,10|10,1:2|2:3,2:0:0:0:
416,318,89703,1,8,2:3:0:0:
327,236,89809,6,0,P|403:280|492:271,1,179.999994506836,2|6,1:2|2:3,2:0:0:0:
345,153,90128,2,0,P|434:144|511:188,1,179.999994506836,2|0,2:0|2:0,2:0:0:0:
493,76,90448,2,0,P|477:35|434:29,1,89.9999972534181,2|0,2:0|2:0,2:0:0:0:
354,51,90660,5,2,1:2:0:0:
354,51,90873,2,0,L|251:36,1,89.9999972534181,2|0,2:0|2:0,2:0:0:0:
161,114,91086,2,0,L|176:11,1,89.9999972534181,10|0,1:2|2:0,2:0:0:0:
237,218,91299,1,10,2:3:0:0:
237,218,91405,1,8,2:3:0:0:
147,205,91511,2,0,L|44:190,1,89.9999972534181,2|0,1:2|2:0,2:0:0:0:
327,231,91724,1,6,2:3:0:0:
327,231,91830,1,2,2:0:0:0:
237,218,91937,2,0,L|224:307,1,89.9999972534181,10|0,1:2|2:0,2:0:0:0:
31,370,92150,5,2,2:0:0:0:
121,383,92256,2,0,L|133:293,1,89.9999972534181,2|4,2:0|1:2,2:0:0:0:
327,231,92469,1,0,2:0:0:0:
417,244,92575,2,0,L|429:154,1,89.9999972534181,2|0,2:0|2:0,2:0:0:0:
350,52,92788,5,10,1:2:0:0:
350,52,92894,2,0,L|338:142,1,89.9999972534181,2|10,2:0|2:3,2:0:0:0:
132,293,93107,1,10,2:3:0:0:
147,205,93213,1,8,1:3:0:0:
237,218,93320,1,8,2:3:0:0:
237,218,93426,2,0,L|327:230,1,89.9999972534181,6|0,2:3|2:0,2:0:0:0:
76,365,93639,5,10,1:2:0:0:
53,367,93745,1,6,2:3:0:0:
31,370,93852,1,2,2:3:0:0:
9,373,93958,1,2,1:2:0:0:
9,373,94596,6,0,L|15:338,1,34.9999989318848,2|2,2:0|2:0,2:0:0:0:
27,356,94703,2,0,L|40:287,1,69.9999978637696,10|10,2:3|2:3,2:0:0:0:
178,198,94916,2,0,L|184:163,2,34.9999989318848,10|0|0,2:3|2:0|2:0,2:0:0:0:
109,243,95128,5,6,2:3:0:0:
163,304,95235,2,0,P|197:309|225:329,1,69.9999978637696,0|2,1:0|2:0,2:0:0:0:
44,193,95448,2,0,P|70:170|103:161,1,69.9999978637696,2|2,1:2|2:0,2:0:0:0:
333,117,95660,6,0,P|220:138|142:54,1,240,6|2,1:0|2:3,2:0:0:0:
281,195,96086,1,0,2:0:0:0:
340,141,96192,2,0,P|374:121|413:113,1,80,8|0,1:2|2:0,2:0:0:0:
437,26,96405,2,0,P|476:29|512:46,1,80,10|8,2:3|2:3,2:0:0:0:
479,308,96618,2,0,P|440:305|404:288,1,80,2|0,1:2|2:0,2:0:0:0:
504,136,96830,2,0,P|501:175|484:211,1,80,6|0,2:3|2:0,2:0:0:0:
340,141,97043,2,0,P|343:102|360:66,1,80,10|0,1:2|2:0,2:0:0:0:
504,136,97256,2,0,P|501:175|484:211,1,80,2|0,2:0|2:0,2:0:0:0:
298,325,97469,5,2,1:2:0:0:
282,328,97575,1,2,2:0:0:0:
267,331,97682,1,2,2:3:0:0:
251,334,97788,1,2,2:0:0:0:
226,368,97894,5,8,1:2:0:0:
179,302,98001,1,2,2:0:0:0:
226,238,98107,1,10,2:3:0:0:
179,173,98213,1,10,2:3:0:0:
104,276,98320,5,10,1:3:0:0:
179,302,98426,1,10,2:3:0:0:
254,199,98533,5,6,2:3:0:0:
179,173,98639,1,2,2:0:0:0:
93,152,98745,5,10,1:2:0:0:
97,167,98852,1,6,2:3:0:0:
101,182,98958,1,2,2:0:0:0:
104,197,99065,1,2,2:0:0:0:
179,173,99171,6,0,L|262:156,1,80,6|0,1:2|2:0,2:0:0:0:
47,83,99384,2,0,P|20:112|12:151,1,80,2|2,2:0|2:0,2:0:0:0:
260,302,99596,2,0,P|286:272|294:233,1,80,10|0,1:2|2:0,2:0:0:0:
257,156,99809,1,10,2:3:0:0:
257,156,99916,1,10,2:3:0:0:
313,95,100022,6,0,L|396:78,1,80,2|0,1:2|2:0,2:0:0:0:
189,256,100235,2,0,L|110:272,1,80,6|2,2:3|2:0,2:0:0:0:
260,302,100448,6,0,L|343:285,1,80,8|2,1:2|2:0,2:0:0:0:
242,49,100660,2,0,L|159:66,1,80,2|2,2:3|2:0,2:0:0:0:
94,123,100873,5,2,1:2:0:0:
91,138,100979,1,0,2:0:0:0:
88,153,101086,1,2,2:0:0:0:
85,168,101192,1,2,2:0:0:0:
7,255,101299,5,10,1:2:0:0:
10,240,101405,1,2,2:0:0:0:
13,225,101512,1,10,2:3:0:0:
16,210,101618,1,10,2:3:0:0:
85,168,101724,5,2,1:2:0:0:
159,146,101830,1,2,2:0:0:0:
181,220,101937,1,6,2:3:0:0:
107,242,102043,1,2,2:0:0:0:
129,316,102150,5,10,1:2:0:0:
203,294,102256,1,2,2:0:0:0:
181,220,102362,1,6,2:3:0:0:
255,198,102469,1,6,2:3:0:0:
277,272,102575,6,0,L|380:286,1,100,6|0,1:2|2:0,2:0:0:0:
203,294,102788,1,2,2:0:0:0:
203,294,102894,1,2,2:0:0:0:
266,352,103001,2,0,L|369:366,1,100,10|2,1:2|2:0,2:0:0:0:
501,176,103213,5,10,2:3:0:0:
446,238,103320,2,0,P|422:194|423:145,1,100,10|0,2:3|1:0,2:0:0:0:
456,384,103533,2,0,P|472:336|509:304,1,100,2|6,2:0|2:3,2:0:0:0:
442,66,103745,1,2,2:0:0:0:
423,145,103852,2,0,P|379:169|330:168,1,100,10|2,1:2|2:0,2:0:0:0:
272,257,104065,2,0,P|234:243|209:213,1,80,2|2,2:0|2:0,2:0:0:0:
122,227,104277,5,2,1:2:0:0:
112,209,104383,1,0,2:0:0:0:
106,190,104489,1,2,2:0:0:0:
106,170,104596,1,2,2:0:0:0:
164,110,104703,5,10,1:2:0:0:
131,91,104809,1,0,2:0:0:0:
94,88,104915,1,10,2:3:0:0:
60,103,105022,1,10,2:3:0:0:
25,177,105128,5,0,1:0:0:0:
106,190,105235,1,2,2:0:0:0:
135,266,105341,1,6,2:3:0:0:
83,329,105448,1,2,2:0:0:0:
54,253,105554,5,10,1:2:0:0:
60,238,105660,1,2,2:0:0:0:
135,265,105767,2,0,P|168:245|208:240,1,80,2|2,2:0|2:0,2:0:0:0:
359,373,105979,5,6,1:2:0:0:
391,252,106086,1,2,1:2:0:0:
343,354,106299,5,2,1:2:0:0:
368,257,106405,1,10,2:0:0:0:
267,91,106618,5,2,1:2:0:0:
299,212,106724,1,2,1:2:0:0:
290,96,106937,5,2,1:2:0:0:
315,193,107043,2,0,L|327:136,1,50,0|2,2:0|1:2,2:0:0:0:
199,19,107256,6,0,L|183:92,1,75.0000028610231,10|0,2:0|2:0,2:0:0:0:
394,286,107469,6,0,L|424:139,1,150.000005722046,2|2,1:2|2:0,2:0:0:0:
487,11,107682,5,10,1:2:0:0:
361,41,107788,1,10,1:2:0:0:
487,11,108001,5,10,1:2:0:0:
379,56,108213,5,10,1:2:0:0:
480,32,108320,1,8,1:2:0:0:
211,220,108533,6,0,P|201:191|204:222,1,87.500000834465,10|0,1:2|2:0,2:0:0:0:
115,159,108745,6,0,P|303:226|105:188,1,600.000022888185,6|8,1:2|2:0,2:0:0:0:
348,59,109384,6,0,L|356:13,1,37.5000014305115,2|0,1:2|2:0,2:0:0:0:
371,42,110022,6,0,L|376:13,2,29.9999990844727,10|8|8,2:3|2:3|2:3,2:0:0:0:
437,139,110235,1,10,2:3:0:0:
453,134,110341,1,8,2:3:0:0:
415,222,110448,1,6,2:3:0:0:
431,217,110554,1,4,2:3:0:0:
503,259,110660,6,0,P|517:301|425:336,1,160,2|8,1:2|2:0,2:0:0:0:
256,325,110979,1,4,1:0:0:0:
277,249,111086,6,0,P|321:248|326:346,1,160,0|2,2:0|2:3,2:0:0:0:
201,384,111405,1,0,2:0:0:0:
201,384,111511,2,0,P|129:347|86:362,1,80,10|0,1:2|2:0,2:0:0:0:
31,245,111724,1,10,2:3:0:0:
31,245,111830,1,8,2:3:0:0:
52,326,111937,6,0,L|83:149,1,160,2|6,1:2|2:3,2:0:0:0:
134,105,112256,1,2,2:0:0:0:
134,105,112362,2,0,P|102:82|63:85,1,80,8|0,1:2|2:0,2:0:0:0:
220,169,112575,2,0,P|232:131|216:95,1,80,2|0,2:0|2:0,2:0:0:0:
147,275,112788,6,0,L|227:254,1,80,2|0,1:2|2:0,2:0:0:0:
403,116,113001,2,0,L|325:136,1,80,2|0,2:0|2:0,2:0:0:0:
147,275,113213,6,0,L|227:254,1,80,10|0,1:2|2:0,2:0:0:0:
403,116,113426,2,0,L|325:136,1,80,10|8,2:3|2:3,2:0:0:0:
294,212,113639,1,2,1:2:0:0:
294,212,113745,1,4,2:3:0:0:
361,254,113852,2,0,P|384:285|389:325,1,80,2|4,2:0|2:3,2:0:0:0:
234,384,114065,1,10,1:2:0:0:
308,317,114171,1,4,2:3:0:0:
308,317,114384,6,0,L|57:288,1,240,6|2,1:2|2:3,2:0:0:0:
69,289,114809,1,0,2:0:0:0:
10,215,114916,2,0,P|49:195|91:195,1,80,10|0,1:2|2:0,2:0:0:0:
192,138,115128,1,10,2:3:0:0:
192,138,115235,1,8,2:3:0:0:
166,217,115341,6,0,P|129:193|108:156,2,80,2|0|6,1:2|2:0|2:3,2:0:0:0:
256,310,115660,2,0,P|252:221|328:176,1,160,2|0,2:0|2:0,2:0:0:0:
399,113,115979,2,0,L|315:98,1,80,2|0,2:0|2:0,2:0:0:0:
474,244,116192,6,0,L|484:287,2,33.3333333333333,2|0|0,1:2|2:0|2:0,2:0:0:0:
465,211,116405,2,0,L|381:196,1,80,2|0,2:0|2:0,2:0:0:0:
467,42,116618,2,0,L|388:27,1,80,10|0,1:2|2:0,2:0:0:0:
250,152,116830,2,0,P|233:115|235:76,1,80,10|8,2:3|2:3,2:0:0:0:
335,263,117043,5,10,1:3:0:0:
312,271,117150,1,6,2:3:0:0:
244,332,117256,5,2,2:0:0:0:
267,340,117363,1,6,2:3:0:0:
337,384,117469,5,10,2:3:0:0:
311,312,117575,1,6,1:3:0:0:
285,240,117682,1,2,2:0:0:0:
234,314,117788,6,0,B|194:344|194:344|63:315,1,160,6|0,1:2|2:0,2:0:0:0:
8,305,118107,2,0,L|0:217,1,80,2|0,2:3|2:0,2:0:0:0:
156,108,118320,5,10,1:2:0:0:
152,127,118426,1,0,2:0:0:0:
148,147,118532,1,10,2:3:0:0:
144,166,118639,1,8,2:3:0:0:
155,247,118745,2,0,P|106:237|78:212,1,80,2|0,1:2|2:0,2:0:0:0:
236,130,118958,1,6,2:3:0:0:
236,130,119065,2,0,P|251:177|244:214,2,80,2|8|0,2:0|1:2|2:0,2:0:0:0:
95,119,119384,2,0,P|128:81|163:69,1,80,2|0,2:0|2:0,2:0:0:0:
306,79,119596,6,0,L|322:-6,1,80,2|0,1:2|2:0,2:0:0:0:
489,193,119809,2,0,P|471:145|443:121,1,80,2|0,2:0|2:0,2:0:0:0:
306,79,120022,6,0,L|322:-6,1,80,10|0,1:2|2:0,2:0:0:0:
489,193,120235,2,0,P|471:145|443:121,1,80,10|8,2:3|2:3,2:0:0:0:
397,62,120447,1,10,1:3:0:0:
397,62,120554,1,4,2:3:0:0:
306,79,120660,2,0,L|291:157,1,80,2|4,2:0|2:3,2:0:0:0:
421,308,120873,5,10,1:2:0:0:
361,203,120979,1,4,2:3:0:0:
361,203,121192,2,0,L|325:385,1,160,6|0,1:2|2:0,2:0:0:0:
326,352,121511,1,2,2:3:0:0:
322,344,121618,1,0,2:0:0:0:
319,336,121724,2,0,L|221:352,1,80,10|0,1:2|2:0,2:0:0:0:
441,254,121937,2,0,L|425:332,1,80,10|8,2:3|2:3,2:0:0:0:
160,310,122150,6,0,P|137:274|174:146,1,160,2|6,1:2|2:3,2:0:0:0:
303,106,122469,1,2,2:0:0:0:
303,106,122575,2,0,P|265:122|224:119,1,80,8|0,1:2|2:0,2:0:0:0:
168,60,122788,2,0,P|149:24|117:1,1,80,2|0,2:0|2:0,2:0:0:0:
31,180,123001,5,10,1:2:0:0:
149,141,123107,1,10,1:2:0:0:
31,180,123320,1,10,1:2:0:0:
481,180,123533,5,10,1:2:0:0:
363,141,123639,1,10,1:2:0:0:
481,180,123852,1,10,1:2:0:0:
252,16,124065,6,0,P|242:121|268:17,1,320,6|2,1:2|2:0,2:0:0:0:
256,248,124703,5,6,1:2:0:0:
68,150,129809,5,2,1:2:0:0:
70,134,129916,1,10,2:0:0:0:
73,118,130022,1,2,2:0:0:0:
75,102,130128,1,0,2:0:0:0:
145,64,130235,2,0,P|176:39|215:35,1,80,10|2,2:0|2:0,2:0:0:0:
263,236,130447,6,0,P|231:260|192:264,1,80,2|10,2:3|2:0,2:0:0:0:
140,202,130660,2,0,L|151:128,1,50,0|2,1:0|2:0,2:0:0:0:
321,88,130873,5,10,2:3:0:0:
333,168,130979,2,0,L|344:247,1,80,8|6,2:0|2:3,2:0:0:0:
472,378,131192,5,10,1:2:0:0:
474,361,131298,1,2,2:3:0:0:
476,345,131404,1,10,2:0:0:0:
418,286,131511,6,0,B|372:264|336:312|336:312|302:360|256:338,1,186.666660970052,6|0,1:2|2:0,2:0:0:0:
98,384,131937,2,0,P|74:344|80:298,1,93.3333304850261,10|0,1:2|2:0,2:0:0:0:
143,247,132221,1,2,2:0:0:0:
71,146,132362,6,0,P|78:167|84:190,3,46.6666652425131,2|0|0|0,1:2|2:0|2:0|2:0,2:0:0:0:
143,247,132646,2,0,P|164:239|187:233,1,46.6666652425131,2|0,2:0|2:0,2:0:0:0:
244,175,132788,2,0,P|249:129|225:90,2,93.3333304850261,10|0|2,1:2|2:0|2:0,2:0:0:0:
255,327,133213,6,0,P|292:247|380:252,1,186.666660970052,2|2,1:2|2:0,2:0:0:0:
384,349,133639,2,0,P|365:266|282:279,1,186.666660970052,10|2,1:2|2:0,2:0:0:0:
233,380,134065,6,0,P|231:356|224:334,1,46.6666652425131,10|0,1:3|2:0,2:0:0:0:
179,270,134206,2,0,P|155:271|133:278,1,46.6666652425131,8|0,2:3|2:0,2:0:0:0:
69,324,134348,2,0,P|70:347|77:369,1,46.6666652425131,10|0,2:3|2:0,2:0:0:0:
133,277,134490,6,0,P|142:189|68:141,1,186.666660970052,10|6,1:2|2:3,2:0:0:0:
0,95,134916,6,0,P|68:97|122:55,1,139.999995727539,6|2,1:2|2:3,2:0:0:0:
122,55,135235,1,0,2:0:0:0:
199,0,135341,2,0,L|209:76,1,69.9999978637696,10|0,1:2|2:0,2:0:0:0:
219,156,135554,2,0,L|229:232,1,69.9999978637696,2|2,2:3|2:0,2:0:0:0:
239,312,135767,1,0,1:0:0:0:
239,312,135979,6,0,L|315:302,1,69.9999978637696,2|0,2:0|2:0,2:0:0:0:
395,292,136192,2,0,L|385:216,1,69.9999978637696,10|0,1:2|2:0,2:0:0:0:
375,136,136405,2,0,L|365:60,1,69.9999978637696,2|0,2:0|2:0,2:0:0:0:
305,189,136618,5,2,1:2:0:0:
305,189,136724,1,0,2:0:0:0:
305,189,136830,2,0,L|235:198,1,69.9999978637696,2|0,2:3|2:0,2:0:0:0:
116,116,137043,2,0,P|150:118|183:136,1,69.9999978637696,10|0,1:2|2:0,2:0:0:0:
42,279,137256,5,2,2:3:0:0:
45,242,137362,2,0,P|64:213|95:193,1,69.9999978637696,2|0,1:2|2:0,2:0:0:0:
277,292,137575,5,10,1:3:0:0:
201,340,137682,2,0,L|192:270,1,69.9999978637696,2|8,2:3|2:3,2:0:0:0:
291,314,137894,5,10,1:2:0:0:
364,326,138001,1,8,1:3:0:0:
438,338,138107,1,6,1:3:0:0:
512,350,138213,1,4,1:3:0:0:
459,290,138320,5,2,2:0:0:0:
445,294,138426,1,2,2:0:0:0:
431,298,138533,1,2,2:0:0:0:
417,302,138639,1,2,2:0:0:0:
367,373,138745,6,0,B|391:264|391:264|404:201|354:207|367:144|367:144|387:51,1,269.999991760254,6|0,1:2|2:0,2:0:0:0:
500,38,139171,5,2,2:0:0:0:
504,52,139277,1,2,2:0:0:0:
508,66,139384,1,2,2:0:0:0:
512,80,139490,1,2,2:0:0:0:
452,156,139596,6,0,B|338:131|338:131|273:117|279:169|214:156|214:156|118:135,1,300,6|0,1:2|2:0,2:0:0:0:
0,41,140022,6,0,P|37:8|86:11,1,100,6|0,1:2|2:0,2:0:0:0:
26,113,140235,2,0,P|75:115|112:84,1,100,2|0,2:0|2:0,2:0:0:0:
205,10,140448,6,0,P|128:99|129:217,1,239.999992675781,14|2,1:2|2:0,2:0:0:0:
199,363,140767,6,0,P|208:244|109:313,1,300,6|2,1:2|2:0,2:0:0:0:
337,122,141299,6,0,P|349:203|273:170,1,200,10|2,1:2|2:0,2:0:0:0:
445,339,141724,5,6,1:2:0:0:
469,315,141866,5,0,2:0:0:0:
468,282,142008,5,2,2:0:0:0:
442,259,142150,5,10,1:2:0:0:
409,263,142291,5,0,2:0:0:0:
389,291,142433,5,2,2:0:0:0:
370,384,142575,6,0,L|312:373,1,53.3333333333333,2|0,1:2|2:0,2:0:0:0:
302,300,142717,2,0,L|249:309,1,53.3333333333333,10|0,2:3|2:0,2:0:0:0:
211,375,142859,2,0,L|153:364,1,53.3333333333333,10|0,2:3|2:0,2:0:0:0:
296,311,143001,6,0,L|243:320,1,53.3333333333333,10|0,1:2|2:0,2:0:0:0:
203,384,143143,2,0,L|145:373,1,53.3333333333333,4|0,2:3|2:0,2:0:0:0:
128,335,143284,2,0,L|75:344,1,53.3333333333333,6|0,2:3|2:0,2:0:0:0:
36,382,143426,6,0,L|54:278,1,104.999996795654,6|0,1:2|2:0,2:0:0:0:
32,294,143852,6,0,L|54:164,1,131.25000500679,2|0,2:0|2:0,2:0:0:0:
89,208,144277,6,0,L|115:52,1,157.499995193482,2|0,2:0|2:0,2:0:0:0:
101,0,144703,6,0,L|50:295,1,300,2|0,2:0|2:0,2:0:0:0:
36,382,145128,5,10,1:2:0:0:
164,324,145235,2,0,L|174:382,1,37.5000014305115,10|0,1:2|2:0,2:0:0:0:
246,345,145448,2,0,L|239:308,1,37.5000014305115,10|0,1:2|2:0,2:0:0:0:
164,324,145660,5,10,1:2:0:0:
321,329,145767,2,0,L|314:292,1,37.5000014305115,8|2,1:2|2:0,2:0:0:0:
384,164,145980,6,0,P|417:141|394:174,1,112.500004291535,10|0,1:2|2:0,2:0:0:0:
464,108,146405,6,0,P|336:195|479:142,1,450.000017166138,2|0,2:1|2:0,2:0:0:0:
317,69,146830,6,0,P|237:29|148:35,1,179.999994506836,6|2,1:0|2:3,2:0:0:0:
123,49,147150,1,0,2:0:0:0:
67,116,147256,2,0,P|41:79|38:35,1,89.9999972534181,10|0,1:2|2:0,2:0:0:0:
176,198,147469,1,10,2:3:0:0:
181,219,147575,1,8,2:3:0:0:
130,281,147682,6,0,P|130:192|180:116,1,179.999994506836,2|6,1:2|2:3,2:0:0:0:
208,312,148001,2,0,P|257:237|257:149,1,179.999994506836,2|0,2:0|2:0,2:0:0:0:
283,270,148320,2,0,P|315:294|379:294,1,89.9999972534181,2|0,2:0|2:0,2:0:0:0:
485,145,148533,5,2,1:2:0:0:
468,151,148639,1,0,2:0:0:0:
451,157,148745,2,0,L|431:249,1,89.9999972534181,2|0,2:0|2:0,2:0:0:0:
467,384,148958,2,0,P|491:352|491:288,1,89.9999972534181,10|0,1:2|2:0,2:0:0:0:
485,145,149171,2,0,P|453:121|389:121,1,89.9999972534181,10|8,2:3|2:3,2:0:0:0:
234,25,149384,5,2,1:2:0:0:
230,43,149490,1,8,2:3:0:0:
226,61,149596,1,6,2:3:0:0:
222,79,149703,1,2,2:0:0:0:
280,161,149809,1,10,1:2:0:0:
276,179,149915,1,4,2:3:0:0:
272,197,150021,1,6,2:3:0:0:
268,215,150128,1,2,2:0:0:0:
321,287,150235,6,0,P|343:325|345:371,1,89.9999972534181,4|0,1:2|2:0,2:0:0:0:
175,379,150448,2,0,P|219:377|257:354,1,89.9999972534181,2|0,2:0|2:0,2:0:0:0:
418,264,150660,5,10,1:2:0:0:
418,264,150767,2,0,P|438:272|456:286,1,44.999998626709,2|10,2:0|2:3,2:0:0:0:
345,370,150979,1,10,2:3:0:0:
258,354,151086,6,0,P|236:316|234:270,1,89.9999972534181,0|0,1:0|2:0,2:0:0:0:
317,78,151299,2,0,P|339:116|341:162,1,89.9999972534181,6|0,2:3|2:0,2:0:0:0:
173,211,151511,5,10,1:2:0:0:
173,211,151618,2,0,P|153:203|135:189,2,44.999998626709,2|2|2,2:0|2:3|2:0,2:0:0:0:
244,102,151937,5,4,1:2:0:0:
171,120,152043,1,0,2:0:0:0:
108,77,152150,1,2,2:0:0:0:
97,2,152256,1,0,2:0:0:0:
97,2,152362,5,10,1:2:0:0:
161,45,152469,1,0,2:0:0:0:
171,120,152576,1,10,2:3:0:0:
123,179,152682,1,8,2:3:0:0:
47,182,152788,5,10,1:2:0:0:
432,227,153001,1,10,1:2:0:0:
47,182,153213,6,0,L|13:178,2,34.9999989318848,10|0|8,1:0|2:0|2:0,2:0:0:0:
355,218,153426,1,10,1:2:0:0:
355,218,153533,1,8,2:0:0:0:
311,283,153639,6,0,B|298:242|338:202|338:202|378:162|365:122,1,179.999994506836,6|2,1:2|2:3,2:0:0:0:
356,93,153958,1,0,2:0:0:0:
284,54,154065,2,0,P|314:21|357:11,1,89.9999972534181,10|0,1:2|2:0,2:0:0:0:
208,199,154277,1,10,2:3:0:0:
195,183,154384,1,8,2:3:0:0:
110,161,154490,6,0,L|314:130,1,179.999994506836,2|6,1:2|2:3,2:0:0:0:
125,246,154809,2,0,L|302:218,1,179.999994506836,2|0,2:0|2:0,2:0:0:0:
505,362,155128,2,0,P|460:362|424:337,1,89.9999972534181,2|0,2:0|2:0,2:0:0:0:
432,183,155341,5,2,1:2:0:0:
449,188,155448,1,0,2:0:0:0:
466,193,155554,2,0,P|488:231|485:275,1,89.9999972534181,2|0,2:0|2:0,2:0:0:0:
343,361,155767,2,0,P|339:316|361:278,1,89.9999972534181,10|0,1:2|2:0,2:0:0:0:
452,99,155979,2,0,P|407:99|371:124,1,89.9999972534181,10|8,2:3|2:3,2:0:0:0:
219,251,156192,1,2,1:2:0:0:
219,251,156405,6,0,L|234:155,1,89.9999972534181,6|2,2:3|2:0,2:0:0:0:
21,220,156618,2,0,L|36:124,1,89.9999972534181,10|0,1:2|2:0,2:0:0:0:
215,0,156830,1,2,2:0:0:0:
215,0,156937,1,2,2:0:0:0:
199,79,157043,6,0,P|159:99|115:99,1,89.9999972534181,4|0,1:2|2:0,2:0:0:0:
297,220,157256,2,0,P|257:199|233:161,1,89.9999972534181,2|0,2:0|2:0,2:0:0:0:
301,25,157469,5,10,1:2:0:0:
333,19,157575,2,0,P|372:39|396:77,1,89.9999972534181,2|10,2:0|2:3,2:0:0:0:
220,241,157788,5,10,2:3:0:0:
233,162,157894,2,0,P|268:136|313:134,1,89.9999972534181,4|0,1:2|2:0,2:0:0:0:
171,374,158107,6,0,P|151:335|156:291,1,89.9999972534181,6|0,2:3|2:0,2:0:0:0:
297,220,158320,1,10,1:2:0:0:
323,238,158426,2,0,P|342:277|336:321,1,89.9999972534181,2|2,2:0|2:3,2:0:0:0:
234,320,158639,6,0,P|156:247|52:265,1,220.000006713867,6|10,1:2|2:0,2:0:0:0:
137,150,158958,6,0,L|146:91,1,44.999998626709,10|0,2:0|2:0,2:0:0:0:
154,160,159065,2,0,L|163:101,1,44.999998626709,8|0,2:0|2:0,2:0:0:0:
230,190,159171,6,0,P|282:198|325:166,1,110.000003356934,2|0,1:2|2:0,2:0:0:0:
190,40,159384,2,0,P|233:8|286:17,1,110.000003356934,2|0,1:2|2:0,2:0:0:0:
296,24,159544,1,0,2:0:0:0:
305,32,159596,6,0,P|271:69|262:117,1,100,10|8,1:3|2:3,2:0:0:0:
425,241,159809,5,2,2:0:0:0:
425,241,159916,2,0,P|423:202|405:167,1,80,6|8,1:3|2:3,2:0:0:0:
210,179,160128,6,0,P|232:199|260:211,1,59.9999981689454,6|2,1:3|2:3,2:0:0:0:
502,365,160341,6,0,P|405:278|275:300,1,269.999991760254,6|2,1:0|2:3,2:0:0:0:
46,97,160873,6,0,L|55:146,1,40,8|0,1:2|2:0,2:0:0:0:
65,80,161086,5,10,2:3:0:0:
72,119,161192,1,8,2:3:0:0:
43,216,161299,6,0,P|82:212|113:187,1,80,2|0,1:2|2:0,2:0:0:0:
173,98,161511,2,0,P|176:137|201:168,1,80,6|0,2:3|2:0,2:0:0:0:
291,228,161724,2,0,P|251:231|220:256,1,80,10|0,1:2|2:0,2:0:0:0:
161,346,161937,2,0,P|157:306|132:275,1,80,2|0,2:0|2:0,2:0:0:0:
5,370,162150,6,0,P|39:341|83:337,1,89.9999972534181,2|0,1:2|2:0,2:0:0:0:
315,384,162362,2,0,P|286:349|282:305,1,89.9999972534181,2|0,2:0|2:0,2:0:0:0:
329,74,162575,2,0,P|294:102|250:106,1,89.9999972534181,10|0,1:2|2:0,2:0:0:0:
19,60,162788,1,10,2:3:0:0:
19,60,162894,2,0,P|47:94|51:138,1,89.9999972534181,10|0,2:3|1:0,2:0:0:0:
220,255,163107,5,2,2:0:0:0:
220,255,163213,2,0,P|251:230|290:227,1,80,6|2,2:3|2:0,2:0:0:0:
348,169,163426,2,0,P|385:181|409:212,1,80,10|2,1:2|2:0,2:0:0:0:
490,227,163639,2,0,P|500:264|488:302,1,80,2|2,2:0|2:0,2:0:0:0:
321,384,163852,6,0,L|290:226,1,160,6|2,1:2|2:0,2:0:0:0:
348,169,164171,1,0,2:0:0:0:
245,130,164277,6,0,P|316:133|312:62,1,160,10|10,1:2|2:3,2:0:0:0:
183,187,164596,1,10,2:3:0:0:
139,117,164703,6,0,P|102:100|62:99,1,80,4|2,1:2|2:0,2:0:0:0:
167,333,164916,2,0,P|192:302|205:265,1,80,6|2,2:3|2:0,2:0:0:0:
152,32,165128,6,0,P|189:15|229:14,1,80,10|0,1:2|2:0,2:0:0:0:
124,248,165341,2,0,P|99:217|86:180,1,80,2|0,2:0|2:0,2:0:0:0:
296,68,165554,5,6,1:2:0:0:
339,77,165660,1,2,2:0:0:0:
383,86,165767,1,2,2:0:0:0:
426,94,165873,1,2,2:0:0:0:
499,162,165979,5,10,1:2:0:0:
413,180,166086,1,0,2:0:0:0:
327,198,166192,1,10,2:3:0:0:
241,216,166299,1,10,2:3:0:0:
168,284,166405,6,0,L|227:294,1,59.9999981689454,0|2,1:0|2:0,2:0:0:0:
313,312,166618,2,0,L|372:322,1,59.9999981689454,2|2,1:2|2:0,2:0:0:0:
458,340,166830,5,8,1:3:0:0:
458,340,166937,2,0,L|444:244,1,89.9999972534181,6|2,1:3|2:3,2:0:0:0:
216,38,167150,5,6,1:3:0:0:
216,38,167256,2,0,L|241:216,1,179.999994506836,6|2,1:2|2:3,2:0:0:0:
246,243,167575,1,0,2:0:0:0:
317,114,167682,2,0,L|139:139,1,179.999994506836,10|10,1:2|2:3,2:0:0:0:
21,267,168001,1,8,2:3:0:0:
136,227,168107,6,0,P|70:264|67:189,1,179.999994506836,2|6,1:2|2:3,2:0:0:0:
215,361,168426,2,0,P|219:286|285:324,1,179.999994506836,2|0,2:0|2:0,2:0:0:0:
452,377,168745,2,0,P|407:371|370:344,1,89.9999972534181,2|0,2:0|2:0,2:0:0:0:
327,176,168958,5,2,1:2:0:0:
327,176,169171,2,0,P|371:181|409:209,1,89.9999972534181,2|0,2:0|2:0,2:0:0:0:
223,40,169384,2,0,P|219:85|237:126,1,89.9999972534181,10|0,1:2|2:0,2:0:0:0:
171,283,169596,2,0,P|212:264|239:229,1,89.9999972534181,10|8,2:3|2:3,2:0:0:0:
373,14,169809,2,0,P|332:33|305:68,1,89.9999972534181,2|0,1:2|2:0,2:0:0:0:
161,194,170022,1,6,2:3:0:0:
161,194,170128,1,2,2:0:0:0:
83,159,170235,2,0,P|79:114|97:73,1,89.9999972534181,10|0,1:2|2:0,2:0:0:0:
308,287,170448,5,2,2:0:0:0:
238,337,170554,2,0,P|197:317|170:281,1,89.9999972534181,2|4,2:0|1:2,2:0:0:0:
308,287,170767,5,0,2:0:0:0:
308,287,170873,2,0,P|292:244|299:200,1,89.9999972534181,2|0,2:0|2:0,2:0:0:0:
444,372,171086,5,10,1:2:0:0:
393,302,171192,2,0,P|412:261|448:234,1,89.9999972534181,2|10,2:0|2:3,2:0:0:0:
238,337,171405,5,10,2:3:0:0:
238,337,171511,1,8,1:3:0:0:
171,282,171618,1,8,2:3:0:0:
157,368,171724,2,0,L|52:384,1,89.9999972534181,6|0,2:3|2:0,2:0:0:0:
167,56,171937,5,10,1:2:0:0:
167,56,172043,2,0,L|272:40,1,89.9999972534181,6|2,2:3|2:3,2:0:0:0:
400,192,172256,1,2,1:2:0:0:
400,192,173213,5,2,2:0:0:0:
96,315,173426,1,6,2:3:0:0:
150,383,173533,6,0,P|135:286|54:233,1,200,10|2,1:3|1:2,2:0:0:0:
0,166,173958,6,0,P|122:213|239:154,1,269.999991760254,6|2,1:0|2:3,2:0:0:0:
457,355,174490,2,0,P|472:319|471:280,1,80,8|0,1:2|2:0,2:0:0:0:
412,225,174703,1,10,2:3:0:0:
412,225,174809,1,10,2:3:0:0:
339,256,174916,2,0,P|324:292|325:331,1,80,2|0,1:2|2:0,2:0:0:0:
261,384,175128,1,6,2:3:0:0:
261,384,175235,1,2,2:0:0:0:
261,384,175341,2,0,L|167:368,1,80,8|0,1:2|2:0,2:0:0:0:
0,275,175554,2,0,L|78:288,1,80,2|0,2:0|2:0,2:0:0:0:
108,358,175767,5,2,1:2:0:0:
157,295,175873,1,2,2:0:0:0:
126,220,175979,1,2,2:0:0:0:
175,157,176086,1,2,2:0:0:0:
175,157,176192,2,0,L|161:78,1,80,10|0,1:2|2:0,2:0:0:0:
63,17,176405,5,10,2:3:0:0:
7,70,176511,1,8,2:3:0:0:
7,70,176618,2,0,L|21:149,1,80,2|8,1:2|2:3,2:0:0:0:
126,220,176830,1,6,2:3:0:0:
175,157,176937,2,0,P|214:160|249:183,1,80,2|8,2:0|1:2,2:0:0:0:
33,321,177150,2,0,P|72:318|106:295,1,80,6|2,2:3|2:3,2:0:0:0:
248,181,177362,5,2,2:0:0:0:
313,237,177469,2,0,P|332:203|333:162,1,80,6|0,1:2|2:0,2:0:0:0:
478,44,177682,6,0,P|407:43|351:88,1,142.49999619484,2|0,2:0|2:0,2:0:0:0:
410,141,177894,6,0,P|474:166|509:227,1,142.49999619484,10|0,1:2|2:0,2:0:0:0:
364,345,178107,6,0,P|400:285|390:216,1,142.49999619484,10|0,2:3|2:0,2:0:0:0:
313,237,178320,6,0,P|259:279|189:279,1,120,2|0,1:2|2:0,2:0:0:0:
313,237,178533,2,0,P|367:195|420:195,1,97.4999955368044,6|0,2:3|2:0,2:0:0:0:
231,191,178745,6,0,P|167:165|132:104,1,120,10|0,1:2|2:0,2:0:0:0:
231,191,178958,2,0,P|294:216|324:260,1,97.4999955368044,2|0,2:0|2:0,2:0:0:0:
225,96,179171,6,0,P|213:50|222:3,1,94.9999974632264,6|0,1:2|2:0,2:0:0:0:
420,232,179384,1,2,2:0:0:0:
417,250,179490,1,2,2:0:0:0:
414,268,179596,1,10,1:2:0:0:
412,287,179703,1,0,2:0:0:0:
410,305,179809,1,10,2:3:0:0:
408,324,179916,1,10,2:3:0:0:
458,384,180022,5,2,1:2:0:0:
54,272,180235,1,6,1:3:0:0:
458,384,180448,5,10,1:0:0:0:
408,324,180554,1,8,2:0:0:0:
299,372,180660,2,0,L|226:351,1,75.0000028610231,10|8,1:2|2:0,2:0:0:0:
45,187,180873,6,0,P|114:134|126:220,1,209.999993591309,6|0,1:2|2:0,2:0:0:0:
139,239,181299,6,0,P|122:115|21:189,1,300,10|8,1:2|2:3,2:0:0:0:
119,326,181724,2,0,P|163:323|202:299,1,89.9999972534181,2|0,1:2|2:0,2:0:0:0:
310,231,181937,1,6,2:3:0:0:
310,231,182043,2,0,P|289:270|291:316,2,89.9999972534181,2|8|0,2:0|1:2|2:0,2:0:0:0:
382,128,182362,2,0,P|420:151|465:155,1,89.9999972534181,2|0,2:0|2:0,2:0:0:0:
274,60,182575,6,0,P|295:99|293:145,1,89.9999972534181,2|0,1:2|2:0,2:0:0:0:
310,231,182788,2,0,P|289:270|291:316,1,89.9999972534181,2|0,2:0|2:0,2:0:0:0:
211,120,183001,6,0,P|198:162|164:193,1,89.9999972534181,10|0,1:2|2:0,2:0:0:0:
115,266,183214,2,0,P|72:278|41:312,1,89.9999972534181,10|8,2:3|2:3,2:0:0:0:
126,111,183426,5,2,1:2:0:0:
124,102,183533,1,0,2:0:0:0:
122,93,183639,1,6,2:3:0:0:
119,84,183745,1,0,2:0:0:0:
117,75,183852,1,8,1:2:0:0:
114,66,183958,1,0,2:0:0:0:
112,58,184065,1,2,2:3:0:0:
109,49,184171,1,0,2:0:0:0:
12,98,184277,6,0,L|211:120,1,200,6|2,1:2|2:3,2:0:0:0:
95,238,184596,5,0,2:0:0:0:
129,206,184703,2,0,L|228:216,1,100,8|0,1:2|2:0,2:0:0:0:
161,56,184916,5,10,2:3:0:0:
161,56,185022,1,8,2:3:0:0:
211,120,185128,2,0,L|310:130,1,100,6|0,1:2|2:0,2:0:0:0:
274,329,185341,5,6,2:3:0:0:
274,329,185448,1,0,2:0:0:0:
336,262,185554,1,10,1:2:0:0:
336,262,185660,2,0,L|435:272,1,100,0|2,2:0|2:0,2:0:0:0:
89,353,185873,6,0,L|188:363,1,100,6|0,1:2|2:0,2:0:0:0:
388,176,186086,2,0,L|437:181,2,50,8|8|10,2:0|2:0|2:0,2:0:0:0:
311,130,186299,5,10,2:0:0:0:
311,130,186405,2,0,L|303:55,1,75.0000028610231,2|0,1:2|2:0,2:0:0:0:
92,222,186618,2,0,L|84:147,1,75.0000028610231,2|0,1:2|2:0,2:0:0:0:
274,329,186830,5,6,1:2:0:0:
271,304,186936,1,8,2:3:0:0:
268,279,187042,1,10,2:3:0:0:
266,254,187149,1,10,2:3:0:0:
176,211,187256,5,4,1:2:0:0:
178,236,187363,1,6,2:3:0:0:
181,261,187469,1,0,2:0:0:0:
132,340,187575,6,0,P|237:259|383:283,1,284.999992389679,6|2,1:0|2:3,2:0:0:0:
398,297,188001,1,0,2:0:0:0:
446,370,188107,2,0,P|477:335|483:288,1,94.9999974632264,10|0,1:2|2:0,2:0:0:0:
325,110,188320,1,10,2:3:0:0:
303,99,188426,1,8,2:3:0:0:
235,147,188533,6,0,P|329:155|407:104,1,189.999994926453,2|6,1:2|2:3,2:0:0:0:
209,58,188852,2,0,P|288:7|381:16,1,189.999994926453,2|0,2:0|2:0,2:0:0:0:
139,111,189171,2,0,P|122:66|130:18,1,94.9999974632264,2|0,2:0|2:0,2:0:0:0:
211,230,189384,5,2,1:2:0:0:
205,248,189490,1,0,2:0:0:0:
200,266,189596,2,0,L|100:291,1,94.9999974632264,2|0,2:0|2:0,2:0:0:0:
20,217,189809,2,0,L|112:193,1,94.9999974632264,10|0,1:2|2:0,2:0:0:0:
193,361,190022,2,0,L|93:386,1,94.9999974632264,10|8,2:3|2:3,2:0:0:0:
307,195,190235,5,2,1:2:0:0:
301,213,190341,1,8,2:3:0:0:
295,231,190448,1,6,2:3:0:0:
289,249,190554,1,2,2:0:0:0:
358,326,190660,1,10,1:2:0:0:
364,308,190766,1,4,2:3:0:0:
370,290,190873,1,6,2:3:0:0:
376,272,190979,1,2,2:0:0:0:
447,218,191086,6,0,P|446:170|422:128,1,94.9999974632264,4|0,1:2|2:0,2:0:0:0:
352,251,191299,2,0,P|329:209|328:162,1,94.9999974632264,2|0,2:0|2:0,2:0:0:0:
342,41,191511,5,10,1:2:0:0:
342,41,191618,2,0,L|353:84,1,44.999998626709,2|10,2:0|2:3,2:0:0:0:
447,218,191830,1,10,2:3:0:0:
370,194,191937,6,0,P|322:195|280:219,1,94.9999974632264,0|0,1:0|2:0,2:0:0:0:
411,350,192150,2,0,P|369:372|322:373,1,94.9999974632264,6|0,2:3|2:0,2:0:0:0:
126,341,192362,5,10,1:2:0:0:
126,341,192469,2,0,L|169:330,2,44.999998626709,2|2|2,2:0|2:3|2:0,2:0:0:0:
37,384,192788,5,4,1:2:0:0:
10,307,192894,1,0,2:0:0:0:
43,233,193000,1,2,2:0:0:0:
117,201,193107,1,0,2:0:0:0:
194,229,193213,5,10,1:2:0:0:
221,152,193320,1,0,2:0:0:0:
188,78,193426,1,10,2:3:0:0:
114,46,193533,1,8,2:3:0:0:
37,74,193639,5,10,1:2:0:0:
475,74,193852,1,10,1:2:0:0:
100,126,194065,5,8,1:0:0:0:
170,82,194171,2,0,L|181:12,1,69.9999978637696,10|2,1:2|2:3,2:0:0:0:
332,192,194384,5,10,1:2:0:0:
399,311,194490,2,0,P|411:129|261:27,1,379.999989852906,6|8,1:2|1:2,2:0:0:0:
32,221,195128,5,10,2:3:0:0:
32,221,195235,1,8,2:3:0:0:
101,176,195341,2,0,L|115:82,1,94.9999974632264,2|0,1:2|2:0,2:0:0:0:
292,370,195554,1,6,2:3:0:0:
292,370,195660,1,0,2:0:0:0:
292,370,195767,2,0,L|326:141,1,209.999993591309,10|0,1:2|2:0,2:0:0:0:
323,162,196192,6,0,P|287:130|241:120,1,94.9999974632264,2|0,1:2|2:0,2:0:0:0:
355,314,196405,2,0,P|399:298|431:264,1,94.9999974632264,2|0,2:0|2:0,2:0:0:0:
207,265,196618,2,0,P|197:311|211:356,1,94.9999974632264,10|0,1:2|2:0,2:0:0:0:
292,370,196830,5,10,2:3:0:0:
355,314,196937,2,0,P|399:329|431:363,1,94.9999974632264,10|0,2:3|1:0,2:0:0:0:
242,130,197150,5,0,2:0:0:0:
314,172,197257,2,0,P|313:219|290:260,1,94.9999974632264,6|0,2:3|2:0,2:0:0:0:
454,8,197470,5,10,1:2:0:0:
437,89,197575,2,0,P|392:102|345:93,1,94.9999974632264,2|2,2:0|2:3,2:0:0:0:
197,31,197788,5,2,2:0:0:0:
96,78,197894,2,0,P|184:60|242:130,2,189.999994926453,4|2|10,1:2|2:0|1:2,2:0:0:0:
0,189,198426,2,0,P|47:186|87:162,1,94.9999974632264,2|10,2:0|2:3,2:0:0:0:
244,242,198639,1,10,2:3:0:0:
157,216,198745,2,0,P|204:218|244:242,1,94.9999974632264,4|0,1:2|2:0,2:0:0:0:
314,189,198958,2,0,P|361:187|401:163,1,94.9999974632264,6|0,2:3|2:0,2:0:0:0:
512,355,199171,5,10,1:2:0:0:
486,336,199278,1,2,2:0:0:0:
456,327,199384,1,2,2:3:0:0:
425,329,199490,1,2,1:2:0:0:
425,329,200128,6,0,L|390:335,1,34.9999989318848,2|2,2:0|2:0,2:0:0:0:
408,347,200235,2,0,L|339:360,1,69.9999978637696,10|10,2:3|2:3,2:0:0:0:
188,275,200448,2,0,L|198:238,2,34.9999989318848,10|0|2,2:3|2:0|2:0,2:0:0:0:
199,384,200660,5,6,2:3:0:0:
130,337,200767,2,0,P|111:307|104:273,1,69.9999978637696,2|10,1:2|2:3,2:0:0:0:
261,329,200979,2,0,P|268:294|287:266,1,69.9999978637696,2|10,1:2|2:0,2:0:0:0:
471,217,201192,6,0,P|356:208|302:106,1,240,4|2,1:0|2:3,2:0:0:0:
417,18,201618,1,0,2:0:0:0:
417,18,201724,2,0,P|410:64|371:93,1,80,10|0,1:2|2:0,2:0:0:0:
170,91,201937,1,10,2:3:0:0:
170,91,202043,1,8,2:3:0:0:
222,153,202150,6,0,P|128:109|53:124,1,160,2|6,1:2|2:3,2:0:0:0:
164,220,202469,2,0,P|66:255|23:318,1,160,2|0,2:0|2:0,2:0:0:0:
169,308,202788,2,0,P|144:339|129:376,1,80,2|0,2:0|2:0,2:0:0:0:
373,265,203001,6,0,L|359:177,1,80,2|0,1:2|2:0,2:0:0:0:
250,345,203213,2,0,P|281:370|318:385,1,80,2|0,2:0|2:0,2:0:0:0:
373,265,203426,6,0,L|359:177,1,80,10|0,1:2|2:0,2:0:0:0:
250,345,203639,2,0,P|281:370|318:385,1,80,10|8,2:3|2:3,2:0:0:0:
404,353,203852,5,2,1:2:0:0:
404,353,203958,1,4,2:3:0:0:
373,265,204065,2,0,L|359:177,1,80,2|4,2:0|2:3,2:0:0:0:
471,51,204277,1,10,1:2:0:0:
435,143,204384,1,4,2:3:0:0:
435,143,204596,6,0,P|336:81|218:98,1,240,6|2,1:2|2:3,2:0:0:0:
218,97,205022,1,0,2:0:0:0:
163,163,205128,2,0,P|139:128|138:82,1,80,10|0,1:2|2:0,2:0:0:0:
286,225,205341,1,10,2:3:0:0:
286,225,205448,1,8,2:3:0:0:
208,260,205554,2,0,L|113:242,1,80,2|0,1:2|2:0,2:0:0:0:
346,360,205767,5,6,2:3:0:0:
279,311,205873,2,0,P|255:343|251:382,1,80,2|8,2:0|1:2,2:0:0:0:
370,245,206086,1,0,2:0:0:0:
370,245,206192,2,0,P|385:281|417:304,1,80,2|0,2:0|2:0,2:0:0:0:
461,96,206405,6,0,L|508:82,2,40,2|0|0,1:2|2:0|2:0,2:0:0:0:
410,163,206618,2,0,L|316:145,1,80,2|0,2:0|2:0,2:0:0:0:
236,24,206830,6,0,P|260:54|269:93,1,80,10|0,1:2|2:0,2:0:0:0:
98,305,207043,2,0,P|73:274|64:235,1,80,10|8,2:3|2:3,2:0:0:0:
312,227,207256,5,10,1:3:0:0:
306,246,207362,1,6,2:3:0:0:
231,289,207469,5,2,2:0:0:0:
225,270,207575,1,10,2:0:0:0:
158,235,207682,5,2,2:0:0:0:
230,250,207788,1,10,1:0:0:0:
302,265,207894,1,2,2:0:0:0:
374,280,208001,1,6,1:2:0:0:
408,348,208107,6,0,B|431:308|408:269|408:269|387:230|408:194,1,160,2|2,2:0|2:3,2:0:0:0:
401,90,208426,1,0,2:0:0:0:
339,149,208533,2,0,P|320:113|318:74,1,80,10|0,1:2|2:0,2:0:0:0:
465,36,208745,1,10,2:3:0:0:
465,36,208852,1,8,2:3:0:0:
400,89,208958,6,0,P|335:44|257:27,1,160,2|6,1:2|2:3,2:0:0:0:
257,27,209277,1,2,2:0:0:0:
217,100,209384,2,0,P|181:119|142:121,1,80,8|0,1:2|2:0,2:0:0:0:
17,0,209596,2,0,P|51:21|72:54,1,80,2|0,2:0|2:0,2:0:0:0:
31,224,209809,6,0,P|32:183|50:148,1,80,2|0,1:2|2:0,2:0:0:0:
227,267,210022,2,0,L|134:287,1,80,2|0,2:0|2:0,2:0:0:0:
31,224,210235,6,0,P|32:183|50:148,1,80,10|0,1:2|2:0,2:0:0:0:
227,267,210448,2,0,L|134:287,1,80,10|8,2:3|2:3,2:0:0:0:
69,302,210660,1,10,1:3:0:0:
69,302,210767,1,4,2:3:0:0:
31,224,210873,6,0,P|32:183|50:148,1,80,2|4,2:0|2:3,2:0:0:0:
164,41,211086,1,10,1:2:0:0:
133,137,211192,1,4,2:3:0:0:
133,137,211405,6,0,L|289:170,1,160,6|0,1:2|2:0,2:0:0:0:
293,177,211724,1,2,2:3:0:0:
296,184,211830,1,0,2:0:0:0:
299,191,211937,2,0,P|338:193|374:177,1,80,10|0,1:2|2:0,2:0:0:0:
265,0,212150,2,0,L|245:93,1,80,10|8,2:3|2:3,2:0:0:0:
438,240,212362,6,0,P|459:207|421:101,1,160,2|6,1:2|2:3,2:0:0:0:
356,0,212682,1,2,2:0:0:0:
356,0,212788,2,0,L|336:93,1,80,8|0,1:2|2:0,2:0:0:0:
233,244,213001,2,0,P|216:207|218:168,1,80,2|0,2:0|2:0,2:0:0:0:
406,350,213213,6,0,L|454:359,2,25,2|0|0,1:2|2:0|2:0,2:0:0:0:
338,302,213426,2,0,P|298:304|264:324,1,80,2|0,2:0|2:0,2:0:0:0:
12,254,213639,1,10,1:2:0:0:
12,254,213852,6,0,L|2:213,1,40,10|0,2:3|2:0,2:0:0:0:
34,237,213958,2,0,L|24:196,1,40,8|0,2:3|2:0,2:0:0:0:
104,197,214065,2,0,P|168:204|188:292,1,160,2|6,1:2|2:3,2:0:0:0:
86,384,214384,6,0,P|88:344|111:313,1,80,2|0,1:2|2:0,2:0:0:0:
253,174,214596,2,0,P|251:134|228:103,1,80,10|0,1:0|2:0,2:0:0:0:
107,8,214809,6,0,L|116:70,1,59.9999981689454,6|0,1:2|2:0,2:0:0:0:
