osu file format v14

[General]
AudioFilename: audio.mp3
AudioLeadIn: 0
PreviewTime: 56050
Countdown: 0
SampleSet: Normal
StackLeniency: 0.2
Mode: 1
LetterboxInBreaks: 0
WidescreenStoryboard: 1

[Editor]
Bookmarks: 16050,41650,56050,84850,97650,110450,124850,152050,158450,180850,208050
DistanceSpacing: 1.1
BeatDivisor: 4
GridSize: 32
TimelineZoom: 2.3

[Metadata]
Title:Hitogata
TitleUnicode:ヒトガタ
Artist:HIMEHINA
ArtistUnicode:HIMEHINA
Creator:Genjuro
Version:Muzukashii
Source:バーチャルさんはみている
Tags:pop electronic japanese jpop j-pop 藍の華 ainohana divine flowers anime virtual-san wa miteiru looking virtual youtuber vtuber tanaka hime 田中ヒメ suzuki hina 鈴木ヒナ humanoid
BeatmapID:2636070
BeatmapSetID:1265600

[Difficulty]
HPDrainRate:5
CircleSize:2
OverallDifficulty:5
ApproachRate:10
SliderMultiplier:1.4
SliderTickRate:1

[Events]
//Background and Video events
0,0,"bg.jpg",0,85
//Break Periods
2,158650,164400
//Storyboard Layer 0 (Background)
//Storyboard Layer 1 (Fail)
//Storyboard Layer 2 (Pass)
//Storyboard Layer 3 (Foreground)
//Storyboard Layer 4 (Overlay)
//Storyboard Sound Samples

[TimingPoints]
3250,400,4,1,0,100,1,0
56050,400,4,1,0,100,1,1
81650,-100,4,1,0,100,0,0
84850,400,4,1,0,100,1,1
97650,-100,4,1,0,100,0,0
124850,400,4,1,0,100,1,1
152050,400,4,1,0,100,1,0
158550,-100,4,1,0,75,0,0
167800,-100,4,1,0,50,0,0
168000,-100,4,1,0,75,0,0
171150,-100,4,1,0,100,0,0
180850,400,4,1,0,100,1,1
206450,-100,4,1,0,100,0,0
208050,400,4,1,0,100,1,1
220650,-100,4,1,0,100,0,0

[HitObjects]
256,192,3250,5,8,0:0:0:0:
256,192,3650,1,0,0:0:0:0:
256,192,4050,1,8,0:0:0:0:
256,192,4350,1,8,0:0:0:0:
256,192,4650,1,0,0:0:0:0:
256,192,5050,1,8,0:0:0:0:
256,192,5650,1,0,0:0:0:0:
256,192,5850,1,8,0:0:0:0:
256,192,6050,1,0,0:0:0:0:
256,192,6450,1,8,0:0:0:0:
256,192,6850,1,0,0:0:0:0:
256,192,7250,1,8,0:0:0:0:
256,192,7550,1,8,0:0:0:0:
256,192,7850,1,0,0:0:0:0:
256,192,8250,1,8,0:0:0:0:
256,192,8850,1,0,0:0:0:0:
256,192,9050,1,8,0:0:0:0:
256,192,9250,1,0,0:0:0:0:
256,192,9650,1,8,0:0:0:0:
256,192,10050,1,0,0:0:0:0:
256,192,10250,1,0,0:0:0:0:
256,192,10450,1,8,0:0:0:0:
256,192,10650,1,8,0:0:0:0:
256,192,10850,1,0,0:0:0:0:
256,192,11250,1,8,0:0:0:0:
256,192,11650,1,0,0:0:0:0:
256,192,11850,1,0,0:0:0:0:
256,192,12050,1,8,0:0:0:0:
256,192,12450,1,0,0:0:0:0:
256,192,12850,1,8,0:0:0:0:
256,192,12950,1,8,0:0:0:0:
256,192,13050,1,8,0:0:0:0:
256,192,13250,1,0,0:0:0:0:
256,192,13450,1,8,0:0:0:0:
256,192,13650,1,0,0:0:0:0:
256,192,13750,1,0,0:0:0:0:
256,192,13850,1,0,0:0:0:0:
256,192,14050,1,8,0:0:0:0:
256,192,15650,1,8,0:0:0:0:
256,192,15850,1,8,0:0:0:0:
256,192,16050,1,0,0:0:0:0:
256,192,16450,1,8,0:0:0:0:
256,192,16650,1,0,0:0:0:0:
256,192,16850,1,8,0:0:0:0:
256,192,16950,1,8,0:0:0:0:
256,192,17050,1,8,0:0:0:0:
256,192,17250,1,0,0:0:0:0:
256,192,17650,1,8,0:0:0:0:
256,192,18050,1,0,0:0:0:0:
256,192,18250,1,8,0:0:0:0:
256,192,18450,1,0,0:0:0:0:
256,192,19250,1,8,0:0:0:0:
256,192,19450,1,8,0:0:0:0:
256,192,19650,1,0,0:0:0:0:
256,192,19850,1,8,0:0:0:0:
256,192,20050,1,0,0:0:0:0:
256,192,20150,1,0,0:0:0:0:
256,192,20250,1,0,0:0:0:0:
256,192,20450,1,8,0:0:0:0:
256,192,20850,1,0,0:0:0:0:
256,192,21050,1,8,0:0:0:0:
256,192,21250,1,8,0:0:0:0:
256,192,21450,1,0,0:0:0:0:
256,192,22050,1,8,0:0:0:0:
256,192,22450,1,0,0:0:0:0:
256,192,22650,1,8,0:0:0:0:
256,192,22850,1,0,0:0:0:0:
256,192,22950,1,0,0:0:0:0:
256,192,23050,1,0,0:0:0:0:
256,192,23250,1,8,0:0:0:0:
256,192,23650,1,8,0:0:0:0:
256,192,23850,1,8,0:0:0:0:
256,192,24050,1,0,0:0:0:0:
256,192,24650,1,0,0:0:0:0:
256,192,24850,1,8,0:0:0:0:
256,192,25050,1,0,0:0:0:0:
256,192,25250,1,8,0:0:0:0:
256,192,25650,1,0,0:0:0:0:
256,192,26050,1,8,0:0:0:0:
256,192,26250,1,0,0:0:0:0:
256,192,26450,1,8,0:0:0:0:
256,192,26550,1,8,0:0:0:0:
256,192,26650,1,8,0:0:0:0:
256,192,26850,1,0,0:0:0:0:
256,192,27250,1,8,0:0:0:0:
256,192,27850,1,8,0:0:0:0:
256,192,28450,1,8,0:0:0:0:
256,192,28850,1,4,0:0:0:0:
256,192,29250,1,8,0:0:0:0:
256,192,29450,1,0,0:0:0:0:
256,192,29550,1,0,0:0:0:0:
256,192,29650,1,0,0:0:0:0:
256,192,29850,1,8,0:0:0:0:
256,192,30250,1,8,0:0:0:0:
256,192,30650,1,8,0:0:0:0:
256,192,30850,1,0,0:0:0:0:
256,192,31050,1,8,0:0:0:0:
256,192,31450,1,0,0:0:0:0:
256,192,31650,1,8,0:0:0:0:
256,192,31850,1,0,0:0:0:0:
256,192,32050,1,8,0:0:0:0:
256,192,32150,1,8,0:0:0:0:
256,192,32250,1,8,0:0:0:0:
256,192,32450,1,0,0:0:0:0:
256,192,32850,1,0,0:0:0:0:
256,192,33050,1,8,0:0:0:0:
256,192,33450,1,8,0:0:0:0:
256,192,33650,1,0,0:0:0:0:
256,192,33850,1,8,0:0:0:0:
256,192,33950,1,8,0:0:0:0:
256,192,34050,1,8,0:0:0:0:
256,192,34250,1,0,0:0:0:0:
256,192,34650,1,8,0:0:0:0:
256,192,35250,1,0,0:0:0:0:
256,192,35650,1,8,0:0:0:0:
256,192,35850,1,8,0:0:0:0:
256,192,36050,1,0,0:0:0:0:
256,192,36150,1,0,0:0:0:0:
256,192,36250,1,0,0:0:0:0:
256,192,36450,1,8,0:0:0:0:
256,192,36850,1,0,0:0:0:0:
256,192,37450,1,8,0:0:0:0:
256,192,37650,1,0,0:0:0:0:
256,192,37750,1,0,0:0:0:0:
256,192,37850,1,0,0:0:0:0:
256,192,38050,1,8,0:0:0:0:
256,192,38450,1,8,0:0:0:0:
256,192,38650,1,8,0:0:0:0:
256,192,38850,1,0,0:0:0:0:
256,192,39250,1,0,0:0:0:0:
256,192,39450,1,8,0:0:0:0:
256,192,39850,1,0,0:0:0:0:
256,192,40050,1,8,0:0:0:0:
256,192,40150,1,8,0:0:0:0:
256,192,40250,1,8,0:0:0:0:
256,192,40450,1,0,0:0:0:0:
256,192,40650,1,8,0:0:0:0:
256,192,40850,1,0,0:0:0:0:
256,192,41250,1,8,0:0:0:0:
256,192,41650,1,4,0:0:0:0:
256,192,42450,1,0,0:0:0:0:
256,192,43250,1,0,0:0:0:0:
256,192,43450,1,8,0:0:0:0:
256,192,43650,1,8,0:0:0:0:
256,192,43850,1,8,0:0:0:0:
256,192,44050,1,0,0:0:0:0:
256,192,44850,1,0,0:0:0:0:
256,192,45650,1,0,0:0:0:0:
256,192,46450,1,0,0:0:0:0:
256,192,46650,1,8,0:0:0:0:
256,192,46850,1,8,0:0:0:0:
256,192,47050,1,8,0:0:0:0:
256,192,47250,1,0,0:0:0:0:
256,192,48050,1,8,0:0:0:0:
256,192,48250,1,0,0:0:0:0:
256,192,48450,1,8,0:0:0:0:
256,192,48650,1,8,0:0:0:0:
256,192,48850,1,0,0:0:0:0:
256,192,49250,1,0,0:0:0:0:
256,192,49450,1,8,0:0:0:0:
256,192,49650,1,0,0:0:0:0:
256,192,49850,1,0,0:0:0:0:
256,192,50050,1,8,0:0:0:0:
256,192,50450,1,8,0:0:0:0:
256,192,50650,1,8,0:0:0:0:
256,192,50850,1,0,0:0:0:0:
256,192,51250,1,8,0:0:0:0:
256,192,51450,1,0,0:0:0:0:
256,192,51550,1,0,0:0:0:0:
256,192,51650,1,0,0:0:0:0:
256,192,51850,1,8,0:0:0:0:
256,192,52050,1,0,0:0:0:0:
256,192,52250,1,8,0:0:0:0:
256,192,52350,1,8,0:0:0:0:
256,192,52450,1,8,0:0:0:0:
256,192,52650,1,0,0:0:0:0:
256,192,52850,1,8,0:0:0:0:
256,192,53250,1,8,0:0:0:0:
256,192,53650,1,8,0:0:0:0:
256,192,53850,1,8,0:0:0:0:
256,192,54050,1,8,0:0:0:0:
256,192,54150,1,8,0:0:0:0:
256,192,54250,1,8,0:0:0:0:
256,192,54450,1,0,0:0:0:0:
256,192,55650,1,8,0:0:0:0:
256,192,56050,1,4,0:0:0:0:
256,192,56250,1,8,0:0:0:0:
256,192,56450,1,0,0:0:0:0:
256,192,56550,1,0,0:0:0:0:
256,192,56650,1,0,0:0:0:0:
256,192,56850,1,8,0:0:0:0:
256,192,57150,1,0,0:0:0:0:
256,192,57450,1,0,0:0:0:0:
256,192,57650,1,8,0:0:0:0:
256,192,57850,1,0,0:0:0:0:
256,192,58050,1,8,0:0:0:0:
256,192,58150,1,8,0:0:0:0:
256,192,58250,1,8,0:0:0:0:
256,192,58450,1,0,0:0:0:0:
256,192,58750,1,8,0:0:0:0:
256,192,59050,1,8,0:0:0:0:
256,192,59250,1,0,0:0:0:0:
256,192,59450,1,8,0:0:0:0:
256,192,59650,1,0,0:0:0:0:
256,192,59750,1,0,0:0:0:0:
256,192,59850,1,0,0:0:0:0:
256,192,60050,1,8,0:0:0:0:
256,192,60250,1,0,0:0:0:0:
256,192,60450,1,8,0:0:0:0:
256,192,60550,1,8,0:0:0:0:
256,192,60650,1,8,0:0:0:0:
256,192,60850,1,0,0:0:0:0:
256,192,61250,1,8,0:0:0:0:
256,192,61450,1,8,0:0:0:0:
256,192,61650,1,0,0:0:0:0:
256,192,62450,1,8,0:0:0:0:
256,192,62650,1,0,0:0:0:0:
256,192,62850,1,8,0:0:0:0:
256,192,62950,1,8,0:0:0:0:
256,192,63050,1,8,0:0:0:0:
256,192,63250,1,0,0:0:0:0:
256,192,63550,1,8,0:0:0:0:
256,192,63850,1,8,0:0:0:0:
256,192,64050,1,0,0:0:0:0:
256,192,64250,1,8,0:0:0:0:
256,192,64450,1,0,0:0:0:0:
256,192,64550,1,0,0:0:0:0:
256,192,64650,1,0,0:0:0:0:
256,192,64850,1,8,0:0:0:0:
256,192,65150,1,0,0:0:0:0:
256,192,65450,1,0,0:0:0:0:
256,192,65650,1,8,0:0:0:0:
256,192,65850,1,0,0:0:0:0:
256,192,66050,1,8,0:0:0:0:
256,192,66150,1,8,0:0:0:0:
256,192,66250,1,8,0:0:0:0:
256,192,66450,1,0,0:0:0:0:
256,192,66650,1,8,0:0:0:0:
256,192,66850,1,0,0:0:0:0:
256,192,66950,1,0,0:0:0:0:
256,192,67050,1,0,0:0:0:0:
256,192,67250,1,8,0:0:0:0:
256,192,67650,1,0,0:0:0:0:
256,192,67850,1,0,0:0:0:0:
256,192,68050,1,8,0:0:0:0:
256,192,68850,1,0,0:0:0:0:
256,192,69150,1,8,0:0:0:0:
256,192,69250,1,8,0:0:0:0:
256,192,69450,1,8,0:0:0:0:
256,192,69650,1,0,0:0:0:0:
256,192,70250,1,0,0:0:0:0:
256,192,70450,1,8,0:0:0:0:
256,192,70750,1,0,0:0:0:0:
256,192,70850,1,0,0:0:0:0:
256,192,71050,1,0,0:0:0:0:
256,192,71250,1,8,0:0:0:0:
256,192,71850,1,8,0:0:0:0:
256,192,72050,1,0,0:0:0:0:
256,192,72150,1,0,0:0:0:0:
256,192,72250,1,0,0:0:0:0:
256,192,72450,1,8,0:0:0:0:
256,192,72850,1,0,0:0:0:0:
256,192,73050,1,8,0:0:0:0:
256,192,73250,1,8,0:0:0:0:
256,192,73450,1,0,0:0:0:0:
256,192,73650,1,8,0:0:0:0:
256,192,73750,1,8,0:0:0:0:
256,192,73850,1,8,0:0:0:0:
256,192,74050,1,0,0:0:0:0:
256,192,74450,1,8,0:0:0:0:
256,192,75250,1,8,0:0:0:0:
256,192,75550,1,0,0:0:0:0:
256,192,75650,1,0,0:0:0:0:
256,192,75850,1,0,0:0:0:0:
256,192,76050,1,8,0:0:0:0:
256,192,76650,1,8,0:0:0:0:
256,192,76850,1,0,0:0:0:0:
256,192,77150,1,8,0:0:0:0:
256,192,77250,1,8,0:0:0:0:
256,192,77450,1,8,0:0:0:0:
256,192,77650,1,0,0:0:0:0:
256,192,78250,1,0,0:0:0:0:
256,192,78450,1,8,0:0:0:0:
256,192,78550,1,8,0:0:0:0:
256,192,78650,1,8,0:0:0:0:
256,192,78850,1,0,0:0:0:0:
256,192,79250,1,8,0:0:0:0:
256,192,79450,1,0,0:0:0:0:
256,192,79650,1,0,0:0:0:0:
256,192,79850,1,8,0:0:0:0:
256,192,80050,1,0,0:0:0:0:
256,192,80150,1,0,0:0:0:0:
256,192,80250,1,0,0:0:0:0:
256,192,80450,1,8,0:0:0:0:
256,192,80850,1,0,0:0:0:0:
256,192,81250,1,8,0:0:0:0:
256,192,81450,1,8,0:0:0:0:
256,192,81650,1,0,0:0:0:0:
256,192,82450,1,0,0:0:0:0:
256,192,83250,1,0,0:0:0:0:
256,192,83650,1,0,0:0:0:0:
256,192,84050,1,8,0:0:0:0:
256,192,84450,1,8,0:0:0:0:
256,192,84850,1,4,0:0:0:0:
256,192,85650,1,8,0:0:0:0:
256,192,86050,1,0,0:0:0:0:
256,192,86850,1,0,0:0:0:0:
256,192,87250,1,8,0:0:0:0:
256,192,87450,1,8,0:0:0:0:
256,192,87550,1,8,0:0:0:0:
256,192,88050,1,0,0:0:0:0:
256,192,88850,1,8,0:0:0:0:
256,192,89250,1,0,0:0:0:0:
256,192,90050,1,0,0:0:0:0:
256,192,90450,1,8,0:0:0:0:
256,192,90850,1,8,0:0:0:0:
256,192,91050,1,8,0:0:0:0:
256,192,91250,1,4,0:0:0:0:
256,192,92050,1,8,0:0:0:0:
256,192,92450,1,0,0:0:0:0:
256,192,92650,1,8,0:0:0:0:
256,192,92750,1,8,0:0:0:0:
256,192,93050,1,8,0:0:0:0:
256,192,93250,1,0,0:0:0:0:
256,192,93650,1,8,0:0:0:0:
256,192,94450,1,0,0:0:0:0:
256,192,95250,1,8,0:0:0:0:
256,192,95650,1,0,0:0:0:0:
256,192,96050,1,0,0:0:0:0:
256,192,96150,1,0,0:0:0:0:
256,192,96250,1,0,0:0:0:0:
256,192,96450,1,8,0:0:0:0:
256,192,96550,1,8,0:0:0:0:
256,192,96650,1,8,0:0:0:0:
256,192,96850,1,0,0:0:0:0:
256,192,97050,1,0,0:0:0:0:
256,192,97250,1,8,0:0:0:0:
256,192,97650,1,0,0:0:0:0:
256,192,97950,1,8,0:0:0:0:
256,192,98250,1,0,0:0:0:0:
256,192,98450,1,8,0:0:0:0:
256,192,98650,1,8,0:0:0:0:
256,192,98850,1,0,0:0:0:0:
256,192,99250,1,0,0:0:0:0:
256,192,99450,1,8,0:0:0:0:
256,192,99850,1,8,0:0:0:0:
256,192,100050,1,0,0:0:0:0:
256,192,100150,1,0,0:0:0:0:
256,192,100250,1,0,0:0:0:0:
256,192,100450,1,8,0:0:0:0:
256,192,100850,1,0,0:0:0:0:
256,192,101050,1,8,0:0:0:0:
256,192,101250,1,8,0:0:0:0:
256,192,101350,1,8,0:0:0:0:
256,192,101450,1,8,0:0:0:0:
256,192,101650,1,0,0:0:0:0:
256,192,101850,1,8,0:0:0:0:
256,192,102050,1,0,0:0:0:0:
256,192,102450,1,8,0:0:0:0:
256,192,102750,1,8,0:0:0:0:
256,192,103050,1,8,0:0:0:0:
256,192,103250,1,0,0:0:0:0:
256,192,104050,1,12,0:0:0:0:
256,192,104250,1,0,0:0:0:0:
256,192,104450,1,8,0:0:0:0:
256,192,104550,1,8,0:0:0:0:
256,192,104850,1,8,0:0:0:0:
256,192,105150,1,8,0:0:0:0:
256,192,105450,1,8,0:0:0:0:
256,192,105850,1,0,0:0:0:0:
256,192,106050,1,8,0:0:0:0:
256,192,106250,1,0,0:0:0:0:
256,192,106450,1,8,0:0:0:0:
256,192,106550,1,8,0:0:0:0:
256,192,106650,1,8,0:0:0:0:
256,192,106850,1,0,0:0:0:0:
256,192,107250,1,8,0:0:0:0:
256,192,107450,1,0,0:0:0:0:
256,192,107550,1,0,0:0:0:0:
256,192,107650,1,0,0:0:0:0:
256,192,107850,1,8,0:0:0:0:
256,192,108250,1,8,0:0:0:0:
256,192,108450,1,0,0:0:0:0:
256,192,108850,1,8,0:0:0:0:
256,192,109150,1,8,0:0:0:0:
256,192,109450,1,8,0:0:0:0:
256,192,109650,1,0,0:0:0:0:
256,192,110050,1,8,0:0:0:0:
256,192,110150,1,8,0:0:0:0:
256,192,110250,1,8,0:0:0:0:
256,192,110450,1,4,0:0:0:0:
256,192,111250,1,0,0:0:0:0:
256,192,112050,1,0,0:0:0:0:
256,192,112250,1,8,0:0:0:0:
256,192,112450,1,8,0:0:0:0:
256,192,112650,1,8,0:0:0:0:
256,192,112850,1,0,0:0:0:0:
256,192,113650,1,0,0:0:0:0:
256,192,114450,1,0,0:0:0:0:
256,192,115250,1,0,0:0:0:0:
256,192,115450,1,8,0:0:0:0:
256,192,115650,1,8,0:0:0:0:
256,192,115850,1,8,0:0:0:0:
256,192,116050,1,0,0:0:0:0:
256,192,116850,1,8,0:0:0:0:
256,192,117050,1,0,0:0:0:0:
256,192,117250,1,8,0:0:0:0:
256,192,117450,1,8,0:0:0:0:
256,192,117650,1,0,0:0:0:0:
256,192,118050,1,0,0:0:0:0:
256,192,118250,1,8,0:0:0:0:
256,192,118450,1,0,0:0:0:0:
256,192,118650,1,0,0:0:0:0:
256,192,118850,1,8,0:0:0:0:
256,192,119250,1,8,0:0:0:0:
256,192,119450,1,8,0:0:0:0:
256,192,119650,1,0,0:0:0:0:
256,192,120050,1,8,0:0:0:0:
256,192,120250,1,0,0:0:0:0:
256,192,120350,1,0,0:0:0:0:
256,192,120450,1,0,0:0:0:0:
256,192,120650,1,8,0:0:0:0:
256,192,120850,1,0,0:0:0:0:
256,192,121050,1,8,0:0:0:0:
256,192,121150,1,8,0:0:0:0:
256,192,121250,1,8,0:0:0:0:
256,192,121450,1,0,0:0:0:0:
256,192,121650,1,8,0:0:0:0:
256,192,122050,1,8,0:0:0:0:
256,192,122450,1,8,0:0:0:0:
256,192,122650,1,8,0:0:0:0:
256,192,122850,1,8,0:0:0:0:
256,192,122950,1,8,0:0:0:0:
256,192,123050,1,8,0:0:0:0:
256,192,123250,1,0,0:0:0:0:
256,192,124450,1,8,0:0:0:0:
256,192,124850,1,4,0:0:0:0:
256,192,125050,1,8,0:0:0:0:
256,192,125250,1,0,0:0:0:0:
256,192,125350,1,0,0:0:0:0:
256,192,125450,1,0,0:0:0:0:
256,192,125650,1,8,0:0:0:0:
256,192,125950,1,0,0:0:0:0:
256,192,126250,1,0,0:0:0:0:
256,192,126450,1,8,0:0:0:0:
256,192,126650,1,0,0:0:0:0:
256,192,126850,1,8,0:0:0:0:
256,192,126950,1,8,0:0:0:0:
256,192,127050,1,8,0:0:0:0:
256,192,127250,1,0,0:0:0:0:
256,192,127550,1,8,0:0:0:0:
256,192,127850,1,8,0:0:0:0:
256,192,128050,1,0,0:0:0:0:
256,192,128250,1,8,0:0:0:0:
256,192,128450,1,0,0:0:0:0:
256,192,128550,1,0,0:0:0:0:
256,192,128650,1,0,0:0:0:0:
256,192,128850,1,8,0:0:0:0:
256,192,129050,1,0,0:0:0:0:
256,192,129250,1,8,0:0:0:0:
256,192,129350,1,8,0:0:0:0:
256,192,129450,1,8,0:0:0:0:
256,192,129650,1,0,0:0:0:0:
256,192,130050,1,8,0:0:0:0:
256,192,130250,1,8,0:0:0:0:
256,192,130450,1,0,0:0:0:0:
256,192,131250,1,8,0:0:0:0:
256,192,131450,1,0,0:0:0:0:
256,192,131650,1,8,0:0:0:0:
256,192,131750,1,8,0:0:0:0:
256,192,131850,1,8,0:0:0:0:
256,192,132050,1,0,0:0:0:0:
256,192,132350,1,8,0:0:0:0:
256,192,132650,1,8,0:0:0:0:
256,192,132850,1,0,0:0:0:0:
256,192,133050,1,8,0:0:0:0:
256,192,133250,1,0,0:0:0:0:
256,192,133350,1,0,0:0:0:0:
256,192,133450,1,0,0:0:0:0:
256,192,133650,1,8,0:0:0:0:
256,192,133950,1,0,0:0:0:0:
256,192,134250,1,0,0:0:0:0:
256,192,134450,1,8,0:0:0:0:
256,192,134650,1,0,0:0:0:0:
256,192,134850,1,8,0:0:0:0:
256,192,134950,1,8,0:0:0:0:
256,192,135050,1,8,0:0:0:0:
256,192,135250,1,0,0:0:0:0:
256,192,135450,1,8,0:0:0:0:
256,192,135650,1,0,0:0:0:0:
256,192,135750,1,0,0:0:0:0:
256,192,135850,1,0,0:0:0:0:
256,192,136050,1,8,0:0:0:0:
256,192,136450,1,0,0:0:0:0:
256,192,136650,1,0,0:0:0:0:
256,192,136850,1,8,0:0:0:0:
256,192,137650,1,0,0:0:0:0:
256,192,137950,1,8,0:0:0:0:
256,192,138050,1,8,0:0:0:0:
256,192,138250,1,8,0:0:0:0:
256,192,138450,1,0,0:0:0:0:
256,192,139050,1,0,0:0:0:0:
256,192,139250,1,8,0:0:0:0:
256,192,139550,1,0,0:0:0:0:
256,192,139650,1,0,0:0:0:0:
256,192,139850,1,0,0:0:0:0:
256,192,140050,1,8,0:0:0:0:
256,192,140650,1,8,0:0:0:0:
256,192,140850,1,0,0:0:0:0:
256,192,140950,1,0,0:0:0:0:
256,192,141050,1,0,0:0:0:0:
256,192,141250,1,8,0:0:0:0:
256,192,141650,1,0,0:0:0:0:
256,192,141850,1,8,0:0:0:0:
256,192,142050,1,8,0:0:0:0:
256,192,142250,1,0,0:0:0:0:
256,192,142450,1,8,0:0:0:0:
256,192,142550,1,8,0:0:0:0:
256,192,142650,1,8,0:0:0:0:
256,192,142850,1,0,0:0:0:0:
256,192,143250,1,8,0:0:0:0:
256,192,144050,1,8,0:0:0:0:
256,192,144350,1,0,0:0:0:0:
256,192,144450,1,0,0:0:0:0:
256,192,144650,1,0,0:0:0:0:
256,192,144850,1,8,0:0:0:0:
256,192,145450,1,8,0:0:0:0:
256,192,145650,1,0,0:0:0:0:
256,192,145950,1,8,0:0:0:0:
256,192,146050,1,8,0:0:0:0:
256,192,146250,1,8,0:0:0:0:
256,192,146450,1,0,0:0:0:0:
256,192,147050,1,0,0:0:0:0:
256,192,147250,1,8,0:0:0:0:
256,192,147350,1,8,0:0:0:0:
256,192,147450,1,8,0:0:0:0:
256,192,147650,1,0,0:0:0:0:
256,192,148050,1,8,0:0:0:0:
256,192,148250,1,0,0:0:0:0:
256,192,148450,1,0,0:0:0:0:
256,192,148650,1,8,0:0:0:0:
256,192,148850,1,0,0:0:0:0:
256,192,148950,1,0,0:0:0:0:
256,192,149050,1,0,0:0:0:0:
256,192,149250,1,8,0:0:0:0:
256,192,149650,1,0,0:0:0:0:
256,192,150050,1,8,0:0:0:0:
256,192,150250,1,8,0:0:0:0:
256,192,150450,1,0,0:0:0:0:
256,192,151250,1,8,0:0:0:0:
256,192,151450,1,8,0:0:0:0:
256,192,151650,1,0,0:0:0:0:
256,192,151750,1,0,0:0:0:0:
256,192,151850,1,0,0:0:0:0:
256,192,152050,1,8,0:0:0:0:
256,192,152450,1,0,0:0:0:0:
256,192,152850,1,8,0:0:0:0:
256,192,153150,1,8,0:0:0:0:
256,192,153450,1,0,0:0:0:0:
256,192,153850,1,8,0:0:0:0:
256,192,154450,1,0,0:0:0:0:
256,192,154650,1,8,0:0:0:0:
256,192,154850,1,0,0:0:0:0:
256,192,155050,1,0,0:0:0:0:
256,192,155250,1,8,0:0:0:0:
256,192,155650,1,0,0:0:0:0:
256,192,156050,1,8,0:0:0:0:
256,192,156350,1,8,0:0:0:0:
256,192,156650,1,0,0:0:0:0:
256,192,157050,1,8,0:0:0:0:
256,192,157650,1,0,0:0:0:0:
256,192,157750,1,0,0:0:0:0:
256,192,157850,1,0,0:0:0:0:
256,192,158050,1,8,0:0:0:0:
256,192,158150,1,8,0:0:0:0:
256,192,158250,1,8,0:0:0:0:
256,192,158450,1,0,0:0:0:0:
256,192,164850,5,0,0:0:0:0:
256,192,165650,1,0,0:0:0:0:
256,192,166450,1,0,0:0:0:0:
256,192,167250,1,0,0:0:0:0:
256,192,167850,1,8,0:0:0:0:
256,192,168050,1,0,0:0:0:0:
256,192,168850,1,0,0:0:0:0:
256,192,169650,1,0,0:0:0:0:
256,192,170450,1,0,0:0:0:0:
256,192,171250,1,8,0:0:0:0:
256,192,171650,1,0,0:0:0:0:
256,192,172050,1,8,0:0:0:0:
256,192,172350,1,8,0:0:0:0:
256,192,172650,1,0,0:0:0:0:
256,192,172850,1,8,0:0:0:0:
256,192,173250,1,0,0:0:0:0:
256,192,173650,1,8,0:0:0:0:
256,192,173950,1,8,0:0:0:0:
256,192,174250,1,0,0:0:0:0:
256,192,174450,1,8,0:0:0:0:
256,192,174650,1,8,0:0:0:0:
256,192,174850,1,0,0:0:0:0:
256,192,175250,1,8,0:0:0:0:
256,192,175550,1,8,0:0:0:0:
256,192,175850,1,0,0:0:0:0:
256,192,176050,1,8,0:0:0:0:
256,192,176250,1,8,0:0:0:0:
256,192,176450,1,0,0:0:0:0:
256,192,176850,1,8,0:0:0:0:
256,192,177050,1,8,0:0:0:0:
256,192,177250,1,0,0:0:0:0:
256,192,177450,1,0,0:0:0:0:
256,192,177650,1,8,0:0:0:0:
256,192,179250,1,8,0:0:0:0:
256,192,179450,1,0,0:0:0:0:
256,192,179650,1,8,0:0:0:0:
256,192,179850,1,0,0:0:0:0:
256,192,180050,1,8,0:0:0:0:
256,192,180250,1,0,0:0:0:0:
256,192,180450,1,8,0:0:0:0:
256,192,180850,1,4,0:0:0:0:
256,192,181050,1,8,0:0:0:0:
256,192,181250,1,0,0:0:0:0:
256,192,181350,1,0,0:0:0:0:
256,192,181450,1,0,0:0:0:0:
256,192,181650,1,8,0:0:0:0:
256,192,181950,1,0,0:0:0:0:
256,192,182250,1,0,0:0:0:0:
256,192,182450,1,8,0:0:0:0:
256,192,182650,1,0,0:0:0:0:
256,192,182850,1,8,0:0:0:0:
256,192,182950,1,8,0:0:0:0:
256,192,183050,1,8,0:0:0:0:
256,192,183250,1,0,0:0:0:0:
256,192,183550,1,8,0:0:0:0:
256,192,183850,1,8,0:0:0:0:
256,192,184050,1,0,0:0:0:0:
256,192,184250,1,8,0:0:0:0:
256,192,184450,1,0,0:0:0:0:
256,192,184550,1,0,0:0:0:0:
256,192,184650,1,0,0:0:0:0:
256,192,184850,1,8,0:0:0:0:
256,192,185050,1,0,0:0:0:0:
256,192,185250,1,8,0:0:0:0:
256,192,185350,1,8,0:0:0:0:
256,192,185450,1,8,0:0:0:0:
256,192,185650,1,0,0:0:0:0:
256,192,186050,1,8,0:0:0:0:
256,192,186250,1,8,0:0:0:0:
256,192,186450,1,0,0:0:0:0:
256,192,187250,1,8,0:0:0:0:
256,192,187450,1,0,0:0:0:0:
256,192,187650,1,8,0:0:0:0:
256,192,187750,1,8,0:0:0:0:
256,192,187850,1,8,0:0:0:0:
256,192,188050,1,0,0:0:0:0:
256,192,188350,1,8,0:0:0:0:
256,192,188650,1,8,0:0:0:0:
256,192,188850,1,0,0:0:0:0:
256,192,189050,1,8,0:0:0:0:
256,192,189250,1,0,0:0:0:0:
256,192,189350,1,0,0:0:0:0:
256,192,189450,1,0,0:0:0:0:
256,192,189650,1,8,0:0:0:0:
256,192,189950,1,0,0:0:0:0:
256,192,190250,1,0,0:0:0:0:
256,192,190450,1,8,0:0:0:0:
256,192,190650,1,0,0:0:0:0:
256,192,190850,1,8,0:0:0:0:
256,192,190950,1,8,0:0:0:0:
256,192,191050,1,8,0:0:0:0:
256,192,191250,1,0,0:0:0:0:
256,192,191450,1,8,0:0:0:0:
256,192,191650,1,0,0:0:0:0:
256,192,191750,1,0,0:0:0:0:
256,192,191850,1,0,0:0:0:0:
256,192,192050,1,8,0:0:0:0:
256,192,192450,1,0,0:0:0:0:
256,192,192650,1,0,0:0:0:0:
256,192,192850,1,8,0:0:0:0:
256,192,193650,1,0,0:0:0:0:
256,192,193950,1,8,0:0:0:0:
256,192,194050,1,8,0:0:0:0:
256,192,194250,1,8,0:0:0:0:
256,192,194450,1,0,0:0:0:0:
256,192,195050,1,0,0:0:0:0:
256,192,195250,1,8,0:0:0:0:
256,192,195550,1,0,0:0:0:0:
256,192,195650,1,0,0:0:0:0:
256,192,195850,1,0,0:0:0:0:
256,192,196050,1,8,0:0:0:0:
256,192,196650,1,8,0:0:0:0:
256,192,196850,1,0,0:0:0:0:
256,192,196950,1,0,0:0:0:0:
256,192,197050,1,0,0:0:0:0:
256,192,197250,1,8,0:0:0:0:
256,192,197650,1,0,0:0:0:0:
256,192,197850,1,8,0:0:0:0:
256,192,198050,1,8,0:0:0:0:
256,192,198250,1,0,0:0:0:0:
256,192,198450,1,8,0:0:0:0:
256,192,198550,1,8,0:0:0:0:
256,192,198650,1,8,0:0:0:0:
256,192,198850,1,0,0:0:0:0:
256,192,199250,1,8,0:0:0:0:
256,192,200050,1,8,0:0:0:0:
256,192,200350,1,0,0:0:0:0:
256,192,200450,1,0,0:0:0:0:
256,192,200650,1,0,0:0:0:0:
256,192,200850,1,8,0:0:0:0:
256,192,201450,1,8,0:0:0:0:
256,192,201650,1,0,0:0:0:0:
256,192,201950,1,8,0:0:0:0:
256,192,202050,1,8,0:0:0:0:
256,192,202250,1,8,0:0:0:0:
256,192,202450,1,0,0:0:0:0:
256,192,203050,1,0,0:0:0:0:
256,192,203250,1,8,0:0:0:0:
256,192,203350,1,8,0:0:0:0:
256,192,203450,1,8,0:0:0:0:
256,192,203650,1,0,0:0:0:0:
256,192,204050,1,8,0:0:0:0:
256,192,204250,1,0,0:0:0:0:
256,192,204450,1,0,0:0:0:0:
256,192,204650,1,8,0:0:0:0:
256,192,204850,1,0,0:0:0:0:
256,192,204950,1,0,0:0:0:0:
256,192,205050,1,0,0:0:0:0:
256,192,205250,1,8,0:0:0:0:
256,192,205650,1,0,0:0:0:0:
256,192,206050,1,8,0:0:0:0:
256,192,206250,1,8,0:0:0:0:
256,192,206450,1,0,0:0:0:0:
256,192,206850,1,0,0:0:0:0:
256,192,207250,1,8,0:0:0:0:
256,192,207450,1,0,0:0:0:0:
256,192,208050,1,12,0:0:0:0:
256,192,208250,1,0,0:0:0:0:
256,192,208450,1,8,0:0:0:0:
256,192,208550,1,8,0:0:0:0:
256,192,208650,1,8,0:0:0:0:
256,192,208850,1,0,0:0:0:0:
256,192,209150,1,8,0:0:0:0:
256,192,209450,1,8,0:0:0:0:
256,192,209850,1,0,0:0:0:0:
256,192,210050,1,8,0:0:0:0:
256,192,210450,1,8,0:0:0:0:
256,192,210650,1,8,0:0:0:0:
256,192,210850,1,0,0:0:0:0:
256,192,211050,1,0,0:0:0:0:
256,192,211250,1,8,0:0:0:0:
256,192,211450,1,0,0:0:0:0:
256,192,211650,1,8,0:0:0:0:
256,192,211750,1,8,0:0:0:0:
256,192,211850,1,8,0:0:0:0:
256,192,212050,1,0,0:0:0:0:
256,192,212350,1,8,0:0:0:0:
256,192,212650,1,8,0:0:0:0:
256,192,213050,1,0,0:0:0:0:
256,192,213250,1,8,0:0:0:0:
256,192,213650,1,8,0:0:0:0:
256,192,213850,1,0,0:0:0:0:
256,192,214450,1,8,0:0:0:0:
256,192,214550,1,8,0:0:0:0:
256,192,214650,1,8,0:0:0:0:
256,192,214850,1,0,0:0:0:0:
256,192,215050,1,8,0:0:0:0:
256,192,215250,1,0,0:0:0:0:
256,192,215350,1,0,0:0:0:0:
256,192,215450,1,0,0:0:0:0:
256,192,215650,1,8,0:0:0:0:
256,192,216050,1,0,0:0:0:0:
256,192,216150,1,0,0:0:0:0:
256,192,216250,1,0,0:0:0:0:
256,192,216450,1,8,0:0:0:0:
256,192,216850,1,8,0:0:0:0:
256,192,217050,1,0,0:0:0:0:
256,192,217250,1,8,0:0:0:0:
256,192,217350,1,8,0:0:0:0:
256,192,217450,1,8,0:0:0:0:
256,192,217650,1,0,0:0:0:0:
256,192,218050,1,8,0:0:0:0:
256,192,218250,1,0,0:0:0:0:
256,192,218450,1,8,0:0:0:0:
256,192,218550,1,8,0:0:0:0:
256,192,218750,1,0,0:0:0:0:
256,192,218950,1,8,0:0:0:0:
256,192,219050,1,8,0:0:0:0:
256,192,219450,1,0,0:0:0:0:
256,192,219650,1,8,0:0:0:0:
256,192,219750,1,8,0:0:0:0:
256,192,219850,1,8,0:0:0:0:
256,192,220050,1,0,0:0:0:0:
256,192,220150,1,0,0:0:0:0:
256,192,220250,1,0,0:0:0:0:
256,192,220450,1,8,0:0:0:0:
256,192,220650,1,8,0:0:0:0:
