osu file format v14

[General]
AudioFilename: audio.mp3
AudioLeadIn: 0
PreviewTime: 56050
Countdown: 0
SampleSet: Normal
StackLeniency: 0.2
Mode: 1
LetterboxInBreaks: 0
WidescreenStoryboard: 0

[Editor]
Bookmarks: 16050,41650,56050,84850,97650,110450,124850,152050,158450,180850,208050
DistanceSpacing: 1.1
BeatDivisor: 1
GridSize: 32
TimelineZoom: 0.6000001

[Metadata]
Title:Hitogata
TitleUnicode:ヒトガタ
Artist:HIMEHINA
ArtistUnicode:HIMEHINA
Creator:Genjuro
Version:Kantan
Source:バーチャルさんはみている
Tags:pop electronic japanese jpop j-pop 藍の華 ainohana divine flowers anime virtual-san wa miteiru looking virtual youtuber vtuber tanaka hime 田中ヒメ suzuki hina 鈴木ヒナ humanoid
BeatmapID:2632290
BeatmapSetID:1265600

[Difficulty]
HPDrainRate:7
CircleSize:2
OverallDifficulty:3
ApproachRate:10
SliderMultiplier:1.4
SliderTickRate:1

[Events]
//Background and Video events
0,0,"bg.jpg",0,85
//Break Periods
2,158650,164400
//Storyboard Layer 0 (Background)
//Storyboard Layer 1 (Fail)
//Storyboard Layer 2 (Pass)
//Storyboard Layer 3 (Foreground)
//Storyboard Layer 4 (Overlay)
//Storyboard Sound Samples

[TimingPoints]
3250,400,4,1,0,100,1,0
56050,400,4,1,0,100,1,1
81650,-100,4,1,0,100,0,0
84850,400,4,1,0,100,1,1
97650,-100,4,1,0,100,0,0
124850,400,4,1,0,100,1,1
152050,400,4,1,0,100,1,0
158550,-100,4,1,0,75,0,0
167800,-100,4,1,0,50,0,0
168000,-100,4,1,0,75,0,0
171150,-100,4,1,0,100,0,0
180850,400,4,1,0,100,1,1
206450,-100,4,1,0,100,0,0
208050,400,4,1,0,100,1,1
220450,-100,4,1,0,100,0,0

[HitObjects]
256,192,3250,5,0,0:0:0:0:
256,192,4050,1,0,0:0:0:0:
256,192,4850,1,0,0:0:0:0:
256,192,5650,1,0,0:0:0:0:
256,192,6450,1,0,0:0:0:0:
256,192,7250,1,0,0:0:0:0:
256,192,8050,1,0,0:0:0:0:
256,192,9650,1,8,0:0:0:0:
256,192,10050,1,8,0:0:0:0:
256,192,10450,1,8,0:0:0:0:
256,192,11250,1,0,0:0:0:0:
256,192,12050,1,8,0:0:0:0:
256,192,12850,1,0,0:0:0:0:
256,192,13250,1,0,0:0:0:0:
256,192,13650,1,8,0:0:0:0:
256,192,14050,1,8,0:0:0:0:
256,192,15650,1,8,0:0:0:0:
256,192,16050,1,0,0:0:0:0:
256,192,16850,1,8,0:0:0:0:
256,192,17650,1,0,0:0:0:0:
256,192,18050,1,0,0:0:0:0:
256,192,18450,1,8,0:0:0:0:
256,192,19250,1,0,0:0:0:0:
256,192,20050,1,0,0:0:0:0:
256,192,20850,1,8,0:0:0:0:
256,192,22450,1,0,0:0:0:0:
256,192,22850,1,8,0:0:0:0:
256,192,23250,1,0,0:0:0:0:
256,192,24050,1,8,0:0:0:0:
256,192,24850,1,0,0:0:0:0:
256,192,25250,1,0,0:0:0:0:
256,192,25650,1,8,0:0:0:0:
256,192,26450,1,0,0:0:0:0:
256,192,27250,1,8,0:0:0:0:
256,192,28850,1,4,0:0:0:0:
256,192,29650,1,8,0:0:0:0:
256,192,30450,1,0,0:0:0:0:
256,192,30850,1,0,0:0:0:0:
256,192,31250,1,8,0:0:0:0:
256,192,32050,1,0,0:0:0:0:
256,192,32850,1,0,0:0:0:0:
256,192,33650,1,8,0:0:0:0:
256,192,35250,1,0,0:0:0:0:
256,192,35650,1,8,0:0:0:0:
256,192,36050,1,0,0:0:0:0:
256,192,36850,1,8,0:0:0:0:
256,192,37650,1,0,0:0:0:0:
256,192,38050,1,0,0:0:0:0:
256,192,38450,1,8,0:0:0:0:
256,192,38850,1,8,0:0:0:0:
256,192,39250,1,0,0:0:0:0:
256,192,40050,1,8,0:0:0:0:
256,192,41250,1,8,0:0:0:0:
256,192,41650,1,0,0:0:0:0:
256,192,42450,1,0,0:0:0:0:
256,192,43250,1,0,0:0:0:0:
256,192,44050,1,0,0:0:0:0:
256,192,44850,1,0,0:0:0:0:
256,192,45650,1,0,0:0:0:0:
256,192,46450,1,0,0:0:0:0:
256,192,48050,1,8,0:0:0:0:
256,192,48450,1,0,0:0:0:0:
256,192,48850,1,8,0:0:0:0:
256,192,49650,1,0,0:0:0:0:
256,192,50450,1,8,0:0:0:0:
256,192,51250,1,0,0:0:0:0:
256,192,51650,1,0,0:0:0:0:
256,192,52050,1,8,0:0:0:0:
256,192,52450,1,8,0:0:0:0:
256,192,52850,1,0,0:0:0:0:
256,192,53650,1,0,0:0:0:0:
256,192,54450,1,8,0:0:0:0:
256,192,56050,1,4,0:0:0:0:
256,192,56850,1,8,0:0:0:0:
256,192,57250,1,8,0:0:0:0:
256,192,57650,1,0,0:0:0:0:
256,192,58450,1,8,0:0:0:0:
256,192,59250,1,0,0:0:0:0:
256,192,59650,1,0,0:0:0:0:
256,192,60050,1,8,0:0:0:0:
256,192,60450,1,8,0:0:0:0:
256,192,60850,1,0,0:0:0:0:
256,192,62450,1,8,0:0:0:0:
256,192,63250,1,0,0:0:0:0:
256,192,63650,1,0,0:0:0:0:
256,192,64050,1,8,0:0:0:0:
256,192,64850,1,0,0:0:0:0:
256,192,65650,1,8,0:0:0:0:
256,192,66050,1,8,0:0:0:0:
256,192,66450,1,0,0:0:0:0:
256,192,66850,1,0,0:0:0:0:
256,192,67250,1,8,0:0:0:0:
256,192,68850,1,0,0:0:0:0:
256,192,69650,1,8,0:0:0:0:
256,192,70450,1,0,0:0:0:0:
256,192,71250,1,8,0:0:0:0:
256,192,72050,1,0,0:0:0:0:
256,192,72450,1,8,0:0:0:0:
256,192,72850,1,0,0:0:0:0:
256,192,73650,1,8,0:0:0:0:
256,192,75250,1,0,0:0:0:0:
256,192,76050,1,8,0:0:0:0:
256,192,76850,1,0,0:0:0:0:
256,192,77650,1,8,0:0:0:0:
256,192,78450,1,0,0:0:0:0:
256,192,78850,1,8,0:0:0:0:
256,192,79250,1,0,0:0:0:0:
256,192,80050,1,8,0:0:0:0:
256,192,81650,1,0,0:0:0:0:
256,192,82450,1,0,0:0:0:0:
256,192,83250,1,8,0:0:0:0:
256,192,84850,1,4,0:0:0:0:
256,192,85650,1,8,0:0:0:0:
256,192,86050,1,0,0:0:0:0:
256,192,86850,1,0,0:0:0:0:
256,192,87250,1,8,0:0:0:0:
256,192,88050,1,0,0:0:0:0:
256,192,88850,1,8,0:0:0:0:
256,192,89250,1,0,0:0:0:0:
256,192,90050,1,0,0:0:0:0:
256,192,91250,1,4,0:0:0:0:
256,192,92050,1,8,0:0:0:0:
256,192,92450,1,0,0:0:0:0:
256,192,93250,1,0,0:0:0:0:
256,192,93650,1,8,0:0:0:0:
256,192,94050,1,8,0:0:0:0:
256,192,94450,1,0,0:0:0:0:
256,192,95250,1,8,0:0:0:0:
256,192,95650,1,0,0:0:0:0:
256,192,96450,1,0,0:0:0:0:
256,192,97650,1,8,0:0:0:0:
256,192,98450,1,0,0:0:0:0:
256,192,98850,1,0,0:0:0:0:
256,192,99250,1,8,0:0:0:0:
256,192,100050,1,0,0:0:0:0:
256,192,100850,1,8,0:0:0:0:
256,192,101250,1,8,0:0:0:0:
256,192,101650,1,0,0:0:0:0:
256,192,102450,1,8,0:0:0:0:
256,192,104050,1,4,0:0:0:0:
256,192,104850,1,8,0:0:0:0:
256,192,105250,1,0,0:0:0:0:
256,192,105650,1,8,0:0:0:0:
256,192,106450,1,0,0:0:0:0:
256,192,107250,1,8,0:0:0:0:
256,192,107650,1,8,0:0:0:0:
256,192,108050,1,0,0:0:0:0:
256,192,108450,1,0,0:0:0:0:
256,192,108850,1,8,0:0:0:0:
256,192,110450,1,0,0:0:0:0:
256,192,111250,1,0,0:0:0:0:
256,192,112050,1,0,0:0:0:0:
256,192,112850,1,0,0:0:0:0:
256,192,113650,1,0,0:0:0:0:
256,192,114450,1,0,0:0:0:0:
256,192,115250,1,0,0:0:0:0:
256,192,116850,1,8,0:0:0:0:
256,192,117250,1,0,0:0:0:0:
256,192,117650,1,8,0:0:0:0:
256,192,118450,1,0,0:0:0:0:
256,192,119250,1,8,0:0:0:0:
256,192,120050,1,0,0:0:0:0:
256,192,120450,1,0,0:0:0:0:
256,192,120850,1,8,0:0:0:0:
256,192,121250,1,8,0:0:0:0:
256,192,121650,1,0,0:0:0:0:
256,192,122450,1,0,0:0:0:0:
256,192,123250,1,8,0:0:0:0:
256,192,124850,1,4,0:0:0:0:
256,192,125650,1,8,0:0:0:0:
256,192,126050,1,8,0:0:0:0:
256,192,126450,1,0,0:0:0:0:
256,192,127250,1,8,0:0:0:0:
256,192,128050,1,0,0:0:0:0:
256,192,128450,1,0,0:0:0:0:
256,192,128850,1,8,0:0:0:0:
256,192,129250,1,8,0:0:0:0:
256,192,129650,1,0,0:0:0:0:
256,192,131250,1,8,0:0:0:0:
256,192,132050,1,0,0:0:0:0:
256,192,132450,1,0,0:0:0:0:
256,192,132850,1,8,0:0:0:0:
256,192,133650,1,0,0:0:0:0:
256,192,134450,1,8,0:0:0:0:
256,192,134850,1,8,0:0:0:0:
256,192,135250,1,0,0:0:0:0:
256,192,135650,1,0,0:0:0:0:
256,192,136050,1,8,0:0:0:0:
256,192,137650,1,0,0:0:0:0:
256,192,138450,1,8,0:0:0:0:
256,192,139250,1,0,0:0:0:0:
256,192,140050,1,8,0:0:0:0:
256,192,140850,1,0,0:0:0:0:
256,192,141250,1,8,0:0:0:0:
256,192,141650,1,0,0:0:0:0:
256,192,142450,1,8,0:0:0:0:
256,192,144050,1,0,0:0:0:0:
256,192,144850,1,8,0:0:0:0:
256,192,145650,1,0,0:0:0:0:
256,192,146450,1,8,0:0:0:0:
256,192,147250,1,0,0:0:0:0:
256,192,147650,1,8,0:0:0:0:
256,192,148050,1,0,0:0:0:0:
256,192,148850,1,8,0:0:0:0:
256,192,150450,1,8,0:0:0:0:
256,192,150850,1,8,0:0:0:0:
256,192,151250,1,0,0:0:0:0:
256,192,151650,1,0,0:0:0:0:
256,192,152050,1,8,0:0:0:0:
256,192,152850,1,0,0:0:0:0:
256,192,153650,1,0,0:0:0:0:
256,192,154450,1,8,0:0:0:0:
256,192,154850,1,0,0:0:0:0:
256,192,155250,1,8,0:0:0:0:
256,192,156050,1,0,0:0:0:0:
256,192,156850,1,0,0:0:0:0:
256,192,157650,1,8,0:0:0:0:
256,192,158050,1,8,0:0:0:0:
256,192,158450,1,0,0:0:0:0:
256,192,164850,5,0,0:0:0:0:
256,192,165650,1,0,0:0:0:0:
256,192,166450,1,0,0:0:0:0:
256,192,167250,1,0,0:0:0:0:
256,192,168050,1,0,0:0:0:0:
256,192,168850,1,0,0:0:0:0:
256,192,169650,1,0,0:0:0:0:
256,192,171250,1,8,0:0:0:0:
256,192,172050,1,0,0:0:0:0:
256,192,172450,1,0,0:0:0:0:
256,192,172850,1,8,0:0:0:0:
256,192,173650,1,8,0:0:0:0:
256,192,174050,1,8,0:0:0:0:
256,192,174450,1,0,0:0:0:0:
256,192,175250,1,8,0:0:0:0:
256,192,176050,1,0,0:0:0:0:
256,192,176450,1,0,0:0:0:0:
256,192,176850,1,8,0:0:0:0:
256,192,177250,1,8,0:0:0:0:
256,192,177650,1,0,0:0:0:0:
256,192,179250,1,8,0:0:0:0:
256,192,179650,1,8,0:0:0:0:
256,192,180050,1,8,0:0:0:0:
256,192,180850,1,4,0:0:0:0:
256,192,181650,1,8,0:0:0:0:
256,192,182050,1,8,0:0:0:0:
256,192,182450,1,0,0:0:0:0:
256,192,183250,1,8,0:0:0:0:
256,192,184050,1,0,0:0:0:0:
256,192,184450,1,0,0:0:0:0:
256,192,184850,1,8,0:0:0:0:
256,192,185250,1,8,0:0:0:0:
256,192,185650,1,0,0:0:0:0:
256,192,187250,1,8,0:0:0:0:
256,192,188050,1,0,0:0:0:0:
256,192,188450,1,0,0:0:0:0:
256,192,188850,1,8,0:0:0:0:
256,192,189650,1,0,0:0:0:0:
256,192,190450,1,8,0:0:0:0:
256,192,190850,1,8,0:0:0:0:
256,192,191250,1,0,0:0:0:0:
256,192,191650,1,0,0:0:0:0:
256,192,192050,1,8,0:0:0:0:
256,192,193650,1,0,0:0:0:0:
256,192,194450,1,8,0:0:0:0:
256,192,195250,1,0,0:0:0:0:
256,192,196050,1,8,0:0:0:0:
256,192,196850,1,0,0:0:0:0:
256,192,197250,1,8,0:0:0:0:
256,192,197650,1,0,0:0:0:0:
256,192,198450,1,8,0:0:0:0:
256,192,200050,1,0,0:0:0:0:
256,192,200850,1,8,0:0:0:0:
256,192,201650,1,0,0:0:0:0:
256,192,202450,1,8,0:0:0:0:
256,192,203250,1,0,0:0:0:0:
256,192,203650,1,8,0:0:0:0:
256,192,204050,1,0,0:0:0:0:
256,192,204850,1,8,0:0:0:0:
256,192,206450,1,8,0:0:0:0:
256,192,206850,1,8,0:0:0:0:
256,192,207250,1,8,0:0:0:0:
256,192,208050,1,4,0:0:0:0:
256,192,208850,1,8,0:0:0:0:
256,192,209650,1,0,0:0:0:0:
256,192,210450,1,8,0:0:0:0:
256,192,210850,1,0,0:0:0:0:
256,192,211250,1,8,0:0:0:0:
256,192,212050,1,0,0:0:0:0:
256,192,212850,1,8,0:0:0:0:
256,192,214450,1,8,0:0:0:0:
256,192,214850,1,8,0:0:0:0:
256,192,215250,1,0,0:0:0:0:
256,192,216050,1,0,0:0:0:0:
256,192,216450,1,0,0:0:0:0:
256,192,216850,1,8,0:0:0:0:
256,192,217650,1,0,0:0:0:0:
256,192,218050,1,0,0:0:0:0:
256,192,218450,1,8,0:0:0:0:
256,192,218850,1,8,0:0:0:0:
256,192,219250,1,0,0:0:0:0:
256,192,220050,1,8,0:0:0:0:
256,192,220450,1,8,0:0:0:0:
