osu file format v14

[General]
AudioFilename: audio.mp3
AudioLeadIn: 0
PreviewTime: 49172
Countdown: 0
SampleSet: Soft
StackLeniency: 0.4
Mode: 2
LetterboxInBreaks: 0
WidescreenStoryboard: 1

[Editor]
Bookmarks: 5082,18571,29672,39524,49350,69011,78890,88475
DistanceSpacing: 1
BeatDivisor: 4
GridSize: 16
TimelineZoom: 1.9

[Metadata]
Title:Ichirin no Hana (TV Size)
TitleUnicode:一輪の花 (TV Size)
Artist:HIGH and MIGHTY COLOR
ArtistUnicode:HIGH and MIGHTY COLOR
Creator:Secre
Version:Rain
Source:BLEACH
Tags:chickenbible anime japanese opening op 3 rock jrock j-rock female vocalist vocals single metalcore Gō on Progressive 傲音プログレッシヴ go gou 2006 byakuya kuchiki 朽木 白哉
BeatmapID:2985855
BeatmapSetID:1448067

[Difficulty]
HPDrainRate:5
CircleSize:3.8
OverallDifficulty:9
ApproachRate:9
SliderMultiplier:1.78
SliderTickRate:2

[Events]
//Background and Video events
Video,-850,"Bleach.avi"
0,0,"hololive bankais when.jpg",0,0
//Break Periods
//Storyboard Layer 0 (Background)
//Storyboard Layer 1 (Fail)
//Storyboard Layer 2 (Pass)
//Storyboard Layer 3 (Foreground)
//Storyboard Layer 4 (Overlay)
//Storyboard Sound Samples

[TimingPoints]
15,327.868852459016,4,2,1,70,1,0
15,-100,4,2,1,70,0,0
344,309.278350515464,4,2,1,70,1,0
498,-100,4,2,1,70,0,0
962,297.029702970297,4,2,1,70,1,0
1556,306.122448979592,4,2,1,70,1,0
1862,-100,4,2,1,70,0,0
2166,319.148936170213,4,2,1,70,1,0
2166,-100,4,2,1,70,0,0
2797,303.030303030303,4,2,1,70,1,0
2797,-100,4,2,1,70,0,0
3410,304.568527918782,4,2,1,70,1,0
4019,315.78947368421,4,2,1,70,1,0
4492,-100,4,2,1,70,0,0
4961,314.96062992126,4,2,1,70,1,0
5579,297.029702970297,4,2,1,70,1,0
5876,306.122448979592,4,2,1,70,1,0
6182,300,4,2,1,70,1,0
6782,306.122448979592,4,2,1,70,1,0
7394,301.507537688442,4,2,1,70,1,0
8298,319.148936170213,4,2,1,70,1,0
8617,312.5,4,2,1,70,1,0
8617,-100,4,2,1,70,0,0
9085,306.122448979592,4,2,1,70,1,0
9085,-100,4,2,1,70,0,0
9544,306.90537084399,4,2,1,70,1,0
9544,-100,4,2,1,70,0,0
9850,303.030303030303,4,2,1,70,1,0
10153,314.13612565445,4,2,1,70,1,0
11092,306.122448979592,4,2,1,70,1,0
11704,301.507537688442,4,2,1,70,1,0
12005,310.880829015544,4,2,1,70,1,0
12315,304.568527918782,4,2,1,70,1,0
12924,309.278350515464,4,2,1,70,1,0
13542,315.78947368421,4,2,1,70,1,0
14015,327.868852459016,4,2,1,70,1,0
14015,-100,4,2,1,70,0,0
14342,241.935483870968,4,2,1,70,1,0
14342,-100,4,2,1,70,0,0
14465,300,4,2,1,70,1,0
14465,-100,4,2,1,70,0,0
14765,305.343511450382,4,2,1,70,1,0
14765,-100,4,2,1,70,0,0
15070,308.880308880309,4,2,1,70,1,0
15687,307.692307692308,4,2,1,70,1,0
15994,303.79746835443,4,2,1,70,1,0
16297,319.148936170212,4,2,1,70,1,0
16935,312.5,4,2,1,70,1,0
17560,285.714285714286,4,2,1,70,1,0
17845,304.568527918782,4,2,1,70,1,0
18149,301.507537688442,4,2,1,70,1,0
18450,309.278350515464,4,2,1,70,1,0
19078,325.20325203252,4,2,1,70,1,0
19718,307.692307692308,4,2,1,70,1,0
19871,-100,4,2,1,70,0,0
20333,305.343511450382,4,2,1,70,1,0
20333,-100,4,2,1,70,0,0
20943,309.278350515464,4,2,1,70,1,0
21561,301.507537688442,4,2,1,70,1,0
21862,-100,4,2,1,70,0,0
22164,317.460317460318,4,2,1,70,1,0
22322,-100,4,2,1,70,0,0
22798,307.692307692308,4,2,1,70,1,0
22798,-100,4,2,1,70,0,0
23413,304.955527318933,4,2,1,70,1,0
23413,-100,4,2,1,70,0,0
24022,310.880829015544,4,2,1,70,1,0
24022,-100,4,2,1,70,0,0
24332,319.148936170213,4,2,1,70,1,0
24651,305.343511450382,4,2,1,70,1,0
24803,-100,4,2,1,70,0,0
25261,306.122448979592,4,2,1,70,1,0
25414,-100,4,2,1,70,0,0
25873,303.79746835443,4,2,1,70,1,0
25873,-100,4,2,1,70,0,0
26480,310.880829015544,4,2,1,70,1,0
27101,306.90537084399,4,2,1,70,1,0
27254,-100,4,2,1,70,0,0
27714,306.122448979592,4,2,1,70,1,0
27867,-100,4,2,1,70,0,0
28326,302.267002518892,4,2,1,70,1,0
28326,-100,4,2,1,70,0,0
28930,315.78947368421,4,2,1,70,1,0
29245,306.122448979592,4,2,1,70,1,0
29551,317.460317460317,4,2,1,70,1,0
29709,-100,4,2,1,70,0,0
30662,-100,4,2,1,70,0,0
30968,-100,4,2,1,70,0,0
31414,307.692307692308,4,2,1,70,1,0
31414,-100,4,2,1,70,0,0
32029,300.751879699248,4,2,1,70,1,0
32029,-100,4,2,1,70,0,0
32640,310.880829015544,4,2,1,70,1,0
32785,-100,4,2,1,70,0,0
33096,313.315926892951,4,2,1,70,1,0
33096,-100,4,2,1,70,0,0
33722,299.625468164794,4,2,1,70,1,0
33871,-100,4,2,1,70,0,0
34471,314.136125654451,4,2,1,70,1,0
34471,-100,4,2,1,70,0,0
35099,312.5,4,2,1,70,1,0
35255,-100,4,2,1,70,0,0
35567,-100,4,2,1,70,0,0
36349,301.507537688442,4,2,1,70,1,0
36349,-100,4,2,1,70,0,0
36952,308.483290488432,4,2,1,70,1,0
37106,-100,4,2,1,70,0,0
38031,-99.009900990099,4,2,1,70,0,0
38185,304.568527918782,4,2,1,70,1,0
38794,-100,4,2,1,70,0,0
39250,352.941176470588,4,2,1,70,1,0
39425,306.90537084399,4,2,1,70,1,0
39885,-101.010101010101,4,2,1,70,0,0
40192,305.343511450382,4,2,1,70,1,0
40799,-100,4,2,1,70,0,0
41255,320.855614973262,4,2,1,70,1,0
42022,-100,4,2,1,70,0,0
42187,310.880829015544,4,2,1,70,1,0
42342,-93.8967136150235,4,2,1,70,0,0
42482,304.568527918782,4,2,1,70,1,0
43247,-100,4,2,1,70,0,0
43716,303.79746835443,4,2,1,70,1,0
44323,306.90537084399,4,2,1,70,1,0
44476,-100,4,2,1,70,0,0
44936,308.483290488432,4,2,1,70,1,0
45090,-100,4,2,1,70,0,0
45395,-100.502512562814,4,2,1,70,0,0
45708,-100,4,2,1,70,0,0
46177,317.460317460318,4,2,1,70,1,0
46811,304.568527918782,4,2,1,70,1,0
46811,-100,4,2,1,70,0,0
47420,306.122448979592,4,2,1,70,1,0
47420,-100,4,2,1,70,0,0
48032,294.117647058824,4,2,1,70,1,0
48326,305.343511450382,4,2,1,70,1,0
48936,315.789473684211,4,2,1,70,1,0
48936,-100,4,2,1,70,0,0
49263,277.136258660508,4,2,1,85,1,1
49539,292.682926829268,4,2,1,85,1,1
49831,309.278350515464,4,2,1,85,1,1
50449,304.568527918782,4,2,1,85,1,1
51058,310.880829015544,4,2,1,85,1,1
51675,302.267002518892,4,2,1,85,1,1
51977,315.789473684211,4,2,1,85,1,1
52592,307.692307692308,4,2,1,85,1,1
52899,-100,4,2,1,85,0,1
53213,304.568527918782,4,2,1,85,1,1
53365,-100,4,2,1,85,0,1
53517,312.5,4,2,1,85,1,1
53517,-100,4,2,1,85,0,1
54136,305.343511450382,4,2,1,85,1,1
54441,319.148936170213,4,2,1,85,1,1
54760,303.030303030303,4,2,1,85,1,1
55374,305.343511450382,4,2,1,85,1,1
55985,306.122448979592,4,2,1,85,1,1
56291,310.880829015544,4,2,1,85,1,1
56601,307.692307692308,4,2,1,85,1,1
57216,310.880829015544,4,2,1,85,1,1
57526,292.682926829268,4,2,1,85,1,1
57818,312.5,4,2,1,85,1,1
57818,-100,4,2,1,85,0,1
58281,303.030303030303,4,2,1,85,1,1
58281,-100,4,2,1,85,0,1
58745,298.507462686567,4,2,1,85,1,1
58745,-100,4,2,1,85,0,1
59043,315.78947368421,4,2,1,85,1,1
59674,320.855614973262,4,2,1,85,1,1
60315,304.568527918782,4,2,1,85,1,1
60924,310.880829015544,4,2,1,85,1,1
61533,306.90537084399,4,2,1,85,1,1
62156,295.566502463055,4,2,1,85,1,1
62754,311.688311688312,4,2,1,85,1,1
62754,-100,4,2,1,85,0,1
63211,329.67032967033,4,2,1,85,1,1
63375,-100,4,2,1,85,0,1
63540,301.507537688442,4,2,1,85,1,1
63986,302.267002518892,4,2,1,85,1,1
64614,311.688311688312,4,2,1,85,1,1
65243,301.507537688443,4,2,1,85,1,1
65846,308.483290488432,4,2,1,85,1,1
66468,302.267002518892,4,2,1,85,1,1
67064,310.077519379845,4,2,1,85,1,1
67684,295.566502463054,4,2,1,85,1,1
68127,307.692307692308,4,2,1,85,1,1
68581,317.460317460318,4,2,1,85,1,1
68898,-100,4,2,1,85,0,0
69189,316.622691292876,4,2,1,85,1,0
69822,310.880829015544,4,2,1,85,1,0
70607,303.797468354431,4,2,1,85,1,0
71062,307.692307692308,4,2,1,85,1,0
71369,306.122448979592,4,2,1,85,1,0
72287,308.483290488432,4,2,1,85,1,0
72595,317.460317460318,4,2,1,85,1,0
73052,314.136125654451,4,2,1,85,1,0
73529,306.122448979592,4,2,1,85,1,0
73829,319.148936170213,4,2,1,85,1,0
73829,-100,4,2,1,85,0,0
74467,303.030303030303,4,2,1,85,1,0
75072,312.5,4,2,1,85,1,0
75072,-100,4,2,1,85,0,0
75540,310.077519379845,4,2,1,85,1,0
75540,-100,4,2,1,85,0,0
76315,-100,4,2,1,85,0,0
76625,288.461538461539,4,2,1,85,1,0
76925,307.692307692308,4,2,1,85,1,0
77528,309.278350515464,4,2,1,85,1,0
77682,-100,4,2,1,85,0,0
78757,319.148936170213,4,2,1,85,1,0
78916,-100,4,2,1,85,0,0
79371,315.789473684211,4,2,1,85,1,0
79371,-100,4,2,1,85,0,0
80002,316.622691292876,4,2,1,85,1,0
80160,-100,4,2,1,85,0,0
80635,306.122448979592,4,2,1,85,1,0
80941,312.5,4,2,1,85,1,0
80941,-100,4,2,1,85,0,0
81253,307.692307692308,4,2,1,85,1,0
81406,-100,4,2,1,85,0,0
81868,316.622691292876,4,2,1,85,1,0
81868,-100,4,2,1,85,0,0
82501,306.122448979592,4,2,1,85,1,0
83113,295.566502463054,4,2,1,85,1,0
83113,-100,4,2,1,85,0,0
83711,301.507537688443,4,2,1,85,1,0
83861,-100,4,2,1,85,0,0
84327,310.880829015544,4,2,1,85,1,0
84327,-100,4,2,1,85,0,0
84948,308.483290488432,4,2,1,85,1,0
85256,-100,4,2,1,85,0,0
86798,313.315926892951,4,2,1,85,1,0
87424,306.122448979592,4,2,1,85,1,0
87424,-100,4,2,1,85,0,0
88036,301.507537688442,4,2,1,70,1,0
88342,-100,4,2,1,85,0,0

[Colours]
Combo1 : 197,45,247
Combo2 : 255,149,202
Combo3 : 250,88,221

[HitObjects]
349,223,15,6,0,L|356:94,1,89
189,168,344,1,8,3:0:0:0:
185,81,498,1,0,0:0:0:0:
247,21,653,1,0,0:0:0:0:
333,28,807,1,0,0:0:0:0:
168,182,962,6,0,L|164:70,1,89,8|0,3:0|0:0,0:0:0:0:
254,100,1259,2,0,L|260:-14,1,89
105,194,1556,2,0,L|96:74,1,89,8|0,3:0|0:0,0:0:0:0:
187,100,1862,2,0,L|94:105,1,89
260,212,2166,5,8,3:0:0:0:
338,182,2325,1,0,0:0:0:0:
337,99,2485,1,0,0:0:0:0:
258,72,2644,1,0,0:0:0:0:
89,181,2797,2,0,L|86:73,1,89,8|0,3:0|0:0,0:0:0:0:
168,82,3100,2,0,L|271:84,1,89
429,154,3410,6,0,L|433:272,1,89,8|0,3:0|0:0,0:0:0:0:
345,287,3714,2,0,L|470:284,1,89
266,189,4019,2,0,L|161:193,1,89,8|0,3:0|0:0,0:0:0:0:
427,232,4334,2,0,P|476:214|404:64,1,267,8|0,0:0|0:0,0:0:0:0:
178,184,4961,6,0,L|176:75,1,89,12|0,0:0|3:0,0:0:0:0:
321,109,5275,2,0,L|324:-4,1,89,8|0,0:0|3:0,0:0:0:0:
238,15,5579,1,8,0:0:0:0:
386,142,5727,2,0,L|394:36,1,89,0|8,3:0|0:0,0:0:0:0:
306,41,6029,1,0,3:0:0:0:
68,176,6182,6,0,L|57:80,1,89,8|0,0:0|3:0,0:0:0:0:
201,84,6482,2,0,L|216:209,1,89,8|0,0:0|3:0,0:0:0:0:
130,186,6782,1,8,0:0:0:0:
263,151,6935,2,0,L|262:39,1,89,0|8,3:0|0:0,0:0:0:0:
130,186,7241,1,0,3:0:0:0:
361,173,7394,6,0,L|364:71,1,89,8|0,0:0|3:0,0:0:0:0:
274,96,7695,2,0,L|270:6,1,89,8|0,0:0|3:0,0:0:0:0:
357,47,7997,2,0,L|360:-48,1,89,8|0,0:0|3:0,0:0:0:0:
223,119,8298,2,0,L|127:125,1,89,8|0,0:0|3:0,0:0:0:0:
378,216,8617,6,0,L|492:217,2,89,12|0|0,0:0|0:0|0:0,0:0:0:0:
127,140,9085,2,0,L|28:138,2,89,12|0|0,0:0|0:0|3:0,0:0:0:0:
376,161,9544,2,0,L|380:47,1,89,12|0,0:0|3:0,0:0:0:0:
133,124,9850,6,0,L|123:18,1,89,12|0,0:0|3:0,0:0:0:0:
270,41,10153,2,0,L|277:141,1,89,8|0,0:0|3:0,0:0:0:0:
133,121,10467,1,8,0:0:0:0:
270,41,10624,2,0,L|394:41,2,89,0|8|0,3:0|0:0|3:0,0:0:0:0:
29,193,11092,6,0,L|23:83,1,89,8|0,0:0|3:0,0:0:0:0:
167,118,11398,2,0,L|64:116,1,89,8|0,0:0|3:0,0:0:0:0:
318,194,11704,1,8,0:0:0:0:
194,142,11854,2,0,L|189:38,1,89,0|8,3:0|0:0,0:0:0:0:
318,194,12160,1,0,3:0:0:0:
80,163,12315,6,0,L|73:52,1,89,8|0,0:0|3:0,0:0:0:0:
166,72,12619,2,0,L|168:-25,1,89,8|0,0:0|3:0,0:0:0:0:
80,56,12924,2,0,L|75:-45,1,89,8|0,0:0|3:0,0:0:0:0:
166,72,13233,2,0,L|71:64,1,89,8|0,0:0|3:0,0:0:0:0:
319,109,13542,6,0,L|317:211,1,89,12|0,0:0|3:0,0:0:0:0:
228,197,13857,1,0,3:0:0:0:
465,129,14015,2,0,L|473:241,1,89,12|0,0:0|3:0,0:0:0:0:
367,228,14342,1,12,0:0:0:0:
144,181,14465,2,0,L|134:80,1,89,8|8,0:0|0:0,0:0:0:0:
381,133,14765,6,0,L|384:13,1,89,12|0,0:0|0:0,0:0:0:0:
253,37,15070,2,0,L|146:44,1,89,8|0,0:0|0:0,0:0:0:0:
288,135,15378,2,0,L|293:29,1,89,0|0,0:0|3:0,0:0:0:0:
161,62,15687,2,0,L|37:63,1,89,8|0,0:0|3:0,0:0:0:0:
324,158,15994,6,0,L|444:158,2,89,8|0|8,3:0|3:0|0:0,0:0:0:0:
82,191,16456,2,0,L|75:78,1,89,0|8,3:0|0:0,0:0:0:0:
165,87,16775,1,0,3:0:0:0:
406,179,16935,2,0,L|406:51,1,89,8|0,0:0|3:0,0:0:0:0:
177,134,17247,6,0,L|278:130,1,89,8|0,0:0|3:0,0:0:0:0:
132,218,17560,2,0,L|120:117,1,89,8|0,0:0|3:0,0:0:0:0:
242,107,17845,2,0,L|346:104,1,89,8|8,3:0|3:0,0:0:0:0:
196,59,18149,2,0,L|84:61,1,89,8|8,3:0|3:0,0:0:0:0:
426,242,18450,6,0,P|479:159|402:115,1,178,8|0,0:0|0:0,0:0:0:0:
283,141,19078,2,0,L|479:141,1,178
38,213,19718,5,12,0:0:0:0:
175,214,19871,2,0,P|174:121|46:105,1,178,8|0,3:0|0:0,0:0:0:0:
372,224,20333,1,8,0:0:0:0:
235,225,20486,2,0,P|236:132|364:116,1,178,8|0,3:0|0:0,0:0:0:0:
83,120,20943,5,8,0:0:0:0:
207,143,21097,2,0,L|431:138,1,178,8|0,3:0|0:0,0:0:0:0:
139,221,21561,2,0,L|128:115,1,89,8|0,0:0|0:0,0:0:0:0:
257,108,21862,2,0,L|150:112,1,89
474,213,22164,5,12,0:0:0:0:
337,214,22322,2,0,P|338:121|466:105,1,178,8|0,3:0|0:0,0:0:0:0:
140,224,22798,1,8,0:0:0:0:
277,225,22951,2,0,P|276:132|148:116,1,178,8|0,3:0|0:0,0:0:0:0:
429,120,23413,5,8,0:0:0:0:
305,143,23565,2,0,L|81:138,1,178,8|0,3:0|0:0,0:0:0:0:
373,221,24022,2,0,L|384:115,1,89,8|0,0:0|0:0,0:0:0:0:
255,108,24332,2,0,L|362:112,1,89,8|8,0:0|0:0,0:0:0:0:
101,201,24651,5,12,0:0:0:0:
230,127,24803,2,0,L|21:132,1,178,8|0,3:0|0:0,0:0:0:0:
359,201,25261,1,8,0:0:0:0:
230,127,25413,2,0,L|439:132,1,178,8|0,3:0|0:0,0:0:0:0:
141,161,25873,5,8,0:0:0:0:
270,142,26024,2,0,P|262:242|149:257,1,178,8|0,3:0|0:0,0:0:0:0:
441,144,26480,2,0,L|446:257,1,89,8|0,0:0|0:0,0:0:0:0:
318,262,26790,2,0,L|425:255,1,89,8|0,0:0|0:0,0:0:0:0:
138,148,27101,5,12,0:0:0:0:
267,113,27254,2,0,L|463:114,1,178,8|0,3:0|0:0,0:0:0:0:
170,87,27714,1,8,0:0:0:0:
297,202,27867,2,0,L|100:204,1,178,8|0,3:0|0:0,0:0:0:0:
393,131,28326,5,8,0:0:0:0:
269,148,28477,2,0,P|301:58|401:47,1,178,8|0,3:0|0:0,0:0:0:0:
147,69,28930,2,0,L|52:71,1,89,8|0,0:0|0:0,0:0:0:0:
294,156,29245,2,0,L|421:160,1,89,8|8,3:0|3:0,0:0:0:0:
156,228,29551,6,0,L|149:129,1,89,12|8,0:0|3:0,0:0:0:0:
302,131,30027,2,0,L|117:130,1,178,8|8,3:0|3:0,0:0:0:0:
302,128,30662,6,0,L|306:315,1,178
144,214,31297,1,8,3:0:0:0:
325,235,31414,2,0,P|419:178|304:135,1,267,8|0,0:0|0:0,0:0:0:0:
94,163,32029,6,0,L|82:61,1,89,8|8,3:0|3:0,0:0:0:0:
259,90,32480,1,8,3:0:0:0:
36,187,32640,2,0,L|30:72,1,89,8|8,0:0|3:0,0:0:0:0:
205,158,33096,6,0,L|25:157,2,178,0|0|8,0:0|0:0|3:0,0:0:0:0:
429,103,33871,2,0,P|497:168|401:281,1,267,8|0,0:0|0:0,0:0:0:0:
186,189,34471,6,0,L|181:84,1,89,8|8,3:0|3:0,0:0:0:0:
351,94,34942,1,8,3:0:0:0:
96,198,35099,2,0,L|88:84,1,89,8|8,0:0|3:0,0:0:0:0:
266,123,35567,6,0,L|460:121,2,178,0|0|8,0:0|0:0|3:0,0:0:0:0:
21,274,36349,2,0,P|28:174|187:117,1,267,8|0,0:0|0:0,0:0:0:0:
406,193,36952,6,0,L|416:70,1,89,8|8,3:0|3:0,0:0:0:0:
244,99,37414,1,8,3:0:0:0:
472,78,37568,2,0,L|484:193,1,89,8|8,0:0|3:0,0:0:0:0:
311,219,38031,6,0,L|494:217,2,178,0|0|8,0:0|0:0|3:0,0:0:0:0:
83,244,38794,2,0,L|71:119,1,89,8|8,0:0|3:0,0:0:0:0:
310,129,39098,2,0,L|418:131,1,89,8|8,0:0|0:0,0:0:0:0:
132,197,39425,6,0,L|128:88,1,89,12|8,0:0|3:0,0:0:0:0:
418,155,39885,2,0,L|222:156,2,176.219999462219,8|8|8,3:0|3:0|3:0,0:0:0:0:
240,155,40802,6,0,L|454:154,1,178,8|8,3:0|3:0,0:0:0:0:
156,266,41255,2,0,P|91:200|207:96,1,267,8|0,0:0|0:0,0:0:0:0:
442,78,41896,6,0,L|450:215,1,89,8|8,3:0|3:0,0:0:0:0:
154,198,42342,2,0,L|356:195,1,178,8|8,3:0|3:0,0:0:0:0:
156,198,42938,1,8,3:0:0:0:
331,195,43243,6,0,L|117:194,1,178,8|8,3:0|3:0,0:0:0:0:
410,274,43716,2,0,P|485:220|378:104,1,267,8|0,0:0|0:0,0:0:0:0:
171,127,44323,6,0,L|50:129,1,89,8|8,3:0|3:0,0:0:0:0:
357,58,44783,2,0,L|371:304,1,178,8|8,3:0|3:0,0:0:0:0:
199,283,45398,6,0,L|180:62,1,178,8|8,3:0|3:0,0:0:0:0:
354,82,46015,1,8,3:0:0:0:
110,207,46177,2,0,P|41:143|141:29,1,267,8|0,0:0|0:0,0:0:0:0:
370,144,46811,6,0,L|370:20,1,89,8|8,3:0|3:0,0:0:0:0:
193,78,47267,1,8,3:0:0:0:
430,137,47420,2,0,L|435:13,1,89,8|8,0:0|3:0,0:0:0:0:
311,56,47726,2,0,L|415:54,1,89,0|8,0:0|3:0,0:0:0:0:
148,215,48032,6,0,L|150:98,1,89,8|8,0:0|0:0,0:0:0:0:
282,115,48326,2,0,L|384:112,1,89,8|8,0:0|3:0,0:0:0:0:
129,117,48631,2,0,L|123:17,1,89,0|0,3:0|3:0,0:0:0:0:
353,43,48936,2,0,L|453:44,1,89,8|0,0:0|0:0,0:0:0:0:
157,208,49263,6,0,L|153:92,1,89,4|0,0:0|0:0,0:0:0:0:
279,113,49539,2,0,L|285:1,1,89,8|0,0:0|3:0,0:0:0:0:
159,27,49831,1,8,0:0:0:0:
283,24,49985,2,0,L|283:139,1,89,0|8,3:0|0:0,0:0:0:0:
159,27,50294,1,0,3:0:0:0:
403,174,50449,6,0,L|414:57,1,89,8|0,0:0|3:0,0:0:0:0:
281,71,50753,2,0,L|167:73,1,89,8|0,0:0|3:0,0:0:0:0:
427,183,51058,1,8,0:0:0:0:
300,140,51213,2,0,L|292:38,1,89,0|8,3:0|0:0,0:0:0:0:
421,42,51524,1,0,3:0:0:0:
180,185,51675,6,0,L|63:189,1,89,8|0,0:0|3:0,0:0:0:0:
215,252,51977,2,0,L|314:246,1,89,8|0,0:0|3:0,0:0:0:0:
172,147,52292,2,0,L|76:154,1,89,8|0,0:0|3:0,0:0:0:0:
329,108,52592,2,0,L|426:107,1,89,8|0,0:0|3:0,0:0:0:0:
134,169,52899,6,0,L|116:67,1,89,12|0,0:0|3:0,0:0:0:0:
212,52,53213,1,8,0:0:0:0:
458,180,53365,2,0,L|457:50,1,89,0|8,3:0|0:0,0:0:0:0:
375,79,53673,1,0,3:0:0:0:
136,113,53829,2,0,L|27:115,1,89,8|0,0:0|3:0,0:0:0:0:
355,208,54136,6,0,L|359:92,1,89,12|0,0:0|3:0,0:0:0:0:
233,113,54441,2,0,L|227:1,1,89,8|0,0:0|3:0,0:0:0:0:
353,27,54760,1,8,0:0:0:0:
229,24,54911,2,0,L|229:139,1,89,0|8,3:0|0:0,0:0:0:0:
353,27,55214,1,0,3:0:0:0:
109,174,55374,6,0,L|98:57,1,89,8|0,0:0|3:0,0:0:0:0:
231,71,55679,2,0,L|345:73,1,89,8|0,0:0|3:0,0:0:0:0:
85,183,55984,1,8,0:0:0:0:
212,140,56138,2,0,L|220:38,1,89,0|8,3:0|0:0,0:0:0:0:
91,42,56446,1,0,3:0:0:0:
332,185,56601,6,0,L|449:189,1,89,8|0,0:0|3:0,0:0:0:0:
297,252,56908,2,0,L|198:246,1,89,8|0,0:0|3:0,0:0:0:0:
340,147,57216,2,0,L|436:154,1,89,8|0,0:0|3:0,0:0:0:0:
183,108,57526,2,0,L|86:107,1,89,8|0,0:0|3:0,0:0:0:0:
378,169,57818,6,0,L|396:67,1,89,12|0,0:0|3:0,0:0:0:0:
300,52,58130,1,0,3:0:0:0:
54,180,58281,2,0,L|55:50,1,89,12|0,0:0|3:0,0:0:0:0:
137,79,58584,1,0,3:0:0:0:
376,113,58745,2,0,L|485:115,1,89,12|0,0:0|3:0,0:0:0:0:
209,202,59043,6,0,L|206:99,1,89,12|0,0:0|3:0,0:0:0:0:
339,117,59358,2,0,L|345:1,1,89,8|0,0:0|3:0,0:0:0:0:
98,125,59674,1,8,0:0:0:0:
227,92,59834,2,0,L|227:199,1,89,0|8,3:0|0:0,0:0:0:0:
98,125,60155,1,0,3:0:0:0:
345,194,60315,6,0,L|460:193,1,89,8|0,0:0|3:0,0:0:0:0:
299,114,60619,2,0,L|198:111,1,89,8|0,0:0|3:0,0:0:0:0:
450,117,60924,1,8,0:0:0:0:
321,103,61079,2,0,L|313:-2,1,89,0|8,3:0|0:0,0:0:0:0:
441,10,61390,1,0,3:0:0:0:
205,190,61533,6,0,L|88:197,1,89,8|0,0:0|3:0,0:0:0:0:
242,276,61839,2,0,L|356:268,1,89,8|0,0:0|3:0,0:0:0:0:
202,137,62156,2,0,L|90:141,1,89,8|0,0:0|3:0,0:0:0:0:
351,113,62451,2,0,L|453:114,1,89,8|0,0:0|3:0,0:0:0:0:
159,67,62754,6,0,L|47:69,2,89,4|0|8,0:0|3:0|0:0,0:0:0:0:
427,52,63211,2,0,L|430:173,1,89,4|8,0:0|0:0,0:0:0:0:
333,156,63540,1,0,3:0:0:0:
96,144,63690,2,0,L|85:37,1,89,8|0,0:0|3:0,0:0:0:0:
324,77,63986,6,0,L|200:83,1,89,12|0,0:0|3:0,0:0:0:0:
367,98,64288,2,0,L|372:196,1,89,8|0,0:0|3:0,0:0:0:0:
89,176,64614,1,8,0:0:0:0:
226,72,64769,2,0,L|235:177,1,89,0|8,3:0|0:0,0:0:0:0:
89,176,65081,1,0,3:0:0:0:
328,185,65243,6,0,L|331:62,1,89,8|0,0:0|3:0,0:0:0:0:
189,98,65544,2,0,L|178:-14,1,89,8|0,0:0|3:0,0:0:0:0:
299,20,65846,1,8,0:0:0:0:
172,149,66000,2,0,L|169:47,1,89,0|8,3:0|0:0,0:0:0:0:
299,20,66308,1,0,3:0:0:0:
55,147,66468,6,0,L|50:27,1,89,8|0,0:0|3:0,0:0:0:0:
188,72,66770,2,0,L|188:-37,1,89,8|0,0:0|3:0,0:0:0:0:
317,111,67064,2,0,L|319:-12,1,89,8|0,0:0|3:0,0:0:0:0:
181,42,67374,2,0,L|68:43,1,89,8|0,0:0|3:0,0:0:0:0:
346,182,67684,6,0,L|348:67,1,89,12|0,0:0|3:0,0:0:0:0:
223,88,67979,1,0,3:0:0:0:
465,131,68127,2,0,L|465:15,1,89,12|0,0:0|3:0,0:0:0:0:
378,38,68434,1,0,3:0:0:0:
146,133,68581,2,0,L|41:132,1,89,12|0,0:0|3:0,0:0:0:0:
317,194,68898,6,0,L|322:75,1,89,12|0,0:0|0:0,0:0:0:0:
205,96,69189,2,0,L|195:-6,1,89,8|0,0:0|0:0,0:0:0:0:
329,39,69505,2,0,L|330:-63,1,89,0|0,0:0|3:0,0:0:0:0:
95,94,69822,2,0,L|83:-13,1,89,8|0,0:0|0:0,0:0:0:0:
334,94,70132,6,0,L|234:92,2,89,0|0|8,0:0|0:0|0:0,0:0:0:0:
99,213,70607,2,0,L|199:211,2,89,0|0|0,0:0|0:0|3:0,0:0:0:0:
322,142,71062,2,0,L|455:145,1,89,8|0,0:0|0:0,0:0:0:0:
135,154,71369,6,0,L|118:30,1,89,0|0,3:0|0:0,0:0:0:0:
247,55,71675,2,0,L|136:58,1,89,8|0,0:0|0:0,0:0:0:0:
407,187,71981,2,0,L|424:63,1,89,0|0,0:0|3:0,0:0:0:0:
295,88,72287,2,0,L|406:91,1,89,8|0,0:0|3:0,0:0:0:0:
167,237,72595,6,0,L|160:143,1,89,12|0,0:0|3:0,0:0:0:0:
292,113,72912,1,0,3:0:0:0:
71,148,73052,2,0,L|59:37,1,89,12|0,0:0|3:0,0:0:0:0:
153,29,73366,1,0,3:0:0:0:
388,106,73529,2,0,L|489:105,1,89,12|0,0:0|3:0,0:0:0:0:
204,257,73829,6,0,P|147:198|236:149,1,178,4|8,0:0|0:0,0:0:0:0:
334,126,74307,1,0,0:0:0:0:
196,114,74467,2,0,L|186:6,1,89,0|0,0:0|3:0,0:0:0:0:
317,26,74770,2,0,L|419:27,1,89,8|0,0:0|3:0,0:0:0:0:
123,184,75072,6,0,L|31:181,2,89,12|0|0,0:0|3:0|3:0,0:0:0:0:
372,123,75540,2,0,L|377:235,1,89,12|0,0:0|3:0,0:0:0:0:
248,219,75850,1,0,3:0:0:0:
468,102,76005,2,0,L|475:216,1,89,12|0,0:0|3:0,0:0:0:0:
213,113,76315,6,0,L|100:116,1,89,12|0,0:0|3:0,0:0:0:0:
264,216,76625,2,0,L|376:216,1,89,8|0,0:0|3:0,0:0:0:0:
129,125,76925,2,0,L|55:124,2,59.3333333333333,8|8|8,0:0|0:0|0:0,0:0:0:0:
298,117,77232,2,0,L|301:32,1,59.3333333333333,8|8,0:0|0:0,0:0:0:0:
237,47,77437,1,8,0:0:0:0:
415,248,77528,6,0,L|414:59,1,178,12|0,0:0|0:0,0:0:0:0:
240,90,78146,2,0,L|51:89,1,178
460,199,78757,5,12,0:0:0:0:
334,228,78916,2,0,L|326:15,1,178,8|0,3:0|0:0,0:0:0:0:
450,37,79371,1,8,0:0:0:0:
178,203,79528,2,0,L|174:-6,1,178,8|0,3:0|0:0,0:0:0:0:
303,27,80002,5,8,3:0:0:0:
60,179,80160,2,0,L|55:-5,1,178,8|0,3:0|0:0,0:0:0:0:
298,126,80635,2,0,L|406:124,1,89,8|8,0:0|3:0,0:0:0:0:
164,55,80941,2,0,L|40:57,1,89
347,237,81253,5,12,0:0:0:0:
221,193,81406,2,0,L|217:-7,1,178,8|0,3:0|0:0,0:0:0:0:
340,20,81868,1,8,0:0:0:0:
86,217,82026,2,0,L|78:8,1,178,8|0,3:0|0:0,0:0:0:0:
311,133,82501,6,0,L|316:22,1,89,8|8,3:0|3:0,0:0:0:0:
184,60,82807,2,0,L|176:-52,1,89
429,128,83113,1,8,0:0:0:0:
306,135,83260,2,0,L|296:35,1,89,8|0,3:0|0:0,0:0:0:0:
422,29,83556,1,8,0:0:0:0:
125,228,83711,5,4,0:0:0:0:
250,211,83861,2,0,L|251:23,1,178,8|0,0:0|0:0,0:0:0:0:
125,228,84327,1,8,0:0:0:0:
367,303,84482,2,0,L|373:98,1,178,8|0,3:0|0:0,0:0:0:0:
243,122,84948,5,8,0:0:0:0:
486,218,85102,2,0,L|491:14,1,178,8|0,0:0|0:0,0:0:0:0:
224,65,85564,2,0,L|108:71,1,89,8|8,0:0|3:0,0:0:0:0:
362,172,85873,2,0,L|458:167,1,89,0|8,0:0|0:0,0:0:0:0:
211,180,86181,5,12,0:0:0:0:
336,158,86336,2,0,L|337:-44,1,178,8|0,0:0|0:0,0:0:0:0:
211,180,86798,1,8,0:0:0:0:
459,90,86954,2,0,L|465:295,1,178,8|0,3:0|0:0,0:0:0:0:
227,162,87424,6,0,L|216:66,1,89,8|0,3:0|0:0,0:0:0:0:
345,77,87730,2,0,L|351:-40,1,89
94,132,88036,2,0,L|206:131,1,89,12|8,0:0|0:0,0:0:0:0:
433,124,88337,6,0,P|475:163|310:332,1,356,12|0,0:0|0:0,0:0:0:0:
256,192,89242,12,0,91051,0:0:0:0:
