osu file format v14

[General]
AudioFilename: audio.mp3
AudioLeadIn: 0
PreviewTime: -1
Countdown: 1
SampleSet: Normal
StackLeniency: 0.7
Mode: 0
LetterboxInBreaks: 0
WidescreenStoryboard: 0

[Editor]
DistanceSpacing: 0.8
BeatDivisor: 2
GridSize: 32
TimelineZoom: 1

[Metadata]
Title:Less Than Zero
TitleUnicode:Less Than Zero
Artist:HIBIKILLA
ArtistUnicode:HIBIKILLA
Creator:Amlink
Version:good music d face
Source:
Tags:
BeatmapID:2011322
BeatmapSetID:960694

[Difficulty]
HPDrainRate:5
CircleSize:5
OverallDifficulty:6
ApproachRate:5
SliderMultiplier:1
SliderTickRate:1

[Events]
//Background and Video events
0,0,"unknown (71).png",0,0
//Break Periods
2,72595,101807
//Storyboard Layer 0 (Background)
//Storyboard Layer 1 (Fail)
//Storyboard Layer 2 (Pass)
//Storyboard Layer 3 (Foreground)
//Storyboard Sound Samples

[TimingPoints]
518.102040816327,244.897959183673,4,1,0,100,1,0

[HitObjects]
24,93,1130,5,0,0:0:0:0:
24,93,1252,1,0,0:0:0:0:
24,93,1375,1,0,0:0:0:0:
24,93,1497,1,0,0:0:0:0:
256,192,2722,12,0,7130,0:0:0:0:
256,192,7497,12,0,11660,0:0:0:0:
256,192,12150,12,0,16558,0:0:0:0:
256,192,17783,12,0,22926,0:0:0:0:
148,112,23783,5,0,0:0:0:0:
148,112,24150,1,0,0:0:0:0:
148,112,24273,1,0,0:0:0:0:
148,112,24395,1,0,0:0:0:0:
148,112,24518,1,0,0:0:0:0:
148,112,24640,1,0,0:0:0:0:
148,112,24762,1,0,0:0:0:0:
148,112,24885,1,0,0:0:0:0:
148,112,25007,1,0,0:0:0:0:
148,112,25130,1,0,0:0:0:0:
148,112,25252,1,0,0:0:0:0:
148,112,25375,1,0,0:0:0:0:
148,112,25497,1,0,0:0:0:0:
148,112,25620,1,0,0:0:0:0:
148,112,25742,1,0,0:0:0:0:
148,112,25865,1,0,0:0:0:0:
148,112,25987,1,0,0:0:0:0:
148,112,26109,1,0,0:0:0:0:
148,112,26232,1,0,0:0:0:0:
148,112,26354,1,0,0:0:0:0:
269,123,26722,1,0,0:0:0:0:
144,110,27089,1,0,0:0:0:0:
266,134,27456,1,0,0:0:0:0:
151,117,27824,1,0,0:0:0:0:
271,124,28191,1,0,0:0:0:0:
154,101,28558,1,0,0:0:0:0:
267,120,28926,1,0,0:0:0:0:
160,149,29293,1,0,0:0:0:0:
266,93,29660,1,0,0:0:0:0:
468,166,30273,1,0,0:0:0:0:
431,113,31742,1,0,0:0:0:0:
208,60,32477,1,0,0:0:0:0:
120,112,34191,5,0,0:0:0:0:
247,121,34558,1,0,0:0:0:0:
294,223,34926,1,0,0:0:0:0:
198,18,35660,1,0,0:0:0:0:
256,99,36028,1,0,0:0:0:0:
188,138,36273,1,0,0:0:0:0:
293,353,37007,5,0,0:0:0:0:
339,236,37375,1,0,0:0:0:0:
215,215,37742,1,0,0:0:0:0:
331,205,38109,1,0,0:0:0:0:
383,201,38232,1,0,0:0:0:0:
383,201,38477,1,0,0:0:0:0:
340,201,38599,1,0,0:0:0:0:
282,201,38722,1,0,0:0:0:0:
209,201,38967,1,0,0:0:0:0:
168,201,39089,1,0,0:0:0:0:
98,203,39334,1,0,0:0:0:0:
212,203,39701,1,0,0:0:0:0:
81,105,40191,5,0,0:0:0:0:
212,136,40558,1,0,0:0:0:0:
187,260,40926,1,0,0:0:0:0:
240,136,41293,1,0,0:0:0:0:
317,190,42273,5,0,0:0:0:0:
89,112,43742,5,0,0:0:0:0:
320,146,44477,1,0,0:0:0:0:
94,197,45211,1,0,0:0:0:0:
202,182,45579,1,0,0:0:0:0:
314,171,45946,1,0,0:0:0:0:
118,69,46681,1,0,0:0:0:0:
208,120,47048,1,0,0:0:0:0:
282,163,47293,1,0,0:0:0:0:
381,206,47660,1,0,0:0:0:0:
255,195,48028,1,0,0:0:0:0:
184,189,48273,1,0,0:0:0:0:
186,151,48395,1,0,0:0:0:0:
249,137,48640,1,0,0:0:0:0:
291,142,48762,1,0,0:0:0:0:
294,245,49130,1,0,0:0:0:0:
183,218,49497,1,0,0:0:0:0:
146,187,49620,1,0,0:0:0:0:
207,147,49865,1,0,0:0:0:0:
257,152,49987,1,0,0:0:0:0:
328,150,50232,1,0,0:0:0:0:
370,177,50354,1,0,0:0:0:0:
395,231,50599,1,0,0:0:0:0:
355,238,50722,1,0,0:0:0:0:
299,238,50844,1,0,0:0:0:0:
224,233,51089,1,0,0:0:0:0:
176,212,51211,1,0,0:0:0:0:
261,201,51456,1,0,0:0:0:0:
321,189,51701,1,0,0:0:0:0:
117,162,52314,1,0,0:0:0:0:
237,178,52681,1,0,0:0:0:0:
347,164,53048,1,0,0:0:0:0:
258,126,53293,1,0,0:0:0:0:
116,139,53783,1,0,0:0:0:0:
155,137,53905,1,0,0:0:0:0:
206,141,54028,1,0,0:0:0:0:
264,151,54273,1,0,0:0:0:0:
235,172,54395,1,0,0:0:0:0:
195,185,54518,1,0,0:0:0:0:
142,195,54640,1,0,0:0:0:0:
84,221,54885,1,0,0:0:0:0:
115,222,55007,1,0,0:0:0:0:
159,227,55130,1,0,0:0:0:0:
223,268,55375,1,0,0:0:0:0:
169,274,55497,1,0,0:0:0:0:
107,282,55742,1,0,0:0:0:0:
234,71,56477,1,0,0:0:0:0:
197,132,56722,1,0,0:0:0:0:
152,158,56844,1,0,0:0:0:0:
117,221,57089,1,0,0:0:0:0:
164,219,57211,1,0,0:0:0:0:
221,218,57334,1,0,0:0:0:0:
258,167,57579,1,0,0:0:0:0:
258,167,57701,1,0,0:0:0:0:
249,219,57824,1,0,0:0:0:0:
250,289,58069,1,0,0:0:0:0:
238,331,58191,1,0,0:0:0:0:
340,44,60762,1,0,0:0:0:0:
340,44,60885,1,0,0:0:0:0:
276,68,61130,1,0,0:0:0:0:
25,238,62109,1,0,0:0:0:0:
68,209,62232,1,0,0:0:0:0:
139,179,62477,1,0,0:0:0:0:
238,170,62844,1,0,0:0:0:0:
277,189,62967,1,0,0:0:0:0:
325,226,63211,1,0,0:0:0:0:
253,268,63456,1,0,0:0:0:0:
190,270,63701,1,0,0:0:0:0:
190,270,63824,1,0,0:0:0:0:
199,199,64069,1,0,0:0:0:0:
202,138,64314,1,0,0:0:0:0:
224,63,64558,1,0,0:0:0:0:
224,63,64681,1,0,0:0:0:0:
303,111,64926,1,0,0:0:0:0:
368,72,65171,1,0,0:0:0:0:
436,144,65538,1,0,0:0:0:0:
333,92,65905,1,0,0:0:0:0:
310,191,66273,1,0,0:0:0:0:
302,145,66395,1,0,0:0:0:0:
240,107,66640,1,0,0:0:0:0:
274,143,66762,1,0,0:0:0:0:
277,211,67007,1,0,0:0:0:0:
282,255,67130,1,0,0:0:0:0:
295,316,67375,1,0,0:0:0:0:
311,361,67497,1,0,0:0:0:0:
271,266,67865,1,0,0:0:0:0:
290,209,68109,1,0,0:0:0:0:
299,250,68232,1,0,0:0:0:0:
349,234,68354,1,0,0:0:0:0:
422,235,68599,1,0,0:0:0:0:
349,234,68967,1,0,0:0:0:0:
91,46,69946,1,0,0:0:0:0:
129,134,70191,1,0,0:0:0:0:
137,219,70436,1,0,0:0:0:0:
137,219,70681,1,0,0:0:0:0:
143,248,70803,1,0,0:0:0:0:
188,266,70926,1,0,0:0:0:0:
260,281,71171,1,0,0:0:0:0:
314,269,71293,1,0,0:0:0:0:
389,229,71538,1,0,0:0:0:0:
418,166,71783,1,0,0:0:0:0:
436,110,71905,1,0,0:0:0:0:
436,110,72150,1,0,0:0:0:0:
436,110,72273,1,0,0:0:0:0:
428,64,72395,1,0,0:0:0:0:
311,206,103007,5,0,0:0:0:0:
324,106,103375,1,0,0:0:0:0:
324,106,103497,1,0,0:0:0:0:
256,107,103742,1,0,0:0:0:0:
207,193,104109,1,0,0:0:0:0:
321,230,104477,1,0,0:0:0:0:
362,113,104844,1,0,0:0:0:0:
252,133,105211,1,0,0:0:0:0:
208,153,105334,1,0,0:0:0:0:
213,221,105579,1,0,0:0:0:0:
315,194,105946,1,0,0:0:0:0:
335,177,106069,1,0,0:0:0:0:
346,153,106191,1,0,0:0:0:0:
353,122,106314,1,0,0:0:0:0:
205,136,106803,1,0,0:0:0:0:
169,140,106926,1,0,0:0:0:0:
193,190,107048,1,0,0:0:0:0:
261,229,107293,1,0,0:0:0:0:
322,226,107538,1,0,0:0:0:0:
383,170,107783,1,0,0:0:0:0:
241,126,108273,1,0,0:0:0:0:
121,143,108640,1,0,0:0:0:0:
246,187,109007,1,0,0:0:0:0:
263,323,109375,1,0,0:0:0:0:
151,262,109742,1,0,0:0:0:0:
280,212,110232,1,0,0:0:0:0:
196,193,110477,1,0,0:0:0:0:
314,172,110844,1,0,0:0:0:0:
205,157,111211,1,0,0:0:0:0:
316,154,111579,1,0,0:0:0:0:
209,148,111946,1,0,0:0:0:0:
255,150,112069,1,0,0:0:0:0:
205,157,112314,1,0,0:0:0:0:
247,154,112436,1,0,0:0:0:0:
192,123,112681,1,0,0:0:0:0:
239,135,112803,1,0,0:0:0:0:
239,135,113048,1,0,0:0:0:0:
290,141,113171,1,0,0:0:0:0:
192,123,113416,1,0,0:0:0:0:
290,141,113538,1,0,0:0:0:0:
224,129,113783,1,0,0:0:0:0:
272,134,113905,1,0,0:0:0:0:
215,110,114150,1,0,0:0:0:0:
272,134,114273,1,0,0:0:0:0:
215,117,114518,1,0,0:0:0:0:
249,123,114640,1,0,0:0:0:0:
215,110,114762,1,0,0:0:0:0:
360,137,115252,1,0,0:0:0:0:
266,121,115497,1,0,0:0:0:0:
347,84,115742,1,0,0:0:0:0:
293,109,115987,1,0,0:0:0:0:
261,122,116109,1,0,0:0:0:0:
219,105,116232,1,0,0:0:0:0:
293,109,116599,1,0,0:0:0:0:
336,185,116844,1,0,0:0:0:0:
216,228,117211,1,0,0:0:0:0:
156,206,117456,1,0,0:0:0:0:
109,188,117579,1,0,0:0:0:0:
231,164,117946,1,0,0:0:0:0:
304,168,118191,1,0,0:0:0:0:
347,157,118314,1,0,0:0:0:0:
225,128,118681,1,0,0:0:0:0:
185,176,118926,1,0,0:0:0:0:
284,199,119293,1,0,0:0:0:0:
284,199,119416,1,0,0:0:0:0:
234,191,119538,1,0,0:0:0:0:
217,139,119660,1,0,0:0:0:0:
353,175,120150,1,0,0:0:0:0:
316,186,120273,1,0,0:0:0:0:
257,186,120395,1,0,0:0:0:0:
161,180,120640,1,0,0:0:0:0:
62,216,121007,1,0,0:0:0:0:
93,215,121130,1,0,0:0:0:0:
216,207,121497,1,0,0:0:0:0:
340,205,121865,1,0,0:0:0:0:
311,127,122109,1,0,0:0:0:0:
291,165,122232,1,0,0:0:0:0:
221,141,122477,1,0,0:0:0:0:
180,135,122599,1,0,0:0:0:0:
80,123,122967,1,0,0:0:0:0:
163,188,123334,1,0,0:0:0:0:
243,201,123579,1,0,0:0:0:0:
288,208,123701,1,0,0:0:0:0:
356,173,123946,1,0,0:0:0:0:
322,189,124069,1,0,0:0:0:0:
344,118,124314,1,0,0:0:0:0:
309,127,124436,1,0,0:0:0:0:
253,121,124558,1,0,0:0:0:0:
190,128,124803,1,0,0:0:0:0:
210,207,125048,1,0,0:0:0:0:
296,212,125293,1,0,0:0:0:0:
296,212,125416,1,0,0:0:0:0:
296,212,125660,1,0,0:0:0:0:
296,212,125783,1,0,0:0:0:0:
419,188,126150,1,0,0:0:0:0:
295,167,126518,1,0,0:0:0:0:
197,174,126762,1,0,0:0:0:0:
289,289,127252,1,0,0:0:0:0:
267,245,127375,1,0,0:0:0:0:
238,186,127620,1,0,0:0:0:0:
253,217,127742,1,0,0:0:0:0:
253,217,127865,1,0,0:0:0:0:
253,217,128232,1,0,0:0:0:0:
129,189,128599,1,0,0:0:0:0:
150,125,128844,1,0,0:0:0:0:
177,146,128967,1,0,0:0:0:0:
302,176,129334,1,0,0:0:0:0:
353,129,129579,1,0,0:0:0:0:
299,134,129701,1,0,0:0:0:0:
188,171,130069,1,0,0:0:0:0:
240,201,130314,1,0,0:0:0:0:
240,201,130436,1,0,0:0:0:0:
240,201,130558,1,0,0:0:0:0:
240,201,130803,1,0,0:0:0:0:
240,201,131048,1,0,0:0:0:0:
107,181,131416,1,0,0:0:0:0:
188,168,131660,1,0,0:0:0:0:
229,149,131783,1,0,0:0:0:0:
336,151,132150,1,0,0:0:0:0:
343,231,132395,1,0,0:0:0:0:
333,183,132518,1,0,0:0:0:0:
308,264,132762,1,0,0:0:0:0:
255,231,133007,1,0,0:0:0:0:
220,234,133130,1,0,0:0:0:0:
220,234,133252,1,0,0:0:0:0:
220,234,133497,1,0,0:0:0:0:
171,224,133620,1,0,0:0:0:0:
171,224,133987,1,0,0:0:0:0:
273,200,134354,1,0,0:0:0:0:
241,181,134477,1,0,0:0:0:0:
241,181,134599,1,0,0:0:0:0:
311,192,134844,1,0,0:0:0:0:
212,170,135211,1,0,0:0:0:0:
212,170,135334,1,0,0:0:0:0:
212,170,135579,1,0,0:0:0:0:
212,170,135701,1,0,0:0:0:0:
212,170,135824,1,0,0:0:0:0:
212,170,136069,1,0,0:0:0:0:
212,170,136314,1,0,0:0:0:0:
212,170,136681,1,0,0:0:0:0:
212,170,136926,1,0,0:0:0:0:
212,170,137171,1,0,0:0:0:0:
248,169,137293,1,0,0:0:0:0:
142,182,137660,1,0,0:0:0:0:
186,174,137783,1,0,0:0:0:0:
319,170,138150,1,0,0:0:0:0:
232,255,138518,1,0,0:0:0:0:
188,207,138762,1,0,0:0:0:0:
192,155,138885,1,0,0:0:0:0:
270,162,139130,1,0,0:0:0:0:
317,190,139252,1,0,0:0:0:0:
231,277,139620,1,0,0:0:0:0:
306,177,139987,1,0,0:0:0:0:
362,173,140109,1,0,0:0:0:0:
324,238,140354,1,0,0:0:0:0:
220,208,140722,1,0,0:0:0:0:
225,159,140844,1,0,0:0:0:0:
292,131,141089,1,0,0:0:0:0:
341,152,141211,1,0,0:0:0:0:
326,218,141456,1,0,0:0:0:0:
226,214,141824,1,0,0:0:0:0:
312,181,142069,1,0,0:0:0:0:
208,170,142436,1,0,0:0:0:0:
315,157,142803,1,0,0:0:0:0:
209,202,143171,1,0,0:0:0:0:
161,209,143293,1,0,0:0:0:0:
269,129,143660,1,0,0:0:0:0:
337,170,143905,1,0,0:0:0:0:
330,228,144150,1,0,0:0:0:0:
291,231,144273,1,0,0:0:0:0:
233,225,144395,1,0,0:0:0:0:
183,171,144640,1,0,0:0:0:0:
225,151,144762,1,0,0:0:0:0:
286,154,145007,1,0,0:0:0:0:
305,258,145375,1,0,0:0:0:0:
266,263,145497,1,0,0:0:0:0:
212,245,145620,1,0,0:0:0:0:
161,188,145865,1,0,0:0:0:0:
176,148,145987,1,0,0:0:0:0:
296,169,146354,1,0,0:0:0:0:
308,229,146599,1,0,0:0:0:0:
161,188,146722,1,0,0:0:0:0:
210,189,146844,1,0,0:0:0:0:
280,188,147089,1,0,0:0:0:0:
182,164,147456,1,0,0:0:0:0:
285,159,147824,1,0,0:0:0:0:
193,137,148069,1,0,0:0:0:0:
324,160,148436,1,0,0:0:0:0:
262,153,148681,1,0,0:0:0:0:
193,137,149048,1,0,0:0:0:0:
233,152,149171,1,0,0:0:0:0:
360,178,149538,1,0,0:0:0:0:
291,171,149783,1,0,0:0:0:0:
247,168,149905,1,0,0:0:0:0:
192,165,150028,1,0,0:0:0:0:
247,168,150395,1,0,0:0:0:0:
330,174,150640,1,0,0:0:0:0:
291,171,150762,1,0,0:0:0:0:
215,153,151007,1,0,0:0:0:0:
215,153,151375,1,0,0:0:0:0:
215,153,151497,1,0,0:0:0:0:
215,153,151620,1,0,0:0:0:0:
215,153,151742,5,0,0:0:0:0:
262,170,151865,1,0,0:0:0:0:
384,224,152232,1,0,0:0:0:0:
320,209,152477,1,0,0:0:0:0:
278,207,152599,1,0,0:0:0:0:
217,201,152844,1,0,0:0:0:0:
239,183,152967,1,0,0:0:0:0:
342,137,153334,1,0,0:0:0:0:
316,273,153701,1,0,0:0:0:0:
257,156,154069,1,0,0:0:0:0:
273,207,154191,1,0,0:0:0:0:
171,169,154558,1,0,0:0:0:0:
161,122,154681,1,0,0:0:0:0:
281,133,155048,1,0,0:0:0:0:
338,138,155171,1,0,0:0:0:0:
200,119,155660,1,0,0:0:0:0:
277,122,155905,1,0,0:0:0:0:
160,113,156273,1,0,0:0:0:0:
278,120,156640,1,0,0:0:0:0:
278,120,157007,1,0,0:0:0:0:
278,120,157130,1,0,0:0:0:0:
278,120,157375,1,0,0:0:0:0:
278,120,157620,1,0,0:0:0:0:
278,120,157742,1,0,0:0:0:0:
278,120,157987,1,0,0:0:0:0:
278,120,158109,1,0,0:0:0:0:
195,119,158354,1,0,0:0:0:0:
322,119,158722,1,0,0:0:0:0:
202,108,159089,1,0,0:0:0:0:
321,111,159456,1,0,0:0:0:0:
212,103,159824,1,0,0:0:0:0:
303,180,160191,1,0,0:0:0:0:
184,206,160558,1,0,0:0:0:0:
195,88,160926,1,0,0:0:0:0:
312,95,161293,1,0,0:0:0:0:
408,129,161660,1,0,0:0:0:0:
473,218,162028,1,0,0:0:0:0:
510,312,162395,1,0,0:0:0:0:
421,306,162640,1,0,0:0:0:0:
286,282,163007,1,0,0:0:0:0:
166,244,163375,1,0,0:0:0:0:
92,135,163742,1,0,0:0:0:0:
213,112,164109,1,0,0:0:0:0:
339,135,164477,1,0,0:0:0:0:
455,175,164844,1,0,0:0:0:0:
121,171,165824,1,0,0:0:0:0:
458,182,166803,1,0,0:0:0:0:
147,165,167783,1,0,0:0:0:0:
499,161,168885,1,0,0:0:0:0:
27,164,170354,1,0,0:0:0:0:
329,256,171334,1,0,0:0:0:0:
151,176,171946,1,0,0:0:0:0:
262,170,172314,1,0,0:0:0:0:
166,149,172558,1,0,0:0:0:0:
294,143,172926,1,0,0:0:0:0:
247,248,173293,1,0,0:0:0:0:
157,179,173660,1,0,0:0:0:0:
258,119,174028,1,0,0:0:0:0:
294,232,174395,1,0,0:0:0:0:
175,203,174762,1,0,0:0:0:0:
243,110,175130,1,0,0:0:0:0:
335,171,175497,1,0,0:0:0:0:
241,208,175865,1,0,0:0:0:0:
169,134,176232,1,0,0:0:0:0:
230,138,176477,1,0,0:0:0:0:
262,138,176599,1,0,0:0:0:0:
158,151,176967,1,0,0:0:0:0:
82,193,177211,1,0,0:0:0:0:
183,256,177579,1,0,0:0:0:0:
297,226,177946,1,0,0:0:0:0:
399,174,178314,1,0,0:0:0:0:
292,134,178681,1,0,0:0:0:0:
181,131,179048,1,0,0:0:0:0:
111,203,179416,1,0,0:0:0:0:
213,227,179783,1,0,0:0:0:0:
313,231,180150,1,0,0:0:0:0:
226,193,180395,1,0,0:0:0:0:
139,91,180762,1,0,0:0:0:0:
264,127,181130,1,0,0:0:0:0:
150,191,181497,1,0,0:0:0:0:
96,229,181742,1,0,0:0:0:0:
148,225,181865,1,0,0:0:0:0:
219,226,182109,1,0,0:0:0:0:
267,226,182232,1,0,0:0:0:0:
330,226,182477,1,0,0:0:0:0:
365,226,182599,1,0,0:0:0:0:
408,208,182722,1,0,0:0:0:0:
300,152,183089,1,0,0:0:0:0:
244,156,183211,1,0,0:0:0:0:
96,133,183701,1,0,0:0:0:0:
193,146,183946,1,0,0:0:0:0:
295,208,184314,1,0,0:0:0:0:
391,125,184681,1,0,0:0:0:0:
286,173,185048,1,0,0:0:0:0:
173,121,185416,1,0,0:0:0:0:
287,156,185783,1,0,0:0:0:0:
296,268,186150,1,0,0:0:0:0:
246,281,186273,1,0,0:0:0:0:
168,279,186518,1,0,0:0:0:0:
159,217,186762,1,0,0:0:0:0:
192,200,186885,1,0,0:0:0:0:
390,283,187497,1,0,0:0:0:0:
263,294,187865,1,0,0:0:0:0:
261,164,188232,1,0,0:0:0:0:
389,138,188599,1,0,0:0:0:0:
352,191,188844,1,0,0:0:0:0:
76,167,191048,1,0,0:0:0:0:
215,179,191538,1,0,0:0:0:0:
309,150,191905,1,0,0:0:0:0:
309,150,192028,1,0,0:0:0:0:
318,201,192150,1,0,0:0:0:0:
266,248,192395,1,0,0:0:0:0:
230,241,192518,1,0,0:0:0:0:
251,125,192885,1,0,0:0:0:0:
271,224,193252,1,0,0:0:0:0:
184,188,193497,1,0,0:0:0:0:
285,152,193865,1,0,0:0:0:0:
250,178,193987,1,0,0:0:0:0:
250,178,194109,1,0,0:0:0:0:
126,138,194477,1,0,0:0:0:0:
181,154,194599,1,0,0:0:0:0:
312,173,194967,1,0,0:0:0:0:
200,226,195334,1,0,0:0:0:0:
200,226,195579,1,0,0:0:0:0:
245,234,195701,1,0,0:0:0:0:
362,224,196069,1,0,0:0:0:0:
301,144,196436,1,0,0:0:0:0:
198,166,196803,1,0,0:0:0:0:
172,171,196926,1,0,0:0:0:0:
172,171,197048,1,0,0:0:0:0:
155,159,197171,1,0,0:0:0:0:
155,159,197293,1,0,0:0:0:0:
278,171,197660,1,0,0:0:0:0:
325,175,197783,1,0,0:0:0:0:
373,180,197905,1,0,0:0:0:0:
276,184,198150,1,0,0:0:0:0:
373,180,198640,1,0,0:0:0:0:
373,180,198762,1,0,0:0:0:0:
254,169,199130,1,0,0:0:0:0:
136,164,199497,1,0,0:0:0:0:
82,161,199620,1,0,0:0:0:0:
4,149,199865,1,0,0:0:0:0:
53,124,199987,1,0,0:0:0:0:
211,120,200477,1,0,0:0:0:0:
261,119,200599,1,0,0:0:0:0:
338,163,200844,1,0,0:0:0:0:
253,134,201089,1,0,0:0:0:0:
277,220,201334,1,0,0:0:0:0:
277,220,201701,1,0,0:0:0:0:
277,220,201946,1,0,0:0:0:0:
277,220,202069,1,0,0:0:0:0:
210,242,202314,1,0,0:0:0:0:
249,227,202436,1,0,0:0:0:0:
249,227,202558,1,0,0:0:0:0:
249,227,202803,1,0,0:0:0:0:
249,227,202926,1,0,0:0:0:0:
250,159,203171,1,0,0:0:0:0:
243,204,203293,1,0,0:0:0:0:
231,148,203416,1,0,0:0:0:0:
215,227,203660,1,0,0:0:0:0:
226,171,203783,1,0,0:0:0:0:
303,67,204150,1,0,0:0:0:0:
235,184,204518,1,0,0:0:0:0:
355,140,204885,1,0,0:0:0:0:
230,178,205252,1,0,0:0:0:0:
265,112,205497,1,0,0:0:0:0:
351,160,205865,1,0,0:0:0:0:
336,6,206354,1,0,0:0:0:0:
259,98,206722,1,0,0:0:0:0:
233,154,206967,1,0,0:0:0:0:
266,143,207089,1,0,0:0:0:0:
321,154,207211,1,0,0:0:0:0:
266,143,207456,1,0,0:0:0:0:
233,154,207579,1,0,0:0:0:0:
288,148,207701,1,0,0:0:0:0:
233,154,208191,1,0,0:0:0:0:
269,151,208314,1,0,0:0:0:0:
269,151,208558,1,0,0:0:0:0:
233,154,208803,1,0,0:0:0:0:
304,150,209048,1,0,0:0:0:0:
269,151,209171,1,0,0:0:0:0:
304,150,209416,1,0,0:0:0:0:
304,150,209538,1,0,0:0:0:0:
196,141,209905,1,0,0:0:0:0:
308,114,210273,1,0,0:0:0:0:
270,207,210640,1,0,0:0:0:0:
178,164,211007,1,0,0:0:0:0:
269,114,211375,1,0,0:0:0:0:
270,151,211497,1,0,0:0:0:0:
234,26,211865,1,0,0:0:0:0:
245,85,212109,1,0,0:0:0:0:
235,133,212232,1,0,0:0:0:0:
208,191,212477,1,0,0:0:0:0:
237,180,212599,1,0,0:0:0:0:
281,191,212722,1,0,0:0:0:0:
237,180,212967,1,0,0:0:0:0:
235,133,213089,1,0,0:0:0:0:
292,115,213334,1,0,0:0:0:0:
305,144,213456,1,0,0:0:0:0:
233,206,213701,1,0,0:0:0:0:
281,166,213824,1,0,0:0:0:0:
281,166,213946,1,0,0:0:0:0:
281,166,214069,1,0,0:0:0:0:
281,166,214191,1,0,0:0:0:0:
414,130,214558,1,0,0:0:0:0:
348,132,214803,1,0,0:0:0:0:
348,132,214926,1,0,0:0:0:0:
348,132,215048,1,0,0:0:0:0:
348,132,215293,1,0,0:0:0:0:
121,101,216028,1,0,0:0:0:0:
148,104,216150,1,0,0:0:0:0:
190,111,216273,1,0,0:0:0:0:
227,119,216395,1,0,0:0:0:0:
307,144,216640,1,0,0:0:0:0:
245,128,216885,1,0,0:0:0:0:
348,154,217252,1,0,0:0:0:0:
311,144,217375,1,0,0:0:0:0:
186,115,217742,1,0,0:0:0:0:
293,189,217865,1,0,0:0:0:0:
293,189,217987,1,0,0:0:0:0:
293,189,218109,1,0,0:0:0:0:
261,197,218232,1,0,0:0:0:0:
293,189,218354,1,0,0:0:0:0:
209,127,219579,1,0,0:0:0:0:
209,127,219701,1,0,0:0:0:0:
197,148,219824,1,0,0:0:0:0:
197,148,219946,1,0,0:0:0:0:
197,148,220069,1,0,0:0:0:0:
218,199,220191,1,0,0:0:0:0:
202,162,220314,1,0,0:0:0:0:
202,162,220436,1,0,0:0:0:0:
202,162,220558,1,0,0:0:0:0:
202,162,220681,1,0,0:0:0:0:
202,162,220926,1,0,0:0:0:0:
202,162,221048,1,0,0:0:0:0:
202,162,221171,1,0,0:0:0:0:
202,162,221293,1,0,0:0:0:0:
202,162,221416,1,0,0:0:0:0:
202,162,221538,1,0,0:0:0:0:
202,162,221660,1,0,0:0:0:0:
202,162,221905,1,0,0:0:0:0:
202,162,222028,1,0,0:0:0:0:
202,162,222150,1,0,0:0:0:0:
202,162,222273,1,0,0:0:0:0:
202,162,222395,1,0,0:0:0:0:
223,201,222518,1,0,0:0:0:0:
505,249,223375,1,0,0:0:0:0:
381,230,223742,1,0,0:0:0:0:
262,212,224109,1,0,0:0:0:0:
262,212,224477,1,0,0:0:0:0:
262,212,224722,1,0,0:0:0:0:
262,212,225334,1,0,0:0:0:0:
262,212,225579,1,0,0:0:0:0:
262,212,225701,1,0,0:0:0:0:
262,212,225946,1,0,0:0:0:0:
262,212,226069,1,0,0:0:0:0:
335,199,226314,1,0,0:0:0:0:
282,196,226436,1,0,0:0:0:0:
224,196,226558,1,0,0:0:0:0:
334,139,226926,1,0,0:0:0:0:
230,194,227293,1,0,0:0:0:0:
340,199,227660,1,0,0:0:0:0:
246,231,227905,1,0,0:0:0:0:
162,235,228150,1,0,0:0:0:0:
256,192,229007,12,0,231211,0:0:0:0:
256,192,231579,12,0,233660,0:0:0:0:
256,192,234762,12,0,238681,0:0:0:0:
256,192,239660,12,0,245171,0:0:0:0:
243,196,246885,5,0,0:0:0:0:
243,196,247007,1,0,0:0:0:0:
243,196,247375,1,0,0:0:0:0:
243,196,247620,1,0,0:0:0:0:
243,196,247742,1,0,0:0:0:0:
243,196,247865,1,0,0:0:0:0:
243,196,247987,1,0,0:0:0:0:
243,196,248109,1,0,0:0:0:0:
